osu file format v14

[General]
AudioFilename: audio.ogg
AudioLeadIn: 0
PreviewTime: 201583
Countdown: 0
SampleSet: Drum
StackLeniency: 0.6
Mode: 0
LetterboxInBreaks: 0
WidescreenStoryboard: 1

[Editor]
Bookmarks: 19000,34999,50999,72333,93667,109667,128333,139000,160333,176333,192333,207000,224333,245666
DistanceSpacing: 0.4
BeatDivisor: 3
GridSize: 16
TimelineZoom: 2.3

[Metadata]
Title:Wandering, Never Wondering (There Exists A Shade)
TitleUnicode:Wandering, Never Wondering (There Exists A Shade)
Artist:Foreground Eclipse
ArtistUnicode:Foreground Eclipse
Creator:GYGY
Version:Expert Collab
Source:東方地霊殿 ~ Subterranean Animism.
Tags:Anxient bongo Kowari Xevia merami meramipop teto japanese melodic metal video game ZUN 東方project touhou chireiden th11 SA koishi komeiji ラストリモート 東方地霊殿 4th album extra stage theme last remote Stories That Last Through The Sleepless Nights c85 comiket 85 FGE FE
BeatmapID:3797165
BeatmapSetID:1785945

[Difficulty]
HPDrainRate:5
CircleSize:4
OverallDifficulty:8
ApproachRate:8.5
SliderMultiplier:1.4
SliderTickRate:1

[Events]
//Background and Video events
0,0,"cc6ba5ef3e546dba8d1cc6eb71792f653f6bea13 (2).jpg",0,0
//Break Periods
//Storyboard Layer 0 (Background)
//Storyboard Layer 1 (Fail)
//Storyboard Layer 2 (Pass)
//Storyboard Layer 3 (Foreground)
//Storyboard Layer 4 (Overlay)
//Storyboard Sound Samples

[TimingPoints]
834,333.333333333333,4,3,1,45,1,0
834,-100,4,3,1,45,0,0
1167,-100,4,3,35,45,0,0
1833,-100,4,3,1,45,0,0
3000,333.333333333333,3,3,3,45,1,0
3000,-100,3,3,3,45,0,0
10333,-100,3,3,3,55,0,0
10666,-100,3,3,3,65,0,0
10999,-100,3,3,5,75,0,0
11333,-100,3,3,13,75,0,0
11666,-100,3,3,24,75,0,0
11999,-100,3,3,6,75,0,0
12333,-100,3,3,13,75,0,0
12666,-100,3,3,24,75,0,0
12999,-100,3,3,6,75,0,0
13333,-100,3,3,13,75,0,0
13666,-100,3,3,24,75,0,0
13999,-100,3,3,6,75,0,0
14333,-100,3,3,13,75,0,0
14666,-100,3,3,24,75,0,0
14999,-100,3,3,5,75,0,0
15333,-100,3,3,13,75,0,0
15666,-100,3,3,24,75,0,0
15999,-100,3,3,6,75,0,0
16333,-100,3,3,13,75,0,0
16666,-100,3,3,24,75,0,0
16999,-100,3,3,13,75,0,0
17333,-100,3,3,24,75,0,0
17666,-100,3,3,6,75,0,0
18666,-100,3,3,5,75,0,0
18999,-100,3,3,2,60,0,0
19083,-100,3,3,1,60,0,0
22999,-100,3,3,2,60,0,0
23083,-100,3,3,1,60,0,0
26999,-100,3,3,2,60,0,0
27083,-100,3,3,1,60,0,0
30999,-100,3,3,2,60,0,0
31083,-100,3,3,1,60,0,0
35000,333.333333333333,4,3,5,65,1,0
35000,-100,4,3,5,65,0,0
35083,-100,4,3,13,65,0,0
35333,-100,4,3,5,65,0,0
35416,-100,4,3,13,65,0,0
35666,-100,4,3,5,65,0,0
35749,-100,4,3,13,65,0,0
36000,-100,4,3,5,65,0,0
36083,-100,4,3,13,65,0,0
36166,-100,4,3,2,65,0,0
36250,-100,4,3,13,65,0,0
36333,-100,4,3,24,65,0,0
36416,-100,4,3,35,65,0,0
36666,-100,4,3,5,65,0,0
36750,-100,4,3,2,65,0,0
37000,-100,4,3,5,65,0,0
37166,-100,4,3,13,65,0,0
37333,-100,4,3,5,65,0,0
37750,-100,4,3,13,65,0,0
38000,-100,4,3,5,65,0,0
38083,-100,4,3,13,65,0,0
38333,-100,4,3,5,65,0,0
38416,-100,4,3,13,65,0,0
38666,-100,4,3,5,65,0,0
38749,-100,4,3,13,65,0,0
38999,-100,4,3,2,65,0,0
39416,-100,4,3,13,65,0,0
39666,-100,4,3,5,65,0,0
39749,-100,4,3,13,65,0,0
39999,-100,4,3,1,65,0,0
40333,-100,4,3,5,65,0,0
40416,-100,4,3,13,65,0,0
40666,-100,4,3,5,65,0,0
40749,-100,4,3,13,65,0,0
40999,-100,4,3,5,65,0,0
41082,-100,4,3,13,65,0,0
41333,-100,4,3,5,65,0,0
41416,-100,4,3,13,65,0,0
41499,-100,4,3,2,65,0,0
41583,-100,4,3,13,65,0,0
41666,-100,4,3,24,65,0,0
41749,-100,4,3,35,65,0,0
41999,-100,4,3,5,65,0,0
42083,-100,4,3,2,65,0,0
42249,-100,4,3,5,65,0,0
42499,-100,4,3,35,65,0,0
42999,-100,4,3,5,65,0,0
43083,-100,4,3,13,65,0,0
43333,-100,4,3,5,65,0,0
43417,-100,4,3,13,65,0,0
43666,-100,4,3,5,65,0,0
43750,-100,4,3,13,65,0,0
43999,-100,4,3,5,65,0,0
44083,-100,4,3,13,65,0,0
44333,-100,4,3,5,65,0,0
44417,-100,4,3,13,65,0,0
44999,-100,4,3,24,65,0,0
45333,-100,4,3,35,65,0,0
45666,-100,4,3,2,50,0,0
45749,-100,4,3,1,50,0,0
46166,-125,4,3,1,50,0,0
48333,-125,4,3,2,50,0,0
48416,-125,4,3,1,50,0,0
50999,-125,4,3,3,50,0,0
60999,-125,4,3,24,50,0,0
61166,-125,4,3,3,50,0,0
70333,-125,4,3,3,56,0,0
70666,-125,4,3,3,62,0,0
70999,-125,4,3,3,74,0,0
71666,-125,4,3,3,84,0,0
72333,-100,4,3,2,66,0,0
72416,-100,4,3,3,66,0,0
92333,-100,4,3,13,66,0,0
92666,-100,4,3,1,66,0,0
92999,-100,4,3,35,66,0,0
93333,-100,4,3,2,66,0,0
93667,333.333333333333,3,3,2,66,1,0
93667,-100,3,3,2,66,0,0
93751,-100,3,3,1,66,0,0
97667,-100,3,3,2,66,0,0
97751,-100,3,3,1,66,0,0
101333,-100,3,3,3,66,0,0
101667,-100,3,3,2,66,0,0
101751,-100,3,3,1,66,0,0
105666,-100,3,3,2,66,0,0
105750,-100,3,3,1,66,0,0
109111,-100,3,3,13,66,0,0
109333,-100,3,3,1,66,0,0
109444,-100,3,3,24,66,0,0
109667,333.333333333333,4,3,2,56,1,0
109667,-100,4,3,2,56,0,0
109750,-100,4,3,3,56,0,0
114333,-100,4,3,24,56,0,0
114667,-100,4,3,35,56,0,0
115000,-100,4,3,3,56,0,0
120333,-100,4,3,5,56,0,0
120416,-100,4,3,3,56,0,0
127666,-100,4,3,13,56,0,0
128000,-100,4,3,24,56,0,0
128333,-100,4,3,3,67,0,0
133000,-100,4,3,13,67,0,0
133333,-100,4,3,24,67,0,0
133666,-100,4,3,3,67,0,0
137666,-100,4,3,3,55,0,0
139000,-90.9090909090909,4,3,2,82,0,0
139083,-90.9090909090909,4,3,3,82,0,0
144333,-90.9090909090909,4,3,2,82,0,0
144416,-90.9090909090909,4,3,3,82,0,0
149333,-90.9090909090909,4,3,13,82,0,0
149666,-90.9090909090909,4,3,3,82,0,0
160000,-90.9090909090909,4,3,13,82,0,0
160166,-90.9090909090909,4,3,24,82,0,0
160333,333.333333333333,3,3,7,50,1,0
160333,-90.9090909090909,4,3,7,50,0,0
168000,-90.9090909090909,4,3,3,65,0,0
168333,-90.9090909090909,4,3,3,70,0,0
169666,-90.9090909090909,4,3,13,70,0,0
170000,-90.9090909090909,4,3,24,70,0,0
170333,-90.9090909090909,4,3,6,70,0,0
171750,-90.9090909090909,4,3,13,70,0,0
171833,-90.9090909090909,4,3,24,70,0,0
171916,-90.9090909090909,4,3,35,70,0,0
172000,-90.9090909090909,4,3,6,70,0,0
172083,-90.9090909090909,4,3,13,70,0,0
172166,-90.9090909090909,4,3,24,70,0,0
172249,-90.9090909090909,4,3,35,70,0,0
172333,-90.9090909090909,4,3,5,70,0,0
173833,-90.9090909090909,4,3,13,70,0,0
174000,-90.9090909090909,4,3,24,70,0,0
174166,-90.9090909090909,4,3,35,70,0,0
174333,-90.9090909090909,4,3,5,70,0,0
176000,-90.9090909090909,4,3,35,70,0,0
176333,-90.9090909090909,4,3,7,70,0,0
178083,-90.9090909090909,4,3,13,70,0,0
178166,-90.9090909090909,4,3,24,70,0,0
178250,-90.9090909090909,4,3,35,70,0,0
178333,-90.9090909090909,4,3,7,70,0,0
179083,-90.9090909090909,4,3,13,70,0,0
179166,-90.9090909090909,4,3,24,70,0,0
179250,-90.9090909090909,4,3,35,70,0,0
179333,-90.9090909090909,4,3,7,70,0,0
180000,-90.9090909090909,4,3,35,70,0,0
180333,-90.9090909090909,4,3,7,70,0,0
182083,-90.9090909090909,4,3,13,70,0,0
182166,-90.9090909090909,4,3,24,70,0,0
182250,-90.9090909090909,4,3,35,70,0,0
182333,-90.9090909090909,4,3,7,70,0,0
183083,-90.9090909090909,4,3,13,70,0,0
183166,-90.9090909090909,4,3,24,70,0,0
183250,-90.9090909090909,4,3,35,70,0,0
183333,-90.9090909090909,4,3,7,70,0,0
184000,-90.9090909090909,4,3,35,70,0,0
184333,-90.9090909090909,4,3,6,60,0,0
192333,333.333333333333,4,3,7,67,1,0
192333,-90.9090909090909,4,3,7,67,0,0
196500,-90.9090909090909,4,3,6,67,0,0
197166,-90.9090909090909,4,3,2,67,0,0
197333,-90.9090909090909,4,3,13,67,0,0
197500,-90.9090909090909,4,3,24,67,0,0
197666,-90.9090909090909,4,3,6,67,0,0
201666,-200,4,3,6,67,0,0
202416,-200,4,3,13,67,0,0
202499,-200,4,3,24,67,0,0
202583,-200,4,3,35,67,0,0
202666,-100,4,3,7,67,0,0
203000,-100,4,3,8,67,0,0
206666,-100,4,3,1,67,0,0
207000,-100,4,3,7,67,0,0
213333,-100,4,3,13,67,0,0
213666,-100,4,3,2,82,0,0
213750,-100,4,3,3,82,0,0
223416,-100,4,3,13,82,0,0
223500,-100,4,3,24,82,0,0
223583,-100,4,3,35,82,0,0
223666,-100,4,3,7,82,0,0
224333,-100,4,3,7,75,0,0
225000,-166.666666666667,4,3,7,75,0,0
233666,-111.111111111111,4,3,3,75,0,0
234666,-111.111111111111,4,3,24,75,0,0
234750,-111.111111111111,4,3,3,75,0,0
235000,-80,4,3,3,82,0,0
245500,-80,4,3,24,75,0,0
245666,333.333333333333,3,3,2,60,1,0
245666,-100,3,3,2,60,0,0
245749,-100,3,3,1,60,0,0
252666,-100,3,3,3,60,0,0
253666,-100,3,3,7,65,0,0
259666,-100,3,3,8,75,0,0
260665,-100,3,3,24,65,0,0
260999,-100,3,3,35,65,0,0
261332,-100,3,3,7,65,0,0
261665,-555.555555555556,3,3,7,80,0,0
261749,-555.555555555556,3,3,7,80,0,0
266666,-555.555555555556,3,3,7,5,0,0
269666,-555.555555555556,3,3,35,5,0,0

[Colours]
Combo1 : 205,205,205
Combo2 : 237,235,194
Combo3 : 198,255,119
Combo4 : 7,237,168

[HitObjects]
103,109,834,5,4,0:3:0:0:
103,109,917,1,4,0:3:0:0:
103,109,1000,1,8,0:3:0:0:
185,60,1167,1,4,0:3:0:0:
38,176,1333,2,0,P|71:185|104:197,1,70,8|4,0:3|0:3,0:0:0:0:
294,201,1667,5,8,0:3:0:0:
205,158,1833,1,4,0:3:0:0:
205,158,1917,1,4,0:3:0:0:
205,158,2000,1,8,0:3:0:0:
285,110,2167,1,4,0:3:0:0:
285,110,2250,1,4,0:3:0:0:
285,110,2333,1,10,0:3:0:0:
226,252,2500,1,4,0:3:0:0:
226,252,2583,1,4,0:3:0:0:
226,252,2667,2,0,P|157:265|92:291,1,140,4|6,0:3|3:3,0:0:0:0:
96,294,3666,5,4,0:3:0:0:
96,294,3999,1,4,0:3:0:0:
104,302,4666,5,4,0:3:0:0:
104,302,4999,1,6,0:3:0:0:
112,310,5666,5,4,0:3:0:0:
112,310,5999,1,4,0:3:0:0:
120,318,6666,5,4,0:3:0:0:
199,363,6999,2,0,B|263:348|263:348|267:343|267:343|333:328,1,140,2|0,0:3|0:0,0:0:0:0:
333,328,7666,2,0,L|341:258,1,70,4|0,0:3|0:0,0:0:0:0:
394,205,7999,1,4,0:3:0:0:
409,354,8666,6,0,L|417:284,1,70,4|0,0:3|0:0,0:0:0:0:
470,231,8999,1,2,0:3:0:0:
470,231,9666,6,0,P|435:228|400:222,1,70,4|0,0:3|0:0,0:0:0:0:
386,101,9999,2,0,P|357:121|326:137,1,70,2|0,0:3|0:0,0:0:0:0:
351,321,10333,2,0,P|323:299|294:279,1,70,2|0,0:3|0:0,0:0:0:0:
215,93,10666,2,0,P|223:126|231:160,1,70,2|0,0:3|0:0,0:0:0:0:
221,361,10999,5,14,0:3:0:0:
163,307,11166,1,8,0:3:0:0:
163,307,11249,1,8,0:3:0:0:
163,307,11333,2,0,L|174:273,3,35,12|8|8|8,0:3|0:3|0:3|0:3,0:0:0:0:
125,212,11666,1,12,0:3:0:0:
121,194,11749,1,8,0:3:0:0:
118,177,11832,1,8,0:3:0:0:
115,160,11916,1,8,0:3:0:0:
112,143,11999,6,0,L|75:151,3,35,14|8|8|8,0:3|0:3|0:3|0:3,0:0:0:0:
144,58,12333,2,0,L|178:65,3,35,4|8|8|8,0:3|0:3|0:3|0:3,0:0:0:0:
216,146,12666,1,12,0:3:0:0:
240,156,12749,1,8,0:3:0:0:
264,166,12832,1,8,0:3:0:0:
288,177,12916,1,8,0:3:0:0:
312,187,12999,6,0,L|301:222,3,35,14|8|8|8,0:3|0:3|0:3|0:3,0:0:0:0:
393,124,13333,2,0,L|382:90,3,35,12|8|8|8,0:3|0:3|0:3|0:3,0:0:0:0:
449,200,13666,5,12,0:3:0:0:
429,217,13749,1,8,0:3:0:0:
415,239,13832,1,8,0:3:0:0:
408,264,13916,1,8,0:3:0:0:
409,290,14000,1,14,0:3:0:0:
417,289,14083,1,8,0:3:0:0:
426,288,14166,1,8,0:3:0:0:
435,287,14250,1,8,0:3:0:0:
443,286,14333,6,0,L|449:320,3,35,12|8|8|8,0:3|0:3|0:3|0:3,0:0:0:0:
360,374,14666,1,12,0:3:0:0:
334,371,14749,1,12,0:3:0:0:
312,356,14832,1,12,0:3:0:0:
299,334,14916,1,8,0:3:0:0:
297,308,14999,1,14,0:3:0:0:
232,240,15166,5,8,0:3:0:0:
232,240,15249,1,8,0:3:0:0:
232,240,15333,2,0,L|197:245,3,35,12|8|8|8,0:3|0:3|0:3|0:3,0:0:0:0:
132,295,15666,2,0,L|97:289,3,35,12|8|8|8,0:3|0:3|0:3|0:3,0:0:0:0:
118,209,15999,5,14,0:3:0:0:
122,192,16082,1,8,0:3:0:0:
126,175,16165,1,8,0:3:0:0:
129,157,16249,1,8,0:3:0:0:
131,140,16333,2,0,L|96:134,3,35,12|8|8|8,0:3|0:3|0:3|0:3,0:0:0:0:
223,87,16666,1,12,0:3:0:0:
223,104,16749,1,8,0:3:0:0:
224,121,16832,1,8,0:3:0:0:
226,139,16915,1,8,0:3:0:0:
229,156,16999,6,0,L|265:147,3,35,14|8|8|8,0:3|0:3|0:3|0:3,0:0:0:0:
281,231,17333,2,0,L|314:239,3,35,12|8|8|8,0:3|0:3|0:3|0:3,0:0:0:0:
348,135,17666,1,12,0:3:0:0:
374,131,17749,1,8,0:3:0:0:
399,127,17832,1,8,0:3:0:0:
425,122,17915,1,0,0:3:0:0:
451,116,17999,5,14,0:3:0:0:
450,109,18083,1,8,0:3:0:0:
449,102,18166,2,0,L|445:67,1,35,8|0,0:3|0:3,0:0:0:0:
331,53,18333,5,14,0:3:0:0:
333,45,18417,1,8,0:3:0:0:
334,38,18500,2,0,L|337:3,1,35,8|0,0:3|0:3,0:0:0:0:
244,148,18666,6,0,P|242:98|231:67,1,70,0|0,0:3|1:0,0:0:0:0:
156,24,18999,6,0,B|103:72|103:72|36:56,1,140,6|8,0:3|1:3,0:0:0:0:
129,157,19499,1,4,0:0:0:0:
22,216,19666,2,0,L|37:147,1,70,0|4,1:3|1:3,0:0:0:0:
219,178,19999,6,0,L|243:243,1,70,12|4,1:3|0:3,0:0:0:0:
68,305,20333,2,0,P|98:287|130:273,1,70,4|4,1:3|0:3,0:0:0:0:
319,306,20666,1,8,1:3:0:0:
212,350,20833,1,0,1:3:0:0:
363,237,20999,6,0,P|428:256|446:328,1,140,6|8,1:3|1:3,0:0:0:0:
373,375,21499,1,4,1:3:0:0:
461,327,21666,2,0,P|472:294|485:261,1,70,0|4,1:3|1:3,0:0:0:0:
369,165,21999,2,0,P|356:197|344:230,1,70,12|4,1:3|0:3,0:0:0:0:
506,157,22333,6,0,P|476:138|450:115,1,70,4|4,1:3|0:3,0:0:0:0:
266,274,22666,2,0,P|295:292|321:315,1,70,12|4,1:3|0:3,0:0:0:0:
401,199,22999,6,0,P|348:155|345:87,1,140,6|8,1:3|1:3,0:0:0:0:
419,55,23499,1,4,1:3:0:0:
258,14,23666,2,0,P|263:48|267:83,1,70,0|4,1:3|1:3,0:0:0:0:
289,234,23999,5,12,1:3:0:0:
289,234,24083,1,4,0:3:0:0:
289,234,24166,1,4,0:3:0:0:
208,143,24333,1,4,1:3:0:0:
208,143,24417,1,4,0:3:0:0:
208,143,24500,1,4,0:3:0:0:
188,242,24666,5,8,1:3:0:0:
297,145,24833,1,0,1:3:0:0:
188,242,24999,2,0,P|118:230|50:218,1,140,4|8,1:3|1:3,0:0:0:0:
50,218,25499,2,0,P|59:184|68:150,1,70,4|0,1:3|1:3,0:0:0:0:
110,285,25833,1,4,1:3:0:0:
174,194,25999,6,0,P|184:228|196:261,1,70,4|4,1:3|0:3,0:0:0:0:
255,137,26333,2,0,P|288:145|323:152,1,70,4|4,1:3|0:3,0:0:0:0:
185,56,26666,2,0,P|209:30|232:4,1,70,12|0,1:3|0:0,0:0:0:0:
340,146,26999,6,0,P|408:130|476:116,1,140,6|8,1:3|1:3,0:0:0:0:
502,203,27499,1,4,1:3:0:0:
451,263,27666,1,0,1:3:0:0:
491,328,27833,1,4,1:3:0:0:
364,369,27999,5,12,1:3:0:0:
364,369,28083,1,4,0:3:0:0:
364,369,28166,1,4,0:3:0:0:
383,206,28333,1,12,1:3:0:0:
383,206,28416,1,4,0:3:0:0:
383,206,28499,1,4,0:3:0:0:
438,290,28666,2,0,P|472:295|506:302,1,70,12|0,1:3|1:3,0:0:0:0:
313,285,28999,6,0,P|243:275|175:261,1,140,6|8,1:3|1:3,0:0:0:0:
112,320,29499,1,4,1:3:0:0:
20,199,29666,2,0,P|28:232|36:266,1,70,0|4,1:3|1:3,0:0:0:0:
207,355,29999,5,12,1:3:0:0:
207,355,30083,1,4,0:3:0:0:
207,355,30166,1,4,0:3:0:0:
251,247,30333,1,4,1:3:0:0:
251,247,30416,1,4,0:3:0:0:
251,247,30499,1,4,0:3:0:0:
295,139,30666,1,12,1:3:0:0:
295,139,30749,1,4,0:3:0:0:
295,139,30832,1,4,0:3:0:0:
161,239,30999,6,0,P|101:207|91:140,1,140,6|8,1:3|1:3,0:0:0:0:
167,78,31499,1,4,1:3:0:0:
235,131,31666,2,0,P|269:141|302:151,1,70,0|4,1:3|1:3,0:0:0:0:
347,30,31999,6,0,P|353:64|360:98,1,70,12|4,1:3|0:3,0:0:0:0:
322,278,32333,2,0,P|337:246|352:215,1,70,4|4,1:3|0:3,0:0:0:0:
440,167,32666,2,0,P|474:171|509:174,1,70,8|0,1:3|1:3,0:0:0:0:
501,320,32999,6,0,P|432:304|364:289,1,140,6|8,1:3|1:3,0:0:0:0:
297,338,33499,1,4,1:3:0:0:
230,289,33666,1,0,1:3:0:0:
254,210,33833,1,4,1:3:0:0:
341,213,33999,5,12,1:3:0:0:
341,213,34083,1,4,0:3:0:0:
341,213,34166,1,4,0:3:0:0:
380,295,34333,1,4,1:3:0:0:
380,295,34416,1,4,0:3:0:0:
380,295,34499,1,4,0:3:0:0:
311,357,34666,1,8,0:3:0:0:
311,357,34749,1,0,0:0:0:0:
311,357,34833,1,0,1:3:0:0:
214,290,35000,6,0,L|179:281,7,35,10|8|8|8|12|8|8|8,0:3|0:3|0:3|0:3|0:3|0:3|0:3|0:3,0:0:0:0:
114,318,35666,2,0,L|80:328,3,35,12|8|8|8,0:3|0:3|0:3|0:3,0:0:0:0:
17,273,36000,5,12,0:3:0:0:
81,218,36166,1,12,0:3:0:0:
32,149,36333,2,0,L|25:114,2,35,8|8|8,0:3|0:3|0:3,0:0:0:0:
169,221,36666,1,12,0:3:0:0:
195,218,36749,1,8,0:3:0:0:
221,215,36832,1,8,0:3:0:0:
247,212,36916,1,8,0:3:0:0:
273,209,37000,6,0,L|278:243,3,35,12|8|8|8,0:3|0:3|0:3|0:3,0:0:0:0:
337,301,37333,1,12,0:3:0:0:
363,304,37416,1,8,0:3:0:0:
389,307,37499,1,8,0:3:0:0:
415,310,37583,1,8,0:3:0:0:
441,313,37666,6,0,L|446:278,7,35,14|8|8|8|12|8|8|8,0:3|0:3|0:3|0:3|0:3|0:3|0:3|0:3,0:0:0:0:
390,221,38333,2,0,L|384:186,3,35,12|8|8|8,0:3|0:3|0:3|0:3,0:0:0:0:
463,192,38666,2,0,L|457:157,1,35,12|8,0:3|0:3,0:0:0:0:
467,133,38833,1,8,0:3:0:0:
351,74,38999,5,12,0:3:0:0:
343,80,39083,2,0,L|308:88,2,35,8|0|0,0:3|0:0|0:3,0:0:0:0:
241,37,39333,2,0,L|206:28,3,35,12|8|8|8,0:3|0:3|0:3|0:3,0:0:0:0:
236,120,39666,6,0,B|219:169|219:169|212:176|212:176|196:219,1,105,12|8,0:3|0:3,0:0:0:0:
201,230,39999,1,14,0:3:0:0:
136,125,40166,1,14,0:3:0:0:
28,190,40333,5,14,0:3:0:0:
62,195,40416,1,8,0:3:0:0:
91,214,40499,1,8,0:3:0:0:
110,243,40583,1,8,0:3:0:0:
115,278,40666,2,0,L|79:283,3,35,12|8|8|8,0:3|0:3|0:3|0:3,0:0:0:0:
173,340,40999,5,12,0:3:0:0:
198,344,41082,1,8,0:3:0:0:
224,349,41165,1,8,0:3:0:0:
250,353,41249,1,8,0:3:0:0:
276,358,41332,1,12,0:3:0:0:
390,323,41499,1,8,0:3:0:0:
318,278,41666,5,12,0:3:0:0:
320,252,41749,1,8,0:3:0:0:
321,226,41832,1,8,0:3:0:0:
323,200,41916,1,8,0:3:0:0:
323,174,41999,1,12,0:3:0:0:
258,103,42166,5,8,0:3:0:0:
258,103,42249,1,8,0:3:0:0:
258,103,42333,1,12,0:3:0:0:
340,48,42499,1,8,0:3:0:0:
411,133,42666,1,8,0:3:0:0:
411,133,42749,1,8,0:3:0:0:
411,133,42833,1,8,0:3:0:0:
320,212,42999,6,0,P|250:221|181:233,1,140,14|12,0:3|0:3,0:0:0:0:
104,195,43499,1,8,0:3:0:0:
104,195,43583,1,8,0:3:0:0:
104,195,43666,2,0,L|96:160,3,35,12|8|8|8,0:3|0:3|0:3|0:3,0:0:0:0:
25,119,43999,2,0,L|17:84,3,35,12|8|8|8,0:3|0:3|0:3|0:3,0:0:0:0:
157,109,44333,5,12,0:3:0:0:
175,109,44416,1,8,0:3:0:0:
192,104,44499,1,8,0:3:0:0:
207,96,44583,1,8,0:3:0:0:
220,84,44666,5,4,0:3:0:0:
229,98,44749,1,4,0:3:0:0:
241,111,44832,1,4,0:3:0:0:
256,120,44916,1,4,0:3:0:0:
273,124,44999,5,12,0:3:0:0:
265,138,45083,1,8,0:3:0:0:
260,155,45166,1,8,0:3:0:0:
259,173,45250,1,8,0:3:0:0:
264,189,45333,5,8,0:3:0:0:
247,189,45416,1,8,0:3:0:0:
230,193,45499,1,8,0:3:0:0:
214,201,45583,1,8,0:3:0:0:
203,213,45666,1,6,0:3:0:0:
113,172,46166,6,0,L|104:283,1,112,4|4,0:3|0:3,0:0:0:0:
104,283,46999,2,0,P|185:265|269:270,1,168,4|4,0:3|0:3,0:0:0:0:
269,270,47833,1,4,0:3:0:0:
332,367,47999,2,0,P|335:339|340:311,1,56,8|4,0:3|0:3,0:0:0:0:
489,264,48333,6,0,P|435:252|390:219,1,112,2|0,0:3|0:0,0:0:0:0:
390,219,48833,2,0,L|419:111,1,112,4|4,0:3|0:3,0:0:0:0:
341,68,49666,6,0,L|333:12,2,56,6|0|4,0:3|0:0|0:3,0:0:0:0:
263,120,50166,2,0,L|255:64,1,56,8|0,0:3|0:0,0:0:0:0:
95,95,50499,5,8,0:3:0:0:
122,99,50582,1,8,0:3:0:0:
147,111,50665,1,8,0:3:0:0:
167,131,50749,1,8,0:3:0:0:
180,156,50832,1,8,0:3:0:0:
184,183,50915,1,8,0:3:0:0:
180,211,50999,5,14,1:3:0:0:
180,211,51499,1,0,0:3:0:0:
106,253,51833,5,0,0:3:0:0:
42,203,51999,2,0,P|50:176|56:149,1,56,0|0,0:3|0:0,0:0:0:0:
115,265,52333,2,0,P|124:320|131:375,1,112,4|0,1:3|0:3,0:0:0:0:
131,375,52833,1,4,0:3:0:0:
48,336,53166,5,4,0:3:0:0:
48,336,53249,1,0,0:0:0:0:
48,336,53333,1,8,0:3:0:0:
214,300,53499,1,0,0:3:0:0:
214,300,53666,2,0,P|267:316|321:329,1,112,4|0,1:3|0:0,0:0:0:0:
321,329,54166,1,4,0:3:0:0:
321,329,54499,5,0,0:0:0:0:
391,283,54666,2,0,L|382:227,1,56,0|0,0:0|1:3,0:0:0:0:
485,135,54999,5,4,1:3:0:0:
486,155,55083,2,0,P|464:193|466:237,1,84
392,132,55499,2,0,P|336:124|281:114,1,112,4|4,0:3|0:3,0:0:0:0:
208,9,55999,2,0,P|212:36|217:64,1,56,8|0,1:3|1:3,0:0:0:0:
81,118,56333,6,0,P|133:135|179:168,1,112,2|0,1:3|0:0,0:0:0:0:
56,248,56833,1,4,1:3:0:0:
72,265,56916,2,0,P|113:260|155:259,1,84,0|0,0:0|0:3,0:0:0:0:
138,366,57333,2,0,P|161:351|186:337,1,56,0|0,1:3|0:0,0:0:0:0:
250,263,57666,5,4,1:3:0:0:
250,263,57999,1,0,1:3:0:0:
312,323,58166,2,0,P|366:333|420:348,1,112,4|4,0:3|0:3,0:0:0:0:
507,252,58666,2,0,P|480:261|453:269,1,56,8|0,1:3|0:0,0:0:0:0:
437,262,58916,1,0,0:3:0:0:
437,262,58999,5,4,1:3:0:0:
366,196,59166,2,0,P|371:141|415:109,1,112,0|4,0:0|0:3,0:0:0:0:
415,109,59999,2,0,L|469:121,1,56,0|0,0:3|0:3,0:0:0:0:
347,32,60333,5,4,0:3:0:0:
279,87,60499,2,0,L|295:197,1,112,0|2,0:0|0:3,0:0:0:0:
207,310,60999,5,8,0:3:0:0:
207,310,61083,1,8,0:3:0:0:
207,310,61166,1,8,0:3:0:0:
207,310,61249,1,8,0:3:0:0:
207,310,61333,1,8,1:3:0:0:
206,310,61666,6,0,P|152:306|111:269,1,112,6|4,1:3|0:3,0:0:0:0:
152,204,62166,1,0,0:3:0:0:
46,143,62333,2,0,P|51:170|58:197,1,56,4|0,1:3|0:3,0:0:0:0:
175,207,62666,2,0,P|229:193|284:183,1,112,4|4,0:3|1:3,0:0:0:0:
284,183,63333,5,4,0:3:0:0:
360,232,63499,2,0,P|354:273|341:350,1,112,0|4,0:0|1:3,0:0:0:0:
449,358,63999,2,0,P|442:330|436:303,1,56,4|0,0:3|0:3,0:0:0:0:
508,226,64333,6,0,P|455:208|424:163,1,112,4|4,1:3|1:3,0:0:0:0:
473,93,64833,1,0,1:3:0:0:
490,16,65000,1,4,1:3:0:0:
384,72,65166,1,0,1:3:0:0:
339,6,65333,1,4,1:3:0:0:
321,134,65499,1,0,1:3:0:0:
237,133,65666,6,0,P|183:145|129:160,2,112,4|4|4,1:3|1:3|1:3,0:0:0:0:
75,94,66665,5,4,1:3:0:0:
75,94,66749,1,0,0:0:0:0:
75,94,66832,1,0,1:3:0:0:
32,175,66999,2,0,P|41:201|49:228,1,56,6|0,1:3|1:3,0:0:0:0:
161,190,67333,2,0,P|149:215|138:241,1,56,4|0,1:3|1:3,0:0:0:0:
16,314,67666,2,0,P|71:315|123:334,1,112,4|4,1:3|0:3,0:0:0:0:
227,291,68166,6,0,P|282:289|334:270,1,112,0|0,1:3|1:3,0:0:0:0:
334,270,68666,2,0,L|345:325,1,56,4|0,1:3|1:3,0:0:0:0:
434,384,68999,2,0,P|441:328|451:273,1,112,4|4,1:3|1:3,0:0:0:0:
451,273,69666,6,0,P|443:217|433:162,1,112,6|4,1:3|0:3,0:0:0:0:
433,162,70166,1,0,0:0:0:0:
364,107,70333,5,6,0:3:0:0:
364,107,70416,1,0,0:0:0:0:
472,86,70583,5,0,0:3:0:0:
472,86,70666,1,6,0:3:0:0:
400,24,70833,5,0,0:0:0:0:
286,64,70999,6,0,L|259:56,1,28,6|0,0:3|0:0,0:0:0:0:
190,100,71249,6,0,L|163:107,1,28,0|6,0:3|0:3,0:0:0:0:
96,58,71499,6,0,L|69:50,1,28,0|0,0:0|0:3,0:0:0:0:
44,31,71666,5,6,0:3:0:0:
149,119,71833,1,4,0:3:0:0:
51,197,71999,2,0,P|45:169|39:142,1,56,12|0,0:3|0:0,0:0:0:0:
20,307,72333,6,0,P|57:294|112:283,1,70,6|4,1:3|0:3,0:0:0:0:
204,229,72666,2,0,L|192:361,1,105,8|8,0:3|0:3,0:0:0:0:
194,333,72999,1,4,1:3:0:0:
308,209,73166,2,0,L|326:357,1,140,4|8,0:3|0:3,0:0:0:0:
479,356,73666,5,0,1:3:0:0:
501,267,73833,1,4,0:3:0:0:
409,293,73999,1,8,0:3:0:0:
409,293,74333,1,4,0:3:0:0:
354,197,74499,1,4,0:3:0:0:
477,156,74666,1,8,1:3:0:0:
438,65,74833,1,4,1:3:0:0:
340,70,74999,6,0,P|294:57|251:52,1,70,4|4,1:3|0:3,0:0:0:0:
459,0,75333,2,0,P|473:49|425:120,1,140,8|4,0:3|1:3,0:0:0:0:
344,177,75833,1,4,0:3:0:0:
344,177,75916,1,0,1:3:0:0:
262,141,76083,1,0,0:3:0:0:
262,141,76166,1,8,1:3:0:0:
141,221,76333,6,0,P|175:217|209:209,1,70,0|4,1:3|0:3,0:0:0:0:
19,93,76666,2,0,P|82:116|155:120,1,140,8|4,0:3|0:3,0:0:0:0:
229,5,77166,2,0,P|243:51|258:82,1,70,4|8,0:3|1:3,0:0:0:0:
344,188,77499,1,4,1:3:0:0:
198,175,77666,5,2,0:3:0:0:
185,264,77833,1,4,0:3:0:0:
172,355,77999,2,0,P|135:352|88:338,1,70,8|8,0:3|0:3,0:0:0:0:
103,343,78249,1,8,0:3:0:0:
103,343,78333,1,4,0:3:0:0:
0,264,78499,2,0,P|41:243|136:260,1,140,4|12,0:3|0:3,0:0:0:0:
271,173,78999,5,0,1:3:0:0:
251,256,79166,1,4,0:3:0:0:
326,332,79333,1,8,0:3:0:0:
326,332,79666,5,4,1:3:0:0:
431,299,79833,1,4,0:3:0:0:
339,227,79999,1,8,1:3:0:0:
496,223,80166,5,0,0:0:0:0:
496,223,80249,1,0,0:3:0:0:
496,223,80333,2,0,P|505:163|502:121,1,70,4|4,0:3|0:3,0:0:0:0:
372,237,80666,2,0,P|387:179|315:129,1,140,8|4,0:3|0:3,0:0:0:0:
486,26,81166,2,0,P|441:45|396:53,1,70,4|0,0:3|0:3,0:0:0:0:
319,21,81499,5,8,0:3:0:0:
227,26,81666,1,4,0:3:0:0:
186,105,81833,1,4,0:3:0:0:
83,13,81999,2,0,P|101:81|113:163,1,140,8|4,0:3|0:3,0:0:0:0:
222,221,82499,1,4,0:3:0:0:
42,283,82666,1,8,1:3:0:0:
42,283,82833,1,0,1:3:0:0:
138,343,82999,6,0,P|180:356|225:358,1,70,6|4,1:3|0:3,0:0:0:0:
307,234,83333,2,0,P|251:204|192:264,1,140,8|4,0:3|1:3,0:0:0:0:
369,384,83833,2,0,P|383:320|426:252,1,140,4|8,0:3|0:3,0:0:0:0:
421,256,84249,1,0,0:0:0:0:
421,256,84333,5,4,1:3:0:0:
511,216,84499,1,4,0:3:0:0:
406,110,84666,1,8,0:3:0:0:
338,171,84833,2,0,P|384:161|423:57,1,140,0|4,0:3|1:3,0:0:0:0:
342,1,85333,2,0,P|327:50|325:88,1,70,8|4,0:3|1:3,0:0:0:0:
251,131,85666,5,4,0:3:0:0:
171,88,85833,1,4,0:3:0:0:
124,158,85999,1,8,1:3:0:0:
124,158,86166,1,8,1:3:0:0:
43,17,86333,5,4,1:3:0:0:
139,45,86499,1,0,1:3:0:0:
106,143,86666,1,0,1:3:0:0:
11,119,86833,1,8,1:3:0:0:
69,227,86999,6,0,P|89:277|99:318,1,70,0|4,1:3|0:3,0:0:0:0:
171,202,87333,2,0,P|182:162|204:123,1,70,8|0,1:3|0:3,0:0:0:0:
9,322,87666,2,0,P|33:362|136:361,1,140,4|8,1:3|1:3,0:0:0:0:
191,300,88166,1,0,1:3:0:0:
359,357,88333,5,6,1:3:0:0:
273,373,88499,1,4,1:3:0:0:
294,279,88666,1,8,1:3:0:0:
384,263,88833,1,8,0:3:0:0:
476,344,88999,2,0,P|431:322|338:318,1,140,4|0,0:3|0:3,0:0:0:0:
486,159,89499,6,0,P|424:144|406:226,1,140,8|4,1:3|1:3,0:0:0:0:
393,63,89999,2,0,P|407:23|414:-11,1,70,8|0,1:3|1:3,0:0:0:0:
237,65,90333,1,4,1:3:0:0:
328,135,90499,1,4,0:3:0:0:
192,169,90666,2,0,L|36:183,1,140,8|4,0:3|1:3,0:0:0:0:
185,252,91166,5,4,0:3:0:0:
116,332,91333,2,0,P|128:285|145:255,1,70,8|4,0:3|0:3,0:0:0:0:
137,266,91583,1,4,0:3:0:0:
137,266,91666,1,8,0:3:0:0:
289,153,91833,1,4,0:3:0:0:
289,153,91916,1,4,0:3:0:0:
289,153,91999,1,8,0:3:0:0:
116,58,92166,1,4,0:3:0:0:
116,58,92249,1,4,0:3:0:0:
116,58,92333,1,8,0:3:0:0:
116,58,92416,1,8,0:3:0:0:
116,58,92499,1,8,0:3:0:0:
86,191,92666,5,10,0:3:0:0:
5,216,92832,1,10,0:3:0:0:
210,106,92999,5,8,0:3:0:0:
235,72,93166,1,8,0:3:0:0:
251,267,93333,5,6,0:3:0:0:
295,352,93499,1,6,0:3:0:0:
507,362,93666,6,0,P|460:372|400:292,1,140,6|8,0:3|1:3,0:0:0:0:
346,234,94167,1,4,1:3:0:0:
385,166,94333,1,0,1:3:0:0:
351,92,94500,1,4,1:3:0:0:
491,51,94667,6,0,P|440:34|412:17,1,70,12|4,1:3|0:3,0:0:0:0:
266,47,95000,2,0,P|303:75|324:112,1,70,4|4,1:3|0:3,0:0:0:0:
385,244,95333,2,0,P|409:201|433:176,1,70,8|4,1:3|1:3,0:0:0:0:
296,337,95667,6,0,P|251:287|270:201,1,140,6|8,1:3|1:3,0:0:0:0:
179,343,96167,1,4,1:3:0:0:
120,259,96333,1,0,1:3:0:0:
52,318,96500,1,4,1:3:0:0:
0,207,96667,6,0,P|37:191|76:170,1,70,12|4,1:3|0:3,0:0:0:0:
216,159,97000,2,0,P|185:134|167:101,1,70,4|4,1:3|0:3,0:0:0:0:
81,9,97333,2,0,P|68:56|55:85,1,70,12|4,0:3|0:3,0:0:0:0:
215,38,97667,6,0,P|268:12|320:88,1,140,6|8,0:3|1:3,0:0:0:0:
431,116,98167,1,4,1:3:0:0:
431,116,98250,1,0,0:0:0:0:
431,116,98333,2,0,P|390:131|356:155,1,70,0|4,1:3|1:3,0:0:0:0:
290,206,98667,5,12,1:3:0:0:
374,266,98833,1,4,0:3:0:0:
257,356,99000,2,0,P|241:303|237:263,1,70,4|4,1:3|0:3,0:0:0:0:
398,230,99333,2,0,P|414:283|418:323,1,70,8|4,1:3|1:3,0:0:0:0:
153,334,99667,6,0,P|137:292|169:188,1,140,6|8,1:3|1:3,0:0:0:0:
229,126,100167,1,4,1:3:0:0:
306,158,100333,1,0,1:3:0:0:
367,104,100500,1,4,1:3:0:0:
238,1,100667,5,12,1:3:0:0:
238,1,100750,1,4,0:3:0:0:
238,1,100833,1,4,0:3:0:0:
255,93,101000,1,4,1:3:0:0:
403,174,101166,1,4,0:3:0:0:
419,81,101333,1,10,0:3:0:0:
419,81,101417,1,0,0:0:0:0:
219,181,101583,5,4,0:3:0:0:
219,181,101666,2,0,P|153:188|102:117,1,140,6|8,0:3|1:3,0:0:0:0:
1,230,102166,1,4,1:3:0:0:
82,278,102333,2,0,P|91:326|91:356,1,70,0|4,1:3|1:3,0:0:0:0:
257,263,102666,5,12,1:3:0:0:
179,301,102833,1,4,0:3:0:0:
295,363,103000,1,4,1:3:0:0:
295,363,103083,1,4,0:3:0:0:
295,363,103166,1,4,0:3:0:0:
178,375,103333,2,0,P|131:366|94:358,1,70,8|4,1:3|1:3,0:0:0:0:
272,270,103666,6,0,B|334:257|358:286|421:263,1,140,6|8,1:3|1:3,0:0:0:0:
470,219,104166,1,4,1:3:0:0:
337,178,104333,1,0,1:3:0:0:
410,136,104500,1,4,1:3:0:0:
497,93,104666,6,0,P|504:50|517:16,1,70,12|4,1:3|0:3,0:0:0:0:
343,62,105000,1,4,1:3:0:0:
343,62,105083,1,4,0:3:0:0:
343,62,105166,1,4,0:3:0:0:
410,136,105333,1,8,1:3:0:0:
410,136,105500,1,4,1:3:0:0:
288,249,105666,6,0,P|264:328|260:392,1,140,6|8,1:3|1:3,0:0:0:0:
361,302,106166,1,4,1:3:0:0:
429,339,106333,2,0,P|473:356|522:365,1,70,0|4,1:3|1:3,0:0:0:0:
416,222,106666,2,0,P|459:212|498:198,1,70,12|4,0:3|0:3,0:0:0:0:
328,145,107000,1,4,0:3:0:0:
328,145,107083,1,4,0:3:0:0:
328,145,107166,1,4,0:3:0:0:
403,84,107333,1,8,1:3:0:0:
292,47,107500,1,4,1:3:0:0:
207,122,107666,6,0,P|153:129|99:55,1,140,6|8,1:3|1:3,0:0:0:0:
1,136,108166,1,4,1:3:0:0:
76,197,108333,2,0,P|38:221|6:246,1,70,0|4,1:3|1:3,0:0:0:0:
152,374,108666,6,0,P|141:327|139:275,1,70,10|4,1:3|1:3,0:0:0:0:
138,305,108916,1,4,0:3:0:0:
157,299,109000,2,0,L|182:214,1,46.6666666666667,8|8,0:3|0:0,0:0:0:0:
269,228,109222,1,8,0:3:0:0:
307,234,109333,1,8,0:3:0:0:
307,234,109666,5,6,1:3:0:0:
462,148,109917,1,4,0:3:0:0:
491,327,110167,1,4,0:3:0:0:
491,327,110333,5,4,1:3:0:0:
421,357,110500,1,0,1:3:0:0:
380,293,110667,1,0,1:3:0:0:
446,261,110833,1,4,1:3:0:0:
321,356,111000,6,0,P|273:340|176:333,1,140,4|0,1:3|0:0,0:0:0:0:
124,262,111500,1,4,0:3:0:0:
124,262,111583,1,4,0:3:0:0:
124,262,111667,1,8,0:3:0:0:
65,359,111833,1,4,0:3:0:0:
0,309,112000,1,4,0:3:0:0:
0,309,112333,5,4,1:3:0:0:
162,245,112583,1,4,0:3:0:0:
34,155,112833,1,4,0:3:0:0:
34,155,113000,5,8,1:3:0:0:
2,228,113167,1,0,0:3:0:0:
75,220,113333,1,4,1:3:0:0:
109,155,113500,1,0,0:3:0:0:
152,72,113667,5,8,0:3:0:0:
152,72,113750,1,8,0:3:0:0:
152,72,113833,1,10,0:3:0:0:
324,162,114000,1,2,0:3:0:0:
205,161,114167,1,4,0:3:0:0:
205,161,114250,1,4,0:3:0:0:
205,161,114333,2,0,P|196:190|192:208,3,35,12|8|8|8,0:3|0:3|0:3|0:3,0:0:0:0:
260,94,114667,5,8,0:3:0:0:
259,76,114750,1,8,0:3:0:0:
256,59,114833,1,8,0:3:0:0:
251,42,114916,1,8,0:3:0:0:
243,26,115000,1,6,1:3:0:0:
374,77,115250,1,4,0:3:0:0:
495,126,115500,1,4,1:3:0:0:
452,55,115667,5,8,1:3:0:0:
401,130,115833,1,0,0:3:0:0:
482,209,116000,1,0,0:3:0:0:
494,300,116167,1,4,0:3:0:0:
357,230,116333,6,0,P|340:263|308:289,1,70,8|0,1:3|0:0,0:0:0:0:
476,373,116667,2,0,P|442:353|397:341,1,70,0|4,1:3|0:3,0:0:0:0:
413,343,116916,1,4,0:3:0:0:
413,343,117000,1,8,0:3:0:0:
303,163,117166,1,0,0:3:0:0:
236,227,117333,2,0,P|223:289|222:325,1,70,0|0,0:3|0:3,0:0:0:0:
282,375,117666,5,6,0:3:0:0:
282,375,117916,1,4,0:3:0:0:
282,375,118166,1,4,0:3:0:0:
155,343,118333,5,8,0:3:0:0:
155,343,118416,1,0,0:0:0:0:
155,343,118500,1,4,0:3:0:0:
35,314,118666,5,4,0:3:0:0:
35,314,118833,1,4,0:3:0:0:
35,314,119000,2,0,P|76:303|108:287,1,70,8|4,0:3|0:3,0:0:0:0:
30,129,119333,2,0,P|53:158|126:161,1,105,8|4,0:3|0:3,0:0:0:0:
153,188,119666,5,10,0:3:0:0:
187,181,119749,1,8,0:3:0:0:
221,175,119832,1,8,0:3:0:0:
256,169,119915,1,8,0:3:0:0:
276,190,120000,5,4,0:3:0:0:
301,193,120083,1,4,0:3:0:0:
327,197,120166,1,4,0:3:0:0:
353,201,120249,1,4,0:3:0:0:
380,196,120333,5,6,1:3:0:0:
452,167,120500,1,4,0:3:0:0:
427,95,120666,1,4,0:3:0:0:
355,121,120833,1,4,0:3:0:0:
392,212,121000,5,12,1:3:0:0:
418,87,121166,1,4,0:3:0:0:
342,131,121333,1,4,0:3:0:0:
462,167,121500,1,4,0:3:0:0:
504,85,121666,6,0,P|508:45|516:3,1,70,12|4,1:3|0:3,0:0:0:0:
335,90,122000,2,0,P|340:55|344:20,1,70,4|4,0:3|0:3,0:0:0:0:
423,153,122333,2,0,P|427:193|435:235,1,70,12|4,0:3|1:3,0:0:0:0:
254,148,122667,2,0,P|259:182|263:217,1,70,4|4,0:3|1:3,0:0:0:0:
199,280,123000,5,12,0:3:0:0:
121,302,123166,1,4,1:3:0:0:
60,255,123333,1,4,1:3:0:0:
133,225,123500,1,4,1:3:0:0:
208,292,123666,5,12,1:3:0:0:
46,270,123833,1,4,1:3:0:0:
136,213,124000,1,4,1:3:0:0:
130,322,124166,1,4,1:3:0:0:
2,340,124333,6,0,P|36:304|62:282,1,70,12|0,1:3|0:3,0:0:0:0:
0,154,124666,2,0,P|52:162|94:179,1,70,12|0,1:3|0:3,0:0:0:0:
116,6,125000,2,0,P|163:32|218:102,1,140,12|0,1:3|1:3,0:0:0:0:
152,162,125500,1,0,1:3:0:0:
295,68,125666,5,10,1:3:0:0:
373,63,125833,1,0,0:0:0:0:
408,137,126000,1,4,1:3:0:0:
482,171,126166,1,4,1:3:0:0:
482,171,126333,2,0,P|510:119|511:32,1,140,12|4,0:3|0:3,0:0:0:0:
376,159,126833,5,4,1:3:0:0:
301,177,127000,2,0,P|247:186|207:197,1,70,0|4,0:0|0:3,0:0:0:0:
400,327,127333,2,0,P|384:283|369:257,1,70,6|0,0:3|1:0,0:0:0:0:
227,102,127666,1,12,0:3:0:0:
192,103,127749,1,8,0:3:0:0:
162,120,127832,1,8,0:3:0:0:
142,149,127915,1,8,0:3:0:0:
138,184,127999,1,12,0:3:0:0:
138,184,128083,1,8,0:3:0:0:
138,184,128166,1,8,0:3:0:0:
138,184,128250,1,8,0:3:0:0:
138,184,128333,6,0,P|128:231|115:267,1,70,14|0,1:3|0:0,0:0:0:0:
27,278,128666,1,4,0:3:0:0:
225,235,128833,2,0,P|245:294|180:352,1,140,10|4,1:3|0:3,0:0:0:0:
0,205,129333,6,0,B|66:188|86:206|141:182,1,140,10|0,1:3|0:3,0:0:0:0:
243,94,129833,1,4,0:3:0:0:
131,26,130000,1,8,1:3:0:0:
131,26,130333,6,0,P|128:66|112:107,1,70,4|0,0:3|0:3,0:0:0:0:
272,200,130666,2,0,P|258:148|259:115,1,70,8|0,0:3|0:3,0:0:0:0:
415,15,131000,6,0,P|444:52|406:129,1,140,14|4,1:3|0:3,0:0:0:0:
474,272,131500,2,0,P|427:262|392:248,1,70,10|0,1:3|0:0,0:0:0:0:
321,198,131833,1,4,0:3:0:0:
250,375,132000,6,0,P|315:359|408:351,1,140,10|4,1:3|0:3,0:0:0:0:
387,351,132416,1,0,0:3:0:0:
387,351,132500,1,10,0:3:0:0:
281,210,132666,2,0,P|271:255|256:294,1,70,14|12,0:3|0:3,0:0:0:0:
263,277,132916,1,12,0:3:0:0:
263,277,133000,2,0,L|216:288,3,35,8|8|8|8,0:3|0:3|0:3|0:3,0:0:0:0:
167,346,133333,1,12,0:3:0:0:
144,319,133416,1,8,0:3:0:0:
112,305,133499,1,8,0:3:0:0:
78,306,133583,1,8,0:3:0:0:
47,321,133666,5,14,0:3:0:0:
159,237,133833,2,0,P|176:179|182:138,1,70,4|4,0:3|0:3,0:0:0:0:
275,267,134166,5,12,1:3:0:0:
85,172,134333,2,0,P|73:135|64:86,1,70,4|4,0:3|0:3,0:0:0:0:
267,175,134666,6,0,P|314:135|283:55,1,140,12|4,1:3|0:3,0:0:0:0:
88,253,135166,2,0,P|44:252|10:150,1,140,12|4,1:3|0:3,0:0:0:0:
186,48,135666,5,12,1:3:0:0:
185,139,135833,1,4,0:3:0:0:
82,35,136000,1,12,1:3:0:0:
93,126,136166,1,4,0:3:0:0:
259,14,136333,5,14,1:3:0:0:
269,32,136416,1,8,0:3:0:0:
276,51,136499,1,8,0:3:0:0:
279,72,136583,1,8,0:3:0:0:
279,93,136666,1,8,0:3:0:0:
275,114,136749,1,8,0:3:0:0:
263,145,136833,5,10,1:3:0:0:
287,171,136916,1,8,0:3:0:0:
253,190,137000,1,8,0:3:0:0:
286,217,137083,1,8,0:3:0:0:
242,234,137166,1,8,0:3:0:0:
282,257,137250,1,8,0:3:0:0:
252,279,137333,5,10,1:3:0:0:
251,308,137416,1,8,0:3:0:0:
259,336,137500,1,8,0:3:0:0:
272,358,137583,1,8,0:3:0:0:
294,377,137666,1,10,1:3:0:0:
361,348,138000,1,0,0:0:0:0:
432,363,138333,1,0,1:3:0:0:
498,338,138666,1,0,0:0:0:0:
428,373,139000,6,0,B|440:285|411:308|422:220,1,154.000004699707,6|8,1:3|0:3,0:0:0:0:
364,166,139500,1,0,0:3:0:0:
498,185,139666,1,4,1:3:0:0:
498,185,139750,1,4,0:0:0:0:
427,70,139916,1,0,1:3:0:0:
427,70,140000,2,0,L|435:107,2,38.5000011749268,8|0|0,0:0|0:3|1:3,0:0:0:0:
295,200,140333,6,0,P|258:186|223:171,1,77.0000023498536,4|0,1:3|0:3,0:0:0:0:
45,276,140666,2,0,P|80:260|116:247,1,77.0000023498536,8|0,1:3|0:3,0:0:0:0:
116,247,140916,1,0,0:0:0:0:
116,247,141000,2,0,L|115:285,2,38.5000011749268,4|0|4,1:3|0:0|0:3,0:0:0:0:
275,183,141333,2,0,P|281:106|289:29,1,154.000004699707,8|6,1:3|0:3,0:0:0:0:
207,51,141833,5,0,0:0:0:0:
207,51,141916,1,0,0:3:0:0:
358,144,142083,1,0,0:0:0:0:
358,144,142166,1,0,0:3:0:0:
199,218,142333,2,0,L|161:207,2,38.5000011749268,4|4|4,1:3|0:0|0:3,0:0:0:0:
199,218,142583,1,0,1:3:0:0:
199,218,142666,2,0,L|236:228,2,38.5000011749268,8|0|0,0:0|0:3|1:3,0:0:0:0:
99,265,143000,5,4,1:3:0:0:
219,134,143166,1,0,0:3:0:0:
298,283,143333,1,8,1:3:0:0:
214,230,143500,5,0,0:3:0:0:
275,282,143666,1,4,1:3:0:0:
205,310,143833,1,4,0:3:0:0:
228,274,144000,2,0,P|236:236|241:198,1,77.0000023498536,8|0,1:3|0:3,0:0:0:0:
439,350,144333,6,0,P|504:315|512:241,1,154.000004699707,6|8,1:3|0:3,0:0:0:0:
260,192,144833,2,0,P|296:203|333:215,1,77.0000023498536,0|4,1:3|0:0,0:0:0:0:
371,294,145166,1,4,1:3:0:0:
371,294,145250,1,0,0:0:0:0:
371,294,145333,1,8,1:3:0:0:
415,175,145500,1,0,1:3:0:0:
319,205,145666,5,4,1:3:0:0:
461,254,145833,1,0,1:3:0:0:
306,213,146000,2,0,B|241:202|252:225|152:220,1,154.000004699707,8|4,1:3|0:3,0:0:0:0:
87,172,146500,1,4,1:3:0:0:
87,172,146583,1,0,0:0:0:0:
25,226,146750,1,0,0:0:0:0:
25,226,146833,1,0,1:0:0:0:
91,280,147000,5,6,0:3:0:0:
161,226,147166,1,4,0:3:0:0:
86,154,147333,1,8,0:3:0:0:
12,226,147500,1,4,0:3:0:0:
90,292,147666,5,8,0:3:0:0:
174,225,147833,1,4,0:3:0:0:
87,140,148000,1,4,0:3:0:0:
1,228,148166,1,6,1:3:0:0:
90,309,148333,5,0,0:0:0:0:
89,123,148500,1,0,1:3:0:0:
89,123,148583,1,0,0:0:0:0:
89,123,148666,1,2,1:3:0:0:
97,323,148833,5,0,1:3:0:0:
78,221,149000,5,10,0:3:0:0:
108,205,149083,1,8,0:3:0:0:
160,218,149166,1,8,0:3:0:0:
190,202,149249,1,8,0:3:0:0:
242,215,149333,1,12,0:3:0:0:
272,199,149416,1,8,0:3:0:0:
324,212,149500,1,8,0:3:0:0:
354,196,149583,1,8,0:3:0:0:
384,180,149666,5,14,1:3:0:0:
384,180,149833,1,4,0:3:0:0:
294,45,150000,2,0,B|285:84|285:84|305:114,1,77.0000023498536,4|4,0:3|0:3,0:0:0:0:
469,177,150333,1,12,1:3:0:0:
345,296,150500,1,4,1:3:0:0:
345,296,150583,2,0,L|338:257,1,38.5000011749268,0|4,0:0|1:3,0:0:0:0:
386,198,150750,1,0,0:0:0:0:
386,198,150833,2,0,L|392:159,1,38.5000011749268,4|0,1:3|0:0,0:0:0:0:
428,269,151000,5,12,1:3:0:0:
303,190,151166,1,4,0:3:0:0:
240,240,151333,1,4,1:3:0:0:
240,240,151416,1,0,0:0:0:0:
240,240,151500,1,4,0:3:0:0:
318,177,151666,5,12,1:3:0:0:
268,327,151833,1,4,0:3:0:0:
268,327,151916,1,0,0:0:0:0:
268,327,152000,1,4,1:3:0:0:
149,209,152166,1,4,0:3:0:0:
341,267,152333,5,12,1:3:0:0:
341,267,152416,1,0,0:0:0:0:
341,267,152500,1,4,0:3:0:0:
237,154,152666,1,4,0:3:0:0:
414,213,152833,5,4,0:3:0:0:
325,110,153000,1,12,1:3:0:0:
325,110,153083,1,0,0:0:0:0:
325,110,153166,1,4,1:3:0:0:
488,169,153333,5,4,1:3:0:0:
408,64,153500,1,4,1:3:0:0:
505,74,153666,5,12,1:3:0:0:
401,144,153833,1,4,0:3:0:0:
305,87,154000,5,4,1:3:0:0:
231,60,154166,1,4,0:3:0:0:
318,96,154333,1,12,1:3:0:0:
180,127,154500,5,4,0:3:0:0:
296,10,154666,1,4,1:3:0:0:
296,10,154750,1,0,0:0:0:0:
296,10,154833,1,4,0:3:0:0:
364,172,155000,5,14,1:3:0:0:
364,172,155166,1,0,0:0:0:0:
234,247,155333,2,0,L|257:173,1,77.0000023498536,4|4,0:3|1:3,0:0:0:0:
440,56,155666,5,12,0:3:0:0:
492,114,155833,1,4,1:3:0:0:
448,174,156000,1,4,1:3:0:0:
499,232,156166,1,4,1:3:0:0:
343,291,156333,5,12,1:3:0:0:
360,208,156500,1,4,1:3:0:0:
437,181,156666,1,4,1:3:0:0:
494,242,156833,1,4,0:3:0:0:
482,321,157000,1,12,0:3:0:0:
408,348,157166,1,4,1:3:0:0:
333,285,157333,1,0,0:0:0:0:
354,201,157500,1,0,1:3:0:0:
415,262,157666,5,14,1:3:0:0:
386,258,157749,1,8,0:3:0:0:
358,251,157832,1,8,0:3:0:0:
332,239,157916,1,8,0:3:0:0:
308,224,158000,5,14,0:3:0:0:
282,230,158083,1,8,0:3:0:0:
254,237,158166,1,8,0:3:0:0:
228,249,158250,1,8,0:3:0:0:
204,265,158333,5,14,0:3:0:0:
200,273,158416,1,8,0:3:0:0:
200,257,158500,1,8,0:3:0:0:
213,265,158583,1,8,0:3:0:0:
196,282,158666,5,14,0:3:0:0:
189,255,158750,1,8,0:3:0:0:
215,249,158833,1,8,0:3:0:0:
222,275,158916,1,8,0:3:0:0:
204,265,159000,5,14,0:3:0:0:
45,185,159166,1,4,0:3:0:0:
45,185,159250,1,0,0:3:0:0:
45,185,159333,1,4,0:3:0:0:
124,324,159500,1,4,0:3:0:0:
275,176,159666,1,4,0:3:0:0:
38,270,159833,1,8,0:3:0:0:
217,368,160000,5,8,0:3:0:0:
212,330,160083,1,8,0:3:0:0:
208,292,160166,1,8,0:3:0:0:
204,254,160250,1,8,0:3:0:0:
200,215,160333,5,6,0:3:0:0:
289,255,160666,5,8,0:3:0:0:
289,255,160833,1,4,0:3:0:0:
356,199,161166,5,4,0:3:0:0:
356,199,161333,1,8,0:3:0:0:
336,117,161833,5,4,0:3:0:0:
336,117,162000,1,8,0:3:0:0:
258,83,162333,5,4,0:3:0:0:
205,145,162666,5,8,0:3:0:0:
205,145,162833,1,4,0:3:0:0:
286,190,163166,5,4,0:3:0:0:
286,190,163333,1,8,0:3:0:0:
349,143,163833,5,4,0:3:0:0:
349,143,164000,1,8,0:3:0:0:
243,335,164333,5,6,0:3:0:0:
421,195,164666,5,8,0:3:0:0:
421,195,164833,1,4,0:3:0:0:
411,276,165166,5,4,0:3:0:0:
411,276,165333,1,8,0:3:0:0:
328,286,165833,5,4,0:3:0:0:
328,286,166000,1,8,0:3:0:0:
259,243,166333,5,4,0:3:0:0:
185,277,166666,5,8,0:3:0:0:
185,277,166833,1,4,0:3:0:0:
116,225,167166,5,4,0:3:0:0:
116,225,167333,1,8,0:3:0:0:
194,190,167833,5,4,0:3:0:0:
203,268,168000,5,10,0:3:0:0:
141,316,168166,5,0,0:0:0:0:
287,291,168333,5,14,0:3:0:0:
315,289,168416,1,4,0:3:0:0:
344,285,168499,1,12,0:3:0:0:
372,279,168583,1,4,0:3:0:0:
400,272,168666,6,0,L|436:291,3,38.5000011749268,12|4|4|4,0:3|0:3|0:3|0:3,0:0:0:0:
461,200,169000,2,0,L|501:198,3,38.5000011749268,12|4|4|4,0:3|0:3|0:3|0:3,0:0:0:0:
401,130,169333,2,0,L|435:108,3,38.5000011749268,12|4|4|4,0:3|0:3|0:3|0:3,0:0:0:0:
329,201,169666,5,12,0:3:0:0:
329,201,169750,1,8,0:3:0:0:
329,201,169833,2,0,L|321:163,1,38.5000011749268,8|8,0:3|0:3,0:0:0:0:
260,106,170000,5,8,0:3:0:0:
260,106,170084,1,8,0:3:0:0:
260,106,170167,2,0,L|267:68,1,38.5000011749268,8|8,0:3|0:3,0:0:0:0:
358,87,170333,5,14,0:3:0:0:
236,193,170500,1,12,0:3:0:0:
210,194,170583,1,4,0:3:0:0:
186,187,170666,1,12,0:3:0:0:
166,171,170750,1,4,0:3:0:0:
153,149,170833,1,4,0:3:0:0:
150,124,170916,1,4,0:3:0:0:
156,99,171000,6,0,L|204:91,3,38.5000011749268,12|4|4|4,0:3|0:3|0:3|0:3,0:0:0:0:
83,52,171333,2,0,L|75:4,3,38.5000011749268,12|4|4|4,0:3|0:3|0:3|0:3,0:0:0:0:
39,123,171666,2,0,L|-9:131,3,38.5000011749268,12|8|8|8,0:3|0:3|0:3|0:3,0:0:0:0:
113,180,172000,2,0,L|121:228,3,38.5000011749268,8|8|8|8,0:3|0:3|0:3|0:3,0:0:0:0:
38,213,172333,5,14,0:3:0:0:
113,314,172500,1,12,0:3:0:0:
117,288,172583,1,4,0:3:0:0:
128,265,172666,1,12,0:3:0:0:
146,247,172750,1,4,0:3:0:0:
169,235,172833,1,4,0:3:0:0:
194,231,172916,1,4,0:3:0:0:
227,242,173000,5,12,0:3:0:0:
227,242,173083,1,4,0:3:0:0:
227,242,173167,2,0,L|232:280,1,38.5000011749268,4|4,0:3|0:3,0:0:0:0:
293,328,173333,2,0,L|288:366,3,38.5000011749268,12|4|4|4,0:3|0:3|0:3|0:3,0:0:0:0:
435,289,173666,5,12,0:3:0:0:
415,290,173749,1,8,0:3:0:0:
396,287,173832,1,8,0:3:0:0:
379,280,173916,1,8,0:3:0:0:
363,269,173999,1,8,0:3:0:0:
350,255,174082,1,8,0:3:0:0:
341,238,174166,1,8,0:3:0:0:
336,219,174249,1,8,0:3:0:0:
336,200,174332,1,14,0:3:0:0:
469,163,174500,5,12,0:3:0:0:
469,163,174583,1,4,0:3:0:0:
469,163,174666,2,0,L|473:201,1,38.5000011749268,12|4,0:3|0:3,0:0:0:0:
383,108,174833,5,4,0:3:0:0:
383,108,174916,1,4,0:3:0:0:
383,108,174999,2,0,L|387:69,1,38.5000011749268,12|4,0:3|0:3,0:0:0:0:
316,36,175166,5,4,0:3:0:0:
470,75,175333,2,0,L|507:64,2,38.5000011749268,12|4|4,0:3|0:3|0:3,0:0:0:0:
310,158,175666,5,8,0:3:0:0:
272,150,175749,1,8,0:3:0:0:
234,143,175832,1,12,0:3:0:0:
196,135,175916,1,12,0:3:0:0:
162,159,176000,5,12,0:3:0:0:
143,162,176082,1,12,0:3:0:0:
124,166,176167,1,12,0:3:0:0:
105,170,176250,1,12,0:3:0:0:
66,148,176333,6,0,P|49:77|109:37,1,154.000004699707,14|0,0:3|1:3,0:0:0:0:
183,94,176833,1,0,1:3:0:0:
266,25,177000,1,8,0:3:0:0:
268,44,177083,1,8,0:3:0:0:
271,63,177166,1,8,0:3:0:0:
274,82,177250,1,8,0:3:0:0:
276,101,177333,1,14,1:3:0:0:
471,115,177666,5,0,1:3:0:0:
363,124,177833,2,0,L|350:199,1,77.0000023498536,0|8,1:3|0:3,0:0:0:0:
369,237,178083,1,8,0:3:0:0:
369,237,178166,1,8,0:3:0:0:
369,237,178250,1,8,0:3:0:0:
369,237,178333,6,0,B|277:229|308:267|218:256,1,154.000004699707,14|0,1:3|1:3,0:0:0:0:
81,308,178833,1,0,1:3:0:0:
173,384,179000,1,12,0:3:0:0:
170,364,179083,1,12,0:3:0:0:
168,345,179166,1,12,0:3:0:0:
166,326,179250,1,12,0:3:0:0:
164,307,179333,1,14,1:3:0:0:
17,182,179666,5,0,1:3:0:0:
86,137,179833,1,0,1:3:0:0:
161,173,180000,1,4,0:3:0:0:
224,127,180166,1,4,0:3:0:0:
334,295,180333,6,0,P|359:222|350:147,1,154.000004699707,6|0,1:3|1:3,0:0:0:0:
267,230,180833,1,0,1:3:0:0:
192,177,181000,1,8,0:3:0:0:
189,157,181083,1,8,0:3:0:0:
186,138,181166,1,8,0:3:0:0:
184,119,181250,1,8,0:3:0:0:
182,100,181333,1,14,1:3:0:0:
26,204,181666,5,0,1:3:0:0:
73,271,181832,2,0,P|110:278|148:286,1,77.0000023498536,0|0,1:3|0:0,0:0:0:0:
148,286,182083,1,8,0:3:0:0:
148,286,182166,1,8,0:3:0:0:
148,286,182250,1,8,0:3:0:0:
148,286,182333,1,14,0:3:0:0:
350,372,182666,5,0,1:3:0:0:
302,291,182833,1,0,1:3:0:0:
407,285,183000,1,8,1:3:0:0:
416,268,183083,1,8,0:3:0:0:
424,250,183166,1,8,0:3:0:0:
431,232,183250,1,8,0:3:0:0:
436,214,183333,1,14,0:3:0:0:
282,39,183666,5,4,1:3:0:0:
359,146,183833,1,4,1:3:0:0:
275,122,184000,1,4,0:3:0:0:
362,62,184166,1,4,0:3:0:0:
264,134,184333,5,6,0:3:0:0:
264,134,184416,1,4,0:3:0:0:
264,134,184500,1,4,0:3:0:0:
264,134,184583,1,4,0:3:0:0:
264,134,184667,1,4,1:3:0:0:
153,90,184833,1,4,1:3:0:0:
168,105,185333,5,6,0:3:0:0:
168,105,185416,1,4,0:3:0:0:
168,105,185500,1,4,0:3:0:0:
168,105,185583,1,4,0:3:0:0:
168,105,185666,1,4,1:3:0:0:
188,193,185833,1,4,1:3:0:0:
203,208,186333,5,6,0:3:0:0:
203,208,186416,1,4,0:3:0:0:
203,208,186500,1,4,0:3:0:0:
203,208,186583,1,4,0:3:0:0:
203,208,186667,1,4,1:3:0:0:
92,164,186833,1,4,1:3:0:0:
107,179,187333,5,6,0:3:0:0:
107,179,187416,1,4,0:3:0:0:
107,179,187500,1,4,0:3:0:0:
107,179,187583,1,4,0:3:0:0:
107,179,187666,1,4,1:3:0:0:
127,267,187833,1,4,1:3:0:0:
33,244,188000,1,10,1:3:0:0:
69,339,188166,1,10,1:3:0:0:
69,339,188250,1,0,0:3:0:0:
69,339,188333,5,6,0:3:0:0:
87,344,188416,1,4,0:3:0:0:
105,349,188499,1,4,0:3:0:0:
124,355,188583,1,4,0:3:0:0:
142,361,188666,1,4,1:3:0:0:
229,298,188833,1,4,1:3:0:0:
229,298,189333,5,6,0:3:0:0:
247,303,189416,1,4,0:3:0:0:
265,308,189499,1,4,0:3:0:0:
284,314,189583,1,4,0:3:0:0:
302,320,189666,1,4,1:3:0:0:
379,274,189833,1,4,1:3:0:0:
379,274,190333,5,6,0:3:0:0:
384,256,190416,1,4,0:3:0:0:
389,238,190499,1,4,0:3:0:0:
395,219,190583,1,4,0:3:0:0:
401,201,190666,1,4,1:3:0:0:
355,124,190833,1,4,1:3:0:0:
355,124,191333,5,6,0:3:0:0:
337,119,191416,1,4,0:3:0:0:
319,114,191499,1,4,0:3:0:0:
300,108,191583,1,4,0:3:0:0:
282,102,191666,1,4,1:3:0:0:
205,148,191833,1,4,1:3:0:0:
205,148,192000,5,8,0:3:0:0:
200,166,192083,1,8,0:3:0:0:
195,184,192166,1,8,0:3:0:0:
189,203,192250,1,8,0:3:0:0:
183,221,192333,6,0,P|240:219|296:207,1,115.50000352478,14|0,1:3|0:3,0:0:0:0:
314,191,192666,1,8,0:3:0:0:
478,298,192833,2,0,P|403:280|326:286,1,154.000004699707,6|4,1:3|0:3,0:0:0:0:
195,371,193333,6,0,B|206:276|166:311|182:220,1,154.000004699707,8|4,0:3|0:3,0:0:0:0:
96,331,193833,1,4,0:3:0:0:
61,261,194000,2,0,P|62:222|69:184,1,77.0000023498536,8|0,0:3|0:0,0:0:0:0:
267,183,194333,6,0,P|303:172|340:160,1,77.0000023498536,4|0,0:3|0:0,0:0:0:0:
138,119,194666,2,0,P|101:105|67:88,1,77.0000023498536,10|0,1:3|0:0,0:0:0:0:
305,153,195000,6,0,P|359:134|408:104,1,115.50000352478,6|0,1:3|0:3,0:0:0:0:
430,107,195333,1,4,0:3:0:0:
236,29,195500,2,0,P|227:105|218:182,1,154.000004699707,8|4,0:3|0:3,0:0:0:0:
349,309,196000,6,0,P|419:285|438:213,1,154.000004699707,8|4,0:3|0:3,0:0:0:0:
360,172,196500,1,10,0:3:0:0:
299,231,196666,1,14,0:3:0:0:
278,149,196833,5,4,0:3:0:0:
278,149,196916,1,4,0:3:0:0:
278,149,197000,1,8,0:3:0:0:
242,295,197166,1,8,0:3:0:0:
229,293,197249,1,8,0:3:0:0:
216,291,197332,1,8,0:3:0:0:
203,290,197416,1,8,0:3:0:0:
191,288,197499,1,8,0:3:0:0:
178,287,197582,1,8,0:3:0:0:
165,286,197666,5,12,0:3:0:0:
106,230,197833,1,4,0:3:0:0:
119,153,198000,1,4,0:3:0:0:
200,204,198166,5,12,1:3:0:0:
239,135,198333,1,4,0:3:0:0:
317,124,198500,1,4,0:3:0:0:
294,213,198666,5,12,1:3:0:0:
375,213,198833,1,4,0:3:0:0:
431,270,199000,1,4,0:3:0:0:
323,374,199166,6,0,L|330:297,1,77.0000023498536,12|4,1:3|0:3,0:0:0:0:
330,297,199500,1,4,0:3:0:0:
456,189,199666,5,12,1:3:0:0:
456,189,199833,1,4,0:3:0:0:
362,149,200000,2,0,L|375:224,1,77.0000023498536,4|0,0:3|0:3,0:0:0:0:
261,252,200333,1,10,1:3:0:0:
242,246,200416,1,8,0:3:0:0:
223,241,200499,1,8,0:3:0:0:
205,236,200583,1,8,0:3:0:0:
186,232,200666,1,8,0:3:0:0:
167,227,200750,1,8,0:3:0:0:
149,222,200833,5,10,1:3:0:0:
149,231,200916,1,8,0:3:0:0:
138,227,201000,1,8,0:3:0:0:
138,215,201083,1,8,0:3:0:0:
149,212,201166,1,8,0:3:0:0:
155,221,201250,1,8,0:3:0:0:
149,222,201333,5,10,1:3:0:0:
147,193,201416,1,8,0:3:0:0:
151,164,201499,1,8,0:3:0:0:
160,137,201583,1,8,0:3:0:0:
173,108,201666,6,0,P|226:105|278:100,1,105,10|4,1:3|0:3,0:0:0:0:
296,112,202250,1,4,0:3:0:0:
296,112,202333,1,8,0:3:0:0:
438,33,202499,1,8,0:3:0:0:
442,49,202584,1,8,0:3:0:0:
446,66,202666,2,0,P|411:61|377:52,1,70,8|0,0:3|0:0,0:0:0:0:
301,4,203000,5,12,0:3:0:0:
301,4,203166,1,12,0:3:0:0:
137,0,204333,1,12,0:3:0:0:
137,0,204500,1,4,0:3:0:0:
341,12,205667,1,12,0:3:0:0:
341,12,205833,1,4,0:3:0:0:
236,4,206666,1,2,1:3:0:0:
248,374,207000,6,0,P|254:318|278:224,1,140,2|0,1:3|0:0,0:0:0:0:
341,332,207500,1,4,0:3:0:0:
341,332,207583,1,4,0:3:0:0:
341,332,207666,2,0,P|398:320|425:316,1,70,8|0,1:3|0:3,0:0:0:0:
449,147,208000,2,0,P|475:191|478:256,1,105,0|0,1:3|0:0,0:0:0:0:
480,243,208333,6,0,P|417:237|332:216,1,140,2|0,0:3|0:3,0:0:0:0:
288,158,208833,1,4,1:3:0:0:
203,289,209000,2,0,P|245:280|288:278,1,70,8|0,0:3|1:3,0:0:0:0:
153,213,209333,2,0,P|109:223|64:226,1,70,4|0,1:3|1:3,0:0:0:0:
163,373,209666,5,4,1:3:0:0:
106,319,209833,1,4,1:3:0:0:
48,257,210000,2,0,P|60:203|71:164,1,70,8|0,1:3|0:3,0:0:0:0:
0,384,210333,5,8,0:3:0:0:
131,337,210500,1,8,1:3:0:0:
252,276,210666,2,0,P|294:285|326:297,1,70,4|0,0:3|1:0,0:0:0:0:
55,146,211000,6,0,P|123:169|212:175,1,140,2|0,0:3|0:0,0:0:0:0:
263,134,211500,1,4,0:3:0:0:
155,5,211666,1,8,0:3:0:0:
155,5,211833,2,0,P|162:49|157:86,1,70,4|4,0:3|0:3,0:0:0:0:
295,234,212166,5,4,1:3:0:0:
295,234,212250,1,4,0:3:0:0:
295,234,212333,2,0,P|244:244|204:261,1,70,8|4,0:3|1:3,0:0:0:0:
427,122,212666,2,0,P|407:164|396:227,1,105,8|0,1:3|0:3,0:0:0:0:
396,221,213000,5,8,0:3:0:0:
403,255,213083,1,8,0:3:0:0:
411,289,213166,1,8,0:3:0:0:
419,323,213250,1,8,0:3:0:0:
406,357,213333,5,8,0:3:0:0:
431,349,213416,1,8,0:3:0:0:
457,350,213499,1,8,0:3:0:0:
481,359,213583,1,8,0:3:0:0:
500,368,213666,6,0,P|462:375|409:391,1,70,14|0,0:3|0:0,0:0:0:0:
480,136,214000,2,0,P|468:219|448:305,1,140,8|4,0:3|1:3,0:0:0:0:
368,231,214500,1,4,0:3:0:0:
368,231,214583,1,0,1:3:0:0:
235,300,214750,1,0,0:3:0:0:
235,300,214833,1,0,1:3:0:0:
295,366,215000,6,0,P|284:322|282:272,1,70,4|0,1:3|0:3,0:0:0:0:
64,267,215333,2,0,P|132:289|172:325,1,105,8|0,1:3|0:0,0:0:0:0:
157,309,215666,2,0,P|168:265|181:234,1,70,4|4,1:3|0:3,0:0:0:0:
347,138,216000,2,0,P|295:155|256:158,1,70,8|0,1:3|0:0,0:0:0:0:
42,73,216333,5,4,1:3:0:0:
120,61,216500,1,4,0:3:0:0:
218,26,216666,2,0,P|213:77|206:112,1,70,12|0,1:3|1:3,0:0:0:0:
82,223,217000,1,4,1:3:0:0:
82,223,217083,1,4,0:0:0:0:
35,153,217250,1,0,1:3:0:0:
35,153,217333,1,8,0:0:0:0:
128,145,217500,1,0,1:3:0:0:
39,294,217666,6,0,P|31:353|18:390,1,70,4|0,1:3|0:3,0:0:0:0:
190,217,218000,2,0,P|172:277|163:345,1,105,8|0,1:3|0:0,0:0:0:0:
165,318,218333,1,4,0:3:0:0:
266,317,218500,1,4,0:3:0:0:
93,237,218666,1,8,0:3:0:0:
20,207,218833,1,0,0:0:0:0:
180,131,219000,5,6,0:3:0:0:
180,131,219333,1,8,0:3:0:0:
115,11,219500,2,0,P|90:41|81:155,1,140,0|4,1:3|1:3,0:0:0:0:
283,53,220000,2,0,P|237:41|200:22,1,70,8|0,1:3|1:3,0:0:0:0:
332,138,220333,5,4,1:3:0:0:
332,138,220500,1,0,1:3:0:0:
332,138,220666,2,0,P|400:144|487:175,1,140,8|4,1:3|0:3,0:0:0:0:
441,0,221166,1,4,0:3:0:0:
441,0,221250,1,0,0:0:0:0:
441,0,221333,2,0,P|426:41|419:78,1,70,8|4,0:3|0:3,0:0:0:0:
388,371,221666,5,8,0:3:0:0:
388,371,221750,1,0,0:0:0:0:
388,371,221833,1,4,0:3:0:0:
388,371,221916,1,4,0:3:0:0:
388,371,222000,2,0,L|441:365,3,35,8|0|4|4,0:3|0:0|0:3|0:3,0:0:0:0:
474,284,222333,5,8,0:3:0:0:
474,284,222417,1,0,0:0:0:0:
474,284,222500,1,4,0:3:0:0:
474,284,222583,1,4,0:3:0:0:
474,284,222667,2,0,L|421:290,3,35,8|0|4|4,0:3|0:0|0:3|0:3,0:0:0:0:
368,255,223000,1,8,0:3:0:0:
245,333,223166,1,8,0:3:0:0:
222,338,223249,1,8,0:3:0:0:
199,340,223332,1,8,0:3:0:0:
176,337,223416,1,8,0:3:0:0:
153,331,223499,1,8,0:3:0:0:
132,321,223582,1,8,0:3:0:0:
113,307,223666,5,8,0:3:0:0:
46,268,223917,5,8,0:3:0:0:
6,331,224166,5,8,0:3:0:0:
56,15,224333,1,6,1:3:0:0:
56,15,224416,1,4,0:3:0:0:
56,15,224500,1,4,0:3:0:0:
56,15,224583,1,4,0:3:0:0:
56,15,224666,2,0,B|58:13|112:-1,3,35,4|4|4|4,0:3|0:3|0:3|0:3,0:0:0:0:
61,19,225000,2,0,P|72:69|91:161,1,125.999996154785,12|0,1:3|0:0,0:0:0:0:
170,367,225666,5,4,1:3:0:0:
170,367,225750,1,4,0:3:0:0:
170,367,225833,1,4,0:3:0:0:
170,367,225916,1,4,0:3:0:0:
170,367,226000,2,0,L|202:376,3,20.9999993591309,4|4|4|4,0:3|0:3|0:3|0:3,0:0:0:0:
170,367,226333,2,0,P|192:310|202:239,1,125.999996154785,12|0,1:3|0:0,0:0:0:0:
266,22,227000,5,4,1:3:0:0:
266,22,227083,1,4,0:3:0:0:
266,22,227166,1,4,0:3:0:0:
266,22,227250,1,4,0:3:0:0:
266,22,227333,2,0,L|297:20,3,20.9999993591309,4|4|4|4,0:3|0:3|0:3|0:3,0:0:0:0:
286,20,227666,2,0,P|302:66|325:149,1,125.999996154785,12|0,1:3|0:0,0:0:0:0:
427,326,228333,5,4,1:3:0:0:
427,326,228416,1,4,0:3:0:0:
427,326,228500,1,4,0:3:0:0:
427,326,228583,1,4,0:3:0:0:
427,326,228666,2,0,L|455:332,3,20.9999993591309,4|4|4|4,1:3|0:3|0:3|0:3,0:0:0:0:
447,330,229000,5,12,1:3:0:0:
467,259,229166,1,8,0:3:0:0:
491,113,229333,5,8,1:3:0:0:
505,187,229500,1,8,0:3:0:0:
508,378,229666,5,14,1:3:0:0:
508,378,229750,1,4,0:3:0:0:
508,378,229833,1,4,0:3:0:0:
508,378,229916,1,4,0:3:0:0:
508,378,230000,1,4,0:3:0:0:
508,378,230083,1,4,0:3:0:0:
508,378,230166,1,4,0:3:0:0:
508,378,230250,1,4,0:3:0:0:
508,378,230333,2,0,P|464:370|384:358,1,125.999996154785,12|0,0:3|0:0,0:0:0:0:
8,304,231000,5,4,1:3:0:0:
8,304,231083,1,4,0:3:0:0:
8,304,231166,1,4,0:3:0:0:
8,304,231250,1,4,0:3:0:0:
8,304,231333,1,4,0:3:0:0:
8,304,231416,1,4,0:3:0:0:
8,304,231500,1,4,0:3:0:0:
8,304,231583,1,4,0:3:0:0:
8,304,231666,2,0,P|51:297|142:292,1,125.999996154785,12|0,0:3|0:0,0:0:0:0:
471,217,232333,5,4,1:3:0:0:
471,217,232416,1,4,0:3:0:0:
471,217,232500,1,4,0:3:0:0:
471,217,232583,1,4,0:3:0:0:
471,217,232666,1,4,0:3:0:0:
471,217,232750,1,4,0:3:0:0:
471,217,232833,1,4,0:3:0:0:
471,217,232916,1,4,0:3:0:0:
471,217,233000,2,0,P|419:207|336:192,1,125.999996154785,12|0,0:3|0:0,0:0:0:0:
40,116,233666,5,6,1:3:0:0:
40,116,233750,1,4,0:3:0:0:
40,116,233833,1,4,1:3:0:0:
40,116,233916,1,4,0:3:0:0:
40,116,234000,2,0,P|68:112|121:96,1,62.9999980773926,6|4,1:3|1:3,0:0:0:0:
258,20,234333,5,12,0:3:0:0:
244,65,234416,1,8,0:3:0:0:
255,112,234500,1,8,0:3:0:0:
241,158,234583,1,8,0:3:0:0:
249,201,234666,1,8,1:3:0:0:
254,372,234833,5,8,0:3:0:0:
254,372,234916,1,8,0:3:0:0:
254,372,235000,1,14,1:3:0:0:
327,346,235166,1,0,0:3:0:0:
204,295,235333,2,0,P|160:285|117:272,1,87.5,8|0,0:3|0:3,0:0:0:0:
375,135,235666,2,0,P|292:143|257:209,1,131.25,4|0,1:3|0:0,0:0:0:0:
264,176,236000,2,0,P|272:227|284:268,1,87.5,8|0,1:3|1:3,0:0:0:0:
379,340,236333,5,4,1:3:0:0:
408,249,236500,1,0,0:3:0:0:
474,310,236666,1,8,1:3:0:0:
493,211,236833,1,0,0:3:0:0:
355,139,237000,5,4,1:3:0:0:
393,220,237166,1,4,0:3:0:0:
471,116,237333,1,8,1:3:0:0:
415,45,237500,1,0,0:3:0:0:
260,78,237666,6,0,P|209:68|81:61,1,175,4|8,1:3|1:3,0:0:0:0:
24,6,238166,1,0,0:3:0:0:
138,141,238333,2,0,P|122:208|117:250,1,87.5,4|4,1:3|1:3,0:0:0:0:
119,226,238583,1,0,0:0:0:0:
43,188,238749,1,0,0:0:0:0:
43,188,238833,1,0,1:3:0:0:
229,197,239000,5,4,1:3:0:0:
260,274,239166,1,0,0:3:0:0:
146,288,239333,1,8,1:3:0:0:
120,372,239500,1,0,0:3:0:0:
285,289,239666,5,4,1:3:0:0:
218,339,239833,1,4,0:3:0:0:
86,303,240000,1,8,1:3:0:0:
9,349,240166,1,0,0:3:0:0:
29,228,240333,2,0,P|77:241|203:281,1,175,6|8,1:3|0:3,0:0:0:0:
500,266,240833,6,0,P|392:246|306:217,1,175,0|4,1:3|1:3,0:0:0:0:
263,154,241333,1,8,1:3:0:0:
349,129,241500,1,0,1:3:0:0:
217,3,241666,5,4,1:3:0:0:
328,37,241833,1,0,1:3:0:0:
434,84,242000,2,0,P|440:37|458:-11,1,87.5,8|0,1:3|0:0,0:0:0:0:
391,219,242333,2,0,P|445:205|497:204,1,87.5,4|4,0:3|1:3,0:0:0:0:
476,203,242583,1,0,0:0:0:0:
476,203,242666,1,8,0:3:0:0:
509,288,242833,1,0,1:3:0:0:
290,177,243000,6,0,P|305:226|251:360,1,175,4|8,1:3|0:3,0:0:0:0:
182,359,243500,1,0,1:3:0:0:
204,216,243666,2,0,P|161:222|108:228,1,87.5,4|4,0:3|0:3,0:0:0:0:
5,324,244000,2,0,P|56:316|102:312,1,87.5,12|4,0:3|0:3,0:0:0:0:
148,138,244333,5,12,0:3:0:0:
148,138,244416,1,8,0:3:0:0:
148,138,244500,1,8,0:3:0:0:
148,138,244583,1,8,0:3:0:0:
148,138,244666,2,0,L|141:186,3,43.75,12|8|8|8,0:3|0:3|0:3|0:3,0:0:0:0:
104,72,245000,5,12,0:3:0:0:
137,61,245083,1,8,0:3:0:0:
174,68,245166,1,8,0:3:0:0:
202,82,245250,1,8,0:3:0:0:
231,57,245333,5,12,0:3:0:0:
260,52,245416,1,0,0:3:0:0:
289,57,245500,1,8,0:3:0:0:
315,45,245583,1,8,0:3:0:0:
336,34,245666,6,0,P|395:43|448:50,1,105,6|0,1:3|0:3,0:0:0:0:
439,48,245999,2,0,P|473:27|519:9,1,70,8|4,1:3|0:3,0:0:0:0:
382,184,246332,2,0,P|371:143|354:111,1,70,0|4,1:3|0:3,0:0:0:0:
486,175,246666,5,12,1:3:0:0:
486,175,246749,1,4,0:3:0:0:
486,175,246832,1,4,0:3:0:0:
348,260,246999,1,4,1:3:0:0:
414,289,247166,1,4,0:3:0:0:
487,324,247332,2,0,P|499:281|519:236,1,70,8|4,1:3|1:3,0:0:0:0:
326,350,247666,5,6,1:3:0:0:
326,350,247999,2,0,P|272:337|244:333,1,70,8|4,1:3|3:3,0:0:0:0:
159,297,248332,1,0,1:3:0:0:
87,335,248499,1,4,3:3:0:0:
21,238,248666,2,0,L|-18:224,2,35,12|4|4,1:3|0:3|0:3,0:0:0:0:
95,145,248999,2,0,P|105:192|116:226,1,70,4|4,1:3|0:3,0:0:0:0:
27,31,249332,1,8,1:3:0:0:
105,49,249499,1,4,1:3:0:0:
222,74,249666,1,6,1:3:0:0:
222,74,249999,5,8,1:3:0:0:
347,7,250166,2,0,P|318:85|313:153,1,140,4|4,3:3|3:3,0:0:0:0:
424,85,250666,2,0,P|476:71|515:65,1,70,12|4,1:3|0:3,0:0:0:0:
380,212,250999,2,0,P|391:253|396:293,1,70,4|4,1:3|0:3,0:0:0:0:
266,134,251332,1,8,1:3:0:0:
184,166,251499,1,4,1:3:0:0:
301,258,251666,6,0,P|296:331|286:390,1,105,2|0,1:3|0:3,0:0:0:0:
291,362,251999,1,8,1:3:0:0:
373,352,252166,1,4,3:3:0:0:
475,334,252332,1,0,1:3:0:0:
392,277,252499,1,4,0:3:0:0:
454,198,252666,6,0,L|457:156,1,35,10|0,0:3|0:3,0:0:0:0:
478,151,252832,2,0,L|481:109,1,35,10|0,0:3|0:3,0:0:0:0:
425,15,252999,6,0,L|422:57,1,35,10|0,0:3|0:3,0:0:0:0:
401,62,253165,2,0,L|398:104,1,35,10|0,0:3|0:3,0:0:0:0:
281,144,253332,6,0,L|284:102,1,35,10|0,0:3|0:3,0:0:0:0:
305,97,253498,2,0,L|308:55,1,35,10|0,0:3|0:3,0:0:0:0:
195,90,253666,6,0,L|142:79,3,35,14|4|4|4,1:3|0:3|0:3|0:3,0:0:0:0:
98,22,253999,5,12,0:3:0:0:
98,22,254082,1,4,0:3:0:0:
98,22,254166,1,4,0:3:0:0:
98,22,254249,1,4,0:3:0:0:
98,22,254332,2,0,P|90:49|73:75,3,35,4|4|4|4,0:3|0:3|0:3|0:3,0:0:0:0:
108,165,254666,1,12,1:3:0:0:
108,165,254749,1,4,0:3:0:0:
108,165,254833,1,4,0:3:0:0:
108,165,254916,1,4,0:3:0:0:
108,165,254999,2,0,P|83:178|52:184,3,35,4|4|4|4,1:3|0:3|0:3|0:3,0:0:0:0:
38,250,255332,2,0,P|32:202|21:168,1,70,12|4,1:3|1:3,0:0:0:0:
210,237,255666,6,0,L|254:247,3,35,4|4|4|4,1:3|0:3|0:3|0:3,0:0:0:0:
312,192,255999,5,12,0:3:0:0:
312,192,256082,1,4,0:3:0:0:
312,192,256166,1,4,0:3:0:0:
312,192,256249,1,4,0:3:0:0:
312,192,256332,2,0,P|318:212|337:240,3,35,4|4|4|4,0:3|0:3|0:3|0:3,0:0:0:0:
397,326,256666,1,12,1:3:0:0:
397,326,256749,1,4,0:3:0:0:
397,326,256833,1,4,0:3:0:0:
397,326,256916,1,4,0:3:0:0:
397,326,256999,2,0,P|403:306|422:278,3,35,4|4|4|4,1:3|0:3|0:3|0:3,0:0:0:0:
432,217,257332,2,0,P|478:231|518:234,1,70,12|4,1:3|1:3,0:0:0:0:
508,2,257666,6,0,L|499:45,3,35,4|4|4|4,1:3|0:3|0:3|0:3,0:0:0:0:
418,29,257999,5,12,0:3:0:0:
418,29,258082,1,4,0:3:0:0:
418,29,258166,1,4,0:3:0:0:
418,29,258249,1,4,0:3:0:0:
418,29,258332,2,0,P|387:20|360:6,3,35,4|4|4|4,0:3|0:3|0:3|0:3,0:0:0:0:
310,64,258666,1,12,1:3:0:0:
310,64,258749,1,4,0:3:0:0:
310,64,258832,1,4,0:3:0:0:
310,64,258916,1,4,0:3:0:0:
310,64,258999,2,0,P|299:43|289:20,3,35,4|4|4|4,1:3|0:3|0:3|0:3,0:0:0:0:
250,101,259332,5,12,1:3:0:0:
238,134,259416,1,4,0:3:0:0:
252,165,259499,1,4,1:3:0:0:
268,196,259582,1,4,0:3:0:0:
259,229,259666,1,12,1:3:0:0:
247,376,259833,1,12,0:3:0:0:
247,376,260665,5,12,0:3:0:0:
246,362,260748,1,12,0:3:0:0:
245,349,260831,1,12,0:3:0:0:
244,336,260915,1,4,0:3:0:0:
243,323,260998,1,12,0:3:0:0:
242,310,261081,1,12,0:3:0:0:
241,297,261165,1,12,0:3:0:0:
240,284,261248,1,4,0:3:0:0:
239,271,261331,1,12,0:3:0:0:
269,189,261499,1,4,0:3:0:0:
248,0,261665,6,0,B|246:149|259:382,1,378.000009228516,6|0,0:3|0:0,0:0:0:0:
