osu file format v14

[General]
AudioFilename: 04 Wandering, Never Wandering (There.mp3
AudioLeadIn: 0
PreviewTime: 137674
Countdown: 0
SampleSet: None
StackLeniency: 0.7
Mode: 0
LetterboxInBreaks: 1
WidescreenStoryboard: 1

[Editor]
Bookmarks: 172341
DistanceSpacing: 1.5
BeatDivisor: 4
GridSize: 8
TimelineZoom: 2.7

[Metadata]
Title:Wandering, Never Wandering (There Exists A Shade)
TitleUnicode:Wandering, Never Wandering (There Exists A Shade)
Artist:Foreground Eclipse
ArtistUnicode:Foreground Eclipse
Creator:Lilywhite-
Version:Hard-
Source:Touhou
Tags:foreground eclipse stories that last through the sleepless nights touhou project last remote komeiji koishi
BeatmapID:495655
BeatmapSetID:151940

[Difficulty]
HPDrainRate:5.8
CircleSize:3.8
OverallDifficulty:5.5
ApproachRate:7.5
SliderMultiplier:1.6
SliderTickRate:1

[Events]
//Background and Video events
0,0,"20388595 (2).png",0,0
//Break Periods
2,19207,34182
2,93874,108849
2,160541,167516
//Storyboard Layer 0 (Background)
//Storyboard Layer 1 (Fail)
//Storyboard Layer 2 (Pass)
//Storyboard Layer 3 (Foreground)
//Storyboard Sound Samples

[TimingPoints]
3008,333.333333333333,4,1,0,70,1,0
35007,-100,4,3,0,50,0,0
51007,-117.647058823529,4,3,0,50,0,0
61674,-142.857142857143,4,2,0,50,0,0
72174,-100,4,3,0,55,0,0
109674,-100,4,3,0,60,0,0
137674,-83.3333333333333,4,3,0,60,0,1
160341,-83.3333333333333,4,3,0,60,0,0
167841,-66.6666666666667,4,3,0,55,0,0
168341,-100,4,1,0,50,0,0
184674,-100,4,2,0,50,0,0
192007,-58.8235294117647,4,3,0,65,0,0
207007,-100,4,3,0,65,0,0
212341,-100,4,3,0,65,0,1
245507,-100,4,3,0,65,0,0
261674,-100,4,3,0,60,0,0
263007,-100,4,3,0,50,0,0
264341,-100,4,3,0,40,0,0
265674,-100,4,3,0,30,0,0
267007,-100,4,3,0,20,0,0
268341,-100,4,3,0,10,0,0
269674,-100,4,3,0,5,0,0

[Colours]
Combo1 : 200,193,66
Combo2 : 0,202,0
Combo3 : 117,200,55

[HitObjects]
120,128,3008,6,0,P|160:96|200:96,1,80,0|0,0:0|0:0,0:0:0:0:
280,128,3341,2,0,P|320:152|344:184,1,80
376,256,3674,1,0,0:0:0:0:
376,256,4007,6,0,P|312:232|296:248,1,80
224,272,4341,2,0,P|184:288|128:288,1,80
72,256,4674,1,0,0:0:0:0:
128,120,5007,6,0,L|72:176,1,80
216,120,5341,2,0,L|280:64,1,80
360,40,5674,1,0,0:0:0:0:
384,192,6007,1,0,0:0:0:0:
384,192,6174,5,0,0:0:0:0:
304,240,6341,2,0,L|320:320,1,80
319,318,6674,1,0,0:0:0:0:
200,288,7007,6,0,P|240:168|416:200,1,320
472,256,7841,1,0,0:0:0:0:
392,304,8007,2,0,P|336:344|224:344,1,160
48,256,8674,1,0,0:0:0:0:
248,280,9007,1,0,0:0:0:0:
232,200,9174,5,0,0:0:0:0:
168,152,9341,1,0,0:0:0:0:
96,128,9507,2,0,B|144:80|208:80|208:80|248:112,1,160
304,224,10007,6,0,L|376:296,1,80
232,208,10341,2,0,L|208:296,1,80
184,136,10674,2,0,L|264:80,1,80
136,208,11007,5,0,0:0:0:0:
96,120,11174,2,0,L|64:96,2,40,0|0|4,0:0|0:0|0:0,0:0:0:0:
160,56,11507,1,0,0:0:0:0:
160,56,11674,2,0,B|240:48|256:80|256:80|280:136,1,160
277,131,12174,5,0,0:0:0:0:
352,224,12341,1,4,0:0:0:0:
272,208,12507,1,0,0:0:0:0:
200,248,12674,2,0,L|160:264,2,40,4|0|0,0:0|0:0|0:0,0:0:0:0:
272,280,13007,5,0,0:0:0:0:
352,312,13174,1,0,0:0:0:0:
424,272,13341,1,2,0:0:0:0:
440,192,13507,1,0,0:0:0:0:
440,192,13674,2,0,L|448:144,2,40,2|0|0,0:0|0:0|0:0,0:0:0:0:
344,96,14007,6,0,L|336:144,2,40,0|0|0,0:0|0:0|0:0,0:0:0:0:
344,96,14341,1,4,0:0:0:0:
272,128,14507,1,0,0:0:0:0:
192,120,14674,1,4,0:0:0:0:
128,80,14841,1,0,0:0:0:0:
128,80,15007,6,0,P|88:128|96:160,1,80
88,141,15341,2,0,P|104:192|80:232,1,80,2|0,0:0|0:0,0:0:0:0:
95,215,15674,1,2,0:0:0:0:
168,336,16007,2,0,L|224:280,1,80
288,272,16341,2,0,L|352:208,1,80,4|0,0:0|0:0,0:0:0:0:
400,192,16674,1,4,0:0:0:0:
400,192,17007,6,0,B|376:136|320:96|320:96|296:136,1,160,0|2,0:0|0:0,0:0:0:0:
240,168,17507,1,0,0:0:0:0:
168,112,17674,1,2,0:0:0:0:
256,80,17841,1,0,0:0:0:0:
256,80,18007,6,0,L|256:40,2,40,8|0|0,0:0|0:0|0:0,0:0:0:0:
160,192,18341,6,0,L|112:240,2,40,8|0|0,0:0|0:0|0:0,0:0:0:0:
352,192,18674,6,0,L|384:224,2,40,8|0|8,0:0|0:0|0:0,0:0:0:0:
256,192,19007,5,8,0:0:0:0:
256,192,35007,5,0,0:0:0:0:
184,224,35174,2,0,P|184:296|104:336,1,160
40,296,35674,1,0,0:0:0:0:
112,248,35841,2,0,B|120:192|96:168|96:168|152:104,1,160
200,48,36341,2,0,L|272:104,3,80,0|0|0|0,0:0|0:0|0:0|0:0,0:0:0:0:
264,168,37007,2,0,L|336:224,3,80,0|0|0|0,0:0|0:0|0:0|0:0,0:0:0:0:
328,288,37674,5,0,0:0:0:0:
400,344,37841,2,0,B|440:288|440:288|416:248|416:248|440:200,1,160
464,128,38341,1,0,0:0:0:0:
464,128,38507,2,0,P|424:80|328:88,1,160
264,160,39007,2,0,L|296:248,2,80,0|0|0,0:0|0:0|0:0,0:0:0:0:
240,72,39507,1,0,0:0:0:0:
168,32,39674,2,0,P|128:48|104:104,1,80
64,144,40007,1,0,0:0:0:0:
160,320,40341,5,0,0:0:0:0:
160,320,40507,2,0,L|216:240,1,80
232,168,40841,1,0,0:0:0:0:
232,168,41007,2,0,L|344:208,1,80
384,304,41341,2,0,L|304:280,1,80
192,272,41674,2,0,L|112:248,1,80,4|0,0:0|0:0,0:0:0:0:
115,249,42007,1,0,0:0:0:0:
115,249,42174,1,4,0:0:0:0:
115,249,42341,2,0,B|160:208|128:184|128:184|160:120|208:168,1,160,4|4,0:0|0:0,0:0:0:0:
360,72,43007,6,0,L|392:160,2,80,0|0|0,0:0|0:0|0:0,0:0:0:0:
272,40,43507,1,0,0:0:0:0:
280,128,43674,2,0,L|320:224,1,80
288,320,44008,2,0,L|208:280,1,80
216,284,44341,2,0,B|144:280|168:240|168:240|80:232,1,160,4|0,0:0|0:0,0:0:0:0:
144,160,44841,1,4,0:0:0:0:
40,160,45007,2,0,P|64:104|176:88,1,160,4|4,0:0|0:0,0:0:0:0:
232,96,45507,1,0,0:0:0:0:
296,152,45674,1,0,0:0:0:0:
256,192,45757,12,0,47007,0:0:0:0:
256,72,47674,6,0,P|240:128|272:232,1,160,0|8,0:0|0:0,0:0:0:0:
400,328,48341,2,0,P|376:288|272:288,1,160
168,352,49007,1,0,0:0:0:0:
80,272,49341,1,0,0:0:0:0:
40,160,49674,2,0,B|224:104|288:192|224:272|128:232|144:136|168:88|224:88|344:128,1,480
472,208,51007,5,0,0:0:0:0:
336,288,51341,1,0,0:0:0:0:
328,136,51674,2,0,P|304:112|256:112,1,68.0000012969971
184,120,52007,2,0,P|152:152|152:192,1,68.0000012969971
184,248,52341,1,0,0:0:0:0:
320,336,52674,1,0,0:0:0:0:
416,216,53007,5,0,0:0:0:0:
416,216,53174,1,0,0:0:0:0:
416,216,53341,2,0,P|424:152|416:120,1,68.0000012969971,4|0,0:0|0:0,0:0:0:0:
392,72,53674,1,0,0:0:0:0:
304,192,54007,1,0,0:0:0:0:
160,264,54341,1,0,0:0:0:0:
256,304,54507,1,0,0:0:0:0:
160,264,54674,5,0,0:0:0:0:
256,304,54841,2,0,L|344:272,1,68.0000012969971
440,184,55341,1,0,0:0:0:0:
288,160,55674,1,0,0:0:0:0:
184,120,55841,1,0,0:0:0:0:
200,224,56007,1,4,0:0:0:0:
288,160,56174,5,0,0:0:0:0:
368,248,56341,1,0,0:0:0:0:
264,344,56674,1,0,0:0:0:0:
104,312,57007,1,0,0:0:0:0:
48,248,57174,5,0,0:0:0:0:
64,160,57341,1,0,0:0:0:0:
160,64,57674,6,0,P|200:88|264:96,1,102.000001945496
296,104,58007,2,0,P|320:144|288:208,1,102.000001945496
280,216,58341,2,0,B|296:256|312:272|312:272|288:328,1,102.000001945496
296,336,58674,1,8,0:0:0:0:
144,296,59007,1,0,0:0:0:0:
56,256,59174,1,0,0:0:0:0:
128,200,59341,1,0,0:0:0:0:
288,152,59674,5,0,0:0:0:0:
200,112,59841,1,0,0:0:0:0:
272,56,60008,1,0,0:0:0:0:
360,88,60341,6,0,P|384:128|424:152,1,68.0000012969971
440,216,60674,2,0,P|416:256|416:296,1,68.0000012969971
360,336,61007,2,0,L|312:304,4,34.0000006484985,4|0|4|0|8,0:0|0:0|0:0|0:0|0:0,0:0:0:0:
232,184,61674,2,0,L|208:128,1,55.9999982910157,0|0,0:0|0:0,0:0:0:0:
176,312,62174,1,0,0:0:0:0:
96,208,62507,5,0,0:0:0:0:
96,208,62674,1,0,0:0:0:0:
96,208,62841,2,0,L|128:136,1,55.9999982910157
184,88,63174,1,0,0:0:0:0:
256,176,63507,1,0,0:0:0:0:
360,224,63841,5,0,0:0:0:0:
432,272,64007,1,0,0:0:0:0:
352,312,64174,2,0,L|232:328,1,111.999996582031
160,288,64674,1,0,0:0:0:0:
96,232,64841,2,0,L|120:160,1,55.9999982910157
56,104,65174,2,0,L|112:80,1,55.9999982910157
184,56,65507,1,0,0:0:0:0:
184,56,65674,2,0,P|224:96|272:96,1,83.9999974365235
280,112,66007,2,0,B|240:136|240:136|216:184,1,83.9999974365235
224,184,66341,1,0,0:0:0:0:
344,304,66674,6,0,L|328:240,1,55.9999982910157,0|0,0:0|0:0,0:0:0:0:
448,224,67007,2,0,L|392:192,1,55.9999982910157
464,96,67341,2,0,L|400:104,1,55.9999982910157
320,112,67674,1,0,0:0:0:0:
120,136,68174,6,0,P|96:200|120:248,1,111.999996582031
128,312,68674,1,0,0:0:0:0:
200,352,68841,1,0,0:0:0:0:
256,296,69007,2,0,B|280:256|280:256|256:216,1,83.9999974365235
240,200,69341,2,0,B|216:184|216:184|232:160|232:160|232:104,1,111.999996582031
256,192,69757,12,0,71674,0:0:0:0:
280,56,72174,5,0,0:0:0:0:
280,56,72341,2,0,B|256:136|256:136|288:144|288:144|272:192,1,160,0|4,0:0|0:0,0:0:0:0:
280,320,73007,5,0,0:0:0:0:
280,320,73174,1,4,0:0:0:0:
144,224,73507,5,0,0:0:0:0:
144,224,73674,1,4,0:0:0:0:
280,320,74007,1,4,0:0:0:0:
416,224,74341,6,0,P|440:160|432:136,1,80,0|4,0:0|0:0,0:0:0:0:
400,72,74674,1,0,0:0:0:0:
216,72,74841,2,4,P|192:112|200:152,1,80
240,216,75174,1,0,0:0:0:0:
328,256,75341,1,4,0:0:0:0:
328,256,75674,5,0,0:0:0:0:
240,216,75841,1,0,0:0:0:0:
56,256,76174,5,4,0:0:0:0:
144,296,76341,1,0,0:0:0:0:
328,256,76674,1,4,0:0:0:0:
432,112,77007,5,0,0:0:0:0:
352,32,77174,1,0,0:0:0:0:
312,136,77341,1,4,0:0:0:0:
312,136,77507,1,0,0:0:0:0:
312,136,77674,2,0,P|296:208|208:216,1,160
104,168,78174,1,0,0:0:0:0:
104,168,78341,2,0,P|136:80|224:72,1,160
288,40,78841,1,0,0:0:0:0:
288,40,79007,2,0,L|368:88,1,80
448,144,79341,6,0,L|360:200,1,80
272,224,79674,2,0,L|344:272,1,80
456,320,80007,2,0,P|368:368|296:352,1,160
232,304,80507,1,0,0:0:0:0:
144,264,80674,1,0,0:0:0:0:
96,96,81007,5,0,0:0:0:0:
184,136,81174,2,0,P|272:128|344:160,1,160
408,208,81674,1,0,0:0:0:0:
456,272,81841,1,0,0:0:0:0:
424,344,82007,1,0,0:0:0:0:
424,344,82341,5,0,0:0:0:0:
456,272,82507,1,0,0:0:0:0:
408,208,82674,1,0,0:0:0:0:
256,80,83007,2,0,L|160:216,1,160
163,210,83507,1,0,0:0:0:0:
256,80,83841,1,0,0:0:0:0:
352,40,84007,1,0,0:0:0:0:
408,208,84341,5,0,0:0:0:0:
368,280,84507,1,0,0:0:0:0:
288,312,84674,1,0,0:0:0:0:
208,288,84841,1,0,0:0:0:0:
160,224,85007,1,0,0:0:0:0:
160,224,85174,2,0,P|144:136|192:72,1,160
280,72,85841,6,0,L|376:56,2,80,0|0|0,0:0|0:0|0:0,0:0:0:0:
352,160,86341,2,0,L|448:144,2,80,0|0|0,0:0|0:0|0:0,0:0:0:0:
240,184,86841,1,0,0:0:0:0:
128,208,87007,2,0,P|160:144|144:96,1,120
112,88,87341,2,0,P|72:128|64:200,1,120
56,224,87674,2,0,P|64:272|104:296,1,80
200,304,88007,2,0,P|264:288|280:304,1,80
384,304,88341,2,0,P|408:352|440:352,2,80,0|0|0,0:0|0:0|0:0,0:0:0:0:
416,216,88841,1,0,0:0:0:0:
392,120,89007,1,0,0:0:0:0:
184,72,89341,5,0,0:0:0:0:
216,168,89507,1,0,0:0:0:0:
152,248,89674,2,0,P|112:208|72:208,1,80
40,136,90007,2,0,P|80:112|112:64,1,80
176,136,90341,1,0,0:0:0:0:
280,112,90507,1,0,0:0:0:0:
360,40,90674,2,0,P|416:72|448:144,1,120
440,152,91007,2,0,B|400:216|400:216|360:192|360:192|336:288|200:168,1,320
64,72,92007,5,0,0:0:0:0:
80,208,92341,6,0,L|136:248,3,40,0|0|0|0,0:0|0:0|0:0|0:0,0:0:0:0:
128,272,92674,6,0,L|176:288,3,40,0|0|0|0,0:0|0:0|0:0|0:0,0:0:0:0:
200,304,93007,6,0,P|264:320|328:312,1,120
328,288,93341,2,0,P|336:232|424:160,1,160
320,136,109674,6,0,L|416:104,2,80,0|0|0,0:0|0:0|0:0,0:0:0:0:
320,136,110174,1,0,0:0:0:0:
264,200,110341,2,0,L|232:280,1,80
176,336,110674,2,0,L|96:288,1,80
128,208,111007,2,0,L|64:120,2,80,0|0|0,0:0|0:0|0:0,0:0:0:0:
128,208,111507,1,0,0:0:0:0:
216,256,111674,2,0,P|272:280|296:272,1,80
352,224,112007,1,0,0:0:0:0:
136,88,112341,5,0,0:0:0:0:
136,88,112507,1,0,0:0:0:0:
136,88,112674,2,0,L|248:64,1,80
288,120,113007,2,0,L|376:104,1,80
448,152,113341,2,0,P|488:200|432:288,1,160
376,312,113841,1,0,0:0:0:0:
296,336,114007,1,0,0:0:0:0:
80,248,114341,6,0,L|120:216,3,40,0|0|0|0,0:0|0:0|0:0|0:0,0:0:0:0:
128,192,114674,2,0,L|136:144,3,40,0|0|0|0,0:0|0:0|0:0|0:0,0:0:0:0:
144,112,115007,2,0,P|192:104|232:112,1,80
320,152,115341,1,0,0:0:0:0:
320,152,115507,2,0,P|384:136|408:144,1,80
376,320,116007,1,0,0:0:0:0:
200,272,116341,5,0,0:0:0:0:
200,272,116507,2,0,P|160:216|136:208,1,80
72,168,116841,2,0,L|112:88,2,80,0|0|0,0:0|0:0|0:0,0:0:0:0:
48,248,117341,1,0,0:0:0:0:
96,312,117507,1,0,0:0:0:0:
168,344,117674,2,0,P|224:312|256:312,1,80
320,280,118007,2,0,P|368:256|408:256,1,80
472,256,118341,1,0,0:0:0:0:
296,128,118674,1,0,0:0:0:0:
112,80,119007,5,0,0:0:0:0:
112,80,119174,2,0,P|72:144|72:160,1,80
104,224,119507,1,0,0:0:0:0:
192,264,119674,2,0,P|232:304|232:336,1,80
304,248,120007,2,0,P|344:288|352:320,1,80
440,312,120341,2,0,P|440:240|368:184,1,160,0|0,0:0|0:0,0:0:0:0:
304,152,120841,1,0,0:0:0:0:
224,112,121007,6,0,B|136:96|136:96|112:136|112:136|136:176,1,160
184,200,121507,1,0,0:0:0:0:
184,200,121674,2,0,B|288:232|288:232|240:264,1,160
176,288,122174,1,0,0:0:0:0:
176,288,122341,2,0,L|88:272,1,80
48,216,122674,2,0,P|48:160|64:120,1,80
96,72,123007,2,0,P|160:96|216:96,1,120
240,80,123341,6,0,P|248:128|256:160,1,80
288,256,123674,2,0,L|248:336,1,80,0|0,0:0|0:0,0:0:0:0:
176,256,124007,2,0,L|112:304,1,80
80,184,124341,2,0,B|16:168|8:160|8:160|56:136,1,120
64,112,124674,2,0,P|96:72|136:56,1,80
200,24,125007,2,0,L|312:64,1,80
344,80,125341,1,0,0:0:0:0:
416,104,125507,1,0,0:0:0:0:
416,104,125674,2,0,P|384:168|384:256,1,160
383,255,126341,5,0,0:0:0:0:
128,320,126674,1,0,0:0:0:0:
128,320,126841,1,0,0:0:0:0:
128,320,127007,2,0,P|192:296|208:304,1,80
296,312,127341,1,0,0:0:0:0:
384,336,127507,1,0,0:0:0:0:
464,288,127674,2,0,L|480:248,3,40,0|0|0|0,0:0|0:0|0:0|0:0,0:0:0:0:
456,224,128007,6,0,L|432:192,3,40,0|0|0|0,0:0|0:0|0:0|0:0,0:0:0:0:
448,160,128341,6,0,B|456:120|432:88|432:88|384:144|344:152|288:120,1,240
272,40,129007,2,0,L|184:88,1,80
160,160,129341,2,0,B|120:176|136:208|144:208|200:176|200:176|216:256|256:272|304:264,1,240
352,256,130007,2,0,P|368:208|408:192,1,80,0|0,0:0|0:0,0:0:0:0:
480,152,130341,1,0,0:0:0:0:
256,72,130674,1,0,0:0:0:0:
32,152,131007,6,0,B|56:112|88:120|88:120|56:184|32:216|48:240|112:264,1,240
176,336,131674,2,0,P|176:288|208:256,1,80
272,224,132007,2,0,B|272:272|320:264|320:264|344:208|400:208|424:304,1,240
480,232,132674,2,0,L|456:152,1,80
416,80,133007,2,0,L|368:64,3,40,0|0|0|0,0:0|0:0|0:0|0:0,0:0:0:0:
336,72,133341,2,0,L|288:104,3,40,0|0|0|0,0:0|0:0|0:0|0:0,0:0:0:0:
256,104,133674,6,0,B|216:120|192:104|192:104|184:88|184:88|112:144|168:224,1,240
256,280,134341,1,0,0:0:0:0:
256,32,134674,1,0,0:0:0:0:
256,280,135007,5,0,0:0:0:0:
376,248,135174,1,0,0:0:0:0:
256,208,135341,1,0,0:0:0:0:
112,72,135674,2,0,B|136:88|168:88|208:88|208:88|208:128|208:128,1,120
208,136,136007,2,0,P|256:160|288:160,1,80
392,128,136341,6,0,L|408:176,3,40,0|0|0|0,0:0|0:0|0:0|0:0,0:0:0:0:
416,208,136674,6,0,L|408:256,3,40,0|0|0|0,0:0|0:0|0:0|0:0,0:0:0:0:
400,288,137007,6,0,L|368:320,3,40,0|0|0|0,0:0|0:0|0:0|0:0,0:0:0:0:
336,336,137341,6,0,L|280:352,3,40,0|0|0|0,0:0|0:0|0:0|0:0,0:0:0:0:
256,344,137674,6,0,B|232:320|232:320|280:296|280:296|232:272|232:272|280:248|280:248|232:232|232:232|280:216|280:216|232:200|232:200|256:176|256:176|256:144|256:144,1,383.99998828125
256,32,138674,1,0,0:0:0:0:
256,168,139007,6,0,L|256:312,1,143.999995605469
256,344,139341,2,0,P|192:344|144:312,1,95.9999970703126
104,264,139674,1,0,0:0:0:0:
56,216,139841,1,0,0:0:0:0:
120,200,140007,1,0,0:0:0:0:
216,136,140341,5,0,0:0:0:0:
192,56,140508,1,0,0:0:0:0:
280,80,140674,1,0,0:0:0:0:
368,208,141007,6,0,L|400:304,1,95.9999970703126,0|0,0:0|0:0,0:0:0:0:
296,272,141341,2,0,L|272:368,1,95.9999970703126,0|0,0:0|0:0,0:0:0:0:
224,184,141674,2,0,L|200:80,1,95.9999970703126
120,128,142007,2,0,B|56:48|56:48|48:88,1,143.999995605469
32,120,142341,6,0,P|48:176|80:208,1,95.9999970703126
152,240,142674,1,0,0:0:0:0:
240,232,142841,1,0,0:0:0:0:
336,264,143007,2,0,P|384:280|424:320,1,95.9999970703126
416,184,143341,2,0,P|344:184|312:160,1,95.9999970703126
272,96,143674,2,0,P|216:104|176:80,1,95.9999970703126
104,48,144007,2,0,B|56:112|104:152|104:152|80:240,1,191.999994140625
84,223,144507,5,0,0:0:0:0:
296,176,144841,5,0,0:0:0:0:
144,160,145174,5,0,0:0:0:0:
224,216,145341,1,0,0:0:0:0:
208,304,145507,2,0,P|272:336|320:304,1,95.9999970703126
384,304,145841,2,0,P|336:256|328:224,1,95.9999970703126
368,144,146174,1,0,0:0:0:0:
368,144,146507,6,0,P|320:96|192:96,1,191.999994140625
128,152,147007,2,0,B|64:112|64:112|64:144,1,95.9999970703126
72,256,147341,2,0,B|48:328|48:328|88:312,1,95.9999970703126
184,256,147674,2,0,B|256:232|256:232|232:216,1,95.9999970703126,0|0,0:0|0:0,0:0:0:0:
160,120,148174,6,0,P|224:144|344:128,1,191.999994140625
416,72,148674,1,0,0:0:0:0:
344,127,148841,1,0,0:0:0:0:
328,216,149007,2,0,L|296:272,3,47.9999985351563,0|0|0|0,0:0|0:0|0:0|0:0,0:0:0:0:
272,280,149341,6,0,L|240:240,3,47.9999985351563,0|0|0|0,0:0|0:0|0:0|0:0,0:0:0:0:
216,224,149674,6,0,L|120:208,1,95.9999970703126
48,160,150007,1,0,0:0:0:0:
144,128,150174,1,0,0:0:0:0:
200,48,150341,2,0,P|280:48|296:32,1,95.9999970703126
384,56,150674,2,0,P|408:120|392:160,1,95.9999970703126
352,264,151007,6,0,P|416:280|448:320,1,95.9999970703126
336,344,151341,2,0,P|280:344|240:312,1,95.9999970703126
192,248,151674,2,0,P|136:216|96:216,1,95.9999970703126
32,160,152007,2,0,P|24:240|32:272,1,95.9999970703126
112,336,152341,6,0,P|136:280|144:232,1,95.9999970703126
152,128,152674,2,0,L|128:80,2,47.9999985351563,0|0|0,0:0|0:0|0:0,0:0:0:0:
248,152,153007,2,0,L|272:200,2,47.9999985351563,0|0|0,0:0|0:0|0:0,0:0:0:0:
312,72,153341,2,0,L|288:24,2,47.9999985351563,0|0|0,0:0|0:0|0:0,0:0:0:0:
408,104,153674,2,0,L|432:160,2,47.9999985351563,0|0|0,0:0|0:0|0:0,0:0:0:0:
344,152,154007,5,0,0:0:0:0:
320,232,154174,1,0,0:0:0:0:
360,304,154341,2,0,P|328:352|272:368,1,95.9999970703126
168,304,154674,2,0,P|224:288|264:304,1,95.9999970703126
248,208,155007,2,0,P|200:200|144:224,1,95.9999970703126
96,296,155341,6,0,P|40:304|-8:288,1,95.9999970703126
32,208,155674,1,0,0:0:0:0:
112,192,155841,1,0,0:0:0:0:
56,128,156007,1,0,0:0:0:0:
64,208,156174,5,0,0:0:0:0:
144,192,156341,1,0,0:0:0:0:
88,128,156507,1,0,0:0:0:0:
40,288,156674,1,0,0:0:0:0:
232,104,157174,6,0,L|432:168,1,191.999994140625
456,248,157674,1,0,0:0:0:0:
256,192,157841,12,0,160341,0:0:0:0:
176,128,168341,6,0,L|288:160,2,80,0|0|0,0:0|0:0|0:0,0:0:0:0:
72,96,169007,1,0,0:0:0:0:
352,176,169341,1,0,0:0:0:0:
160,280,169674,2,0,L|136:328,4,40,0|0|0|0|0,0:0|0:0|0:0|0:0|0:0,0:0:0:0:
160,280,170341,5,0,0:0:0:0:
192,208,170507,1,0,0:0:0:0:
248,160,170674,1,0,0:0:0:0:
400,192,171007,1,0,0:0:0:0:
248,160,171341,1,0,0:0:0:0:
312,256,171674,2,0,L|304:304,2,40,0|0|0,0:0|0:0|0:0,0:0:0:0:
384,304,172007,2,0,L|392:344,2,40,0|0|0,0:0|0:0|0:0,0:0:0:0:
384,304,172341,5,0,0:0:0:0:
384,224,172507,1,0,0:0:0:0:
384,144,172674,1,0,0:0:0:0:
120,48,173007,1,0,0:0:0:0:
176,240,173341,1,0,0:0:0:0:
256,120,173674,2,0,L|304:112,4,40,0|0|0|0|0,0:0|0:0|0:0|0:0|0:0,0:0:0:0:
224,296,174341,6,0,L|144:320,2,80,0|0|0,0:0|0:0|0:0,0:0:0:0:
384,120,175007,2,0,P|256:72|224:80,1,160
80,208,175674,2,0,L|120:224,3,40,0|0|0|0,0:0|0:0|0:0|0:0,0:0:0:0:
160,240,176007,2,0,L|216:232,3,40,0|0|0|0,0:0|0:0|0:0|0:0,0:0:0:0:
240,216,176341,2,0,P|304:176|400:160,1,160
456,184,176841,1,0,0:0:0:0:
88,120,177341,6,0,P|152:80|248:64,1,160
304,88,177841,1,0,0:0:0:0:
120,304,178341,6,0,P|184:264|280:248,1,160
336,272,178841,1,0,0:0:0:0:
216,112,179341,6,0,P|280:72|376:56,1,160
432,80,179841,1,0,0:0:0:0:
352,248,180341,6,0,L|384:352,2,80,0|0|0,0:0|0:0|0:0,0:0:0:0:
288,200,180841,1,0,0:0:0:0:
96,136,181341,2,0,L|64:216,2,80,0|0|0,0:0|0:0|0:0,0:0:0:0:
160,80,181841,1,0,0:0:0:0:
360,176,182341,6,0,L|336:96,2,80,0|0|0,0:0|0:0|0:0,0:0:0:0:
408,240,182841,1,0,0:0:0:0:
160,224,183341,2,0,L|168:320,2,80,0|0|0,0:0|0:0|0:0,0:0:0:0:
120,152,183841,1,0,0:0:0:0:
344,104,184341,6,0,L|336:192,1,80
296,256,184674,2,0,L|336:328,1,80
120,160,185341,6,0,L|152:80,1,80
208,32,185674,2,0,P|240:96|240:112,1,80
296,296,186341,6,0,P|224:272|208:256,1,80
168,200,186674,2,0,P|216:184|256:192,1,80
336,160,187341,1,0,0:0:0:0:
368,48,187507,1,0,0:0:0:0:
360,160,187674,5,0,0:0:0:0:
336,48,187841,1,0,0:0:0:0:
56,224,188341,1,0,0:0:0:0:
152,256,188507,1,0,0:0:0:0:
152,232,188674,5,0,0:0:0:0:
56,264,188841,1,0,0:0:0:0:
312,160,189341,6,0,P|312:216|328:240,1,80
392,256,189674,2,0,P|384:312|368:336,1,80
184,200,190341,6,0,L|152:112,1,80
152,120,190674,1,0,0:0:0:0:
152,120,190841,1,0,0:0:0:0:
384,80,191341,6,0,L|376:128,3,40,0|0|0|0,0:0|0:0|0:0|0:0,0:0:0:0:
360,160,191674,6,0,L|336:200,3,40,0|0|0|0,0:0|0:0|0:0|0:0,0:0:0:0:
304,232,192007,6,0,L|248:272,3,68.0000012969971,0|0|0|0,0:0|0:0|0:0|0:0,0:0:0:0:
208,280,192341,2,0,B|136:256|32:176|32:176|112:176,1,272.000005187988
184,192,192841,1,0,0:0:0:0:
184,192,193174,5,0,0:0:0:0:
224,120,193341,1,0,0:0:0:0:
296,152,193507,1,0,0:0:0:0:
248,232,193674,1,0,0:0:0:0:
416,288,194007,5,0,0:0:0:0:
376,216,194174,1,0,0:0:0:0:
336,288,194341,1,0,0:0:0:0:
88,320,194674,2,0,P|232:296|256:176,1,272.000005187988
176,112,195341,5,0,0:0:0:0:
256,192,195507,1,0,0:0:0:0:
72,232,196007,2,0,P|112:64|208:40,1,272.000005187988
264,56,196507,1,0,0:0:0:0:
264,56,196674,1,0,0:0:0:0:
408,160,197007,6,0,L|392:240,3,68.0000012969971,0|0|0|0,0:0|0:0|0:0|0:0,0:0:0:0:
368,256,197341,2,0,L|384:328,3,68.0000012969971,0|0|0|0,0:0|0:0|0:0|0:0,0:0:0:0:
384,368,197674,2,0,P|288:368|152:256,1,272.000005187988
96,192,198174,6,0,P|144:104|304:104,1,272.000005187988
392,144,198674,6,0,B|320:176|256:160|256:160|288:296,1,272.000005187988
336,352,199174,1,0,0:0:0:0:
416,360,199341,1,0,0:0:0:0:
256,160,199674,1,0,0:0:0:0:
96,360,200007,1,0,0:0:0:0:
256,160,200341,6,0,L|256:80,16,68.0000012969971,0|0|0|0|0|0|0|0|0|0|0|0|0|0|0|0|0,0:0|0:0|0:0|0:0|0:0|0:0|0:0|0:0|0:0|0:0|0:0|0:0|0:0|0:0|0:0|0:0|0:0,0:0:0:0:
256,320,202007,1,0,0:0:0:0:
256,56,202341,1,0,0:0:0:0:
256,64,202424,1,0,0:0:0:0:
256,72,202507,2,0,L|256:216,1,136.000002593994
192,280,203007,5,0,0:0:0:0:
320,280,203174,1,0,0:0:0:0:
320,80,204340,5,0,0:0:0:0:
192,80,204507,1,0,0:0:0:0:
64,280,205674,5,0,0:0:0:0:
192,280,205841,1,0,0:0:0:0:
440,88,207007,2,0,L|280:88,1,160,0|0,0:0|0:0,0:0:0:0:
144,88,207674,2,0,L|88:88,2,40,0|0|0,0:0|0:0|0:0,0:0:0:0:
32,104,208007,1,0,0:0:0:0:
184,272,208341,5,0,0:0:0:0:
336,104,208674,5,0,0:0:0:0:
184,272,209007,6,0,L|184:96,1,160
448,296,209674,5,0,0:0:0:0:
288,296,209841,1,0,0:0:0:0:
368,352,210341,5,0,0:0:0:0:
320,208,210507,1,0,0:0:0:0:
416,208,210674,1,0,0:0:0:0:
368,72,211007,6,0,P|288:80|168:280,1,320
166,265,212341,5,0,0:0:0:0:
368,72,212674,1,0,0:0:0:0:
208,128,213007,2,0,L|256:184,3,40,0|0|0|0,0:0|0:0|0:0|0:0,0:0:0:0:
264,200,213341,2,0,L|304:224,3,40,0|0|0|0,0:0|0:0|0:0|0:0,0:0:0:0:
344,240,213674,2,0,P|392:232|424:208,1,80
448,152,214007,1,0,0:0:0:0:
232,56,214341,6,0,P|192:64|152:96,1,80
120,144,214674,1,0,0:0:0:0:
200,304,215007,2,0,P|264:280|280:256,1,80
280,160,215341,2,0,P|224:176|208:192,1,80
144,256,215674,1,0,0:0:0:0:
144,256,215841,1,0,0:0:0:0:
144,256,216007,2,0,P|80:280|56:264,1,80
40,200,216341,6,0,L|32:112,2,80,0|0|0,0:0|0:0|0:0,0:0:0:0:
136,176,216841,1,0,0:0:0:0:
136,176,217007,2,0,L|224:200,1,80
352,224,217341,2,0,L|272:256,1,80
184,312,217674,2,0,L|96:288,1,80
136,176,218007,2,0,L|224:200,1,80
256,112,218341,2,0,L|344:136,1,80
456,160,218674,2,0,L|448:240,2,80,0|0|0,0:0|0:0|0:0,0:0:0:0:
456,160,219341,5,0,0:0:0:0:
456,72,219507,1,0,0:0:0:0:
376,32,219674,1,0,0:0:0:0:
376,32,219841,2,0,L|280:48,1,80
184,72,220174,2,0,L|136:144,1,80
208,208,220507,2,0,L|264:128,1,80
253,142,221007,5,0,0:0:0:0:
352,176,221174,1,0,0:0:0:0:
272,240,221341,1,0,0:0:0:0:
272,240,221674,6,0,L|184:280,1,80
128,320,222007,2,0,L|48:288,1,80
72,160,222341,2,0,P|120:176|160:168,1,80
296,136,222674,2,0,P|240:112|192:112,1,80
120,56,223007,2,0,P|128:96|160:128,1,80
240,216,223341,2,0,L|264:248,3,40,0|0|0|0,0:0|0:0|0:0|0:0,0:0:0:0:
280,280,223674,5,0,0:0:0:0:
440,208,223924,5,0,0:0:0:0:
296,96,224174,5,0,0:0:0:0:
296,96,224341,2,0,L|256:72,7,40,0|0|0|0|0|0|0|0,0:0|0:0|0:0|0:0|0:0|0:0|0:0|0:0,0:0:0:0:
224,48,225007,2,0,B|168:32|112:64|112:64|104:128,1,160
112,312,225674,6,0,L|168:288,7,40,0|0|0|0|0|0|0|0,0:0|0:0|0:0|0:0|0:0|0:0|0:0|0:0,0:0:0:0:
184,280,226341,2,0,B|224:264|304:256|304:256|352:288,1,160
408,144,227007,6,0,L|392:104,7,40,0|0|0|0|0|0|0|0,0:0|0:0|0:0|0:0|0:0|0:0|0:0|0:0,0:0:0:0:
376,64,227674,2,0,B|296:40|296:40|280:120,1,160
200,208,228341,6,0,L|152:200,7,40,0|0|0|0|0|0|0|0,0:0|0:0|0:0|0:0|0:0|0:0|0:0|0:0,0:0:0:0:
120,192,229007,2,0,L|32:160,3,80,0|0|0|0,0:0|0:0|0:0|0:0,0:0:0:0:
96,56,229674,6,0,L|144:72,7,40,0|0|0|0|0|0|0|0,0:0|0:0|0:0|0:0|0:0|0:0|0:0|0:0,0:0:0:0:
176,96,230341,2,0,L|280:112,1,80
328,160,230674,2,0,L|416:144,1,80
472,80,231007,6,0,L|464:128,7,40,0|0|0|0|0|0|0|0,0:0|0:0|0:0|0:0|0:0|0:0|0:0|0:0,0:0:0:0:
456,160,231674,2,0,L|464:248,1,80
368,280,232007,2,0,L|344:360,1,80
232,344,232341,6,0,L|248:296,7,40,0|0|0|0|0|0|0|0,0:0|0:0|0:0|0:0|0:0|0:0|0:0|0:0,0:0:0:0:
248,264,233007,2,0,L|216:176,1,80
184,104,233341,2,0,L|136:176,1,80
64,280,233674,6,0,L|120:272,3,40,0|0|0|0,0:0|0:0|0:0|0:0,0:0:0:0:
144,256,234007,2,0,L|224:224,1,80
304,168,234341,2,0,L|352:176,3,40,0|0|0|0,0:0|0:0|0:0|0:0,0:0:0:0:
368,216,234674,2,0,L|416:200,3,40,0|0|0|0,0:0|0:0|0:0|0:0,0:0:0:0:
440,176,235007,2,0,P|400:128|304:96,1,160
310,96,235507,5,0,0:0:0:0:
224,64,235674,1,0,0:0:0:0:
224,64,235841,2,0,L|144:104,1,80
72,152,236174,1,0,0:0:0:0:
72,152,236258,1,0,0:0:0:0:
72,152,236341,2,0,P|64:248|104:328,2,160,0|0|0,0:0|0:0|0:0,0:0:0:0:
144,80,237341,2,0,P|200:64|304:96,1,160
295,90,238007,5,0,0:0:0:0:
360,200,238341,2,0,L|352:288,1,80
280,224,238674,2,0,L|288:144,1,80
200,176,239007,2,0,L|192:264,1,80
120,232,239340,2,0,L|120:152,1,80
168,64,239674,2,0,P|232:48|344:80,2,160,0|0|0,0:0|0:0|0:0,0:0:0:0:
168,64,240674,5,0,0:0:0:0:
168,64,240841,2,0,L|128:144,1,80
88,216,241174,1,0,0:0:0:0:
88,216,241341,2,0,L|176:264,2,80,0|0|0,0:0|0:0|0:0,0:0:0:0:
40,104,242007,1,0,0:0:0:0:
40,104,242507,2,0,P|112:80|128:88,1,80
208,112,242841,2,0,P|264:120|304:112,1,80
360,72,243174,1,0,0:0:0:0:
416,120,243341,1,0,0:0:0:0:
448,184,243507,1,0,0:0:0:0:
448,256,243674,1,0,0:0:0:0:
448,256,244007,5,0,0:0:0:0:
448,256,244341,6,0,L|408:296,3,40,0|0|0|0,0:0|0:0|0:0|0:0,0:0:0:0:
384,304,244674,2,0,L|328:280,3,40,0|0|0|0,0:0|0:0|0:0|0:0,0:0:0:0:
304,272,245007,2,0,L|256:312,4,40,0|0|0|0|0,0:0|0:0|0:0|0:0|0:0,0:0:0:0:
176,360,245674,1,0,0:0:0:0:
136,280,245841,1,0,0:0:0:0:
128,200,246007,2,0,L|120:120,2,80,0|0|0,0:0|0:0|0:0,0:0:0:0:
128,200,246507,5,0,0:0:0:0:
208,192,246674,1,0,0:0:0:0:
256,128,246841,1,0,0:0:0:0:
256,48,247007,2,0,P|280:16|320:16,2,80,0|0|0,0:0|0:0|0:0,0:0:0:0:
168,64,247507,5,0,0:0:0:0:
88,96,247674,1,0,0:0:0:0:
48,176,247841,2,0,L|32:256,2,80,0|0|0,0:0|0:0|0:0,0:0:0:0:
88,96,248341,2,0,L|176:56,1,80,0|0,0:0|0:0,0:0:0:0:
256,32,248674,2,0,L|344:56,1,80,0|0,0:0|0:0,0:0:0:0:
408,96,249007,1,0,0:0:0:0:
344,256,249341,1,0,0:0:0:0:
192,192,249674,1,0,0:0:0:0:
120,56,250007,5,0,0:0:0:0:
120,56,250174,1,0,0:0:0:0:
120,56,250341,1,0,0:0:0:0:
56,232,250674,5,0,0:0:0:0:
56,232,250841,1,0,0:0:0:0:
56,232,251007,1,0,0:0:0:0:
248,192,251341,1,0,0:0:0:0:
248,192,251674,2,0,P|288:160|392:160,1,160
392,160,252174,1,0,0:0:0:0:
392,160,252341,1,0,0:0:0:0:
368,280,252674,6,0,L|288:320,1,80
192,288,253007,2,0,L|240:224,1,80
192,128,253341,2,0,L|104:160,1,80
40,232,253674,6,0,L|88:232,2,40,0|0|0,0:0|0:0|0:0,0:0:0:0:
88,328,254007,2,0,L|48:328,2,40,0|0|0,0:0|0:0|0:0,0:0:0:0:
168,304,254341,2,0,L|256:304,1,80
320,256,254674,2,0,L|400:256,1,80
464,208,255007,2,0,P|440:128|360:96,1,160
264,64,255674,6,0,L|232:96,2,40,0|0|0,0:0|0:0|0:0,0:0:0:0:
144,112,256007,2,0,L|104:152,2,40,0|0|0,0:0|0:0|0:0,0:0:0:0:
56,216,256341,2,0,L|120:280,1,80
192,280,256674,2,0,L|256:336,1,80
328,328,257007,2,0,P|392:312|432:232,1,160
384,88,257674,6,0,L|384:128,2,40,0|0|0,0:0|0:0|0:0,0:0:0:0:
344,200,258007,2,0,L|344:256,2,40,0|0|0,0:0|0:0|0:0,0:0:0:0:
272,328,258341,2,0,L|272:240,1,80
224,168,258674,2,0,L|192:256,1,80
136,304,259007,2,0,L|104:216,1,80
80,120,259341,2,0,L|160:80,1,80
256,96,259674,5,0,0:0:0:0:
256,216,259841,1,0,0:0:0:0:
256,216,260674,6,0,L|248:256,3,40,0|0|0|0,0:0|0:0|0:0|0:0,0:0:0:0:
256,288,261007,6,0,L|264:328,3,40,0|0|0|0,0:0|0:0|0:0|0:0,0:0:0:0:
288,352,261341,2,0,P|344:360|400:280,1,160
256,192,261757,12,0,270007,0:0:0:0:
