osu file format v14

[General]
AudioFilename: audio.mp3
AudioLeadIn: 0
PreviewTime: -1
Countdown: 1
SampleSet: None
StackLeniency: 0.7
Mode: 0
LetterboxInBreaks: 0
WidescreenStoryboard: 0

[Editor]
DistanceSpacing: 0.1
BeatDivisor: 4
GridSize: 32
TimelineZoom: 4.200002

[Metadata]
Title:Truths, Ironies, The Secret Lyrics
TitleUnicode:Truths, Ironies, The Secret Lyrics
Artist:Foreground Eclipse
ArtistUnicode:Foreground Eclipse
Creator:Trase56
Version:Extra
Source:
Tags:
BeatmapID:1974985
BeatmapSetID:945825

[Difficulty]
HPDrainRate:6
CircleSize:4.2
OverallDifficulty:8.9
ApproachRate:9.7
SliderMultiplier:1.4
SliderTickRate:1

[Events]
//Background and Video events
//Break Periods
2,38265,40270
2,43065,44770
2,126062,133285
2,150630,152485
//Storyboard Layer 0 (Background)
//Storyboard Layer 1 (Fail)
//Storyboard Layer 2 (Pass)
//Storyboard Layer 3 (Foreground)
//Storyboard Sound Samples

[TimingPoints]
213,214.285714285714,4,1,0,100,1,0
213,-100,4,1,0,100,0,0
1284,428.571428571429,4,1,0,100,1,0
15565,300,4,1,0,100,1,0
26440,-66.6666666666667,4,1,0,100,0,0
53965,392.156862745098,4,1,0,100,1,0
55578,214.285714285714,4,1,0,100,1,0
84720,428.571428571429,4,1,0,100,1,0
133780,300,4,1,0,100,1,0
162580,-66.6666666666667,4,1,0,100,0,1
181780,-66.6666666666667,4,1,0,100,0,0
201280,300,4,1,0,100,1,0

[HitObjects]
114,152,213,5,0,0:0:0:0:
114,152,320,1,0,0:0:0:0:
114,152,427,1,0,0:0:0:0:
224,64,641,1,0,0:0:0:0:
224,64,748,1,0,0:0:0:0:
224,64,855,2,0,P|259:111|371:109,1,175
66,230,1284,5,0,0:0:0:0:
267,304,1605,1,0,0:0:0:0:
103,238,2998,5,0,0:0:0:0:
344,147,3319,1,0,0:0:0:0:
225,198,3855,1,0,0:0:0:0:
131,164,4069,5,0,0:0:0:0:
131,164,4176,1,0,0:0:0:0:
131,164,4284,1,0,0:0:0:0:
94,287,4711,5,0,0:0:0:0:
416,288,5034,1,0,0:0:0:0:
320,64,5355,1,0,0:0:0:0:
224,288,5569,1,0,0:0:0:0:
96,64,5891,1,0,0:0:0:0:
352,160,6212,1,0,0:0:0:0:
150,312,6426,5,0,0:0:0:0:
262,264,6855,1,0,0:0:0:0:
64,192,7069,1,0,0:0:0:0:
131,97,7284,1,0,0:0:0:0:
160,96,7391,1,0,0:0:0:0:
32,320,7605,1,0,0:0:0:0:
39,286,7710,6,0,L|173:178,1,140
318,124,8462,1,0,0:0:0:0:
142,94,9855,5,0,0:0:0:0:
275,287,10176,1,0,0:0:0:0:
52,148,10926,5,0,0:0:0:0:
52,148,11034,1,0,0:0:0:0:
52,148,11141,1,0,0:0:0:0:
252,172,11569,1,0,0:0:0:0:
408,108,11891,1,0,0:0:0:0:
288,320,12212,1,0,0:0:0:0:
64,64,12426,1,0,0:0:0:0:
239,214,12748,1,0,0:0:0:0:
352,64,13069,1,0,0:0:0:0:
65,234,13284,6,0,L|279:84,1,245
96,64,14141,1,0,0:0:0:0:
32,160,14284,1,0,0:0:0:0:
160,160,14426,1,0,0:0:0:0:
288,160,14569,1,0,0:0:0:0:
320,160,14641,1,0,0:0:0:0:
128,288,14784,5,0,0:0:0:0:
288,320,14926,1,0,0:0:0:0:
192,96,15141,1,0,0:0:0:0:
123,49,15565,5,0,0:0:0:0:
125,204,17665,5,0,0:0:0:0:
227,122,17965,1,0,0:0:0:0:
108,193,20365,5,0,0:0:0:0:
277,217,22465,5,0,0:0:0:0:
359,218,22765,1,0,0:0:0:0:
94,97,23965,5,0,0:0:0:0:
143,99,24040,1,0,0:0:0:0:
196,99,24115,1,0,0:0:0:0:
243,99,24190,1,0,0:0:0:0:
294,99,24265,2,0,L|333:98,1,35
256,195,24415,5,0,0:0:0:0:
216,231,24490,1,0,0:0:0:0:
179,265,24565,1,0,0:0:0:0:
143,302,24640,1,0,0:0:0:0:
109,330,24715,2,0,P|80:359|17:297,1,140
134,139,25465,5,0,0:0:0:0:
352,64,25765,1,0,0:0:0:0:
288,224,26065,6,0,B|448:192,1,140
448,64,26515,1,0,0:0:0:0:
352,192,26665,1,0,0:0:0:0:
256,64,26815,1,0,0:0:0:0:
160,160,26965,5,0,0:0:0:0:
64,64,27115,1,0,0:0:0:0:
160,160,27265,1,0,0:0:0:0:
256,256,27415,1,0,0:0:0:0:
480,160,27565,2,0,P|416:160|480:64,1,210.000008010865
96,192,28015,5,0,0:0:0:0:
320,224,28165,1,0,0:0:0:0:
224,96,28315,1,0,0:0:0:0:
192,256,28465,1,0,0:0:0:0:
384,96,28615,1,0,0:0:0:0:
64,64,28765,6,0,L|160:256,1,210.000008010865
32,288,29215,1,0,0:0:0:0:
352,64,29365,1,0,0:0:0:0:
320,288,29515,1,0,0:0:0:0:
128,192,29665,1,0,0:0:0:0:
192,352,29815,1,0,0:0:0:0:
256,160,29965,6,0,L|480:96,1,210.000008010865
128,64,30415,1,0,0:0:0:0:
96,288,30565,2,0,P|192:288|352:128,1,315.000012016297
96,160,31165,5,0,0:0:0:0:
384,160,31315,1,0,0:0:0:0:
128,256,31465,1,0,0:0:0:0:
320,96,31615,1,0,0:0:0:0:
224,288,31765,2,0,L|448:256,1,210.000008010865
256,160,32215,1,0,0:0:0:0:
224,64,32365,5,0,0:0:0:0:
160,256,32515,1,0,0:0:0:0:
352,192,32665,1,0,0:0:0:0:
256,320,32815,1,0,0:0:0:0:
256,320,32965,2,0,P|256:192|352:160,1,210.000008010865
416,256,33415,1,0,0:0:0:0:
320,64,33565,5,0,0:0:0:0:
288,256,33715,1,0,0:0:0:0:
64,64,33865,1,0,0:0:0:0:
128,224,34015,1,0,0:0:0:0:
192,64,34165,1,0,0:0:0:0:
288,256,34315,1,0,0:0:0:0:
6,242,34465,2,0,B|38:146|38:146|70:82,1,157.500006008148
64,96,34765,5,0,0:0:0:0:
98,99,34840,1,0,0:0:0:0:
131,110,34915,1,0,0:0:0:0:
156,135,34990,1,0,0:0:0:0:
173,165,35065,1,0,0:0:0:0:
199,186,35140,1,0,0:0:0:0:
233,179,35215,1,0,0:0:0:0:
264,164,35290,1,0,0:0:0:0:
295,146,35365,1,0,0:0:0:0:
324,127,35440,1,0,0:0:0:0:
353,108,35515,1,0,0:0:0:0:
382,88,35590,1,0,0:0:0:0:
410,67,35665,1,0,0:0:0:0:
450,60,35740,1,0,0:0:0:0:
469,92,35815,1,0,0:0:0:0:
448,214,35965,5,0,0:0:0:0:
152,272,36115,1,0,0:0:0:0:
187,79,36265,1,0,0:0:0:0:
435,322,36415,2,0,P|336:304|287:306,1,105.000004005432
86,111,36715,5,0,0:0:0:0:
225,302,36865,1,0,0:0:0:0:
337,57,37015,1,0,0:0:0:0:
243,192,37165,2,0,L|126:229,1,105.000004005432
376,283,37465,2,0,P|396:199|374:163,1,105.000004005432
205,96,37765,1,0,0:0:0:0:
46,164,37915,1,0,0:0:0:0:
128,288,38065,1,0,0:0:0:0:
32,64,40765,5,0,0:0:0:0:
208,168,40915,1,0,0:0:0:0:
362,158,41065,2,0,L|388:56,1,105.000004005432
130,288,41365,5,0,0:0:0:0:
278,360,41515,1,0,0:0:0:0:
212,203,41665,2,0,L|315:137,1,105.000004005432
416,224,41965,1,0,0:0:0:0:
75,278,42115,1,0,0:0:0:0:
137,47,42265,1,0,0:0:0:0:
215,277,42415,2,0,P|259:219|321:212,1,105.000004005432
100,170,42715,1,0,0:0:0:0:
416,96,42865,1,0,0:0:0:0:
94,243,45265,5,0,0:0:0:0:
94,243,45340,1,0,0:0:0:0:
94,243,45415,1,0,0:0:0:0:
122,101,45565,5,0,0:0:0:0:
122,101,45715,1,0,0:0:0:0:
199,218,45865,2,0,P|270:263|318:266,1,105.000004005432
269,52,46165,5,0,0:0:0:0:
287,192,46315,1,0,0:0:0:0:
403,133,46465,2,0,L|501:64,1,105.000004005432
393,273,46765,2,0,L|295:342,1,105.000004005432
143,150,47065,2,0,L|70:51,1,105.000004005432
341,123,47365,1,0,0:0:0:0:
146,312,47515,1,0,0:0:0:0:
187,17,47665,1,0,0:0:0:0:
343,243,47815,1,0,0:0:0:0:
136,154,47965,6,0,L|28:108,1,105.000004005432
146,312,48265,2,0,L|254:358,1,105.000004005432
320,96,48565,5,0,0:0:0:0:
406,261,48715,1,0,0:0:0:0:
88,173,48865,2,0,L|193:73,1,105.000004005432
189,334,49165,1,0,0:0:0:0:
327,91,49315,5,0,0:0:0:0:
189,334,49465,1,0,0:0:0:0:
76,92,49615,1,0,0:0:0:0:
274,207,49765,2,0,P|321:166|428:257,1,210.000008010865
109,220,50365,5,0,0:0:0:0:
228,78,50515,1,0,0:0:0:0:
259,237,50665,1,0,0:0:0:0:
378,108,50815,1,0,0:0:0:0:
416,283,50965,2,0,L|299:342,1,105.000004005432
133,325,51265,2,0,L|182:209,1,105.000004005432
117,60,51565,6,0,L|164:171,1,105.000004005432
388,136,51865,2,0,L|259:207,1,105.000004005432
113,215,52165,2,0,L|233:144,1,105.000004005432
178,302,52465,1,0,0:0:0:0:
385,206,52615,1,0,0:0:0:0:
112,84,52765,2,0,P|118:141|249:135,1,210.000008010865
325,44,53215,5,0,0:0:0:0:
168,284,53365,1,0,0:0:0:0:
446,215,53515,1,0,0:0:0:0:
51,96,53665,1,0,0:0:0:0:
346,364,53815,1,0,0:0:0:0:
256,192,53965,12,0,55337,0:0:0:0:
64,64,55578,5,0,0:0:0:0:
160,64,55685,1,0,0:0:0:0:
64,160,55792,1,0,0:0:0:0:
160,160,55899,1,0,0:0:0:0:
64,256,56006,1,0,0:0:0:0:
160,256,56113,1,0,0:0:0:0:
64,352,56220,1,0,0:0:0:0:
160,352,56328,1,0,0:0:0:0:
112,258,56435,1,0,0:0:0:0:
256,192,56649,6,0,L|288:128,4,70
32,128,57292,5,0,0:0:0:0:
128,128,57399,1,0,0:0:0:0:
224,128,57506,1,0,0:0:0:0:
320,128,57613,1,0,0:0:0:0:
320,224,57720,1,0,0:0:0:0:
320,32,57828,1,0,0:0:0:0:
224,224,57935,1,0,0:0:0:0:
224,32,58042,1,0,0:0:0:0:
128,128,58149,1,0,0:0:0:0:
96,288,58577,6,0,L|224:192,1,140
96,64,59006,5,0,0:0:0:0:
224,192,59113,1,0,0:0:0:0:
160,128,59220,1,0,0:0:0:0:
224,64,59435,5,0,0:0:0:0:
160,128,59542,1,0,0:0:0:0:
96,192,59649,1,0,0:0:0:0:
352,128,59863,5,0,0:0:0:0:
256,224,60077,2,0,P|160:224|128:64,1,280
96,64,60720,5,0,0:0:0:0:
160,192,60827,1,0,0:0:0:0:
224,64,60935,1,0,0:0:0:0:
96,128,61149,1,0,0:0:0:0:
224,128,61363,1,0,0:0:0:0:
288,64,61577,5,0,0:0:0:0:
416,64,61685,1,0,0:0:0:0:
352,160,61783,1,0,0:0:0:0:
416,128,62006,1,0,0:0:0:0:
288,128,62220,1,0,0:0:0:0:
224,64,62435,5,0,0:0:0:0:
160,256,62542,1,0,0:0:0:0:
352,128,62649,1,0,0:0:0:0:
96,128,62756,1,0,0:0:0:0:
288,256,62863,1,0,0:0:0:0:
224,64,62970,1,0,0:0:0:0:
160,256,63077,1,0,0:0:0:0:
352,128,63185,1,0,0:0:0:0:
96,128,63292,2,0,P|128:192|192:160,1,140
128,64,63720,5,0,0:0:0:0:
224,288,63827,1,0,0:0:0:0:
352,64,63935,1,0,0:0:0:0:
96,288,64363,5,0,0:0:0:0:
288,64,64577,1,0,0:0:0:0:
128,224,65006,2,0,P|96:128|320:128,1,420
96,224,65863,5,0,0:0:0:0:
96,224,65970,1,0,0:0:0:0:
96,224,66077,1,0,0:0:0:0:
256,192,66292,5,0,0:0:0:0:
256,192,66399,1,0,0:0:0:0:
256,192,66506,1,0,0:0:0:0:
128,96,66720,5,0,0:0:0:0:
128,96,66827,1,0,0:0:0:0:
128,96,66935,1,0,0:0:0:0:
352,96,67149,5,0,0:0:0:0:
352,96,67256,1,0,0:0:0:0:
352,96,67363,1,0,0:0:0:0:
128,192,67577,5,0,0:0:0:0:
192,256,67685,1,0,0:0:0:0:
416,288,67899,5,0,0:0:0:0:
288,160,68006,1,0,0:0:0:0:
384,96,68220,5,0,0:0:0:0:
288,288,68327,1,0,0:0:0:0:
96,96,68541,5,0,0:0:0:0:
192,320,68649,1,0,0:0:0:0:
96,224,68863,6,0,P|192:128|288:128,1,210
352,64,69292,1,0,0:0:0:0:
352,160,69399,1,0,0:0:0:0:
256,64,69506,1,0,0:0:0:0:
256,160,69613,1,0,0:0:0:0:
160,64,69720,1,0,0:0:0:0:
160,160,69827,1,0,0:0:0:0:
64,64,69935,1,0,0:0:0:0:
64,160,70042,1,0,0:0:0:0:
64,288,70149,2,0,L|224:256,1,140
128,64,70577,5,0,0:0:0:0:
448,32,71006,1,0,0:0:0:0:
32,160,71435,1,0,0:0:0:0:
384,352,71863,1,0,0:0:0:0:
96,32,72292,1,0,0:0:0:0:
192,192,72720,5,0,0:0:0:0:
192,192,72827,1,0,0:0:0:0:
192,192,72935,1,0,0:0:0:0:
64,64,73149,5,0,0:0:0:0:
64,64,73256,1,0,0:0:0:0:
64,64,73363,1,0,0:0:0:0:
288,96,73577,6,0,B|352:160|256:256|480:64,1,280
288,64,74435,5,0,0:0:0:0:
96,160,74649,1,0,0:0:0:0:
352,160,74863,5,0,0:0:0:0:
160,288,75077,1,0,0:0:0:0:
128,64,75292,5,0,0:0:0:0:
256,320,75506,1,0,0:0:0:0:
384,64,75720,1,0,0:0:0:0:
256,320,75935,1,0,0:0:0:0:
128,64,76149,5,0,0:0:0:0:
352,224,76256,1,0,0:0:0:0:
96,224,76363,1,0,0:0:0:0:
320,96,76470,1,0,0:0:0:0:
128,64,76577,1,0,0:0:0:0:
352,224,76685,1,0,0:0:0:0:
96,224,76792,1,0,0:0:0:0:
320,96,76899,1,0,0:0:0:0:
224,160,77006,1,0,0:0:0:0:
288,160,77435,5,0,0:0:0:0:
160,128,77542,1,0,0:0:0:0:
320,256,77649,1,0,0:0:0:0:
96,160,78506,5,0,0:0:0:0:
96,160,78613,1,0,0:0:0:0:
96,160,78720,1,0,0:0:0:0:
96,96,79577,5,0,0:0:0:0:
96,128,79685,1,0,0:0:0:0:
96,160,79792,1,0,0:0:0:0:
224,160,80006,5,0,0:0:0:0:
224,128,80113,1,0,0:0:0:0:
224,96,80220,1,0,0:0:0:0:
96,288,80435,5,0,0:0:0:0:
128,288,80542,1,0,0:0:0:0:
160,288,80649,1,0,0:0:0:0:
416,288,80863,5,0,0:0:0:0:
384,288,80970,1,0,0:0:0:0:
352,288,81077,1,0,0:0:0:0:
128,96,81292,5,0,0:0:0:0:
160,128,81399,1,0,0:0:0:0:
192,160,81506,1,0,0:0:0:0:
224,192,81613,1,0,0:0:0:0:
256,224,81720,1,0,0:0:0:0:
293,221,81827,1,0,0:0:0:0:
332,209,81935,1,0,0:0:0:0:
360,170,82042,1,0,0:0:0:0:
352,32,82149,5,0,0:0:0:0:
230,294,82256,1,0,0:0:0:0:
288,96,82578,5,0,0:0:0:0:
352,243,82685,1,0,0:0:0:0:
192,32,83006,5,0,0:0:0:0:
91,273,83113,1,0,0:0:0:0:
128,96,83435,5,0,0:0:0:0:
218,264,83542,1,0,0:0:0:0:
32,32,83863,5,0,0:0:0:0:
217,183,83970,1,0,0:0:0:0:
32,160,84292,5,0,0:0:0:0:
208,68,84399,1,0,0:0:0:0:
266,226,84720,5,0,0:0:0:0:
359,64,84934,1,0,0:0:0:0:
422,232,85148,1,0,0:0:0:0:
485,76,85362,1,0,0:0:0:0:
137,186,85577,6,0,L|220:171,3,70
82,210,86434,5,0,0:0:0:0:
237,70,86648,1,0,0:0:0:0:
218,320,86862,1,0,0:0:0:0:
412,308,87077,1,0,0:0:0:0:
278,226,87291,6,0,L|337:142,1,70
247,129,87720,2,0,L|203:202,1,70
62,84,88148,5,0,0:0:0:0:
239,271,88362,1,0,0:0:0:0:
405,69,88577,1,0,0:0:0:0:
369,322,88791,1,0,0:0:0:0:
71,166,89005,6,0,P|97:141|105:170,1,70
213,189,89434,2,0,P|203:155|172:174,1,70
100,68,89862,5,0,0:0:0:0:
189,331,90077,1,0,0:0:0:0:
448,54,90291,5,0,0:0:0:0:
365,329,90505,1,0,0:0:0:0:
85,191,90720,2,0,L|156:141,3,70
114,246,91577,5,0,0:0:0:0:
118,96,91791,1,0,0:0:0:0:
273,97,92005,1,0,0:0:0:0:
275,246,92220,1,0,0:0:0:0:
273,97,92434,5,0,0:0:0:0:
111,92,92648,1,0,0:0:0:0:
111,243,92862,1,0,0:0:0:0:
274,247,93077,1,0,0:0:0:0:
292,71,93291,5,0,0:0:0:0:
187,199,93505,1,0,0:0:0:0:
393,200,93720,1,0,0:0:0:0:
292,71,93934,5,0,0:0:0:0:
393,200,94148,1,0,0:0:0:0:
184,197,94362,1,0,0:0:0:0:
140,39,94577,5,0,0:0:0:0:
258,319,94791,1,0,0:0:0:0:
106,138,95005,6,0,L|183:135,1,70
379,163,95434,2,0,L|317:237,1,70
71,322,95862,2,0,P|79:281|115:277,1,70
407,312,96291,2,0,P|402:250|385:240,1,70
204,96,96720,6,0,L|207:171,1,70
459,91,97148,2,0,L|420:161,1,70
288,311,97577,1,0,0:0:0:0:
96,211,97791,1,0,0:0:0:0:
419,153,98005,1,0,0:0:0:0:
88,64,98220,1,0,0:0:0:0:
197,180,98434,6,0,P|236:149|259:156,1,70
330,314,98862,2,0,P|359:273|338:257,1,70
104,146,99291,2,0,L|177:132,1,70
373,212,99720,2,0,L|298:274,1,70
185,325,100148,6,0,L|191:229,1,70
368,203,100577,2,0,P|304:192|303:183,1,70
126,166,101005,2,0,B|163:201|186:192|189:188,1,70
365,171,101434,2,0,B|290:163|296:164,1,70
89,164,101862,2,0,L|176:142,1,70
332,198,102291,2,0,L|257:254,1,70
162,144,102720,5,0,0:0:0:0:
301,114,102934,1,0,0:0:0:0:
251,229,103148,1,0,0:0:0:0:
122,247,103362,1,0,0:0:0:0:
103,163,103577,2,0,L|180:124,1,70
240,43,104005,1,0,0:0:0:0:
277,220,104220,1,0,0:0:0:0:
86,296,104434,2,0,P|96:235|160:250,1,140
310,110,105291,5,0,0:0:0:0:
307,244,105720,1,0,0:0:0:0:
119,220,106148,2,0,L|236:124,1,140
201,303,107005,1,0,0:0:0:0:
85,254,107434,2,0,P|105:213|145:227,1,70
376,307,107862,2,0,P|338:252|315:252,1,70
220,112,108291,2,0,P|266:127|264:136,1,70
126,290,108720,5,0,0:0:0:0:
209,124,109148,1,0,0:0:0:0:
41,273,109362,1,0,0:0:0:0:
275,269,109577,1,0,0:0:0:0:
41,273,110005,2,0,L|137:153,1,140
128,163,110434,2,0,P|201:109|165:-7,1,210
331,240,111291,1,0,0:0:0:0:
41,291,111720,1,0,0:0:0:0:
340,143,112148,5,0,0:0:0:0:
230,290,112362,1,0,0:0:0:0:
42,181,112577,1,0,0:0:0:0:
38,346,112791,1,0,0:0:0:0:
241,172,113005,2,0,L|321:133,1,70
451,234,113434,2,0,L|382:305,1,70
132,88,113862,5,0,0:0:0:0:
253,178,114077,1,0,0:0:0:0:
382,64,114291,1,0,0:0:0:0:
368,278,114505,1,0,0:0:0:0:
136,322,114720,2,0,L|118:254,1,70
96,172,115148,2,0,L|174:117,1,70
272,294,115577,5,0,0:0:0:0:
123,178,115791,1,0,0:0:0:0:
356,151,116005,5,0,0:0:0:0:
465,271,116220,1,0,0:0:0:0:
164,309,116434,6,0,L|223:231,3,70
86,113,117291,1,0,0:0:0:0:
385,320,117505,1,0,0:0:0:0:
280,54,117720,1,0,0:0:0:0:
150,329,117934,1,0,0:0:0:0:
66,212,118148,2,0,P|156:209|200:100,1,210
354,98,119005,5,0,0:0:0:0:
279,254,119220,1,0,0:0:0:0:
123,108,119434,1,0,0:0:0:0:
100,277,119648,1,0,0:0:0:0:
367,335,119862,2,0,L|423:267,1,70
373,79,120291,2,0,L|300:123,1,70
57,125,120720,6,0,L|114:186,1,70
198,275,121148,1,0,0:0:0:0:
301,41,121362,1,0,0:0:0:0:
217,169,121577,2,0,L|75:86,1,140
407,212,122434,5,0,0:0:0:0:
320,331,122862,1,0,0:0:0:0:
135,128,123077,1,0,0:0:0:0:
81,277,123291,2,0,L|156:222,1,70
413,242,123720,1,0,0:0:0:0:
185,163,123934,1,0,0:0:0:0:
413,242,124148,2,0,P|315:254|279:103,1,280
96,273,125434,1,0,0:0:0:0:
276,174,125648,1,0,0:0:0:0:
253,336,125862,1,0,0:0:0:0:
174,167,133780,5,0,0:0:0:0:
377,156,133930,1,0,0:0:0:0:
173,304,134080,2,0,L|273:279,1,70
148,43,134380,1,0,0:0:0:0:
66,246,134530,1,0,0:0:0:0:
232,169,134680,2,0,L|304:129,1,70
223,338,134980,5,0,0:0:0:0:
401,212,135130,1,0,0:0:0:0:
305,140,135280,2,0,L|228:188,1,70
78,141,135580,1,0,0:0:0:0:
187,267,135730,1,0,0:0:0:0:
302,208,135880,2,0,L|345:143,1,70
356,301,136180,5,0,0:0:0:0:
170,84,136330,1,0,0:0:0:0:
100,330,136480,1,0,0:0:0:0:
455,77,136630,1,0,0:0:0:0:
305,125,136780,2,0,L|232:172,1,70
294,284,137080,2,0,P|357:234|368:225,1,70
146,258,137380,5,0,0:0:0:0:
435,167,137530,1,0,0:0:0:0:
133,128,137680,1,0,0:0:0:0:
388,281,137830,1,0,0:0:0:0:
277,170,137980,2,0,P|317:116|347:108,2,70
168,297,138580,1,0,0:0:0:0:
389,126,138730,1,0,0:0:0:0:
86,233,138880,1,0,0:0:0:0:
343,263,139030,1,0,0:0:0:0:
258,75,139180,1,0,0:0:0:0:
261,356,139330,1,0,0:0:0:0:
63,82,139480,5,0,0:0:0:0:
251,226,139630,1,0,0:0:0:0:
382,75,139780,1,0,0:0:0:0:
471,263,139930,1,0,0:0:0:0:
178,343,140080,1,0,0:0:0:0:
69,161,140230,1,0,0:0:0:0:
241,166,140380,2,0,L|312:229,1,70
469,184,140680,2,0,B|385:109|399:118,1,70
141,79,140980,5,0,0:0:0:0:
226,301,141130,1,0,0:0:0:0:
395,90,141280,1,0,0:0:0:0:
398,312,141430,1,0,0:0:0:0:
72,218,141580,2,0,P|114:201|145:214,1,70
388,214,141880,2,0,B|302:201|305:202,1,70
92,54,142180,5,0,0:0:0:0:
102,87,142255,1,0,0:0:0:0:
116,119,142330,1,0,0:0:0:0:
135,149,142405,1,0,0:0:0:0:
156,176,142480,1,0,0:0:0:0:
181,201,142555,1,0,0:0:0:0:
209,222,142630,1,0,0:0:0:0:
239,240,142705,1,0,0:0:0:0:
271,254,142780,1,0,0:0:0:0:
305,264,142855,1,0,0:0:0:0:
339,270,142930,1,0,0:0:0:0:
374,271,143005,1,0,0:0:0:0:
409,269,143080,1,0,0:0:0:0:
443,262,143155,1,0,0:0:0:0:
474,251,143230,1,0,0:0:0:0:
106,97,143380,5,0,0:0:0:0:
143,280,143530,1,0,0:0:0:0:
186,189,143680,2,0,L|270:162,1,70
398,222,143980,1,0,0:0:0:0:
91,217,144130,1,0,0:0:0:0:
191,121,144280,6,0,P|209:164|240:162,1,70
405,89,144580,2,0,P|409:137|363:147,1,70
254,336,144880,2,0,L|281:258,2,70
102,159,145330,1,0,0:0:0:0:
322,274,145480,1,0,0:0:0:0:
398,56,145780,5,0,0:0:0:0:
163,108,145930,1,0,0:0:0:0:
379,204,146080,1,0,0:0:0:0:
159,292,146230,1,0,0:0:0:0:
68,243,146380,6,0,L|135:204,1,70
401,129,146680,2,0,L|321:171,1,70
290,332,146980,6,0,L|280:254,7,70
53,176,148180,1,0,0:0:0:0:
146,330,148330,1,0,0:0:0:0:
171,131,148480,2,0,L|248:100,1,70
359,195,148780,6,0,L|281:241,1,70
93,241,149080,1,0,0:0:0:0:
292,112,149230,1,0,0:0:0:0:
311,333,149380,1,0,0:0:0:0:
91,98,149530,1,0,0:0:0:0:
242,261,149680,6,0,L|304:210,1,70
466,34,149980,1,0,0:0:0:0:
271,123,150130,1,0,0:0:0:0:
425,198,150280,2,0,L|433:290,1,70
93,182,152980,5,0,0:0:0:0:
325,82,153130,1,0,0:0:0:0:
195,283,153280,2,0,L|276:231,1,70
259,347,153580,1,0,0:0:0:0:
121,268,153730,1,0,0:0:0:0:
101,97,153880,6,0,L|167:72,1,70
302,217,154180,1,0,0:0:0:0:
259,347,154330,1,0,0:0:0:0:
437,103,154480,2,0,L|398:178,1,70
186,130,154780,1,0,0:0:0:0:
136,280,154930,1,0,0:0:0:0:
44,94,155080,6,0,L|77:175,1,70
247,102,155380,1,0,0:0:0:0:
343,302,155530,1,0,0:0:0:0:
443,107,155680,1,0,0:0:0:0:
458,276,155830,1,0,0:0:0:0:
239,228,155980,2,0,L|225:308,1,70
37,187,156280,2,0,L|77:121,1,70
165,330,156580,1,0,0:0:0:0:
340,207,156730,1,0,0:0:0:0:
167,144,156880,1,0,0:0:0:0:
290,71,157030,1,0,0:0:0:0:
167,341,157180,2,0,L|230:216,1,140
121,62,157780,5,0,0:0:0:0:
271,235,157930,1,0,0:0:0:0:
377,73,158080,1,0,0:0:0:0:
124,305,158230,1,0,0:0:0:0:
57,214,158380,2,0,L|133:167,4,70
213,283,159130,1,0,0:0:0:0:
351,325,159280,1,0,0:0:0:0:
235,92,159430,1,0,0:0:0:0:
423,129,159580,2,0,L|335:184,1,70
63,233,159880,2,0,L|75:134,1,70
186,266,160180,6,0,L|272:297,1,70
329,116,160480,1,0,0:0:0:0:
414,319,160630,1,0,0:0:0:0:
39,117,160780,1,0,0:0:0:0:
458,26,160930,1,0,0:0:0:0:
258,41,161080,2,0,L|258:136,1,70
170,278,161380,1,0,0:0:0:0:
86,240,161530,5,0,0:0:0:0:
448,121,161680,1,0,0:0:0:0:
416,285,161830,5,0,0:0:0:0:
66,116,161980,1,0,0:0:0:0:
144,350,162130,5,0,0:0:0:0:
228,45,162280,1,0,0:0:0:0:
343,186,162430,1,0,0:0:0:0:
195,309,162580,6,0,P|133:307|71:244,1,105.000004005432
230,37,162880,1,0,0:0:0:0:
341,250,163030,1,0,0:0:0:0:
114,130,163180,2,0,L|-23:65,1,105.000004005432
221,311,163480,2,0,L|358:376,1,105.000004005432
376,200,163780,6,0,P|407:142|406:72,1,105.000004005432
166,30,164080,1,0,0:0:0:0:
220,308,164230,1,0,0:0:0:0:
381,116,164380,2,0,L|447:20,1,105.000004005432
208,92,164680,2,0,P|133:96|93:59,1,105.000004005432
220,308,164980,6,0,B|265:354|275:316|321:356,1,105.000004005432
228,84,165280,1,0,0:0:0:0:
276,264,165430,1,0,0:0:0:0:
363,138,165580,5,0,0:0:0:0:
110,137,165730,1,0,0:0:0:0:
305,371,165880,1,0,0:0:0:0:
330,52,166030,1,0,0:0:0:0:
168,265,166180,2,0,L|93:358,1,105.000004005432
344,291,166480,2,0,B|386:246|386:246|399:172,1,105.000004005432
259,84,166780,5,0,0:0:0:0:
290,225,166930,1,0,0:0:0:0:
254,66,167080,2,0,L|123:32,1,105.000004005432
79,161,167380,6,0,L|57:294,1,105.000004005432
325,139,167680,2,0,P|354:83|344:19,1,105.000004005432
187,108,167980,1,0,0:0:0:0:
333,298,168130,1,0,0:0:0:0:
450,92,168280,2,0,L|515:-2,1,105.000004005432
254,210,168580,6,0,L|189:304,1,105.000004005432
92,75,168880,1,0,0:0:0:0:
331,212,169030,1,0,0:0:0:0:
69,356,169180,2,0,L|102:208,1,105.000004005432
308,129,169480,2,0,L|275:277,1,105.000004005432
146,134,169780,2,0,B|99:84|94:10,1,105.000004005432
375,51,170080,5,0,0:0:0:0:
240,330,170230,1,0,0:0:0:0:
94,63,170380,1,0,0:0:0:0:
436,117,170530,1,0,0:0:0:0:
436,117,170605,1,0,0:0:0:0:
436,117,170680,2,0,B|459:170|459:170|456:237,1,105.000004005432
299,296,170980,6,0,L|194:225,1,105.000004005432
39,159,171280,2,0,L|144:88,1,105.000004005432
256,130,171580,1,0,0:0:0:0:
170,310,171730,1,0,0:0:0:0:
39,159,171880,2,0,P|22:126|22:92,3,52.5000020027161
169,73,172180,5,0,0:0:0:0:
213,46,172255,1,0,0:0:0:0:
265,42,172330,1,0,0:0:0:0:
313,63,172405,1,0,0:0:0:0:
346,103,172480,1,0,0:0:0:0:
343,155,172555,1,0,0:0:0:0:
364,203,172630,1,0,0:0:0:0:
403,236,172705,1,0,0:0:0:0:
454,249,172780,5,0,0:0:0:0:
425,200,172855,1,0,0:0:0:0:
378,167,172930,1,0,0:0:0:0:
321,157,173005,1,0,0:0:0:0:
266,171,173080,1,0,0:0:0:0:
228,221,173155,1,0,0:0:0:0:
174,253,173230,1,0,0:0:0:0:
112,261,173305,1,0,0:0:0:0:
51,246,173380,5,0,0:0:0:0:
25,195,173455,1,0,0:0:0:0:
28,138,173530,1,0,0:0:0:0:
59,90,173605,1,0,0:0:0:0:
110,65,173680,1,0,0:0:0:0:
167,69,173755,1,0,0:0:0:0:
215,101,173830,1,0,0:0:0:0:
239,152,173905,1,0,0:0:0:0:
232,207,173980,5,0,0:0:0:0:
248,267,174055,1,0,0:0:0:0:
292,311,174130,1,0,0:0:0:0:
351,330,174205,1,0,0:0:0:0:
412,317,174280,1,0,0:0:0:0:
460,277,174355,1,0,0:0:0:0:
482,219,174430,1,0,0:0:0:0:
474,157,174505,1,0,0:0:0:0:
437,107,174580,6,0,L|389:63,3,52.5000020027161
372,215,174880,6,0,L|323:170,3,52.5000020027161
323,96,175180,6,0,L|274:51,3,52.5000020027161
257,203,175480,6,0,L|208:158,3,52.5000020027161
189,36,175780,5,0,0:0:0:0:
145,65,175855,1,0,0:0:0:0:
113,106,175930,1,0,0:0:0:0:
96,155,176005,1,0,0:0:0:0:
96,208,176080,1,0,0:0:0:0:
108,258,176155,1,0,0:0:0:0:
93,308,176230,1,0,0:0:0:0:
55,342,176305,1,0,0:0:0:0:
4,352,176380,5,0,0:0:0:0:
0,300,176455,1,0,0:0:0:0:
19,252,176530,1,0,0:0:0:0:
60,219,176605,1,0,0:0:0:0:
110,209,176680,1,0,0:0:0:0:
160,223,176755,1,0,0:0:0:0:
198,259,176830,2,0,L|234:305,1,52.5000020027161
365,288,176980,5,0,0:0:0:0:
413,268,177055,1,0,0:0:0:0:
447,229,177130,1,0,0:0:0:0:
461,179,177205,1,0,0:0:0:0:
451,128,177280,5,0,0:0:0:0:
418,81,177355,1,0,0:0:0:0:
367,56,177430,1,0,0:0:0:0:
310,59,177505,1,0,0:0:0:0:
262,89,177580,5,0,0:0:0:0:
211,127,177655,1,0,0:0:0:0:
151,145,177730,1,0,0:0:0:0:
89,143,177805,1,0,0:0:0:0:
32,120,177880,5,0,0:0:0:0:
73,80,177955,1,0,0:0:0:0:
126,57,178030,1,0,0:0:0:0:
183,54,178105,1,0,0:0:0:0:
238,71,178180,5,0,0:0:0:0:
283,106,178255,1,0,0:0:0:0:
313,155,178330,1,0,0:0:0:0:
324,212,178405,1,0,0:0:0:0:
315,268,178480,6,0,L|303:336,3,52.5000020027161
200,200,178780,6,0,L|212:267,3,52.5000020027161
409,179,179080,6,0,L|396:246,3,52.5000020027161
358,104,179380,5,0,0:0:0:0:
314,59,179455,1,0,0:0:0:0:
255,38,179530,1,0,0:0:0:0:
193,44,179605,1,0,0:0:0:0:
139,77,179680,1,0,0:0:0:0:
105,129,179755,1,0,0:0:0:0:
97,191,179830,1,0,0:0:0:0:
116,250,179905,1,0,0:0:0:0:
159,296,179980,5,0,0:0:0:0:
214,248,180055,1,0,0:0:0:0:
242,181,180130,1,0,0:0:0:0:
236,108,180205,1,0,0:0:0:0:
198,46,180280,1,0,0:0:0:0:
136,8,180355,1,0,0:0:0:0:
58,3,180430,1,0,0:0:0:0:
69,85,180580,5,0,0:0:0:0:
116,133,180655,1,0,0:0:0:0:
175,166,180730,1,0,0:0:0:0:
242,181,180805,1,0,0:0:0:0:
310,176,180880,1,0,0:0:0:0:
282,114,180955,1,0,0:0:0:0:
226,77,181030,1,0,0:0:0:0:
158,75,181105,1,0,0:0:0:0:
100,109,181180,1,0,0:0:0:0:
69,168,181255,1,0,0:0:0:0:
73,235,181330,1,0,0:0:0:0:
113,290,181405,1,0,0:0:0:0:
175,315,181480,2,0,P|216:323|249:316,3,52.5000020027161
276,139,181780,5,0,0:0:0:0:
276,139,181930,1,0,0:0:0:0:
343,253,182080,2,0,L|410:344,1,105.000004005432
356,161,182380,5,0,0:0:0:0:
249,277,182530,1,0,0:0:0:0:
153,173,182680,2,0,P|104:126|73:27,1,157.500006008148
124,61,182980,2,0,B|189:42|189:42|251:52,1,105.000004005432
355,127,183280,2,0,B|373:192|373:192|363:254,1,105.000004005432
120,122,183580,5,0,0:0:0:0:
230,297,183730,1,0,0:0:0:0:
248,119,183880,1,0,0:0:0:0:
231,311,184030,1,0,0:0:0:0:
93,216,184180,6,0,L|-18:176,1,105.000004005432
248,119,184480,2,0,L|359:159,1,105.000004005432
450,268,184780,2,0,P|474:187|448:95,1,157.500006008148
421,49,185080,1,0,0:0:0:0:
351,217,185230,1,0,0:0:0:0:
210,130,185380,2,0,L|113:66,1,105.000004005432
137,235,185680,2,0,B|179:281|179:281|234:299,1,105.000004005432
309,272,185980,5,0,0:0:0:0:
493,221,186130,1,0,0:0:0:0:
312,83,186280,1,0,0:0:0:0:
393,317,186430,1,0,0:0:0:0:
93,195,186580,5,0,0:0:0:0:
201,337,186730,1,0,0:0:0:0:
232,68,186880,1,0,0:0:0:0:
315,314,187030,1,0,0:0:0:0:
390,181,187180,2,0,L|278:176,1,105.000004005432
109,103,187480,2,0,L|105:229,1,105.000004005432
201,317,187780,2,0,L|265:221,1,105.000004005432
338,96,188080,2,0,L|390:218,1,105.000004005432
65,219,188380,2,0,P|116:171|146:191,1,105.000004005432
285,246,188680,1,0,0:0:0:0:
169,79,188830,5,0,0:0:0:0:
130,324,188980,1,0,0:0:0:0:
380,79,189130,1,0,0:0:0:0:
77,214,189280,2,0,P|196:205|200:198,4,105.000004005432
164,60,190030,1,0,0:0:0:0:
299,323,190180,1,0,0:0:0:0:
433,48,190330,1,0,0:0:0:0:
93,223,190480,6,0,P|130:277|188:260,1,105.000004005432
324,78,190780,2,0,P|383:136|391:164,1,105.000004005432
282,314,191080,1,0,0:0:0:0:
123,112,191230,1,0,0:0:0:0:
432,129,191380,5,0,0:0:0:0:
45,78,191530,1,0,0:0:0:0:
202,343,191680,1,0,0:0:0:0:
355,54,191830,1,0,0:0:0:0:
411,339,191980,1,0,0:0:0:0:
46,201,192130,1,0,0:0:0:0:
431,140,192280,1,0,0:0:0:0:
66,55,192430,5,0,0:0:0:0:
206,319,192580,1,0,0:0:0:0:
369,67,192730,1,0,0:0:0:0:
108,178,192880,2,0,L|49:284,1,105.000004005432
289,281,193180,2,0,L|317:168,1,105.000004005432
53,85,193480,2,0,L|170:163,1,105.000004005432
436,149,193780,6,0,L|313:216,1,105.000004005432
57,297,194080,1,0,0:0:0:0:
376,115,194230,1,0,0:0:0:0:
340,340,194380,1,0,0:0:0:0:
49,89,194530,1,0,0:0:0:0:
417,49,194680,1,0,0:0:0:0:
138,299,194830,1,0,0:0:0:0:
212,180,194980,6,0,L|333:117,1,105.000004005432
377,345,195280,1,0,0:0:0:0:
72,94,195430,1,0,0:0:0:0:
390,62,195580,1,0,0:0:0:0:
147,329,195730,1,0,0:0:0:0:
247,52,195880,1,0,0:0:0:0:
305,346,196030,1,0,0:0:0:0:
111,216,196180,6,0,L|216:245,1,105.000004005432
328,239,196480,2,0,L|382:137,1,105.000004005432
111,73,196780,2,0,L|171:190,1,105.000004005432
439,81,197080,2,0,L|334:177,1,105.000004005432
382,287,197380,5,0,0:0:0:0:
102,167,197530,1,0,0:0:0:0:
382,38,197680,1,0,0:0:0:0:
148,325,197830,1,0,0:0:0:0:
197,32,197980,1,0,0:0:0:0:
382,287,198130,1,0,0:0:0:0:
420,106,198280,5,0,0:0:0:0:
63,303,198430,1,0,0:0:0:0:
77,93,198580,1,0,0:0:0:0:
70,144,198655,1,0,0:0:0:0:
76,196,198730,1,0,0:0:0:0:
96,245,198805,1,0,0:0:0:0:
126,287,198880,1,0,0:0:0:0:
167,320,198955,1,0,0:0:0:0:
214,342,199030,1,0,0:0:0:0:
266,352,199105,1,0,0:0:0:0:
318,348,199180,1,0,0:0:0:0:
368,331,199255,1,0,0:0:0:0:
411,302,199330,1,0,0:0:0:0:
447,263,199405,1,0,0:0:0:0:
471,216,199480,1,0,0:0:0:0:
482,165,199555,1,0,0:0:0:0:
481,113,199630,1,0,0:0:0:0:
466,63,199705,1,0,0:0:0:0:
439,24,199780,1,0,0:0:0:0:
111,170,201280,5,0,0:0:0:0:
111,170,201580,1,0,0:0:0:0:
111,170,201880,1,0,0:0:0:0:
111,170,202180,1,0,0:0:0:0:
111,170,202480,1,0,0:0:0:0:
111,170,202780,1,0,0:0:0:0:
111,170,203080,1,0,0:0:0:0:
111,170,203380,1,0,0:0:0:0:
111,170,203680,1,0,0:0:0:0:
111,170,203980,1,0,0:0:0:0:
111,170,204280,1,0,0:0:0:0:
111,170,204580,1,0,0:0:0:0:
256,192,204880,12,0,206680,0:0:0:0:
408,181,206980,5,0,0:0:0:0:
408,181,207280,1,0,0:0:0:0:
408,181,207580,1,0,0:0:0:0:
408,181,207880,1,0,0:0:0:0:
408,181,208180,1,0,0:0:0:0:
408,181,208480,1,0,0:0:0:0:
408,181,208780,1,0,0:0:0:0:
408,181,209080,1,0,0:0:0:0:
408,181,209380,1,0,0:0:0:0:
408,181,209680,1,0,0:0:0:0:
408,181,209980,1,0,0:0:0:0:
408,181,210280,1,0,0:0:0:0:
408,181,210580,1,0,0:0:0:0:
