osu file format v14

[General]
AudioFilename: audio.mp3
AudioLeadIn: 0
PreviewTime: 38251
Countdown: 0
SampleSet: Soft
StackLeniency: 0.7
Mode: 0
LetterboxInBreaks: 0
WidescreenStoryboard: 0

[Editor]
DistanceSpacing: 1.2
BeatDivisor: 4
GridSize: 32
TimelineZoom: 2

[Metadata]
Title:Truths, Ironies, The Secret Lyrics (Short Version)
TitleUnicode:Truths, Ironies, The Secret Lyrics (Short Version)
Artist:Foreground Eclipse
ArtistUnicode:Foreground Eclipse
Creator:Mikojel
Version:Extreme
Source:
Tags:
BeatmapID:1975159
BeatmapSetID:945926

[Difficulty]
HPDrainRate:5
CircleSize:4.2
OverallDifficulty:9
ApproachRate:9.4
SliderMultiplier:1.9
SliderTickRate:1

[Events]
//Background and Video events
0,0,"Flandre.Scarlet.full.1027628.jpg",0,0
//Break Periods
//Storyboard Layer 0 (Background)
//Storyboard Layer 1 (Fail)
//Storyboard Layer 2 (Pass)
//Storyboard Layer 3 (Foreground)
//Storyboard Layer 4 (Overlay)
//Storyboard Sound Samples

[TimingPoints]
11273,428.571428571429,4,2,0,40,1,0
11273,-333.333333333333,4,2,0,40,0,0
12130,-285.714285714286,4,2,0,40,0,0
12987,-100,4,2,0,40,0,0
14701,-66.6666666666667,4,2,0,40,0,0
25844,-133.333333333333,4,2,0,40,0,0
26704,-100,4,2,0,15,0,0
28951,300,4,2,0,50,1,0
49351,-83.3333333333333,4,2,0,60,0,1
51751,-111.111111111111,4,2,0,50,0,0
54151,-83.3333333333333,4,2,0,60,0,1
56551,-111.111111111111,4,2,0,50,0,0
58651,-222.222222222222,4,2,0,50,0,0
58951,-100,4,2,0,50,0,0
66751,-133.333333333333,4,2,0,50,0,0
68251,-100,4,2,0,50,0,0
68551,-80,4,2,0,50,0,1
77551,-80,4,2,0,50,0,0
78151,-80,4,2,0,50,0,1
87751,-100,4,2,0,50,0,0
97351,-80,4,2,0,50,0,1
105601,-100,4,2,0,50,0,0
105751,-200,4,2,0,5,0,0

[HitObjects]
153,296,11273,6,0,L|122:192,1,85.4999973907472
187,133,12130,6,0,L|217:241,1,99.7499969558717
244,323,12988,5,0,0:0:0:0:
244,323,13201,1,0,0:0:0:0:
244,323,13416,1,0,0:0:0:0:
332,172,13630,1,0,0:0:0:0:
338,219,13737,1,0,0:0:0:0:
318,261,13844,1,0,0:0:0:0:
253,171,14059,6,0,P|254:154|261:135,2,31.6666666666667,0|0|0,3:0|3:0|3:0,3:0:0:0:
279,110,14273,2,0,P|292:62|280:18,1,95
70,39,14702,6,0,L|176:64,1,71.2500027179719
182,157,14916,2,0,L|103:138,1,71.2500027179719
38,267,15130,6,0,L|34:190,1,71.2500027179719
106,299,15559,2,0,L|109:227,1,71.2500027179719
171,336,15988,2,0,L|182:265,1,71.2500027179719
391,334,16416,6,0,L|240:350,1,142.500005435944
441,220,16845,2,0,L|375:265,1,71.2500027179719
425,151,17273,2,0,L|352:183,1,71.2500027179719,0|0,3:0|3:0,3:0:0:0:
312,183,17487,2,0,L|355:163,3,47.5000018119813,0|0|0|0,3:0|3:0|3:0|3:0,3:0:0:0:
179,23,18130,6,0,P|243:29|270:117,1,142.500005435944
193,160,18452,2,0,L|205:80,1,71.2500027179719
62,95,18773,1,0,0:0:0:0:
153,232,18988,2,0,P|102:216|30:264,1,142.500005435944
103,297,19416,5,0,0:0:0:0:
150,303,19523,1,0,0:0:0:0:
197,309,19630,1,0,0:0:0:0:
244,315,19737,1,0,0:0:0:0:
287,380,19845,6,8,P|318:338|292:254,1,142.500005435944,0|0,3:0|3:0,3:0:0:0:
228,219,20166,1,0,0:0:0:0:
150,225,20273,2,0,B|140:190|140:190|157:83,1,142.500005435944
258,25,20595,1,0,0:0:0:0:
247,94,20702,2,0,L|239:152,3,47.5
399,97,21130,6,0,L|387:17,1,71.2500027179719
320,81,21345,2,0,L|308:160,1,71.2500027179719
397,172,21559,6,0,L|477:184,1,71.2500027179719
512,268,21773,2,0,L|432:256,1,71.2500027179719
334,314,21988,6,0,L|330:242,1,71.2500027179719
256,341,22416,2,0,L|258:269,1,71.2500027179719
175,361,22845,2,0,L|183:290,1,71.2500027179719
0,167,23273,6,0,L|100:278,1,142.500005435944
216,173,23595,6,0,L|116:193,1,71.2500027179719
232,103,24130,2,0,L|130:114,1,71.2500027179719
121,94,24345,2,0,L|168:88,3,47.5000018119813
291,22,24988,6,0,P|331:89|303:173,1,142.500005435944
295,182,25309,2,0,B|271:214|271:214|283:323,1,142.500005435944
271,354,25630,2,0,P|236:357|199:337,1,71.2500027179719
178,307,25845,2,0,P|101:267|43:299,1,142.5
32,325,26701,5,0,0:0:0:0:
256,192,26808,12,0,28844,0:0:0:0:
218,103,28951,5,0,0:0:0:0:
343,344,31051,6,0,P|352:224|314:197,1,142.5
270,192,31351,1,0,0:0:0:0:
266,188,33751,5,0,0:0:0:0:
135,40,35851,6,0,P|126:160|164:187,1,142.5
199,197,36151,6,0,L|178:295,1,95
241,381,36451,2,0,L|260:288,1,95
367,201,36751,2,0,L|274:220,1,95
348,298,37051,2,0,L|440:278,1,95
341,48,37351,5,0,0:0:0:0:
341,48,37426,1,0,0:0:0:0:
341,48,37501,2,0,L|356:101,1,47.5
467,209,37651,5,0,0:0:0:0:
467,209,37726,1,0,0:0:0:0:
467,209,37801,2,0,L|452:156,5,47.5
428,94,38251,1,0,0:0:0:0:
371,358,38551,5,0,0:0:0:0:
195,20,38851,1,0,0:0:0:0:
195,20,39151,1,0,0:0:0:0:
195,20,39451,2,0,P|211:78|169:134,1,95
23,219,39751,5,0,0:0:0:0:
258,177,39901,1,0,0:0:0:0:
13,130,40051,2,0,P|59:138|95:168,1,95
97,367,40351,1,0,0:0:0:0:
176,165,40501,1,0,0:0:0:0:
187,379,40651,2,0,L|182:274,1,95
367,334,40951,5,0,0:0:0:0:
109,292,41101,1,0,0:0:0:0:
340,254,41251,2,0,P|387:253|427:278,1,95
504,157,41551,6,0,L|512:62,1,95
412,183,41851,2,0,L|403:88,1,95
506,338,42151,5,0,0:0:0:0:
313,203,42301,1,0,0:0:0:0:
500,225,42451,2,0,P|470:261|426:276,1,95
412,81,42751,1,0,0:0:0:0:
359,322,42901,1,0,0:0:0:0:
279,114,43051,2,0,L|314:207,1,95
136,217,43351,5,0,0:0:0:0:
359,129,43501,1,0,0:0:0:0:
76,163,43651,2,0,P|116:138|162:140,1,95
280,345,43951,6,0,L|179:333,1,95
20,360,44251,2,0,L|114:371,1,95
91,54,44551,5,0,0:0:0:0:
49,274,44701,1,0,0:0:0:0:
4,40,44851,2,0,P|7:86|35:123,1,95
237,2,45151,1,0,0:0:0:0:
97,176,45301,1,0,0:0:0:0:
323,69,45451,2,0,L|229:114,1,95
298,279,45751,5,0,0:0:0:0:
190,59,45901,1,0,0:0:0:0:
208,311,46051,2,0,P|204:263|220:219,1,95
426,98,46351,6,0,L|337:150,1,95
487,205,46651,2,0,L|385:223,1,95,8|8,0:0|0:0,0:0:0:0:
365,355,46951,5,0,0:0:0:0:
491,130,47101,1,0,0:0:0:0:
505,355,47251,2,0,P|472:320|427:308,1,95
235,337,47551,1,0,0:0:0:0:
415,239,47701,1,0,0:0:0:0:
194,206,47851,2,0,L|287:219,1,95
422,157,48151,5,0,0:0:0:0:
370,149,48226,1,0,0:0:0:0:
318,141,48301,1,0,0:0:0:0:
266,134,48376,1,0,0:0:0:0:
215,126,48451,1,0,0:0:0:0:
164,131,48526,1,0,0:0:0:0:
125,165,48601,1,0,0:0:0:0:
114,215,48676,1,0,0:0:0:0:
134,263,48751,1,0,0:0:0:0:
179,238,48826,1,0,0:0:0:0:
209,195,48901,1,0,0:0:0:0:
218,144,48976,1,0,0:0:0:0:
203,95,49051,1,0,0:0:0:0:
168,56,49126,1,0,0:0:0:0:
120,37,49201,1,0,0:0:0:0:
68,41,49276,1,0,0:0:0:0:
24,67,49351,6,0,L|40:207,1,113.999996520996
167,371,49576,5,0,0:0:0:0:
167,371,49651,2,0,L|154:257,1,113.999996520996
284,88,49876,5,0,0:0:0:0:
284,88,49951,2,0,L|271:201,1,113.999996520996
467,303,50176,5,0,0:0:0:0:
467,303,50251,2,0,L|353:290,1,113.999996520996
398,119,50476,5,0,0:0:0:0:
398,119,50551,2,0,L|511:131,1,113.999996520996
364,384,50776,5,0,0:0:0:0:
364,384,50851,2,0,L|351:270,1,113.999996520996
237,37,51076,5,0,0:0:0:0:
237,37,51151,1,0,0:0:0:0:
163,259,51301,1,0,0:0:0:0:
356,35,51451,1,0,0:0:0:0:
454,258,51601,1,0,0:0:0:0:
119,131,51751,6,0,L|203:142,1,85.4999973907472
105,211,52051,2,0,L|20:199,1,85.4999973907472
130,372,52351,2,0,L|118:287,1,85.4999973907472
203,142,52651,2,0,L|214:226,1,85.4999973907472
283,45,52951,2,0,L|198:56,1,85.4999973907472
380,216,53251,2,0,L|295:204,1,85.4999973907472
462,263,53551,2,0,L|450:178,1,85.4999973907472
278,126,53851,1,0,0:0:0:0:
321,0,54001,5,0,0:0:0:0:
333,55,54076,1,0,0:0:0:0:
345,110,54151,2,0,L|374:247,1,113.999996520996
232,364,54376,5,0,0:0:0:0:
232,364,54451,2,0,L|208:252,1,113.999996520996
109,28,54676,5,0,0:0:0:0:
109,28,54751,2,0,L|132:139,1,113.999996520996
368,221,54976,5,0,0:0:0:0:
368,221,55051,2,0,L|256:197,1,113.999996520996
6,228,55276,5,0,0:0:0:0:
6,228,55351,2,0,L|117:251,1,113.999996520996
329,129,55576,5,0,0:0:0:0:
329,129,55651,2,0,L|440:152,1,113.999996520996
382,377,55876,5,0,0:0:0:0:
382,377,55951,1,0,0:0:0:0:
476,95,56101,1,0,0:0:0:0:
287,335,56251,1,0,0:0:0:0:
330,35,56401,1,0,0:0:0:0:
386,286,56551,6,0,L|382:234,4,42.7499986953736
163,250,57151,2,0,L|167:198,4,42.7499986953736
258,140,57751,6,0,L|206:145,2,42.7499986953736
7,179,58051,2,0,L|59:184,2,42.7499986953736
68,71,58351,1,0,0:0:0:0:
97,40,58426,1,0,0:0:0:0:
136,22,58501,1,0,0:0:0:0:
178,19,58576,1,0,0:0:0:0:
219,31,58651,6,0,L|236:87,1,42.7499986953736
361,120,58951,5,0,0:0:0:0:
164,116,59101,1,0,0:0:0:0:
390,38,59251,2,0,P|427:56|454:110,1,95
408,296,59551,1,0,0:0:0:0:
361,120,59701,1,0,0:0:0:0:
331,333,59851,2,0,L|344:238,1,95
512,379,60151,6,0,L|396:363,1,95
227,253,60451,2,0,L|339:268,1,95
175,384,60751,2,0,L|159:271,1,95
170,71,61051,2,0,L|185:183,1,95
9,80,61351,5,0,0:0:0:0:
244,111,61501,1,0,0:0:0:0:
51,241,61651,2,0,P|81:204|86:158,1,95
66,13,61951,1,0,0:0:0:0:
159,271,62101,1,0,0:0:0:0:
169,54,62251,2,0,L|164:148,1,95
338,129,62551,6,0,P|336:82|309:43,1,95
378,193,62851,2,0,P|419:214|466:209,1,95
303,194,63151,2,0,L|217:259,1,95
317,374,63451,2,0,B|317:328|317:328|311:313|311:313|311:280,1,95
309,43,63751,5,0,0:0:0:0:
347,252,63901,1,0,0:0:0:0:
219,80,64051,2,0,P|242:120|283:142,1,95
493,54,64351,1,0,0:0:0:0:
243,14,64501,1,0,0:0:0:0:
440,123,64651,2,0,L|354:75,1,95
405,280,64951,6,0,P|385:237|391:191,1,95
311,382,65251,2,0,P|330:339|324:293,1,95
165,276,65551,2,0,L|248:321,1,95
462,227,65851,1,0,0:0:0:0:
180,187,66001,5,0,0:0:0:0:
180,187,66076,1,0,0:0:0:0:
180,187,66151,1,0,0:0:0:0:
169,233,66226,1,0,0:0:0:0:
140,270,66301,1,0,0:0:0:0:
97,290,66376,1,0,0:0:0:0:
53,292,66451,2,0,L|62:245,1,47.5
46,126,66601,2,0,L|-1:117,1,47.5
151,15,66751,5,0,0:0:0:0:
147,38,66826,1,0,0:0:0:0:
144,62,66901,1,0,0:0:0:0:
140,85,66976,1,0,0:0:0:0:
136,107,67051,6,0,L|192:103,3,35.625001358986
220,46,67351,2,0,L|276:50,3,35.625001358986
294,116,67651,2,0,L|350:112,3,35.625001358986
388,38,67951,2,0,L|352:40,3,35.625001358986
394,133,68251,2,0,L|433:220,1,95
301,356,68551,6,0,P|317:277|360:247,1,118.75
216,217,68851,2,0,L|101:184,1,118.75
117,0,69151,2,0,P|159:40|169:97,1,118.75
53,312,69451,6,0,B|54:239|54:239|87:174,1,118.75
134,381,69751,2,0,L|134:243,1,118.75
249,101,70051,2,0,L|387:101,1,118.75
491,245,70351,2,0,P|433:238|392:196,1,118.75
512,4,70651,2,0,L|482:119,1,118.75
236,212,70951,6,0,P|319:228|358:287,1,118.75
187,383,71251,2,0,B|195:334|195:334|182:292|182:292|187:239,1,118.75
233,32,71551,5,0,0:0:0:0:
79,265,71701,1,0,0:0:0:0:
326,68,71851,1,0,0:0:0:0:
67,107,72001,1,0,0:0:0:0:
312,163,72151,5,0,0:0:0:0:
125,16,72301,1,0,0:0:0:0:
184,266,72451,1,0,0:0:0:0:
208,102,72601,1,0,0:0:0:0:
290,384,72751,2,0,P|292:325|260:276,1,118.75
19,324,73051,2,0,B|56:317|56:317|92:336|92:336|137:327,1,118.75
117,122,73351,6,0,P|101:179|122:234,1,118.75
214,60,73651,2,0,L|340:43,1,118.75
512,131,73951,2,0,P|457:150|402:131,1,118.75,0|0,2:0|2:0,2:0:0:0:
241,195,74251,2,0,P|295:214|350:195,1,118.75,0|0,2:0|2:0,2:0:0:0:
489,368,74551,6,0,L|443:238,1,118.75
206,327,74851,2,0,B|239:318|239:318|293:328|293:328|324:319,1,118.75
291,136,75151,2,0,L|276:14,1,118.75
86,68,75451,2,0,L|71:185,1,118.75
133,318,75751,6,0,P|158:238|127:187,1,118.75
7,104,76051,1,0,0:0:0:0:
291,136,76201,2,0,P|193:112|181:70,1,118.75
420,72,76501,1,0,0:0:0:0:
366,315,76651,2,0,L|367:177,1,118.75
167,182,76951,5,0,0:0:0:0:
472,148,77101,1,0,0:0:0:0:
189,105,77251,1,0,0:0:0:0:
469,227,77401,1,0,0:0:0:0:
234,376,77551,2,0,L|249:256,1,118.75
383,185,77851,6,0,L|380:245,3,59.375
469,282,78151,1,0,0:0:0:0:
444,322,78226,1,0,0:0:0:0:
404,345,78301,1,0,0:0:0:0:
357,345,78376,1,0,0:0:0:0:
316,322,78451,1,0,0:0:0:0:
292,281,78526,1,0,0:0:0:0:
292,234,78601,1,0,0:0:0:0:
297,187,78676,1,0,0:0:0:0:
302,140,78751,1,0,0:0:0:0:
307,92,78826,1,0,0:0:0:0:
313,45,78901,5,0,0:0:0:0:
331,89,78976,1,0,0:0:0:0:
329,136,79051,1,0,0:0:0:0:
308,178,79126,1,0,0:0:0:0:
271,208,79201,1,0,0:0:0:0:
226,219,79276,1,0,0:0:0:0:
179,211,79351,5,0,0:0:0:0:
133,202,79426,1,0,0:0:0:0:
89,216,79501,1,0,0:0:0:0:
57,251,79576,1,0,0:0:0:0:
47,297,79651,1,0,0:0:0:0:
61,342,79726,1,0,0:0:0:0:
95,374,79801,1,0,0:0:0:0:
141,385,79876,1,0,0:0:0:0:
186,372,79951,5,0,0:0:0:0:
178,325,80026,1,0,0:0:0:0:
171,278,80101,1,0,0:0:0:0:
163,231,80176,1,0,0:0:0:0:
154,183,80251,5,0,0:0:0:0:
103,192,80326,1,0,0:0:0:0:
56,170,80401,1,0,0:0:0:0:
32,124,80476,1,0,0:0:0:0:
38,73,80551,5,0,0:0:0:0:
85,66,80626,1,0,0:0:0:0:
132,58,80701,1,0,0:0:0:0:
178,50,80776,1,0,0:0:0:0:
225,42,80851,1,0,0:0:0:0:
216,88,80926,1,0,0:0:0:0:
231,132,81001,1,0,0:0:0:0:
267,163,81076,1,0,0:0:0:0:
313,171,81151,1,0,0:0:0:0:
357,155,81226,1,0,0:0:0:0:
387,119,81301,1,0,0:0:0:0:
394,72,81376,1,0,0:0:0:0:
376,30,81451,1,0,0:0:0:0:
338,58,81526,1,0,0:0:0:0:
319,101,81601,1,0,0:0:0:0:
323,147,81676,1,0,0:0:0:0:
349,186,81751,6,0,L|358:245,3,59.375
465,235,82051,2,0,L|456:293,3,59.375
278,319,82351,2,0,L|336:310,3,59.375
400,371,82651,2,0,L|342:380,3,59.375
133,374,82951,5,0,0:0:0:0:
139,322,83026,1,0,0:0:0:0:
168,280,83101,1,0,0:0:0:0:
214,256,83176,1,0,0:0:0:0:
266,256,83251,1,0,0:0:0:0:
308,286,83326,1,0,0:0:0:0:
359,296,83401,1,0,0:0:0:0:
409,282,83476,1,0,0:0:0:0:
449,249,83551,1,0,0:0:0:0:
471,202,83626,1,0,0:0:0:0:
471,150,83701,1,0,0:0:0:0:
449,104,83776,1,0,0:0:0:0:
409,70,83851,2,0,L|351:86,3,59.375
248,0,84151,5,0,0:0:0:0:
261,55,84226,1,0,0:0:0:0:
274,110,84301,1,0,0:0:0:0:
287,166,84376,1,0,0:0:0:0:
299,221,84451,1,0,0:0:0:0:
338,179,84526,1,0,0:0:0:0:
354,125,84601,1,0,0:0:0:0:
344,70,84676,1,0,0:0:0:0:
309,25,84751,1,0,0:0:0:0:
259,0,84826,1,0,0:0:0:0:
202,1,84901,1,0,0:0:0:0:
152,27,84976,1,0,0:0:0:0:
120,74,85051,2,0,L|114:141,3,59.375
2,208,85351,5,0,0:0:0:0:
66,222,85426,1,0,0:0:0:0:
131,236,85501,1,0,0:0:0:0:
196,250,85576,1,0,0:0:0:0:
261,264,85651,1,0,0:0:0:0:
326,252,85726,1,0,0:0:0:0:
372,206,85801,1,0,0:0:0:0:
386,142,85876,1,0,0:0:0:0:
361,81,85951,1,0,0:0:0:0:
307,44,86026,1,0,0:0:0:0:
242,43,86101,1,0,0:0:0:0:
187,79,86176,1,0,0:0:0:0:
161,139,86251,1,0,0:0:0:0:
225,153,86326,1,0,0:0:0:0:
290,167,86401,1,0,0:0:0:0:
355,181,86476,1,0,0:0:0:0:
420,193,86551,5,0,0:0:0:0:
402,262,86626,1,0,0:0:0:0:
361,320,86701,1,0,0:0:0:0:
301,358,86776,1,0,0:0:0:0:
232,372,86851,1,0,0:0:0:0:
162,359,86926,1,0,0:0:0:0:
102,321,87001,1,0,0:0:0:0:
60,264,87076,1,0,0:0:0:0:
43,195,87151,1,0,0:0:0:0:
51,125,87226,1,0,0:0:0:0:
85,63,87301,1,0,0:0:0:0:
139,18,87376,1,0,0:0:0:0:
207,0,87451,1,0,0:0:0:0:
277,0,87526,1,0,0:0:0:0:
342,30,87601,1,0,0:0:0:0:
390,81,87676,1,0,0:0:0:0:
416,147,87751,5,0,0:0:0:0:
221,107,87901,1,0,0:0:0:0:
369,335,88051,2,0,L|357:219,1,95
288,35,88351,1,0,0:0:0:0:
252,263,88501,1,0,0:0:0:0:
128,91,88651,2,0,P|131:146|161:184,1,95
332,178,88951,5,0,0:0:0:0:
78,239,89101,1,0,0:0:0:0:
289,358,89251,2,0,P|214:358|188:343,1,95
139,156,89551,6,0,L|151:263,1,95
33,93,89851,2,0,L|21:200,1,95
293,9,90151,5,0,0:0:0:0:
109,85,90301,1,0,0:0:0:0:
386,122,90451,1,0,0:0:0:0:
223,56,90601,1,0,0:0:0:0:
223,56,90676,1,0,0:0:0:0:
223,56,90751,1,0,0:0:0:0:
298,265,90901,1,0,0:0:0:0:
355,52,91051,1,0,0:0:0:0:
159,194,91201,5,0,0:0:0:0:
159,194,91276,1,0,0:0:0:0:
159,194,91351,1,0,0:0:0:0:
404,254,91501,1,0,0:0:0:0:
257,119,91651,1,0,0:0:0:0:
182,354,91801,1,0,0:0:0:0:
343,164,91951,6,0,L|329:269,1,95
442,91,92251,2,0,L|456:196,1,95
464,368,92551,5,0,0:0:0:0:
253,251,92701,1,0,0:0:0:0:
477,260,92851,2,0,P|419:261|384:290,1,95
226,381,93151,1,0,0:0:0:0:
239,136,93301,1,0,0:0:0:0:
323,376,93451,2,0,L|321:265,1,95
351,61,93751,5,0,0:0:0:0:
161,146,93901,1,0,0:0:0:0:
417,151,94051,2,0,P|358:179|316:172,1,95
136,14,94351,6,0,L|35:-1,1,95
206,99,94651,2,0,L|105:114,1,95
24,324,94951,5,0,0:0:0:0:
29,104,95101,1,0,0:0:0:0:
190,278,95251,1,0,0:0:0:0:
0,213,95401,1,0,0:0:0:0:
0,213,95476,1,0,0:0:0:0:
0,213,95551,1,0,0:0:0:0:
239,166,95701,1,0,0:0:0:0:
128,361,95851,1,0,0:0:0:0:
134,171,96001,5,0,0:0:0:0:
134,171,96076,1,0,0:0:0:0:
134,171,96151,1,0,0:0:0:0:
283,351,96301,1,0,0:0:0:0:
320,104,96451,2,0,P|272:67|237:67,1,95
150,294,96751,1,0,0:0:0:0:
373,205,96901,1,0,0:0:0:0:
134,171,97051,2,0,P|182:134|217:134,1,95
339,350,97351,5,0,0:0:0:0:
339,350,97426,1,0,0:0:0:0:
339,350,97501,1,0,0:0:0:0:
339,350,97576,1,0,0:0:0:0:
339,350,97651,2,0,L|325:247,1,59.375
250,49,97801,1,0,0:0:0:0:
250,49,97876,1,0,0:0:0:0:
250,49,97951,2,0,L|264:152,1,59.375
423,185,98101,5,0,0:0:0:0:
423,185,98176,1,0,0:0:0:0:
423,185,98251,1,0,0:0:0:0:
423,185,98326,1,0,0:0:0:0:
423,185,98401,6,0,L|409:82,1,59.375
239,278,98551,1,0,0:0:0:0:
239,278,98626,1,0,0:0:0:0:
239,278,98701,2,0,L|253:175,1,59.375
168,19,98851,6,0,L|154:122,1,59.375
53,315,99001,1,0,0:0:0:0:
53,315,99076,1,0,0:0:0:0:
53,315,99151,6,0,L|67:212,1,59.375
0,66,99301,1,0,0:0:0:0:
0,66,99376,1,0,0:0:0:0:
0,66,99451,2,0,L|14:169,1,59.375
154,255,99601,1,0,0:0:0:0:
148,197,99676,1,0,0:0:0:0:
120,172,99751,5,0,0:0:0:0:
120,172,99826,1,0,0:0:0:0:
120,172,99901,1,0,0:0:0:0:
120,172,99976,1,0,0:0:0:0:
120,172,100051,2,0,L|208:165,1,59.375
398,45,100201,1,0,0:0:0:0:
398,45,100276,1,0,0:0:0:0:
398,45,100351,2,0,L|310:52,1,59.375
113,33,100501,5,0,0:0:0:0:
113,33,100576,1,0,0:0:0:0:
113,33,100651,1,0,0:0:0:0:
113,33,100726,1,0,0:0:0:0:
113,33,100801,2,0,L|200:40,1,59.375
273,233,100951,1,0,0:0:0:0:
273,233,101026,1,0,0:0:0:0:
273,233,101101,2,0,L|185:225,1,59.375
448,138,101251,6,0,L|507:142,1,59.375
340,353,101401,1,0,0:0:0:0:
340,353,101476,1,0,0:0:0:0:
340,353,101551,2,0,L|427:345,1,59.375
363,165,101701,1,0,0:0:0:0:
363,165,101776,1,0,0:0:0:0:
363,165,101851,5,0,0:0:0:0:
319,126,101926,1,0,0:0:0:0:
261,115,102001,1,0,0:0:0:0:
206,137,102076,1,0,0:0:0:0:
184,196,102151,5,0,0:0:0:0:
184,196,102226,1,0,0:0:0:0:
184,196,102301,1,0,0:0:0:0:
184,196,102376,1,0,0:0:0:0:
184,196,102451,2,0,L|173:278,1,59.375
50,370,102601,1,0,0:0:0:0:
50,370,102676,1,0,0:0:0:0:
50,370,102751,2,0,L|39:287,1,59.375
9,106,102901,5,0,0:0:0:0:
9,106,102976,1,0,0:0:0:0:
9,106,103051,1,0,0:0:0:0:
9,106,103126,1,0,0:0:0:0:
9,106,103201,2,0,L|19:188,1,59.375
231,79,103351,1,0,0:0:0:0:
231,79,103426,1,0,0:0:0:0:
231,79,103501,2,0,L|241:-3,1,59.375
443,247,103651,6,0,L|432:164,1,59.375
324,3,103801,1,0,0:0:0:0:
324,3,103876,1,0,0:0:0:0:
324,3,103951,2,0,L|313:85,1,59.375
356,302,104101,1,0,0:0:0:0:
356,302,104176,1,0,0:0:0:0:
356,302,104251,2,0,L|366:219,1,59.375
299,151,104401,5,0,0:0:0:0:
269,148,104476,1,0,0:0:0:0:
244,161,104551,1,0,0:0:0:0:
213,178,104626,1,0,0:0:0:0:
178,183,104701,5,0,0:0:0:0:
212,135,104776,1,0,0:0:0:0:
216,77,104851,1,0,0:0:0:0:
186,26,104926,1,0,0:0:0:0:
134,0,105001,1,0,0:0:0:0:
76,7,105076,1,0,0:0:0:0:
31,44,105151,1,0,0:0:0:0:
21,102,105226,1,0,0:0:0:0:
31,160,105301,1,0,0:0:0:0:
59,212,105376,1,0,0:0:0:0:
98,256,105451,1,0,0:0:0:0:
104,314,105526,1,0,0:0:0:0:
74,365,105601,1,0,0:0:0:0:
113,152,105751,5,0,0:0:0:0:
113,152,105901,1,0,0:0:0:0:
296,49,106051,5,0,0:0:0:0:
296,49,106201,1,0,0:0:0:0:
399,232,106351,5,0,0:0:0:0:
399,232,106501,1,0,0:0:0:0:
216,335,106651,5,0,0:0:0:0:
216,335,106801,1,0,0:0:0:0:
