osu file format v14

[General]
AudioFilename: audio.mp3
AudioLeadIn: 0
PreviewTime: 165289
Countdown: 0
SampleSet: None
StackLeniency: 0.7
Mode: 0
LetterboxInBreaks: 0
WidescreenStoryboard: 0

[Editor]
DistanceSpacing: 2.3
BeatDivisor: 4
GridSize: 4
TimelineZoom: 2.1

[Metadata]
Title:To The Terminus
TitleUnicode:To The Terminus
Artist:Foreground Eclipse
ArtistUnicode:Foreground Eclipse
Creator:Listle
Version:The end is near...
Source:
Tags:
BeatmapID:1984133
BeatmapSetID:950067

[Difficulty]
HPDrainRate:5
CircleSize:4
OverallDifficulty:9
ApproachRate:9.8
SliderMultiplier:1.9
SliderTickRate:1

[Events]
//Background and Video events
0,0,"72479757_p0_master1200.jpg",0,0
//Break Periods
//Storyboard Layer 0 (Background)
//Storyboard Layer 1 (Fail)
//Storyboard Layer 2 (Pass)
//Storyboard Layer 3 (Foreground)
//Storyboard Sound Samples

[TimingPoints]
1480,317.460317460317,4,1,0,100,1,0
1480,-100,4,2,1,60,0,0
5527,-100,4,2,1,5,0,0
5606,-100,4,2,1,60,0,0
8067,-100,4,2,1,5,0,0
8146,-100,4,2,1,60,0,0
10606,-100,4,2,1,5,0,0
10686,-100,4,2,1,60,0,0
12829,-100,4,2,1,5,0,0
12908,-100,4,2,1,60,0,0
28860,-100,4,2,1,5,0,0
28940,-100,4,2,1,60,0,0
29495,-100,4,2,1,5,0,0
29575,-100,4,2,1,60,0,0
30130,-100,4,2,1,5,0,0
30210,-100,4,2,1,60,0,0
38305,-100,4,2,1,60,0,0
40448,-100,4,2,1,5,0,0
40527,-100,4,2,1,60,0,0
44892,-100,4,2,1,5,0,0
44972,-100,4,2,1,60,0,0
45210,-100,4,2,1,5,0,0
45289,-100,4,2,1,60,0,0
45527,-100,4,2,1,5,0,0
45606,-100,4,2,1,60,0,0
50924,-100,4,2,1,5,0,0
51003,-100,4,2,1,60,0,0
56003,-100,4,2,1,5,0,0
56083,-100,4,2,1,60,0,0
58622,-100,4,2,1,60,0,0
58860,-100,4,2,1,5,0,0
58940,-100,4,2,1,60,0,0
61083,-100,4,2,1,5,0,0
61162,-100,4,2,1,60,0,0
63622,-100,4,2,1,5,0,0
63702,-100,4,2,1,60,0,0
64892,-100,4,2,1,5,0,0
64972,-100,4,2,1,60,0,0
65210,-100,4,2,1,5,0,0
65289,-100,4,2,1,60,0,0
65527,-100,4,2,1,5,0,0
65606,-100,4,2,1,60,0,0
66162,-100,4,2,1,5,0,0
66241,-100,4,2,1,60,0,0
67432,-100,4,2,1,5,0,0
67511,-100,4,2,1,60,0,0
71241,-100,4,2,1,5,0,0
71321,-100,4,2,1,60,0,0
76003,-100,4,2,1,5,0,0
76083,-100,4,2,1,60,0,0
78622,-133.333333333333,4,2,1,60,0,0
78860,-133.333333333333,4,2,1,5,0,0
78940,-100,4,2,1,60,0,0
80765,-100,4,2,1,5,0,0
80845,-100,4,2,1,60,0,0
81083,-100,4,2,1,5,0,0
81162,-100,4,2,1,60,0,0
81400,-100,4,2,1,5,0,0
81479,-100,4,2,1,60,0,0
83305,-100,4,2,1,5,0,0
83384,-100,4,2,1,60,0,0
83622,-100,4,2,1,5,0,0
83702,-100,4,2,1,60,0,0
83940,-100,4,2,1,5,0,0
84019,-100,4,2,1,60,0,0
86479,-100,4,2,1,5,0,0
86559,-100,4,2,1,60,0,0
98543,-100,4,2,1,5,0,0
98622,-100,4,2,1,60,0,0
98860,-100,4,2,1,5,0,0
98940,-100,4,2,1,60,0,0
99178,-100,4,2,1,5,0,0
99257,-100,4,2,1,60,0,0
105845,-100,4,2,1,5,0,0
105924,-100,4,2,1,60,0,0
106162,-100,4,2,1,5,0,0
106241,-100,4,2,1,60,0,0
106479,-100,4,2,1,5,0,0
106559,-100,4,2,1,60,0,0
107114,-100,4,2,1,5,0,0
107194,-100,4,2,1,60,0,0
107432,-100,4,2,1,5,0,0
107511,-100,4,2,1,60,0,0
107749,-100,4,2,1,5,0,0
107829,-100,4,2,1,60,0,0
108384,-100,4,2,1,5,0,0
108464,-100,4,2,1,60,0,0
108702,-100,4,2,1,5,0,0
108781,-100,4,2,1,60,0,0
109019,-100,4,2,1,5,0,0
109099,-100,4,2,1,60,0,0
113464,-100,4,2,1,5,0,0
113543,-100,4,2,1,60,0,0
113781,-100,4,2,1,5,0,0
113860,-100,4,2,1,60,0,0
114099,-100,4,2,1,5,0,0
114178,-100,4,2,1,60,0,0
119575,-100,4,2,1,60,0,0
124575,-100,4,2,1,5,0,0
124654,-100,4,2,1,60,0,0
139892,-100,4,2,1,60,0,1
142432,-100,4,2,1,60,0,0
144257,-100,4,2,1,5,0,0
144337,-100,4,2,1,60,0,0
144733,-100,4,2,1,5,0,0
144813,-100,4,2,1,60,0,0
145051,-100,4,2,1,5,0,0
145130,-100,4,2,1,60,0,0
147273,-100,4,2,1,5,0,0
147353,-100,4,2,1,60,0,0
147749,-100,4,2,1,5,0,0
147829,-100,4,2,1,60,0,0
155130,-100,4,2,1,60,0,1
165289,-100,4,2,1,60,0,0
169654,-100,4,2,1,5,0,0
169733,-100,4,2,1,60,0,0
169972,-100,4,2,1,5,0,0
170051,-100,4,2,1,60,0,0
170289,-100,4,2,1,5,0,0
170368,-100,4,2,1,60,0,0
174892,-100,4,2,1,5,0,0
174972,-100,4,2,1,60,0,0
185606,-100,4,2,1,60,0,0
194733,-100,4,2,1,5,0,0
194813,-100,4,2,1,60,0,0
195051,-100,4,2,1,5,0,0
195130,-100,4,2,1,60,0,0
204654,-100,4,2,1,60,0,1
205924,-100,4,2,1,60,0,0
211003,-100,4,2,1,5,0,0

[Colours]
Combo1 : 255,128,64
Combo2 : 255,128,128

[HitObjects]
90,55,1480,6,0,L|46:159,1,95
69,332,1797,1,0,0:0:0:0:
148,159,1956,1,0,0:0:0:0:
6,284,2114,2,0,P|-7:334|2:376,1,95
143,250,2432,2,0,P|156:200|147:158,1,95
14,21,2749,5,0,0:0:0:0:
82,198,2908,1,0,0:0:0:0:
231,12,3067,1,0,0:0:0:0:
231,12,3146,1,0,0:0:0:0:
231,12,3226,1,0,0:0:0:0:
67,107,3384,2,0,L|23:131,2,47.5
251,259,3702,1,0,0:0:0:0:
251,259,3781,1,0,0:0:0:0:
251,259,3860,1,0,0:0:0:0:
152,96,4019,6,0,P|119:45|81:25,1,95
171,253,4337,2,0,P|193:310|239:335,1,95
405,368,4654,1,0,0:0:0:0:
251,259,4813,1,0,0:0:0:0:
424,180,4972,1,0,0:0:0:0:
316,335,5130,2,0,B|365:238|302:180|302:180|313:135|371:116,1,237.5
434,133,5606,6,0,L|422:186,2,47.5
316,335,5924,1,0,0:0:0:0:
316,335,6003,1,0,0:0:0:0:
316,335,6083,1,0,0:0:0:0:
261,153,6241,2,0,L|254:89,2,47.5
120,22,6559,6,0,L|112:120,1,95
253,247,6876,2,0,L|261:149,1,95
77,207,7194,1,0,0:0:0:0:
203,349,7353,1,0,0:0:0:0:
146,168,7511,1,0,0:0:0:0:
42,382,7670,2,0,B|52:355|27:326|27:326|37:287|37:287|-21:238|13:151,1,237.5
32,70,8146,6,0,L|54:18,2,47.5
101,247,8464,2,0,L|64:186,2,47.5
178,366,8781,1,0,0:0:0:0:
151,177,8940,1,0,0:0:0:0:
319,265,9099,6,0,P|331:322|390:363,1,95
231,203,9416,2,0,P|222:139|171:93,1,95
395,281,9733,1,0,0:0:0:0:
231,203,9892,1,0,0:0:0:0:
378,98,10051,1,0,0:0:0:0:
249,298,10210,6,0,B|185:298|185:298|136:275|136:275|3:275,1,237.5
27,179,10686,2,0,P|47:132|40:108,2,47.5
9,8,11003,2,0,L|60:31,1,47.5
186,78,11162,1,0,0:0:0:0:
81,236,11321,2,0,L|132:204,1,47.5
243,139,11479,1,0,0:0:0:0:
16,275,11638,5,0,0:0:0:0:
16,275,12273,5,0,0:0:0:0:
38,238,12353,1,0,0:0:0:0:
74,216,12432,1,0,0:0:0:0:
116,216,12511,1,0,0:0:0:0:
154,234,12591,2,0,P|205:256|297:256,1,142.5
360,244,12908,6,0,P|329:199|288:188,1,95
152,319,13226,2,0,P|183:364|224:375,1,95
434,272,13543,5,0,0:0:0:0:
226,300,13702,1,0,0:0:0:0:
239,74,13860,1,0,0:0:0:0:
360,244,14019,1,0,0:0:0:0:
113,267,14178,1,0,0:0:0:0:
293,160,14337,1,0,0:0:0:0:
74,10,14495,1,0,0:0:0:0:
183,188,14654,1,0,0:0:0:0:
307,31,14813,6,0,P|255:-3|201:7,1,95
183,188,15130,2,0,P|235:222|289:212,1,95
456,199,15448,1,0,0:0:0:0:
502,15,15606,1,0,0:0:0:0:
307,31,15765,1,0,0:0:0:0:
506,121,15924,1,0,0:0:0:0:
307,31,16083,2,0,B|271:71|271:71|259:116,1,95
431,287,16400,2,0,P|454:245|445:168,1,95
384,20,16718,5,0,0:0:0:0:
385,222,16876,1,0,0:0:0:0:
458,36,17035,1,0,0:0:0:0:
313,187,17194,1,0,0:0:0:0:
209,4,17353,2,0,L|254:33,1,47.5
368,105,17511,1,0,0:0:0:0:
266,254,17670,2,0,P|233:197|253:133,1,95
431,287,17987,5,0,0:0:0:0:
206,366,18146,1,0,0:0:0:0:
443,366,18305,2,0,P|493:334|508:280,1,95
478,114,18622,1,0,0:0:0:0:
372,326,18781,1,0,0:0:0:0:
407,90,18940,2,0,P|449:40|481:37,1,95
365,247,19257,5,0,0:0:0:0:
262,32,19416,1,0,0:0:0:0:
427,203,19575,2,0,P|440:255|420:300,1,95
206,366,19892,1,0,0:0:0:0:
365,247,20051,2,0,P|352:189|458:132,1,190
427,203,20527,5,0,0:0:0:0:
262,107,20686,1,0,0:0:0:0:
427,12,20845,1,0,0:0:0:0:
427,203,21003,2,0,P|436:268|406:309,1,95
232,292,21321,5,0,0:0:0:0:
328,127,21480,1,0,0:0:0:0:
423,292,21638,2,0,P|406:348|406:385,1,95
508,167,21956,1,0,0:0:0:0:
338,331,22114,1,0,0:0:0:0:
262,107,22273,1,0,0:0:0:0:
423,292,22432,1,0,0:0:0:0:
195,362,22591,5,0,0:0:0:0:
168,328,22670,1,0,0:0:0:0:
155,288,22749,1,0,0:0:0:0:
158,245,22829,1,0,0:0:0:0:
175,207,22908,2,0,L|165:152,1,47.5
145,18,23067,6,0,L|212:85,1,95
85,226,23384,2,0,L|18:159,1,95
273,121,23702,2,0,L|273:215,1,95
85,226,24019,2,0,L|85:131,1,95
293,285,24337,2,0,L|225:352,1,95
85,226,24654,2,0,L|152:159,1,95
309,18,24972,5,0,0:0:0:0:
227,240,25130,1,0,0:0:0:0:
225,2,25289,1,0,0:0:0:0:
438,106,25448,1,0,0:0:0:0:
225,2,25606,6,0,L|158:69,1,95
285,210,25923,2,0,L|352:143,1,95
97,105,26241,2,0,L|97:199,1,95
285,210,26558,2,0,L|285:115,1,95
80,272,26876,2,0,L|147:339,1,95
285,210,27193,2,0,L|218:143,1,95
2,38,27511,5,0,0:0:0:0:
117,258,27670,1,0,0:0:0:0:
75,14,27829,1,0,0:0:0:0:
41,257,27987,1,0,0:0:0:0:
259,140,28146,1,0,0:0:0:0:
75,14,28305,6,0,P|72:69|38:106,1,95
41,257,28622,2,0,P|71:321|165:316,1,142.5
229,356,28940,2,0,P|281:345|327:358,1,95
510,369,29257,2,0,P|464:328|477:218,1,142.5
495,163,29575,2,0,P|505:109|491:69,1,95
362,13,29892,2,0,P|375:95|457:119,1,142.5
396,188,30210,2,0,P|344:164|287:24,1,190
150,2,30686,6,0,P|162:46|154:96,1,95
109,231,31003,1,0,0:0:0:0:
47,114,31162,2,0,P|54:64|149:120,1,190
168,283,31638,1,0,0:0:0:0:
154,93,31797,2,0,P|142:49|150:-1,1,95
311,93,32114,5,0,0:0:0:0:
168,283,32273,1,0,0:0:0:0:
47,114,32432,1,0,0:0:0:0:
264,209,32591,1,0,0:0:0:0:
58,326,32749,5,0,0:0:0:0:
55,283,32828,1,0,0:0:0:0:
67,242,32907,1,0,0:0:0:0:
93,209,32987,1,0,0:0:0:0:
134,194,33067,2,0,L|183:206,1,47.5
267,286,33226,2,0,P|326:253|299:140,1,190
138,342,33860,6,0,B|175:356|175:356|205:340|205:340|254:386|345:355,1,190
161,265,34495,2,0,P|86:281|74:391,1,190
161,265,35130,1,0,0:0:0:0:
227,86,35289,1,0,0:0:0:0:
161,265,35448,1,0,0:0:0:0:
149,76,35606,1,0,0:0:0:0:
81,253,35765,5,0,0:0:0:0:
87,294,35844,1,0,0:0:0:0:
113,327,35923,1,0,0:0:0:0:
153,343,36003,1,0,0:0:0:0:
195,336,36083,1,0,0:0:0:0:
226,308,36162,1,0,0:0:0:0:
267,296,36241,1,0,0:0:0:0:
308,303,36321,1,0,0:0:0:0:
347,321,36400,6,0,L|391:345,1,47.5
506,261,36559,2,0,L|462:237,1,47.5
344,333,36718,2,0,L|388:357,1,47.5
503,273,36877,2,0,L|459:249,1,47.5
341,174,37035,5,0,0:0:0:0:
341,174,37114,1,0,0:0:0:0:
341,174,37194,2,0,L|314:125,1,47.5
212,35,37353,1,0,0:0:0:0:
212,35,37432,1,0,0:0:0:0:
212,35,37512,2,0,L|163:62,1,47.5
55,141,37670,1,0,0:0:0:0:
55,141,37749,1,0,0:0:0:0:
55,141,37829,2,0,L|6:114,1,47.5
153,140,37987,6,0,L|165:199,3,47.5
170,327,38305,6,0,B|153:259|153:259|153:139,1,190
269,9,38781,1,0,0:0:0:0:
246,197,38940,2,0,L|246:291,1,95
421,365,39257,2,0,L|421:271,1,95
480,139,39575,1,0,0:0:0:0:
332,20,39733,1,0,0:0:0:0:
322,210,39892,1,0,0:0:0:0:
449,69,40051,1,0,0:0:0:0:
246,197,40210,6,0,P|235:127|292:50,1,142.5
332,20,40527,1,0,0:0:0:0:
322,210,40686,1,0,0:0:0:0:
185,342,40845,1,0,0:0:0:0:
369,383,41003,1,0,0:0:0:0:
198,217,41162,1,0,0:0:0:0:
421,134,41321,1,0,0:0:0:0:
295,334,41479,1,0,0:0:0:0:
421,134,41638,1,0,0:0:0:0:
194,59,41797,6,0,P|155:109|222:226,1,190
376,280,42273,1,0,0:0:0:0:
237,135,42432,1,0,0:0:0:0:
74,250,42591,2,0,P|115:297|237:282,1,190
192,201,43067,2,0,P|214:263|245:296,1,95
400,374,43384,5,0,0:0:0:0:
502,159,43543,1,0,0:0:0:0:
271,219,43702,1,0,0:0:0:0:
490,306,43860,1,0,0:0:0:0:
476,68,44019,1,0,0:0:0:0:
415,298,44178,1,0,0:0:0:0:
218,164,44337,1,0,0:0:0:0:
502,159,44495,1,0,0:0:0:0:
334,327,44654,6,0,P|258:286|235:224,1,142.5
218,164,44972,2,0,P|215:90|146:56,1,142.5
94,90,45289,2,0,B|72:146|72:146|168:128,1,142.5
218,164,45606,1,0,0:0:0:0:
43,325,45765,1,0,0:0:0:0:
14,88,45924,6,0,L|52:-3,1,95
254,76,46241,2,0,L|216:167,1,95
28,94,46559,2,0,L|66:3,1,95
268,82,46876,2,0,L|230:173,1,95
157,346,47194,5,0,0:0:0:0:
126,316,47273,1,0,0:0:0:0:
107,278,47352,1,0,0:0:0:0:
100,236,47432,1,0,0:0:0:0:
114,195,47511,2,0,P|135:143|125:88,1,95
24,263,47829,2,0,P|2:314|12:369,1,95
194,370,48146,5,0,0:0:0:0:
234,135,48305,1,0,0:0:0:0:
177,266,48464,1,0,0:0:0:0:
318,255,48622,1,0,0:0:0:0:
150,164,48781,1,0,0:0:0:0:
140,354,48940,1,0,0:0:0:0:
302,180,49099,5,0,0:0:0:0:
72,123,49257,1,0,0:0:0:0:
251,279,49416,1,0,0:0:0:0:
340,7,49575,1,0,0:0:0:0:
129,197,49733,1,0,0:0:0:0:
386,321,49892,1,0,0:0:0:0:
247,71,50051,1,0,0:0:0:0:
117,325,50210,1,0,0:0:0:0:
370,198,50368,1,0,0:0:0:0:
127,48,50527,1,0,0:0:0:0:
117,325,50686,6,0,B|184:344|184:344|291:350,1,142.5
351,348,51003,5,0,0:0:0:0:
266,125,51162,1,0,0:0:0:0:
256,348,51321,1,0,0:0:0:0:
429,271,51479,1,0,0:0:0:0:
252,200,51638,1,0,0:0:0:0:
351,348,51797,1,0,0:0:0:0:
406,185,51956,1,0,0:0:0:0:
304,284,52114,1,0,0:0:0:0:
479,210,52273,6,0,P|470:138|442:111,1,95
282,196,52591,2,0,P|291:268|319:295,1,95
479,210,52908,2,0,B|493:164|493:164|480:124|480:124|503:74|487:19,1,190
349,1,53384,1,0,0:0:0:0:
403,183,53543,5,0,0:0:0:0:
215,150,53702,1,0,0:0:0:0:
429,50,53860,1,0,0:0:0:0:
434,287,54019,1,0,0:0:0:0:
232,159,54178,1,0,0:0:0:0:
469,163,54337,1,0,0:0:0:0:
288,382,54495,5,0,0:0:0:0:
304,97,54654,1,0,0:0:0:0:
507,297,54813,1,0,0:0:0:0:
223,330,54972,1,0,0:0:0:0:
379,93,55130,1,0,0:0:0:0:
466,364,55289,1,0,0:0:0:0:
200,257,55448,1,0,0:0:0:0:
482,226,55606,1,0,0:0:0:0:
223,330,55765,6,0,P|168:328|123:243,1,142.5
109,165,56083,1,0,0:0:0:0:
301,64,56241,1,0,0:0:0:0:
200,257,56400,1,0,0:0:0:0:
161,70,56559,1,0,0:0:0:0:
340,132,56718,1,0,0:0:0:0:
207,181,56876,1,0,0:0:0:0:
236,41,57035,1,0,0:0:0:0:
279,177,57194,1,0,0:0:0:0:
161,70,57353,6,0,P|213:73|238:26,1,95
48,16,57670,2,0,P|22:69|19:125,1,95
119,264,57987,2,0,P|122:326|111:372,1,95
15,194,58305,1,0,0:0:0:0:
207,181,58464,1,0,0:0:0:0:
15,194,58622,6,0,P|71:145|145:152,1,142.5
207,181,58940,1,0,0:0:0:0:
41,351,59099,1,0,0:0:0:0:
135,147,59257,1,0,0:0:0:0:
288,328,59416,1,0,0:0:0:0:
56,274,59575,1,0,0:0:0:0:
210,95,59733,1,0,0:0:0:0:
205,332,59892,5,0,0:0:0:0:
62,141,60051,1,0,0:0:0:0:
299,132,60210,1,0,0:0:0:0:
56,274,60368,1,0,0:0:0:0:
51,36,60527,1,0,0:0:0:0:
218,266,60686,1,0,0:0:0:0:
4,167,60845,2,0,B|10:106|10:106|53:32,1,142.5
144,22,61162,2,0,L|97:109,1,95
56,274,61479,5,0,0:0:0:0:
181,130,61638,1,0,0:0:0:0:
7,208,61797,1,0,0:0:0:0:
197,350,61956,1,0,0:0:0:0:
103,132,62114,1,0,0:0:0:0:
5,348,62273,1,0,0:0:0:0:
225,258,62432,5,0,0:0:0:0:
53,92,62591,1,0,0:0:0:0:
114,320,62749,1,0,0:0:0:0:
278,148,62908,1,0,0:0:0:0:
54,230,63067,1,0,0:0:0:0:
242,375,63226,1,0,0:0:0:0:
355,167,63384,2,0,P|342:99|254:75,1,142.5
209,78,63702,6,0,P|161:60|129:31,1,95
278,148,64019,2,0,P|260:196|231:228,1,95
44,269,64337,1,0,0:0:0:0:
198,159,64495,1,0,0:0:0:0:
231,346,64654,2,0,B|216:387|216:387|149:270,1,142.5
134,210,64972,2,0,P|117:143|197:79,1,142.5
250,65,65289,2,0,P|320:84|397:60,1,142.5
443,24,65606,5,0,0:0:0:0:
394,256,65765,1,0,0:0:0:0:
250,65,65924,2,0,B|211:21|211:21|89:2,1,142.5
57,8,66241,2,0,B|29:58|29:58|14:206,1,190
111,82,66718,1,0,0:0:0:0:
176,207,66876,2,0,L|181:309,1,95
7,376,67194,2,0,B|37:310|37:310|22:207,1,142.5
15,190,67511,5,0,0:0:0:0:
93,363,67670,1,0,0:0:0:0:
67,126,67829,1,0,0:0:0:0:
93,363,67987,1,0,0:0:0:0:
15,190,68146,2,0,P|-8:138|2:79,1,95
216,160,68464,2,0,P|153:191|64:104,1,190
329,15,69099,5,0,0:0:0:0:
145,113,69257,1,0,0:0:0:0:
380,76,69416,1,0,0:0:0:0:
145,35,69575,1,0,0:0:0:0:
352,149,69733,1,0,0:0:0:0:
145,267,69892,1,0,0:0:0:0:
307,32,70051,5,0,0:0:0:0:
473,264,70210,1,0,0:0:0:0:
210,157,70368,1,0,0:0:0:0:
462,23,70527,1,0,0:0:0:0:
383,297,70686,1,0,0:0:0:0:
194,82,70845,1,0,0:0:0:0:
472,132,71003,6,0,P|494:182|445:288,1,142.5
383,297,71321,2,0,P|381:243|404:199,1,95
472,263,71638,1,0,0:0:0:0:
265,381,71797,1,0,0:0:0:0:
499,338,71956,1,0,0:0:0:0:
265,303,72114,1,0,0:0:0:0:
426,128,72273,5,0,0:0:0:0:
382,361,72432,1,0,0:0:0:0:
191,218,72591,1,0,0:0:0:0:
470,263,72749,1,0,0:0:0:0:
186,298,72908,1,0,0:0:0:0:
449,189,73067,1,0,0:0:0:0:
225,366,73226,1,0,0:0:0:0:
135,96,73384,1,0,0:0:0:0:
352,280,73543,1,0,0:0:0:0:
84,381,73702,1,0,0:0:0:0:
313,213,73860,6,0,P|372:203|419:320,1,190
242,253,74337,1,0,0:0:0:0:
387,132,74495,2,0,P|441:156|475:191,1,95
242,253,74813,2,0,P|235:194|249:147,1,95
322,301,75130,6,0,B|256:360|173:336|190:288|92:279|21:357|21:357|82:285|69:231|27:178,1,522.5
29,181,76083,2,0,P|83:151|119:83,1,95
11,16,76400,2,0,P|118:36|246:264,1,380
103,125,77194,1,0,0:0:0:0:
271,36,77353,1,0,0:0:0:0:
394,179,77511,1,0,0:0:0:0:
246,254,77670,2,0,P|203:206|206:165,1,95
206,130,77908,5,0,0:0:0:0:
190,85,77987,1,0,0:0:0:0:
157,51,78066,1,0,0:0:0:0:
114,33,78146,1,0,0:0:0:0:
66,35,78225,1,0,0:0:0:0:
28,63,78305,1,0,0:0:0:0:
18,109,78384,1,0,0:0:0:0:
37,151,78463,1,0,0:0:0:0:
79,172,78543,1,0,0:0:0:0:
125,163,78622,6,0,P|141:215|129:288,1,106.875004076958
109,333,78940,1,0,0:0:0:0:
89,101,79099,1,0,0:0:0:0:
183,317,79257,1,0,0:0:0:0:
37,151,79416,1,0,0:0:0:0:
229,254,79575,1,0,0:0:0:0:
237,36,79733,1,0,0:0:0:0:
75,248,79892,5,0,0:0:0:0:
332,316,80051,1,0,0:0:0:0:
315,50,80210,1,0,0:0:0:0:
216,295,80368,1,0,0:0:0:0:
480,264,80527,2,0,P|451:213|363:192,1,142.5
303,202,80845,2,0,P|252:149|248:77,1,142.5
315,50,81162,2,0,P|374:63|463:34,1,142.5
451,41,81479,2,0,P|441:107|495:222,1,190
445,353,81956,5,0,0:0:0:0:
489,216,82114,1,0,0:0:0:0:
298,226,82273,1,0,0:0:0:0:
477,290,82432,1,0,0:0:0:0:
451,101,82591,1,0,0:0:0:0:
381,276,82749,1,0,0:0:0:0:
451,101,82908,1,0,0:0:0:0:
285,7,83067,6,0,B|249:55|249:55|267:174,1,142.5
277,210,83384,2,0,P|329:185|305:89,1,142.5
261,136,83702,2,0,P|209:159|107:131,1,142.5
87,118,84019,1,0,0:0:0:0:
105,290,84178,2,0,P|167:215|107:137,1,190
11,18,84654,6,0,P|-1:76|3:126,1,95
105,290,84972,2,0,P|117:232|113:182,1,95
93,26,85289,1,0,0:0:0:0:
44,229,85448,1,0,0:0:0:0:
251,237,85606,1,0,0:0:0:0:
60,150,85765,1,0,0:0:0:0:
42,358,85924,6,0,B|107:386|196:374|171:321|238:314|305:334|305:334|261:329|219:355,1,332.5
248,340,86559,2,0,B|186:328|138:286|126:186|208:103|303:147|334:200|334:200|300:115|306:37|306:37|335:83,1,570
429,214,87670,1,0,0:0:0:0:
494,35,87829,2,0,P|448:21|397:19,1,95
216,63,88146,2,0,P|170:77|119:79,1,95
0,226,88464,2,0,P|46:212|97:210,1,95
274,152,88781,5,0,0:0:0:0:
151,6,88940,1,0,0:0:0:0:
39,159,89099,2,0,P|75:204|2:303,1,190
13,301,89575,1,0,0:0:0:0:
43,67,89733,5,0,0:0:0:0:
250,183,89892,1,0,0:0:0:0:
15,143,90051,1,0,0:0:0:0:
249,105,90210,1,0,0:0:0:0:
174,329,90368,5,0,0:0:0:0:
109,100,90527,1,0,0:0:0:0:
341,148,90686,1,0,0:0:0:0:
112,213,90845,1,0,0:0:0:0:
229,12,91003,2,0,L|331:25,1,95
206,225,91321,2,0,L|104:212,1,95
18,104,91638,5,0,0:0:0:0:
206,132,91797,1,0,0:0:0:0:
126,304,91956,1,0,0:0:0:0:
100,116,92114,1,0,0:0:0:0:
331,172,92273,5,0,0:0:0:0:
100,229,92432,1,0,0:0:0:0:
199,12,92591,1,0,0:0:0:0:
268,238,92749,1,0,0:0:0:0:
42,160,92908,2,0,L|2:65,1,95
231,150,93226,2,0,L|271:245,1,95
138,377,93543,5,0,0:0:0:0:
162,188,93702,1,0,0:0:0:0:
345,235,93860,1,0,0:0:0:0:
169,309,94019,1,0,0:0:0:0:
301,172,94178,2,0,P|360:158|415:270,1,190
281,383,94654,1,0,0:0:0:0:
226,200,94813,6,0,P|229:142|266:98,1,95
443,165,95130,2,0,P|440:223|403:267,1,95
217,195,95448,2,0,P|220:137|257:93,1,95
434,160,95765,2,0,P|431:218|394:262,1,95
235,323,96083,5,0,0:0:0:0:
348,171,96241,1,0,0:0:0:0:
158,154,96400,1,0,0:0:0:0:
316,258,96559,1,0,0:0:0:0:
161,77,96718,6,0,P|103:98|130:225,1,190
316,258,97194,1,0,0:0:0:0:
235,54,97353,1,0,0:0:0:0:
105,210,97511,1,0,0:0:0:0:
304,143,97670,1,0,0:0:0:0:
138,0,97829,1,0,0:0:0:0:
180,198,97987,5,0,0:0:0:0:
171,244,98066,1,0,0:0:0:0:
138,276,98145,1,0,0:0:0:0:
92,283,98225,1,0,0:0:0:0:
50,262,98305,2,0,P|30:212|102:133,1,142.5
143,130,98622,2,0,B|183:114|220:131|220:131|281:66,1,142.5
274,13,98940,2,0,P|322:36|320:138,1,142.5
297,184,99257,5,0,0:0:0:0:
163,48,99416,1,0,0:0:0:0:
334,117,99575,1,0,0:0:0:0:
183,231,99733,1,0,0:0:0:0:
272,10,99892,1,0,0:0:0:0:
434,183,100051,1,0,0:0:0:0:
197,155,100210,1,0,0:0:0:0:
410,255,100368,1,0,0:0:0:0:
238,90,100527,5,0,0:0:0:0:
344,302,100686,1,0,0:0:0:0:
311,66,100845,2,0,P|280:28|159:76,1,190
63,226,101321,2,0,L|47:331,1,95
197,155,101638,2,0,L|213:260,1,95
277,376,101956,5,0,0:0:0:0:
274,186,102114,2,0,P|268:119|232:80,1,95
84,6,102432,2,0,P|90:73|126:112,1,95
211,248,102749,1,0,0:0:0:0:
157,35,102908,1,0,0:0:0:0:
38,218,103067,5,0,0:0:0:0:
246,150,103226,1,0,0:0:0:0:
79,9,103384,1,0,0:0:0:0:
119,224,103543,1,0,0:0:0:0:
284,52,103702,1,0,0:0:0:0:
74,161,103860,2,0,P|44:218|128:302,1,190
301,145,104337,6,0,L|281:41,1,95
180,266,104654,2,0,L|200:370,1,95
288,147,104972,2,0,L|268:43,1,95
167,268,105289,2,0,L|187:372,1,95
375,369,105606,6,0,B|368:305|368:305|307:235,1,142.5
251,214,105924,2,0,P|212:160|256:82,1,142.5
277,36,106241,2,0,P|345:44|416:1,1,142.5
408,9,106559,2,0,P|404:63|412:111,1,95
486,224,106876,6,0,B|507:276|507:276|494:373,1,142.5
423,360,107194,2,0,P|412:297|331:283,1,142.5
296,330,107511,2,0,P|273:276|337:203,1,142.5
357,189,107829,1,0,0:0:0:0:
352,378,107987,1,0,0:0:0:0:
185,286,108146,6,0,P|135:285|70:354,1,142.5
14,303,108464,2,0,P|38:232|20:150,1,142.5
16,96,108781,2,0,P|39:49|114:96,1,142.5
133,116,109099,1,0,0:0:0:0:
14,303,109257,1,0,0:0:0:0:
133,116,109416,5,0,0:0:0:0:
225,282,109575,1,0,0:0:0:0:
72,170,109733,1,0,0:0:0:0:
251,106,109892,1,0,0:0:0:0:
123,247,110051,1,0,0:0:0:0:
73,14,110210,1,0,0:0:0:0:
235,187,110368,2,0,L|223:298,1,95
72,170,110686,5,0,0:0:0:0:
196,26,110845,1,0,0:0:0:0:
298,239,111003,1,0,0:0:0:0:
129,70,111162,1,0,0:0:0:0:
356,1,111321,1,0,0:0:0:0:
299,230,111479,1,0,0:0:0:0:
129,70,111638,2,0,L|34:19,1,95
13,213,111956,5,0,0:0:0:0:
197,169,112114,1,0,0:0:0:0:
45,25,112273,1,0,0:0:0:0:
96,237,112432,1,0,0:0:0:0:
262,95,112591,1,0,0:0:0:0:
25,99,112749,1,0,0:0:0:0:
133,310,112908,1,0,0:0:0:0:
163,74,113067,1,0,0:0:0:0:
17,256,113226,6,0,P|78:313|146:303,1,142.5
198,273,113543,2,0,P|257:265|298:359,1,142.5
229,336,113860,2,0,L|319:216,1,142.5
359,160,114178,1,0,0:0:0:0:
162,197,114337,1,0,0:0:0:0:
312,378,114495,5,0,0:0:0:0:
283,141,114654,1,0,0:0:0:0:
119,314,114813,1,0,0:0:0:0:
356,311,114972,1,0,0:0:0:0:
211,124,115130,1,0,0:0:0:0:
72,373,115289,1,0,0:0:0:0:
325,242,115448,1,0,0:0:0:0:
92,78,115606,1,0,0:0:0:0:
253,313,115765,5,0,0:0:0:0:
410,74,115924,1,0,0:0:0:0:
324,346,116083,1,0,0:0:0:0:
336,62,116241,1,0,0:0:0:0:
108,219,116400,2,0,L|121:332,1,95
397,382,116718,2,0,P|400:328|367:277,1,95
221,190,117035,5,0,0:0:0:0:
324,346,117194,1,0,0:0:0:0:
430,188,117353,2,0,L|467:92,1,95
288,26,117670,2,0,L|251:122,1,95
387,250,117987,2,0,P|447:262|494:232,1,95
404,20,118305,6,0,B|365:-8|365:-8|401:70|364:135,1,190
275,295,118781,1,0,0:0:0:0:
289,105,118940,2,0,P|308:53|201:42,1,190
145,210,119416,1,0,0:0:0:0:
367,128,119575,5,0,0:0:0:0:
207,30,120845,5,0,0:0:0:0:
145,210,122114,5,0,0:0:0:0:
335,335,123384,5,0,0:0:0:0:
335,335,123464,1,0,0:0:0:0:
335,335,123543,2,0,L|390:305,1,47.5
282,203,123702,1,0,0:0:0:0:
282,203,123782,1,0,0:0:0:0:
282,203,123861,2,0,L|227:233,1,47.5
144,330,124019,5,0,0:0:0:0:
114,293,124098,1,0,0:0:0:0:
100,247,124177,1,0,0:0:0:0:
104,200,124257,1,0,0:0:0:0:
125,158,124337,2,0,P|135:104|69:31,1,142.5
57,115,124654,5,0,0:0:0:0:
279,29,124813,1,0,0:0:0:0:
255,265,124972,1,0,0:0:0:0:
146,54,125130,1,0,0:0:0:0:
382,82,125289,1,0,0:0:0:0:
149,130,125448,1,0,0:0:0:0:
305,307,125606,1,0,0:0:0:0:
259,73,125765,1,0,0:0:0:0:
84,234,125924,6,0,L|43:324,1,95
262,226,126241,2,0,L|303:136,1,95
58,227,126559,2,0,L|17:317,1,95
236,219,126876,2,0,L|277:129,1,95
130,7,127194,5,0,0:0:0:0:
153,195,127353,1,0,0:0:0:0:
207,13,127511,1,0,0:0:0:0:
24,66,127670,1,0,0:0:0:0:
232,180,127829,1,0,0:0:0:0:
72,5,127987,1,0,0:0:0:0:
4,233,128146,1,0,0:0:0:0:
206,108,128305,1,0,0:0:0:0:
24,66,128464,6,0,L|10:185,1,95
220,274,128781,2,0,L|234:155,1,95
41,68,129099,2,0,L|27:187,1,95
237,276,129416,2,0,L|251:157,1,95
157,14,129733,5,0,0:0:0:0:
125,201,129892,1,0,0:0:0:0:
306,142,130051,1,0,0:0:0:0:
88,46,130210,1,0,0:0:0:0:
100,282,130368,1,0,0:0:0:0:
246,94,130527,1,0,0:0:0:0:
12,48,130686,1,0,0:0:0:0:
160,234,130845,1,0,0:0:0:0:
203,1,131003,6,0,L|102:-3,1,95
160,234,131321,2,0,L|261:238,1,95
204,15,131638,2,0,L|103:11,1,95
161,248,131956,2,0,L|262:252,1,95
427,163,132273,5,0,0:0:0:0:
277,39,132432,1,0,0:0:0:0:
362,212,132591,1,0,0:0:0:0:
478,57,132749,1,0,0:0:0:0:
265,172,132908,1,0,0:0:0:0:
478,287,133067,1,0,0:0:0:0:
372,68,133226,1,0,0:0:0:0:
240,270,133384,1,0,0:0:0:0:
475,211,133543,6,0,P|498:165|498:115,1,95
265,179,133860,2,0,P|241:225|241:275,1,95
487,214,134178,2,0,P|510:168|510:118,1,95
277,182,134495,2,0,P|253:228|253:278,1,95
417,378,134813,5,0,0:0:0:0:
439,149,134972,1,0,0:0:0:0:
276,326,135130,1,0,0:0:0:0:
511,269,135289,1,0,0:0:0:0:
359,78,135448,1,0,0:0:0:0:
359,319,135606,1,0,0:0:0:0:
508,127,135765,1,0,0:0:0:0:
266,131,135924,1,0,0:0:0:0:
359,319,136083,6,0,L|466:286,1,95
266,131,136400,2,0,L|159:164,1,95
365,339,136718,2,0,L|472:307,1,95
271,152,137035,2,0,L|164:184,1,95
74,346,137353,5,0,0:0:0:0:
264,383,137511,1,0,0:0:0:0:
47,269,137670,1,0,0:0:0:0:
264,383,137829,1,0,0:0:0:0:
307,95,137987,1,0,0:0:0:0:
166,350,138146,1,0,0:0:0:0:
448,274,138305,1,0,0:0:0:0:
207,106,138464,1,0,0:0:0:0:
166,350,138622,6,0,L|268:288,1,95
123,88,138940,2,0,L|22:149,1,95
172,365,139257,2,0,L|274:303,1,95
129,103,139575,2,0,L|28:165,1,95
3,379,139892,5,0,0:0:0:0:
206,273,140051,1,0,0:0:0:0:
0,55,140210,1,0,0:0:0:0:
133,321,140368,1,0,0:0:0:0:
309,78,140527,1,0,0:0:0:0:
14,132,140686,1,0,0:0:0:0:
209,358,140845,1,0,0:0:0:0:
134,70,141003,1,0,0:0:0:0:
7,340,141162,5,0,0:0:0:0:
346,254,141321,1,0,0:0:0:0:
57,59,141479,1,0,0:0:0:0:
209,358,141638,1,0,0:0:0:0:
420,79,141797,1,0,0:0:0:0:
46,219,141956,1,0,0:0:0:0:
425,317,142114,1,0,0:0:0:0:
71,143,142273,1,0,0:0:0:0:
382,384,142432,6,0,P|463:383|417:235,1,285
226,343,143067,2,0,L|326:369,2,95
113,189,143543,1,0,0:0:0:0:
233,41,143702,2,0,B|286:70|290:152|290:152|296:61|335:37|335:37|334:92|406:113,1,332.5
409,37,144337,2,0,B|484:90|495:172|495:172|481:107|428:104,1,237.5
423,175,144813,6,0,B|391:216|422:267|422:267|390:349,1,142.5
367,372,145130,1,0,0:0:0:0:
354,134,145289,1,0,0:0:0:0:
485,331,145448,1,0,0:0:0:0:
252,286,145606,1,0,0:0:0:0:
480,220,145765,1,0,0:0:0:0:
242,209,145924,6,0,P|191:239|230:363,1,190
398,377,146400,1,0,0:0:0:0:
319,203,146559,2,0,P|296:154|249:134,1,95
71,140,146876,2,0,P|22:117|120:71,1,237.5
152,123,147353,2,0,B|156:199|77:220|77:220|144:233|142:312,1,237.5
65,295,147829,5,0,0:0:0:0:
71,140,147987,1,0,0:0:0:0:
242,222,148146,1,0,0:0:0:0:
124,371,148305,1,0,0:0:0:0:
175,138,148464,1,0,0:0:0:0:
354,291,148622,1,0,0:0:0:0:
112,292,148781,6,0,L|59:295,3,47.5
182,315,149099,2,0,L|227:347,3,47.5
288,376,149416,2,0,L|348:358,3,47.5
408,355,149733,1,0,0:0:0:0:
493,184,149892,6,0,B|497:116|497:116|441:-4,1,190
414,193,150368,2,0,P|451:256|491:268,1,95
382,92,150686,2,0,L|279:78,1,95
99,51,151003,1,0,0:0:0:0:
308,164,151162,2,0,L|205:150,1,95
27,123,151479,1,0,0:0:0:0:
188,223,151638,6,0,L|291:237,1,95
469,264,151955,1,0,0:0:0:0:
225,307,152114,2,0,L|328:321,1,95
506,348,152431,1,0,0:0:0:0:
442,107,152591,5,0,0:0:0:0:
319,319,152749,2,0,L|333:270,2,47.5
503,154,153067,1,0,0:0:0:0:
280,44,153226,6,0,L|258:138,2,95
188,263,153702,2,0,L|166:169,2,95
41,75,154178,2,0,L|19:169,2,95
84,308,154654,5,0,0:0:0:0:
263,151,154813,1,0,0:0:0:0:
41,75,154972,6,0,B|7:41|7:41|175:18,1,190
321,98,155448,1,0,0:0:0:0:
340,140,155527,1,0,0:0:0:0:
332,186,155606,1,0,0:0:0:0:
300,220,155686,1,0,0:0:0:0:
254,231,155765,1,0,0:0:0:0:
210,214,155844,1,0,0:0:0:0:
163,213,155923,1,0,0:0:0:0:
117,226,156003,1,0,0:0:0:0:
78,252,156083,6,0,L|55:313,3,47.5
77,341,156400,2,0,L|120:372,3,47.5
156,383,156718,5,0,0:0:0:0:
199,357,156797,1,0,0:0:0:0:
248,345,156876,1,0,0:0:0:0:
298,349,156956,1,0,0:0:0:0:
346,367,157035,1,0,0:0:0:0:
397,364,157114,1,0,0:0:0:0:
441,341,157193,1,0,0:0:0:0:
470,299,157273,1,0,0:0:0:0:
480,249,157352,1,0,0:0:0:0:
469,200,157432,1,0,0:0:0:0:
452,152,157511,6,0,P|405:119|305:209,1,190
350,301,157987,1,0,0:0:0:0:
377,244,158066,1,0,0:0:0:0:
384,181,158145,1,0,0:0:0:0:
368,120,158225,1,0,0:0:0:0:
333,68,158305,1,0,0:0:0:0:
292,21,158384,1,0,0:0:0:0:
232,2,158463,1,0,0:0:0:0:
171,12,158543,1,0,0:0:0:0:
122,52,158622,6,0,L|114:119,3,47.5
98,166,158940,2,0,L|65:232,3,47.5
0,253,159257,5,0,0:0:0:0:
46,306,159336,1,0,0:0:0:0:
111,331,159415,1,0,0:0:0:0:
182,322,159495,1,0,0:0:0:0:
240,282,159575,1,0,0:0:0:0:
256,213,159654,1,0,0:0:0:0:
304,161,159733,1,0,0:0:0:0:
372,143,159813,1,0,0:0:0:0:
441,159,159892,1,0,0:0:0:0:
471,223,159971,1,0,0:0:0:0:
470,293,160051,6,0,P|422:372|306:309,1,237.5
153,162,160527,1,0,0:0:0:0:
173,89,160606,1,0,0:0:0:0:
221,32,160685,1,0,0:0:0:0:
290,0,160765,1,0,0:0:0:0:
365,0,160844,1,0,0:0:0:0:
434,29,160923,1,0,0:0:0:0:
484,85,161003,1,0,0:0:0:0:
506,157,161082,1,0,0:0:0:0:
496,232,161162,6,0,L|435:291,3,47.5
411,325,161479,2,0,L|338:312,3,47.5
283,328,161797,5,0,0:0:0:0:
200,335,161876,1,0,0:0:0:0:
123,306,161955,1,0,0:0:0:0:
70,241,162035,1,0,0:0:0:0:
56,160,162114,1,0,0:0:0:0:
80,81,162193,1,0,0:0:0:0:
140,24,162273,1,0,0:0:0:0:
220,2,162352,1,0,0:0:0:0:
305,7,162432,1,0,0:0:0:0:
374,48,162511,1,0,0:0:0:0:
434,109,162591,6,0,P|454:198|405:343,1,237.5
277,353,163067,5,0,0:0:0:0:
215,270,163146,1,0,0:0:0:0:
199,170,163225,1,0,0:0:0:0:
227,72,163305,1,0,0:0:0:0:
305,7,163384,1,0,0:0:0:0:
339,99,163463,1,0,0:0:0:0:
285,182,163542,1,0,0:0:0:0:
187,187,163622,1,0,0:0:0:0:
124,110,163701,1,0,0:0:0:0:
362,19,164019,5,0,0:0:0:0:
390,109,164098,1,0,0:0:0:0:
419,199,164177,1,0,0:0:0:0:
448,290,164257,1,0,0:0:0:0:
477,380,164336,1,0,0:0:0:0:
247,381,164654,5,0,0:0:0:0:
275,290,164733,1,0,0:0:0:0:
304,200,164812,1,0,0:0:0:0:
333,109,164892,1,0,0:0:0:0:
362,19,164971,1,0,0:0:0:0:
362,19,165289,6,0,P|293:19|237:132,1,190
359,315,165765,1,0,0:0:0:0:
425,87,165924,2,0,L|310:114,1,95
266,336,166241,2,0,L|381:309,1,95
497,182,166559,1,0,0:0:0:0:
313,132,166718,1,0,0:0:0:0:
358,314,166876,1,0,0:0:0:0:
430,138,167035,1,0,0:0:0:0:
242,106,167194,5,0,0:0:0:0:
226,150,167273,1,0,0:0:0:0:
210,195,167352,1,0,0:0:0:0:
194,240,167432,1,0,0:0:0:0:
178,284,167511,6,0,P|97:304|50:217,1,190
167,51,167987,1,0,0:0:0:0:
123,236,168146,1,0,0:0:0:0:
18,77,168305,1,0,0:0:0:0:
247,138,168464,1,0,0:0:0:0:
170,361,168622,1,0,0:0:0:0:
104,83,168781,1,0,0:0:0:0:
95,368,168940,1,0,0:0:0:0:
180,95,169099,2,0,L|218:0,1,95
439,86,169416,6,0,P|450:158|412:241,1,142.5
378,279,169733,2,0,P|342:227|410:148,1,142.5
430,222,170051,2,0,P|456:279|407:356,1,142.5
356,382,170368,1,0,0:0:0:0:
272,254,170527,2,0,B|256:196|256:196|272:55,1,190
17,20,171003,2,0,L|3:124,1,95
187,169,171321,2,0,L|199:63,1,95
21,234,171638,2,0,L|7:338,1,95
191,383,171956,2,0,L|203:277,1,95
114,119,172273,5,0,0:0:0:0:
275,18,172432,1,0,0:0:0:0:
435,119,172591,1,0,0:0:0:0:
267,206,172749,1,0,0:0:0:0:
275,18,172908,2,0,B|377:30|377:30|474:6,1,190
435,119,173384,1,0,0:0:0:0:
325,274,173543,6,0,L|302:369,1,95
478,294,173860,2,0,L|501:199,1,95
300,268,174178,2,0,L|277:363,1,95
423,209,174495,2,0,B|401:156|401:156|415:38|415:38|353:76,1,237.5
285,128,174972,2,0,P|262:75|262:19,2,95
394,283,175448,6,0,P|464:278|482:149,1,190
361,213,175924,1,0,0:0:0:0:
274,326,176083,2,0,P|303:367|346:381,1,95
285,199,176400,2,0,P|239:156|203:132,1,95
47,234,176718,2,0,P|23:296|19:339,1,95
138,175,177035,2,0,B|121:119|121:119|126:68,1,95
285,199,177353,2,0,L|284:303,1,95
111,364,177670,5,0,0:0:0:0:
138,175,177829,1,0,0:0:0:0:
321,127,177987,2,0,P|364:175|296:278,1,190
111,364,178464,1,0,0:0:0:0:
285,199,178622,5,0,0:0:0:0:
105,369,178781,1,0,0:0:0:0:
279,204,178940,1,0,0:0:0:0:
42,132,179099,1,0,0:0:0:0:
191,327,179257,1,0,0:0:0:0:
212,42,179416,1,0,0:0:0:0:
114,310,179575,1,0,0:0:0:0:
279,79,179733,1,0,0:0:0:0:
1,145,179892,5,0,0:0:0:0:
285,277,180051,1,0,0:0:0:0:
40,79,180210,1,0,0:0:0:0:
227,328,180368,1,0,0:0:0:0:
107,37,180527,2,0,B|161:17|161:17|281:80,1,190
434,187,181003,1,0,0:0:0:0:
244,206,181162,6,0,P|214:144|228:100,1,95
434,187,181479,2,0,P|464:249|450:293,1,95
229,209,181797,2,0,P|199:147|213:103,1,95
419,190,182114,2,0,P|449:252|435:296,1,95
221,370,182432,2,0,P|186:319|231:207,1,190
393,113,182908,1,0,0:0:0:0:
267,292,183067,6,0,L|159:284,1,95
23,370,183384,1,0,0:0:0:0:
1,200,183543,1,0,0:0:0:0:
124,81,183702,1,0,0:0:0:0:
290,115,183860,1,0,0:0:0:0:
176,243,184019,2,0,L|142:140,1,95
281,17,184337,1,0,0:0:0:0:
452,95,184495,5,0,0:0:0:0:
466,113,184575,1,0,0:0:0:0:
478,133,184654,2,0,L|497:190,3,47.5
498,201,184972,1,0,0:0:0:0:
504,247,185051,1,0,0:0:0:0:
492,293,185130,1,0,0:0:0:0:
464,331,185210,1,0,0:0:0:0:
419,346,185289,5,0,0:0:0:0:
376,329,185368,1,0,0:0:0:0:
329,340,185447,1,0,0:0:0:0:
297,373,185527,1,0,0:0:0:0:
250,379,185606,6,0,P|194:366|136:320,1,95
99,115,185924,2,0,P|155:128|213:174,1,95
395,262,186241,2,0,P|451:249|509:203,1,95
351,29,186559,2,0,P|295:42|237:88,1,95
400,278,186876,2,0,P|456:265|514:219,1,95
356,45,187194,2,0,P|300:58|242:104,1,95
152,284,187511,5,0,0:0:0:0:
332,129,187670,1,0,0:0:0:0:
114,32,187829,1,0,0:0:0:0:
285,195,187987,1,0,0:0:0:0:
450,24,188146,6,0,L|352:4,1,95
191,176,188464,2,0,L|289:196,1,95
114,32,188781,2,0,L|16:52,1,95
117,269,189099,2,0,L|215:249,1,95
112,22,189416,2,0,L|14:42,1,95
115,259,189734,2,0,L|213:239,1,95
425,142,190051,5,0,0:0:0:0:
191,96,190210,1,0,0:0:0:0:
272,317,190368,1,0,0:0:0:0:
356,94,190527,1,0,0:0:0:0:
123,164,190686,6,0,L|114:262,1,95
333,165,191003,2,0,L|342:263,1,95
101,163,191321,2,0,L|92:261,1,95
352,165,191638,2,0,L|361:263,1,95
80,162,191956,2,0,L|71:260,1,95
371,165,192273,2,0,L|380:263,1,95
151,84,192591,5,0,0:0:0:0:
223,359,192749,1,0,0:0:0:0:
305,86,192908,1,0,0:0:0:0:
223,359,193067,1,0,0:0:0:0:
151,84,193226,6,0,L|45:46,1,95
133,326,193543,2,0,L|239:364,1,95
298,82,193860,2,0,L|192:44,1,95
280,324,194177,2,0,L|386:362,1,95
493,151,194495,6,0,P|450:83|484:22,1,142.5
472,31,194813,2,0,B|398:58|398:58|319:30,1,142.5
247,8,195130,2,0,P|207:66|263:192,1,190
267,197,195527,5,0,0:0:0:0:
282,173,195606,1,0,0:0:0:0:
288,145,195685,1,0,0:0:0:0:
283,117,195765,6,0,L|159:81,1,95
38,204,196083,2,0,L|127:297,1,95
192,90,196400,2,0,L|102:-3,1,95
23,215,196718,2,0,L|112:308,1,95
177,101,197035,2,0,L|87:7,1,95
23,215,197353,2,0,B|76:195|76:195|123:156,1,95
272,0,197670,5,0,0:0:0:0:
53,94,197829,1,0,0:0:0:0:
288,76,197987,1,0,0:0:0:0:
57,17,198146,1,0,0:0:0:0:
272,0,198305,6,0,P|341:16|371:52,1,95
493,226,198622,2,0,P|483:301|489:348,1,95
248,359,198940,2,0,P|258:284|252:237,1,95
510,227,199257,2,0,P|500:302|506:349,1,95
265,360,199575,2,0,P|275:285|269:238,1,95
260,76,199892,5,0,0:0:0:0:
167,242,200051,1,0,0:0:0:0:
357,242,200210,1,0,0:0:0:0:
179,85,200368,1,0,0:0:0:0:
101,310,200527,1,0,0:0:0:0:
286,161,200686,2,0,P|341:90|299:0,1,190
116,14,201162,6,0,P|91:81|99:123,1,95
157,281,201479,1,0,0:0:0:0:
179,85,201638,1,0,0:0:0:0:
9,170,201797,2,0,L|2:271,1,95
163,366,202114,1,0,0:0:0:0:
283,218,202273,1,0,0:0:0:0:
130,295,202432,6,0,P|92:333|87:385,1,95
275,377,202749,1,0,0:0:0:0:
359,206,202908,1,0,0:0:0:0:
122,177,203067,1,0,0:0:0:0:
335,280,203226,1,0,0:0:0:0:
300,46,203384,5,0,0:0:0:0:
225,168,203543,1,0,0:0:0:0:
359,206,203702,1,0,0:0:0:0:
219,77,203860,1,0,0:0:0:0:
156,256,204019,1,0,0:0:0:0:
336,101,204178,1,0,0:0:0:0:
108,32,204337,1,0,0:0:0:0:
287,252,204495,1,0,0:0:0:0:
414,90,204654,5,0,0:0:0:0:
397,35,204733,1,0,0:0:0:0:
350,4,204812,1,0,0:0:0:0:
294,12,204892,1,0,0:0:0:0:
250,70,204972,1,0,0:0:0:0:
264,139,205051,1,0,0:0:0:0:
325,172,205130,1,0,0:0:0:0:
401,151,205210,1,0,0:0:0:0:
336,101,205289,5,0,0:0:0:0:
264,139,205368,1,0,0:0:0:0:
213,203,205448,1,0,0:0:0:0:
138,260,205527,1,0,0:0:0:0:
30,239,205606,5,0,0:0:0:0:
0,130,205686,1,0,0:0:0:0:
50,31,205765,1,0,0:0:0:0:
156,1,205844,1,0,0:0:0:0:
250,70,205924,1,0,0:0:0:0:
256,192,206003,12,0,211003,0:0:0:0:
