osu file format v14

[General]
AudioFilename: audio.mp3
AudioLeadIn: 0
PreviewTime: 59471
Countdown: 0
SampleSet: None
StackLeniency: 0.7
Mode: 0
LetterboxInBreaks: 0
WidescreenStoryboard: 0

[Editor]
Bookmarks: 78349,143471,144056
DistanceSpacing: 2
BeatDivisor: 4
GridSize: 16
TimelineZoom: 3.599999

[Metadata]
Title:THE DISTANT JOURNEY TO YOU
TitleUnicode:THE DISTANT JOURNEY TO YOU
Artist:Foreground Eclipse
ArtistUnicode:Foreground Eclipse
Creator:Turbo_BBA
Version:Fantasy journey
Source:
Tags:Wishes Hidden In The Foreground Noises Suzuori Merami Teto Mistaken ikaNyai My Angel Settia TmuraYukarin
BeatmapID:1300379
BeatmapSetID:616617

[Difficulty]
HPDrainRate:6
CircleSize:4
OverallDifficulty:8.8
ApproachRate:9.4
SliderMultiplier:1.6
SliderTickRate:1

[Events]
//Background and Video events
0,0,"BG.jpg",0,0
//Break Periods
2,134744,142901
//Storyboard Layer 0 (Background)
//Storyboard Layer 1 (Fail)
//Storyboard Layer 2 (Pass)
//Storyboard Layer 3 (Foreground)
//Storyboard Sound Samples

[TimingPoints]
56,292.682926829268,4,3,0,40,1,0
1081,-125,4,3,0,40,0,0
3422,-100,4,3,3,70,0,0
3568,292.682926829268,4,3,0,40,1,0
3860,-83.3333333333333,4,3,3,70,0,0
4153,-100,4,3,3,70,0,0
4592,-100,4,3,6,70,0,0
5031,-83.3333333333333,4,3,3,70,0,0
5324,-100,4,3,3,70,0,0
5763,-100,4,3,1,70,0,0
6787,-83.3333333333333,4,3,2,70,0,0
7080,-100,4,3,3,70,0,0
7665,-100,4,3,1,70,0,0
8104,-100,4,3,6,70,0,0
8543,-83.3333333333333,4,3,3,70,0,0
8836,-100,4,3,2,70,0,0
9275,-100,4,3,6,70,0,0
9714,-83.3333333333333,4,3,3,70,0,0
10006,-100,4,3,2,70,0,0
10446,-100,4,3,6,70,0,0
10885,-100,4,3,2,70,0,0
11762,-83.3333333333333,4,3,2,70,0,0
12055,-83.3333333333333,4,3,6,70,0,0
12347,-83.3333333333333,4,3,1,70,0,0
16446,-83.3333333333333,4,3,1,70,0,0
17031,-83.3333333333333,4,3,3,70,0,0
17470,-100,4,3,1,70,0,0
17909,-83.3333333333333,4,3,3,70,0,0
20982,-83.3333333333333,4,3,2,70,0,0
21568,-83.3333333333333,4,3,6,70,0,0
30787,-83.3333333333333,4,3,6,60,0,0
30934,-83.3333333333333,4,3,3,70,0,0
31081,-83.3333333333333,4,3,1,70,0,0
31519,-83.3333333333333,4,3,6,70,0,0
35763,-83.3333333333333,4,3,6,70,0,0
38543,-83.3333333333333,4,3,2,60,0,0
38982,-83.3333333333333,4,3,1,70,0,0
41616,-83.3333333333333,4,3,2,60,0,0
43226,-100,4,3,2,60,0,0
43958,-100,4,3,3,70,0,0
44397,-83.3333333333333,4,3,3,70,0,0
45421,-100,4,3,3,70,0,0
45714,-83.3333333333333,4,3,3,70,0,0
48348,-83.3333333333333,4,3,1,70,0,0
48495,-83.3333333333333,4,3,3,70,0,0
49665,-83.3333333333333,4,3,1,70,0,0
50397,-100,4,3,3,70,0,0
50836,-83.3333333333333,4,3,3,70,0,0
52446,-83.3333333333333,4,3,6,70,0,0
52738,-83.3333333333333,4,3,3,70,0,0
56689,-100,4,3,3,70,0,0
57421,-83.3333333333333,4,3,3,70,0,0
59470,-76.9230769230769,4,3,3,70,0,1
59616,-76.9230769230769,4,3,1,70,0,1
77909,-100,4,3,3,70,0,0
78054,-100,4,3,3,70,0,0
78348,-100,4,3,1,70,0,0
87714,-83.3333333333333,4,3,3,70,0,0
91373,-100,4,3,1,70,0,0
95177,-83.3333333333333,4,3,3,70,0,0
96495,-83.3333333333333,4,3,1,70,0,0
97080,-100,4,3,3,70,0,0
100445,-125,4,3,3,70,0,0
100738,-100,4,3,3,70,0,0
101031,-83.3333333333333,4,3,3,70,0,0
102201,-125,4,3,3,70,0,0
103080,-100,4,3,3,70,0,0
103665,-125,4,3,3,70,0,0
104250,-100,4,3,3,70,0,0
104836,-125,4,3,3,70,0,0
105275,-125,4,3,1,70,0,0
105714,-100,4,3,3,70,0,0
106445,-125,4,3,1,70,0,0
106738,-125,4,3,3,70,0,0
108787,-100,4,3,3,70,0,0
109958,-100,4,3,1,70,0,0
110104,-83.3333333333333,4,3,1,70,0,0
111128,-125,4,3,3,70,0,0
111860,-100,4,3,3,70,0,0
113470,-100,4,3,1,70,0,0
113763,-100,4,3,3,70,0,0
115373,-83.3333333333333,4,3,3,70,0,0
116982,-83.3333333333333,4,3,1,70,0,0
118592,-100,4,3,3,70,0,0
119177,-83.3333333333333,4,3,3,70,0,0
119470,-125,4,3,3,70,0,0
120640,-100,4,3,1,70,0,0
120787,-100,4,3,3,70,0,0
122250,-83.3333333333333,4,3,3,70,0,0
122690,-100,4,3,3,70,0,0
123860,-83.3333333333333,4,3,3,70,0,0
124153,-100,4,3,1,70,0,0
124299,-100,4,3,3,70,0,0
124592,-83.3333333333333,4,3,3,70,0,0
124885,-125,4,3,3,70,0,0
128250,-83.3333333333333,4,3,3,70,0,0
129421,-100,4,3,3,70,0,0
132055,-83.3333333333333,4,3,3,70,0,0
134543,-83.3333333333333,4,3,6,70,0,0
143470,-125,4,3,3,70,0,0
148153,-200,4,3,6,70,0,0
148738,-200,4,3,1,70,0,0
148885,-200,4,3,3,70,0,0
150787,-100,4,3,3,70,0,0
153275,-83.3333333333333,4,3,3,70,0,0
162202,-76.9230769230769,4,3,3,70,0,0
172007,-76.9230769230769,4,3,1,70,0,1
190738,-71.4285714285714,4,3,1,70,0,1
209470,-83.3333333333333,4,3,1,70,0,0
228201,-83.3333333333333,4,3,1,70,0,0
234201,-83.3333333333333,4,2,0,5,0,0

[Colours]
Combo1 : 181,255,181
Combo2 : 0,255,255
Combo3 : 74,74,255
Combo4 : 189,82,248
Combo5 : 225,196,255
Combo6 : 255,255,255

[HitObjects]
147,351,1080,6,0,B|111:358|111:358|62:348,5,80
238,327,1959,1,0,0:0:0:0:
344,309,2251,2,0,B|381:310|381:310|422:290,5,64
246,283,3129,1,0,0:0:0:0:
169,182,3421,6,0,P|146:116|170:45,1,128,6|0,0:0|0:0,0:0:0:0:
246,283,3861,2,0,P|198:305|139:301,1,95.9999970703126,4|0,0:0|0:0,0:0:0:0:
304,224,4154,2,0,B|469:205,1,160,8|0,0:0|0:0,0:0:0:0:
164,144,4593,2,0,L|3:126,1,160,4|0,0:0|0:0,0:0:0:0:
231,198,5032,2,0,P|244:143|240:90,1,95.9999970703126,4|0,0:0|0:0,0:0:0:0:
140,240,5324,2,0,P|210:286|310:256,1,160,8|0,0:0|0:0,0:0:0:0:
156,78,5763,6,0,P|73:57|-8:83,1,160,4|0,0:0|0:0,0:0:0:0:
191,153,6202,2,0,P|237:158|273:156,1,80
374,147,6495,1,8,0:0:0:0:
374,147,6641,1,0,0:0:0:0:
206,227,6788,2,0,P|157:232|106:214,1,95.9999970703126,4|0,0:0|0:0,0:0:0:0:
170,112,7081,2,0,P|198:70|238:54,1,80,4|0,0:0|0:0,0:0:0:0:
342,272,7373,2,0,P|314:314|274:330,1,80,4|0,0:0|0:0,0:0:0:0:
80,304,7666,2,0,L|-6:280,2,80,4|0|0,0:0|0:0|0:0,0:0:0:0:
220,240,8105,6,0,P|244:164|229:83,1,160,4|0,0:0|0:0,0:0:0:0:
151,299,8544,2,0,P|198:320|260:319,1,95.9999970703126,4|0,0:0|0:0,0:0:0:0:
432,288,8837,2,0,L|519:269,2,80,4|4|0,0:0|0:0|0:0,0:0:0:0:
276,205,9276,2,0,P|254:126|284:40,1,160,4|0,0:0|0:0,0:0:0:0:
352,262,9715,2,0,P|311:288|249:294,1,95.9999970703126,4|0,0:0|0:0,0:0:0:0:
80,256,10007,2,4,L|-4:227,2,80
242,218,10446,6,0,P|262:137|249:54,1,160,4|0,0:0|0:0,0:0:0:0:
188,287,10885,2,4,P|232:299|278:299,1,80
398,294,11178,1,12,0:0:0:0:
398,294,11324,1,4,0:0:0:0:
480,160,11470,2,0,L|501:65,1,80
240,176,11763,2,0,P|186:187|128:165,1,95.9999970703126,4|0,0:0|0:0,0:0:0:0:
288,64,12055,2,0,P|334:53|380:64,1,95.9999970703126,12|0,0:0|0:0,0:0:0:0:
320,263,12348,5,8,0:0:0:0:
288,286,12421,1,8,0:0:0:0:
243,299,12495,1,0,0:0:0:0:
198,301,12568,1,0,0:0:0:0:
152,291,12641,1,2,0:0:0:0:
113,267,12714,1,2,0:0:0:0:
84,235,12787,6,0,P|54:161|81:54,1,191.999994140625,4|0,0:0|0:0,0:0:0:0:
226,105,13226,2,0,P|282:124|351:117,1,95.9999970703126,8|0,0:0|0:0,0:0:0:0:
424,103,13519,5,2,0:0:0:0:
424,103,13665,1,2,0:0:0:0:
208,192,13812,2,0,P|161:182|119:158,1,95.9999970703126,8|0,0:0|0:0,0:0:0:0:
387,178,14104,5,2,0:0:0:0:
387,178,14251,1,2,0:0:0:0:
192,112,14397,2,0,P|150:88|118:52,1,95.9999970703126,8|0,0:0|0:0,0:0:0:0:
23,190,14690,2,0,L|-2:287,2,95.9999970703126,2|2|8,0:0|0:0|0:0,0:0:0:0:
144,272,15129,6,0,P|226:317|319:300,1,191.999994140625
416,208,15568,2,0,L|442:112,1,95.9999970703126,8|0,0:0|0:0,0:0:0:0:
319,300,15861,5,2,0:0:0:0:
319,300,16007,1,2,0:0:0:0:
480,256,16154,2,0,L|509:156,1,95.9999970703126,8|0,0:0|0:0,0:0:0:0:
219,225,16446,2,0,B|124:218,1,95.9999970703126,2|0,0:0|0:0,0:0:0:0:
288,304,16739,2,0,B|394:290,1,95.9999970703126,4|0,0:0|0:0,0:0:0:0:
480,192,17031,2,0,L|499:94,2,95.9999970703126,8|0|0,0:0|0:0|0:0,0:0:0:0:
288,304,17471,6,0,P|222:320|142:280,1,160,6|0,0:0|0:0,0:0:0:0:
337,216,17910,2,0,L|445:210,1,95.9999970703126,8|0,0:0|0:0,0:0:0:0:
384,320,18202,1,2,0:0:0:0:
384,320,18349,1,2,0:0:0:0:
256,176,18495,2,0,L|158:176,1,95.9999970703126,8|0,0:0|0:0,0:0:0:0:
208,288,18788,1,2,0:0:0:0:
208,288,18934,1,2,0:0:0:0:
336,112,19081,2,0,L|447:103,1,95.9999970703126,8|0,0:0|0:0,0:0:0:0:
208,64,19373,5,8,0:0:0:0:
172,60,19446,1,8,0:0:0:0:
138,56,19520,1,8,0:0:0:0:
101,51,19593,1,8,0:0:0:0:
64,47,19666,2,0,L|13:40,4,47.9999985351563,10|2|2|2|2,0:0|0:0|0:0|0:0|0:0,0:0:0:0:
256,272,20105,5,0,0:0:0:0:
369,140,20251,2,0,P|416:128|473:129,1,95.9999970703126,2|0,0:0|0:0,0:0:0:0:
256,296,20544,1,0,0:0:0:0:
143,140,20689,2,0,P|96:128|39:129,1,95.9999970703126,2|0,0:0|0:0,0:0:0:0:
203,206,20983,2,0,P|225:155|216:100,1,95.9999970703126,4|0,0:0|0:0,0:0:0:0:
320,224,21275,2,0,P|371:246|426:237,1,95.9999970703126,4|0,0:0|0:0,0:0:0:0:
208,330,21568,2,0,P|79:310|59:238,1,191.999994140625,4|8,0:0|0:0,0:0:0:0:
152,252,22007,1,0,0:0:0:0:
272,240,22154,6,0,B|322:272|317:359|317:359|364:306,1,191.999994140625,6|0,0:0|0:0,0:0:0:0:
431,154,22593,2,0,P|471:119|528:103,1,95.9999970703126,8|0,0:0|0:0,0:0:0:0:
272,240,22885,1,0,0:0:0:0:
272,240,23032,1,0,0:0:0:0:
104,164,23178,2,0,P|57:146|-12:154,1,95.9999970703126,8|0,0:0|0:0,0:0:0:0:
160,240,23470,2,0,P|188:198|195:129,1,95.9999970703126
72,276,23763,2,0,P|106:312|172:334,1,95.9999970703126,8|0,0:0|0:0,0:0:0:0:
271,311,24056,1,0,0:0:0:0:
381,300,24202,1,0,0:0:0:0:
479,341,24349,1,8,0:0:0:0:
512,209,24495,2,0,P|523:147|402:134,1,191.999994140625
237,198,24934,2,0,P|184:213|123:200,1,95.9999970703126,8|0,0:0|0:0,0:0:0:0:
22,166,25227,5,0,0:0:0:0:
22,166,25373,1,0,0:0:0:0:
186,106,25519,2,0,P|239:91|300:104,1,95.9999970703126,8|0,0:0|0:0,0:0:0:0:
144,208,25812,2,0,P|96:140|129:30,1,191.999994140625,0|8,0:0|0:0,0:0:0:0:
119,39,26251,1,0,0:0:0:0:
42,205,26398,2,0,L|4:301,2,95.9999970703126,0|12|0,0:0|0:0|0:0,0:0:0:0:
181,105,26837,2,0,P|260:90|368:139,1,191.999994140625,4|0,0:0|0:0,0:0:0:0:
250,286,27276,2,0,P|210:302|149:299,1,95.9999970703126,8|0,0:0|0:0,0:0:0:0:
336,352,27568,6,0,L|444:369,2,95.9999970703126,0|0|8,0:0|0:0|0:0,0:0:0:0:
185,224,28007,2,0,P|153:146|207:39,1,191.999994140625
364,215,28446,2,0,P|369:265|332:312,1,95.9999970703126,8|0,0:0|0:0,0:0:0:0:
150,320,28738,2,0,L|21:304,2,95.9999970703126,0|0|8,0:0|0:0|0:0,0:0:0:0:
271,234,29178,2,0,P|302:132|261:61,1,191.999994140625
127,232,29617,2,0,P|127:286|165:330,1,95.9999970703126,8|0,0:0|0:0,0:0:0:0:
349,340,29910,2,0,B|450:351,2,95.9999970703126,0|0|8,0:0|0:0|0:0,0:0:0:0:
223,247,30349,6,0,P|195:172|256:77,1,191.999994140625
418,68,30788,2,0,L|540:56,1,95.9999970703126,12|0,0:0|0:0,0:0:0:0:
487,256,31081,5,8,0:0:0:0:
481,286,31154,1,8,0:0:0:0:
474,314,31227,1,8,0:0:0:0:
467,341,31300,1,8,0:0:0:0:
460,363,31373,1,8,0:0:0:0:
260,358,31520,6,0,L|62:330,1,191.999994140625,6|0,0:0|0:0,0:0:0:0:
204,240,31959,2,0,P|254:222|313:228,1,95.9999970703126,8|0,0:0|0:0,0:0:0:0:
496,320,32251,1,0,0:0:0:0:
342,384,32398,1,0,0:0:0:0:
432,206,32544,6,0,P|440:143|428:113,1,95.9999970703126,8|0,0:0|0:0,0:0:0:0:
266,276,32837,2,0,B|322:298|322:298|368:284|368:284|413:316|473:295,1,191.999994140625,0|8,0:0|0:0,0:0:0:0:
448,302,33276,1,0,0:0:0:0:
322,211,33421,2,0,P|298:140|404:101,1,191.999994140625,0|8,0:0|0:0,0:0:0:0:
224,240,33860,2,0,P|149:237|148:125,1,191.999994140625
292,101,34300,2,0,L|425:88,1,95.9999970703126,8|0,0:0|0:0,0:0:0:0:
320,240,34593,5,0,0:0:0:0:
320,240,34739,1,0,0:0:0:0:
416,160,34885,2,0,L|532:146,1,95.9999970703126,8|0,0:0|0:0,0:0:0:0:
372,308,35177,2,0,P|326:324|275:313,1,95.9999970703126
176,160,35470,2,0,P|219:139|266:143,1,95.9999970703126,8|0,0:0|0:0,0:0:0:0:
128,256,35763,2,0,L|14:269,2,95.9999970703126,0|4|8,0:0|0:0|0:0,0:0:0:0:
304,176,36202,2,0,P|346:120|240:94,1,191.999994140625,4|0,0:0|0:0,0:0:0:0:
128,256,36641,2,0,L|92:351,1,95.9999970703126,8|0,0:0|0:0,0:0:0:0:
32,240,36934,6,0,P|23:191|34:135,2,95.9999970703126,0|0|8,0:0|0:0|0:0,0:0:0:0:
208,288,37373,2,0,B|244:296|244:296|265:276|265:276|356:282|356:282|411:264,1,191.999994140625
466,235,37812,1,8,0:0:0:0:
304,352,37959,1,0,0:0:0:0:
176,192,38105,2,0,P|139:101|182:18,1,191.999994140625
423,201,38543,6,0,P|341:256|251:231,1,191.999994140625,4|0,0:0|0:0,0:0:0:0:
144,144,38983,2,0,L|132:34,1,95.9999970703126,12|0,0:0|0:0,0:0:0:0:
32,240,39276,2,0,L|5:333,2,95.9999970703126,0|0|8,0:0|0:0|0:0,0:0:0:0:
144,144,39714,2,0,P|240:128|320:192,1,191.999994140625,4|0,0:0|0:0,0:0:0:0:
74,237,40154,2,0,L|56:128,1,95.9999970703126,8|0,0:0|0:0,0:0:0:0:
159,264,40446,5,2,0:0:0:0:
129,304,40520,1,8,0:0:0:0:
83,323,40593,1,8,0:0:0:0:
34,318,40666,1,8,0:0:0:0:
0,291,40739,1,8,0:0:0:0:
208,192,40885,6,0,L|427:175,1,191.999994140625,4|0,0:0|0:0,0:0:0:0:
266,281,41324,2,0,P|221:298|153:279,1,95.9999970703126,8|0,0:0|0:0,0:0:0:0:
64,192,41617,2,0,L|52:95,2,95.9999970703126,4|4|8,0:0|0:0|0:0,0:0:0:0:
174,291,42056,2,0,P|273:271|283:185,1,191.999994140625,2|0,0:0|0:0,0:0:0:0:
112,240,42495,2,0,L|65:352,1,95.9999970703126,8|2,0:0|0:0,0:0:0:0:
16,176,42788,2,4,L|3:80,2,95.9999970703126,4|4|0,0:0|0:0|0:0,0:0:0:0:
112,240,43227,6,2,L|272:251,1,160
368,240,43666,1,8,0:0:0:0:
396,234,43739,1,0,0:0:0:0:
422,228,43812,1,0,0:0:0:0:
448,222,43885,1,0,0:0:0:0:
473,215,43959,2,0,P|473:167|458:129,1,80,2|0,0:0|0:0,0:0:0:0:
400,80,44251,1,8,0:0:0:0:
272,160,44398,6,0,B|255:197|255:197|262:236|262:236|241:280|263:351,1,191.999994140625,2|0,0:0|0:0,0:0:0:0:
388,365,44837,2,2,P|442:362|508:351,1,95.9999970703126,10|2,0:0|0:0,0:0:0:0:
497,173,45129,1,0,0:0:0:0:
491,145,45202,1,0,0:0:0:0:
485,113,45276,1,0,0:0:0:0:
478,84,45349,1,0,0:0:0:0:
474,55,45422,2,0,P|421:50|371:56,1,80,8|0,0:0|0:0,0:0:0:0:
182,184,45715,6,0,P|152:238|141:275,2,95.9999970703126,2|0|8,0:0|0:0|0:0,0:0:0:0:
324,208,46154,2,0,P|389:223|517:164,1,191.999994140625
262,121,46593,2,0,L|157:112,1,95.9999970703126
54,281,46885,2,0,P|24:335|13:372,2,95.9999970703126,2|0|8,0:0|0:0|0:0,0:0:0:0:
242,173,47324,2,0,B|319:138|439:148,1,191.999994140625
216,255,47763,2,0,P|170:267|115:266,1,95.9999970703126,8|0,0:0|0:0,0:0:0:0:
393,318,48056,2,0,L|496:329,2,95.9999970703126
271,303,48495,1,0,0:0:0:0:
188,142,48641,6,0,P|180:85|187:39,1,95.9999970703126,4|0,0:0|0:0,0:0:0:0:
249,216,48934,2,0,P|195:234|150:232,1,95.9999970703126,12|0,0:0|0:0,0:0:0:0:
349,168,49227,2,0,L|458:154,2,95.9999970703126
188,142,49666,2,0,P|143:97|127:45,1,95.9999970703126,12|0,0:0|0:0,0:0:0:0:
268,179,49959,6,0,P|208:223|161:230,1,95.9999970703126
158,231,50178,1,2,0:0:0:0:
131,225,50251,1,2,0:0:0:0:
57,326,50398,2,0,P|33:356|-12:385,2,80,4|0|0,0:0|0:0|0:0,0:0:0:0:
245,221,50837,2,0,B|299:207|299:207|342:217|343:217|384:196|384:196|428:205|456:186,1,191.999994140625,8|0,0:0|0:0,0:0:0:0:
243,348,51276,1,0,0:0:0:0:
243,348,51422,1,0,0:0:0:0:
148,198,51568,6,0,B|125:143|125:143|139:116|139:116|120:67|133:16,1,191.999994140625,8|0,0:0|0:0,0:0:0:0:
296,42,52007,2,0,B|339:56|370:34|370:34|439:37|439:37|485:12,1,191.999994140625,2|0,0:0|0:0,0:0:0:0:
238,110,52446,2,0,P|209:49|209:8,1,95.9999970703126,12|0,0:0|0:0,0:0:0:0:
366,167,52739,6,0,B|338:173|302:170|302:170|243:209|181:183|181:183|148:209|83:181,1,287.999991210938,2|0,0:0|0:0,0:0:0:0:
198,276,53324,2,0,P|260:273|297:258,1,95.9999970703126
112,112,53617,2,0,P|58:101|9:105,1,95.9999970703126
95,247,53910,6,0,L|131:293,3,47.9999985351563,2|8|8|8,0:0|0:0|0:0|0:0,0:0:0:0:
29,325,54202,2,0,L|-5:378,3,47.9999985351563,2|8|8|8,0:0|0:0|0:0|0:0,0:0:0:0:
193,221,54495,2,0,B|243:206|243:206|288:218|288:218|341:202|341:202|390:202,1,191.999994140625,2|0,0:0|0:0,0:0:0:0:
59,260,55081,5,2,0:0:0:0:
90,112,55227,2,8,P|112:59|146:30,1,95.9999970703126
59,260,55520,1,2,0:0:0:0:
171,125,55666,2,8,P|227:92|262:84,1,95.9999970703126
120,322,55959,5,2,0:0:0:0:
120,322,56105,1,2,0:0:0:0:
322,312,56251,6,0,P|374:311|421:293,1,95.9999970703126,8|0,0:0|0:0,0:0:0:0:
185,359,56544,1,0,0:0:0:0:
389,378,56690,2,0,P|465:361|494:274,1,160,8|0,0:0|0:0,0:0:0:0:
496,291,57129,5,2,0:0:0:0:
496,291,57276,1,2,0:0:0:0:
490,145,57422,6,0,L|479:45,1,95.9999970703126,8|0,0:0|0:0,0:0:0:0:
479,49,57715,1,2,0:0:0:0:
243,73,57861,6,0,L|132:87,1,95.9999970703126,8|0,0:0|0:0,0:0:0:0:
148,86,58154,1,2,0:0:0:0:
336,192,58300,6,0,L|443:178,1,95.9999970703126,8|0,0:0|0:0,0:0:0:0:
207,279,58593,5,2,0:0:0:0:
161,287,58666,1,8,0:0:0:0:
114,283,58739,1,8,0:0:0:0:
70,262,58812,1,8,0:0:0:0:
55,218,58885,1,10,0:0:0:0:
69,175,58959,1,8,0:0:0:0:
117,154,59032,1,8,0:0:0:0:
164,157,59105,1,8,0:0:0:0:
207,174,59178,2,8,P|262:180|323:167,1,95.9999970703126,0|0,0:0|0:0,0:0:0:0:
461,126,59470,5,2,0:0:0:0:
376,186,59617,2,0,B|360:207|366:247|366:247|353:284|353:284|367:310|367:310|352:346|360:390,1,207.999990478516,4|0,0:0|0:0,0:0:0:0:
437,116,60056,2,0,P|375:99|316:112,1,103.999995239258,8|0,0:0|0:0,0:0:0:0:
171,138,60349,2,0,P|109:146|66:137,1,103.999995239258
224,66,60641,1,8,0:0:0:0:
344,145,60788,2,0,P|409:175|444:177,1,103.999995239258
282,257,61081,2,0,P|228:282|187:317,1,103.999995239258,0|8,0:0|0:0,0:0:0:0:
200,120,61373,2,0,P|197:59|181:16,1,103.999995239258
190,205,61666,6,0,P|250:187|288:144,1,103.999995239258,0|8,0:0|0:0,0:0:0:0:
114,157,61959,2,0,B|89:198|89:198|105:246|105:246|95:290|95:290|112:332|85:372,1,207.999990478516
95,352,62398,1,8,0:0:0:0:
95,352,62544,1,0,0:0:0:0:
308,353,62690,2,0,L|449:340,2,103.999995239258,0|0|8,0:0|0:0|0:0,0:0:0:0:
195,255,63129,2,0,P|167:167|212:62,1,207.999990478516
299,265,63568,2,0,P|278:314|239:351,1,103.999995239258,8|0,0:0|0:0,0:0:0:0:
276,141,63861,6,0,P|335:142|391:168,1,103.999995239258
200,227,64154,2,0,P|147:227|90:207,1,103.999995239258,8|0,0:0|0:0,0:0:0:0:
171,131,64446,2,0,P|188:77|184:26,1,103.999995239258
185,30,64739,1,8,0:0:0:0:
98,211,64885,2,0,P|160:247|299:192,1,207.999990478516
28,140,65324,2,0,P|14:197|20:251,1,103.999995239258,8|0,0:0|0:0,0:0:0:0:
194,139,65617,2,0,B|244:114|244:114|299:134|334:105|334:105|381:113|407:89,1,207.999990478516,0|8,0:0|0:0,0:0:0:0:
253,195,66056,2,0,B|203:220|203:220|148:200|113:229|113:229|66:221|40:245,1,207.999990478516
176,312,66495,5,8,0:0:0:0:
176,312,66641,1,0,0:0:0:0:
118,128,66788,2,0,P|122:67|147:26,1,103.999995239258
161,211,67081,2,0,P|106:219|54:205,1,103.999995239258,8|0,0:0|0:0,0:0:0:0:
224,153,67373,1,0,0:0:0:0:
338,216,67520,2,0,P|401:228|462:215,1,103.999995239258,0|8,0:0|0:0,0:0:0:0:
301,83,67812,2,0,B|282:68|249:69|249:69|193:43|193:43|130:54|92:27,1,207.999990478516
205,141,68251,2,0,P|262:162|318:155,1,103.999995239258,8|0,0:0|0:0,0:0:0:0:
117,175,68544,5,0,0:0:0:0:
99,213,68617,1,8,0:0:0:0:
80,253,68690,1,8,0:0:0:0:
63,289,68763,1,8,0:0:0:0:
45,327,68837,2,0,L|20:376,1,51.999997619629
163,313,68983,6,0,B|214:294|214:294|266:303|266:303|303:279|303:279|345:284|345:284|374:277,1,207.999990478516,4|8,0:0|0:0,0:0:0:0:
79,288,69422,2,0,P|77:346|110:393,1,103.999995239258,8|0,0:0|0:0,0:0:0:0:
186,219,69715,2,0,P|139:177|87:164,1,103.999995239258
0,154,70007,1,8,0:0:0:0:
173,112,70154,2,0,P|231:94|270:62,1,103.999995239258
295,192,70446,2,0,P|332:248|375:268,1,103.999995239258,0|8,0:0|0:0,0:0:0:0:
231,252,70739,2,0,P|173:270|136:297,1,103.999995239258
164,134,71032,2,0,P|146:85|108:47,1,103.999995239258,0|8,0:0|0:0,0:0:0:0:
312,131,71324,5,0,0:0:0:0:
154,212,71471,2,0,P|87:223|44:219,1,103.999995239258
248,186,71763,2,0,P|246:241|219:291,1,103.999995239258,8|0,0:0|0:0,0:0:0:0:
308,123,72056,2,0,B|345:108|345:108|383:118|383:118|422:103|422:103|464:116|496:102|538:110,1,207.999990478516,8|0,0:0|0:0,0:0:0:0:
200,245,72495,2,0,B|154:261|154:261|116:251|116:251|86:264|86:264|49:250|10:269|-21:252,1,207.999990478516,8|0,0:0|0:0,0:0:0:0:
155,137,72934,1,8,0:0:0:0:
155,137,73081,1,0,0:0:0:0:
343,89,73227,6,0,P|396:79|453:83,1,103.999995239258
272,160,73520,2,0,P|254:109|257:41,1,103.999995239258,8|0,0:0|0:0,0:0:0:0:
329,246,73812,2,0,P|278:261|224:259,1,103.999995239258
122,235,74105,1,8,0:0:0:0:
272,160,74251,2,0,B|310:139|310:139|354:142|381:112|381:112|430:115|469:89,1,207.999990478516
195,68,74690,6,0,P|133:62|83:51,1,103.999995239258,8|0,0:0|0:0,0:0:0:0:
144,176,74983,2,0,B|151:210|151:210|127:239|148:282|148:282|127:332|132:385,1,207.999990478516,0|8,0:0|0:0,0:0:0:0:
237,243,75422,2,0,B|244:208|244:208|220:179|241:136|241:136|220:86|225:33,1,207.999990478516
298,314,75861,2,0,P|248:339|190:341,1,103.999995239258,8|0,0:0|0:0,0:0:0:0:
106,164,76154,6,0,P|99:105|112:54,1,103.999995239258,8|0,0:0|0:0,0:0:0:0:
188,227,76446,2,0,P|139:264|83:277,1,103.999995239258,8|0,0:0|0:0,0:0:0:0:
312,116,76739,2,0,P|353:91|411:76,1,103.999995239258,8|0,0:0|0:0,0:0:0:0:
284,205,77032,2,0,P|230:167|206:124,1,103.999995239258,8|0,0:0|0:0,0:0:0:0:
399,140,77324,5,2,0:0:0:0:
435,158,77398,1,8,0:0:0:0:
458,192,77471,1,8,0:0:0:0:
461,235,77544,1,8,0:0:0:0:
441,274,77617,1,8,0:0:0:0:
409,299,77690,1,8,0:0:0:0:
364,308,77763,1,8,0:0:0:0:
316,299,77837,1,8,0:0:0:0:
274,293,77910,2,0,P|234:290|169:288,1,80,2|0,0:0|0:0,0:0:0:0:
40,342,78349,6,0,P|115:374|204:354,1,160,4|0,0:0|0:0,0:0:0:0:
256,224,78788,2,0,L|273:145,1,80,8|0,0:0|0:0,0:0:0:0:
432,48,79081,2,0,L|538:37,2,80,0|0|8,0:0|0:0|0:0,0:0:0:0:
224,128,79520,2,0,P|144:147|80:96,1,160,4|0,0:0|0:0,0:0:0:0:
288,64,79959,2,0,L|391:55,1,80,8|0,0:0|0:0,0:0:0:0:
432,224,80251,2,0,L|448:308,2,80,0|0|8,0:0|0:0|0:0,0:0:0:0:
293,197,80690,6,0,B|207:238|120:170,1,160,4|0,0:0|0:0,0:0:0:0:
383,173,81129,2,0,P|380:214|366:255,1,80,8|0,0:0|0:0,0:0:0:0:
336,336,81422,1,0,0:0:0:0:
336,336,81568,1,0,0:0:0:0:
293,197,81715,2,0,L|277:101,1,80,8|0,0:0|0:0,0:0:0:0:
165,132,82007,2,0,P|118:139|68:135,1,80
242,26,82300,2,0,P|287:17|331:17,1,80,8|0,0:0|0:0,0:0:0:0:
448,112,82593,2,0,P|467:157|481:204,2,80,0|0|8,0:0|0:0|0:0,0:0:0:0:
271,53,83032,6,0,B|198:29|97:37,1,160,4|0,0:0|0:0,0:0:0:0:
238,146,83471,2,0,P|285:155|328:151,1,80,8|0,0:0|0:0,0:0:0:0:
473,69,83763,2,0,P|500:30|512:0,2,80,0|0|8,0:0|0:0|0:0,0:0:0:0:
238,146,84202,2,0,B|139:138|72:80,1,160,4|0,0:0|0:0,0:0:0:0:
317,210,84641,2,0,P|342:161|344:115,1,80,8|0,0:0|0:0,0:0:0:0:
89,93,84934,2,0,L|11:78,2,80,0|0|8,0:0|0:0|0:0,0:0:0:0:
342,110,85373,6,0,B|452:108|502:33,1,160,4|0,0:0|0:0,0:0:0:0:
346,184,85812,2,0,P|307:206|263:216,1,80,8|0,0:0|0:0,0:0:0:0:
166,235,86105,1,0,0:0:0:0:
166,235,86251,1,0,0:0:0:0:
101,110,86398,2,0,P|86:68|82:28,1,80,8|0,0:0|0:0,0:0:0:0:
75,191,86690,2,0,P|40:207|-16:213,1,80,8|0,0:0|0:0,0:0:0:0:
196,146,86983,2,0,P|240:153|282:173,1,80,8|0,0:0|0:0,0:0:0:0:
147,287,87276,5,2,0:0:0:0:
118,263,87349,1,8,0:0:0:0:
93,235,87422,1,8,0:0:0:0:
83,196,87495,1,8,0:0:0:0:
95,162,87568,1,8,0:0:0:0:
116,132,87641,1,0,0:0:0:0:
133,106,87715,6,0,P|153:64|42:57,1,191.999994140625
224,121,88154,2,0,P|273:120|324:109,1,95.9999970703126,8|0,0:0|0:0,0:0:0:0:
444,81,88446,1,0,0:0:0:0:
444,81,88593,1,0,0:0:0:0:
373,183,88739,2,0,P|360:231|364:288,1,95.9999970703126,8|0,0:0|0:0,0:0:0:0:
394,367,89032,1,0,0:0:0:0:
394,367,89178,1,0,0:0:0:0:
224,320,89324,2,0,P|167:303|113:299,1,95.9999970703126,8|0,0:0|0:0,0:0:0:0:
204,192,89616,5,0,0:0:0:0:
234,158,89690,1,8,0:0:0:0:
252,118,89763,1,8,0:0:0:0:
256,77,89837,1,8,0:0:0:0:
243,39,89910,1,8,0:0:0:0:
335,89,90056,6,0,P|391:121|532:85,1,191.999994140625
214,164,90495,2,0,P|164:174|114:168,1,95.9999970703126,8|0,0:0|0:0,0:0:0:0:
309,220,90788,2,0,P|369:228|421:209,1,95.9999970703126
217,85,91081,2,0,P|165:72|113:85,1,95.9999970703126,8|0,0:0|0:0,0:0:0:0:
216,281,91373,2,0,P|273:307|325:310,1,80,4|0,0:0|0:0,0:0:0:0:
407,178,91666,2,0,P|432:140|444:98,1,80,12|0,0:0|0:0,0:0:0:0:
310,229,91959,5,8,0:0:0:0:
340,260,92032,1,8,0:0:0:0:
382,281,92105,1,8,0:0:0:0:
426,283,92178,1,8,0:0:0:0:
466,262,92251,1,8,0:0:0:0:
370,171,92398,6,0,P|362:97|429:123,1,160
275,210,92837,2,0,P|223:223|160:222,1,80,8|0,0:0|0:0,0:0:0:0:
70,210,93129,1,0,0:0:0:0:
70,210,93276,1,0,0:0:0:0:
214,142,93422,2,0,P|258:128|322:125,1,80,8|0,0:0|0:0,0:0:0:0:
394,127,93715,1,0,0:0:0:0:
394,127,93861,1,0,0:0:0:0:
182,70,94007,2,0,P|127:56|82:56,1,80,8|0,0:0|0:0,0:0:0:0:
256,48,94300,5,0,0:0:0:0:
288,48,94373,1,8,0:0:0:0:
320,48,94446,1,8,0:0:0:0:
352,48,94520,1,8,0:0:0:0:
384,48,94593,2,0,L|426:39,1,40
465,105,94739,2,0,L|503:120,1,40
368,176,94885,5,2,0:0:0:0:
340,186,94959,1,2,0:0:0:0:
311,200,95032,2,0,L|242:227,1,40,2|0,0:0|0:0,0:0:0:0:
149,242,95178,2,0,L|53:242,1,95.9999970703126
227,137,95471,1,0,0:0:0:0:
384,97,95617,2,0,L|496:97,1,95.9999970703126
278,220,95910,6,0,P|226:230|176:218,1,95.9999970703126,4|0,0:0|0:0,0:0:0:0:
372,281,96202,2,0,P|422:294|469:283,1,95.9999970703126,4|0,0:0|0:0,0:0:0:0:
260,343,96495,2,0,P|193:359|93:285,1,191.999994140625,4|0,0:0|0:0,0:0:0:0:
201,261,96934,1,8,0:0:0:0:
336,320,97081,6,0,P|418:352|492:290,1,160,2|0,0:0|0:0,0:0:0:0:
475,319,97520,1,8,0:0:0:0:
464,288,98105,1,8,0:0:0:0:
448,256,98690,1,8,0:0:0:0:
432,224,99276,1,8,0:0:0:0:
367,127,99422,2,0,P|304:80|225:72,1,160,2|0,0:0|0:0,0:0:0:0:
136,92,99861,1,8,0:0:0:0:
304,128,100446,6,0,L|367:127,1,64,8|0,0:0|0:0,0:0:0:0:
179,189,100739,2,0,L|86:188,1,80,8|0,0:0|0:0,0:0:0:0:
343,270,101032,2,0,L|459:270,1,95.9999970703126,8|0,0:0|0:0,0:0:0:0:
496,96,101324,1,0,0:0:0:0:
497,74,101398,1,8,0:0:0:0:
502,47,101471,1,8,0:0:0:0:
506,23,101544,1,8,0:0:0:0:
509,1,101617,1,8,0:0:0:0:
288,32,101763,2,0,B|226:41|226:41|186:35|186:35|140:44|140:44|90:35,1,191.999994140625,2|0,0:0|0:0,0:0:0:0:
48,224,102202,6,0,L|36:291,1,64,4|0,0:0|0:0,0:0:0:0:
275,276,102495,2,0,L|342:275,1,64,4|0,0:0|0:0,0:0:0:0:
380,65,102788,2,0,L|385:-6,1,64,4|0,0:0|0:0,0:0:0:0:
142,39,103081,2,0,L|50:37,1,80,4|0,0:0|0:0,0:0:0:0:
350,143,103373,2,0,L|433:142,1,80,8|0,0:0|0:0,0:0:0:0:
93,203,103665,6,0,L|3:205,2,64,4|0|4,0:0|0:0|0:0,0:0:0:0:
257,190,104105,1,0,0:0:0:0:
431,174,104251,2,0,L|520:174,1,80,4|0,0:0|0:0,0:0:0:0:
303,64,104544,2,0,L|212:61,1,80,4|0,0:0|0:0,0:0:0:0:
153,273,104837,2,0,L|142:355,2,64,2|0|0,0:0|0:0|0:0,0:0:0:0:
352,292,105276,2,0,P|425:296|498:292,1,128,4|0,0:0|0:0,0:0:0:0:
430,79,105715,2,0,L|425:0,1,80,8|0,0:0|0:0,0:0:0:0:
304,144,106007,5,8,0:0:0:0:
295,180,106081,1,0,0:0:0:0:
286,219,106154,1,0,0:0:0:0:
275,256,106227,1,0,0:0:0:0:
265,292,106300,1,0,0:0:0:0:
253,327,106373,1,0,0:0:0:0:
239,361,106446,2,0,L|105:353,1,128,6|0,0:0|0:0,0:0:0:0:
15,326,106885,5,8,0:0:0:0:
30,271,107471,1,8,0:0:0:0:
62,224,108056,1,8,0:0:0:0:
96,176,108641,1,8,0:0:0:0:
189,72,108788,2,0,P|256:39|349:34,1,160,2|0,0:0|0:0,0:0:0:0:
418,40,109227,1,8,0:0:0:0:
454,65,109812,5,8,0:0:0:0:
400,308,109959,2,0,L|385:379,1,40
226,269,110105,2,0,L|108:254,1,95.9999970703126,12|0,0:0|0:0,0:0:0:0:
400,176,110398,2,0,L|509:164,1,95.9999970703126,12|0,0:0|0:0,0:0:0:0:
192,96,110690,1,8,0:0:0:0:
156,92,110763,1,8,0:0:0:0:
118,85,110837,1,8,0:0:0:0:
85,80,110910,1,8,0:0:0:0:
47,74,110983,1,0,0:0:0:0:
8,258,111129,6,0,L|-2:336,2,64
304,192,111568,2,0,L|388:186,1,64,8|0,0:0|0:0,0:0:0:0:
220,273,111861,2,0,P|141:290|71:249,1,160,4|0,0:0|0:0,0:0:0:0:
161,173,112300,1,0,0:0:0:0:
339,149,112446,2,0,L|424:145,1,80,8|0,0:0|0:0,0:0:0:0:
141,321,112739,2,0,L|55:326,1,80,8|0,0:0|0:0,0:0:0:0:
222,265,113032,1,0,0:0:0:0:
333,315,113178,1,4,0:0:0:0:
457,295,113324,1,0,0:0:0:0:
504,131,113471,6,0,P|515:64|416:64,1,160,4|0,0:0|0:0,0:0:0:0:
160,128,113910,2,0,L|77:139,1,80,4|0,0:0|0:0,0:0:0:0:
284,98,114202,2,0,L|270:-6,1,80,4|0,0:0|0:0,0:0:0:0:
226,279,114495,2,0,L|240:363,1,80,4|0,0:0|0:0,0:0:0:0:
413,275,114788,2,0,L|321:297,1,80,4|0,0:0|0:0,0:0:0:0:
436,102,115081,2,0,L|526:75,1,80,2|0,0:0|0:0,0:0:0:0:
224,144,115373,1,8,0:0:0:0:
192,144,115446,1,8,0:0:0:0:
160,144,115520,2,8,L|61:143,1,95.9999970703126,8|0,0:0|0:0,0:0:0:0:
224,240,115812,6,0,B|277:255|311:213|311:213|365:229|410:175,1,191.999994140625,8|0,0:0|0:0,0:0:0:0:
352,350,116251,1,0,0:0:0:0:
352,350,116398,1,0,0:0:0:0:
136,361,116544,2,0,L|37:368,2,95.9999970703126,8|0|0,0:0|0:0|0:0,0:0:0:0:
210,251,116983,6,0,B|238:203|206:159|206:159|235:111|195:54,1,191.999994140625,4|0,0:0|0:0,0:0:0:0:
321,156,117422,1,0,0:0:0:0:
321,156,117568,1,0,0:0:0:0:
98,170,117715,2,0,L|1:179,2,95.9999970703126,8|0|0,0:0|0:0|0:0,0:0:0:0:
264,226,118154,2,0,P|348:240|417:149,1,191.999994140625,2|0,0:0|0:0,0:0:0:0:
128,80,118593,6,2,L|49:69,1,80
96,224,118885,1,0,0:0:0:0:
112,256,118959,1,0,0:0:0:0:
128,288,119032,1,0,0:0:0:0:
144,320,119105,1,0,0:0:0:0:
160,352,119178,2,0,L|260:352,1,95.9999970703126,2|0,0:0|0:0,0:0:0:0:
400,336,119471,5,2,0:0:0:0:
493,191,119617,2,0,L|513:117,1,64
367,353,119910,1,2,0:0:0:0:
448,128,120056,2,0,L|467:54,1,64
298,324,120349,6,0,L|273:393,1,64,4|0,0:0|0:0,0:0:0:0:
96,352,120641,2,0,L|16:352,2,80,4|0|0,0:0|0:0|0:0,0:0:0:0:
208,240,121081,2,0,B|221:197|221:197|210:163|210:163|230:128|220:66,1,160,8|0,0:0|0:0,0:0:0:0:
416,80,121520,2,0,L|498:77,1,80,8|0,0:0|0:0,0:0:0:0:
416,256,121812,6,0,L|401:342,2,80,8|0|0,0:0|0:0|0:0,0:0:0:0:
272,144,122251,2,0,B|224:125|224:125|169:138|169:138|123:122|66:138,1,191.999994140625,8|0,0:0|0:0,0:0:0:0:
240,224,122690,1,2,0:0:0:0:
288,224,122763,1,2,0:0:0:0:
336,224,122837,1,2,0:0:0:0:
384,224,122910,1,2,0:0:0:0:
432,224,122983,2,0,P|452:174|448:121,1,80,8|0,0:0|0:0,0:0:0:0:
432,48,123276,1,0,0:0:0:0:
432,48,123422,1,0,0:0:0:0:
227,17,123568,6,0,P|164:7|92:18,1,120,8|0,0:0|0:0,0:0:0:0:
243,93,123861,2,0,P|274:78|303:19,1,95.9999970703126,8|0,0:0|0:0,0:0:0:0:
224,249,124154,1,12,0:0:0:0:
344,105,124300,2,0,L|423:99,1,80
176,37,124593,2,0,L|67:33,1,95.9999970703126,8|0,0:0|0:0,0:0:0:0:
144,192,124885,5,0,0:0:0:0:
152,214,124959,1,0,0:0:0:0:
162,239,125032,1,0,0:0:0:0:
171,259,125105,1,0,0:0:0:0:
180,283,125178,1,0,0:0:0:0:
189,303,125251,1,0,0:0:0:0:
199,324,125324,6,0,P|270:334|342:325,1,128,2|0,0:0|0:0,0:0:0:0:
325,328,125763,1,0,0:0:0:0:
416,240,125910,2,0,P|425:199|419:158,1,64,8|0,0:0|0:0,0:0:0:0:
240,128,126202,2,0,P|232:85|239:59,1,64
448,16,126495,6,0,L|512:12,2,64,0|8|0,0:0|0:0|0:0,0:0:0:0:
305,39,126934,1,0,0:0:0:0:
162,69,127081,2,0,P|131:73|98:68,1,64,8|0,0:0|0:0,0:0:0:0:
352,128,127373,2,0,P|385:135|415:130,1,64
241,185,127665,6,0,B|233:213|248:242|248:242|229:275|229:275|249:324|230:383,1,192,2|0,0:0|0:0,0:0:0:0:
80,288,128251,2,0,B|69:242|83:211|83:211|67:179|67:179|96:132|69:101|69:101|97:64|82:16,1,287.999991210938,2|0,0:0|0:0,0:0:0:0:
192,96,128837,5,2,0:0:0:0:
297,60,128983,1,8,0:0:0:0:
297,60,129056,1,8,0:0:0:0:
297,60,129129,1,8,0:0:0:0:
397,100,129276,1,0,0:0:0:0:
304,224,129422,2,0,P|256:233|193:210,1,80,2|0,0:0|0:0,0:0:0:0:
100,120,129715,2,0,P|139:113|178:120,1,80,0|2,0:0|0:0,0:0:0:0:
277,351,130007,5,2,0:0:0:0:
384,144,130154,2,8,L|416:61,1,80
345,384,130446,1,2,0:0:0:0:
467,180,130593,2,8,L|494:99,1,80
277,351,130885,1,0,0:0:0:0:
190,376,131032,1,0,0:0:0:0:
121,330,131178,5,0,0:0:0:0:
102,138,131324,2,8,L|126:54,1,80
31,343,131617,1,0,0:0:0:0:
8,149,131763,2,8,L|34:57,1,80
206,206,132056,2,0,P|255:226|317:229,1,95.9999970703126,4|0,0:0|0:0,0:0:0:0:
487,169,132349,5,0,0:0:0:0:
502,142,132422,1,0,0:0:0:0:
512,111,132495,1,0,0:0:0:0:
511,80,132568,1,0,0:0:0:0:
499,47,132641,1,0,0:0:0:0:
472,24,132715,5,2,0:0:0:0:
441,18,132788,1,2,0:0:0:0:
406,25,132861,1,2,0:0:0:0:
381,34,132934,1,2,0:0:0:0:
355,54,133007,1,2,0:0:0:0:
325,67,133081,5,2,0:0:0:0:
287,77,133154,1,2,0:0:0:0:
248,83,133227,1,2,0:0:0:0:
208,70,133300,1,2,0:0:0:0:
168,55,133373,1,2,0:0:0:0:
124,36,133446,5,8,0:0:0:0:
75,36,133520,1,8,0:0:0:0:
30,62,133593,1,8,0:0:0:0:
4,103,133666,1,8,0:0:0:0:
0,156,133739,1,8,0:0:0:0:
16,211,133812,1,8,0:0:0:0:
53,248,133885,1,8,0:0:0:0:
102,268,133959,1,8,0:0:0:0:
155,264,134032,1,8,0:0:0:0:
496,80,134544,5,4,0:0:0:0:
64,211,143471,6,0,P|73:124|73:76,1,128
239,86,144056,2,0,L|316:85,1,64,4|0,0:0|0:0,0:0:0:0:
448,48,144349,2,0,L|519:49,1,64
160,32,144641,2,0,L|93:30,1,64
400,128,144934,2,0,L|463:129,2,64,4|0|0,0:0|0:0|0:0,0:0:0:0:
112,166,145373,6,0,L|39:166,1,64
368,240,145666,2,0,L|435:240,1,64,4|0,0:0|0:0,0:0:0:0:
317,93,145959,1,0,0:0:0:0:
318,76,146032,1,0,0:0:0:0:
320,64,146105,2,0,L|325:-3,1,64
207,263,146398,2,0,L|201:336,1,64,4|0,0:0|0:0,0:0:0:0:
117,89,146690,2,0,L|123:19,1,64
317,93,146983,6,0,P|382:107|452:88,1,128,4|0,0:0|0:0,0:0:0:0:
512,57,147422,1,4,0:0:0:0:
132,302,148154,6,0,L|39:311,1,80
240,336,148739,5,4,0:0:0:0:
269,350,148885,1,0,0:0:0:0:
312,363,149032,1,0,0:0:0:0:
357,357,149178,1,0,0:0:0:0:
403,338,149324,1,0,0:0:0:0:
433,294,149471,1,2,0:0:0:0:
442,238,149617,1,2,0:0:0:0:
432,176,149763,1,2,0:0:0:0:
397,93,149910,5,8,0:0:0:0:
281,293,150056,1,8,0:0:0:0:
512,157,150202,1,8,0:0:0:0:
254,178,150349,1,8,0:0:0:0:
472,311,150495,1,8,0:0:0:0:
397,93,150641,1,2,0:0:0:0:
236,316,150788,2,0,P|188:320|133:307,1,80,8|0,0:0|0:0,0:0:0:0:
249,222,151081,5,8,0:0:0:0:
281,222,151154,1,0,0:0:0:0:
313,222,151227,1,0,0:0:0:0:
345,222,151300,1,0,0:0:0:0:
377,222,151373,2,0,L|441:190,1,40
465,275,151520,2,0,L|501:293,1,40,8|0,0:0|0:0,0:0:0:0:
373,342,151666,5,0,0:0:0:0:
341,342,151739,1,0,0:0:0:0:
309,342,151812,1,0,0:0:0:0:
277,342,151885,1,0,0:0:0:0:
247,341,151959,2,0,L|200:309,1,40,8|0,0:0|0:0,0:0:0:0:
296,239,152105,2,0,L|343:212,1,40
162,202,152251,5,0,0:0:0:0:
147,165,152324,1,2,0:0:0:0:
148,131,152398,1,2,0:0:0:0:
155,93,152471,1,2,0:0:0:0:
175,63,152544,2,2,L|203:28,1,40,8|0,0:0|0:0,0:0:0:0:
49,62,152690,2,2,L|5:76,1,40
69,150,152837,5,8,0:0:0:0:
76,185,152910,1,8,0:0:0:0:
84,220,152983,1,8,0:0:0:0:
92,255,153056,1,8,0:0:0:0:
99,290,153129,1,8,0:0:0:0:
107,325,153202,1,8,0:0:0:0:
118,356,153276,6,0,P|207:362|302:314,1,191.999994140625,2|0,0:0|0:0,0:0:0:0:
432,157,153715,1,8,0:0:0:0:
231,270,153861,1,0,0:0:0:0:
274,59,154007,1,0,0:0:0:0:
403,287,154154,1,0,0:0:0:0:
360,35,154300,1,8,0:0:0:0:
216,167,154446,6,0,B|166:189|166:189|114:175|114:175|56:191|16:176,1,191.999994140625,2|0,0:0|0:0,0:0:0:0:
260,94,154885,1,8,0:0:0:0:
32,256,155032,1,0,0:0:0:0:
131,37,155178,1,0,0:0:0:0:
192,282,155324,1,0,0:0:0:0:
7,109,155471,1,8,0:0:0:0:
323,112,155617,6,0,B|365:99|365:99|406:119|406:119|459:105|515:119,1,191.999994140625,2|0,0:0|0:0,0:0:0:0:
383,219,156056,1,8,0:0:0:0:
383,219,156202,1,0,0:0:0:0:
192,272,156349,6,0,B|166:285|133:265|133:265|82:279|82:279|40:263|3:270,1,191.999994140625,2|0,0:0|0:0,0:0:0:0:
86,120,156788,2,0,P|89:58|85:16,1,95.9999970703126
32,193,157081,2,0,P|78:201|150:192,1,95.9999970703126,0|8,0:0|0:0,0:0:0:0:
305,179,157373,1,0,0:0:0:0:
484,118,157520,6,0,P|523:90|433:52,1,191.999994140625,0|8,0:0|0:0,0:0:0:0:
303,100,157959,1,0,0:0:0:0:
128,125,158105,1,2,0:0:0:0:
96,129,158178,1,8,0:0:0:0:
67,133,158251,1,8,0:0:0:0:
38,136,158324,1,8,0:0:0:0:
7,140,158398,2,0,P|-5:87|9:42,1,95.9999970703126,8|0,0:0|0:0,0:0:0:0:
78,228,158690,2,0,P|53:271|1:303,1,95.9999970703126
117,123,158983,2,0,P|158:87|219:73,1,95.9999970703126,8|0,0:0|0:0,0:0:0:0:
372,241,159276,2,0,L|398:340,2,95.9999970703126,0|0|8,0:0|0:0|0:0,0:0:0:0:
285,73,159715,1,0,0:0:0:0:
202,249,159861,2,0,L|176:348,2,95.9999970703126,0|0|8,0:0|0:0|0:0,0:0:0:0:
149,35,160446,6,0,P|91:24|32:39,1,95.9999970703126
304,160,160739,2,0,P|362:170|411:161,1,95.9999970703126,8|0,0:0|0:0,0:0:0:0:
176,224,161032,2,0,P|122:234|79:224,1,95.9999970703126
339,59,161324,2,0,P|392:50|453:63,1,95.9999970703126,8|0,0:0|0:0,0:0:0:0:
166,117,161617,2,0,P|157:57|168:12,1,95.9999970703126
356,209,161910,2,0,P|365:261|352:313,1,95.9999970703126,8|0,0:0|0:0,0:0:0:0:
107,255,162202,1,2,0:0:0:0:
135,255,162276,1,8,0:0:0:0:
164,255,162349,1,8,0:0:0:0:
193,255,162422,1,8,0:0:0:0:
222,255,162495,1,8,0:0:0:0:
251,255,162568,1,8,0:0:0:0:
272,256,162641,6,0,B|290:212|290:212|275:184|275:184|315:116|278:36,1,207.999990478516,2|0,0:0|0:0,0:0:0:0:
224,333,163081,2,0,P|277:344|324:329,1,103.999995239258,8|0,0:0|0:0,0:0:0:0:
86,298,163373,1,0,0:0:0:0:
272,256,163520,1,0,0:0:0:0:
61,197,163666,1,8,0:0:0:0:
300,154,163812,6,0,B|342:143|342:143|382:159|382:159|427:135|473:171|521:149,1,207.999990478516,2|0,0:0|0:0,0:0:0:0:
198,142,164251,2,0,P|212:193|247:235,1,103.999995239258,8|0,0:0|0:0,0:0:0:0:
435,83,164544,1,0,0:0:0:0:
311,286,164690,1,0,0:0:0:0:
234,57,164837,1,8,0:0:0:0:
336,208,164983,6,0,B|308:201|254:223|254:223|210:198|210:198|181:218|139:206,1,207.999990478516,2|0,0:0|0:0,0:0:0:0:
426,265,165422,2,0,P|434:212|420:149,1,103.999995239258,8|0,0:0|0:0,0:0:0:0:
180,318,165715,1,0,0:0:0:0:
313,127,165861,1,0,0:0:0:0:
335,366,166007,1,8,0:0:0:0:
208,208,166154,6,0,B|164:197|164:197|119:216|69:195|69:195|40:210|4:193,1,207.999990478516,2|0,0:0|0:0,0:0:0:0:
276,266,166593,2,0,P|292:203|274:148,1,103.999995239258,8|0,0:0|0:0,0:0:0:0:
19,275,166885,1,0,0:0:0:0:
126,35,167032,1,0,0:0:0:0:
181,287,167178,1,8,0:0:0:0:
312,135,167324,6,0,B|362:120|362:120|403:134|403:134|438:114|482:144|523:121,1,207.999990478516
415,255,167763,1,8,0:0:0:0:
415,255,167910,1,0,0:0:0:0:
208,176,168056,2,0,P|158:183|104:172,1,103.999995239258
159,53,168349,1,8,0:0:0:0:
208,265,168495,6,0,B|187:278|137:257|137:257|101:279|62:261|62:261|19:268|-4:255,1,207.999990478516
92,129,168934,1,8,0:0:0:0:
92,129,169081,1,0,0:0:0:0:
304,240,169227,2,0,P|387:247|431:234,1,103.999995239258
191,41,169520,2,0,P|136:34|64:48,1,103.999995239258,8|0,0:0|0:0,0:0:0:0:
177,271,169812,5,8,0:0:0:0:
271,74,169959,1,0,0:0:0:0:
130,258,170105,5,8,0:0:0:0:
306,98,170251,1,0,0:0:0:0:
103,236,170398,5,8,0:0:0:0:
328,129,170544,1,0,0:0:0:0:
83,206,170690,5,8,0:0:0:0:
336,167,170837,1,0,0:0:0:0:
47,168,170983,5,2,0:0:0:0:
51,121,171056,1,8,0:0:0:0:
71,83,171129,1,8,0:0:0:0:
103,49,171202,1,8,0:0:0:0:
148,36,171276,1,8,0:0:0:0:
196,40,171349,1,8,0:0:0:0:
240,54,171422,1,8,0:0:0:0:
269,87,171495,1,8,0:0:0:0:
274,132,171568,2,0,L|257:181,1,51.999997619629
135,172,171715,2,0,L|159:107,1,51.999997619629
170,263,171861,2,0,L|129:320,1,51.999997619629
275,216,172007,6,0,B|308:224|329:194|329:194|421:234|470:148,1,207.999990478516,4|0,0:0|0:0,0:0:0:0:
512,87,172446,1,8,0:0:0:0:
338,313,172593,1,0,0:0:0:0:
433,58,172739,1,0,0:0:0:0:
478,338,172885,1,0,0:0:0:0:
308,125,173032,1,8,0:0:0:0:
278,113,173105,1,0,0:0:0:0:
243,102,173178,2,0,P|194:95|126:110,1,103.999995239258
409,191,173471,2,0,P|425:125|423:79,1,103.999995239258,0|8,0:0|0:0,0:0:0:0:
328,268,173763,2,0,P|383:291|432:294,1,103.999995239258
160,185,174056,6,0,B|119:171|119:171|76:183|33:161,1,103.999995239258,0|8,0:0|0:0,0:0:0:0:
252,238,174349,2,0,B|279:176|248:133|248:133|271:83|271:83|257:42|265:11,1,207.999990478516
78,239,174788,1,8,0:0:0:0:
78,239,174934,1,0,0:0:0:0:
345,159,175081,2,0,P|407:146|480:148,1,103.999995239258
391,323,175373,1,8,0:0:0:0:
253,213,175520,2,0,B|228:166|228:166|240:122|240:122|216:56|245:17,1,207.999990478516
330,277,175959,2,0,P|277:298|212:302,1,103.999995239258,8|0,0:0|0:0,0:0:0:0:
64,128,176251,6,0,P|44:61|47:23,1,103.999995239258
170,195,176544,2,0,P|128:239|76:262,1,103.999995239258,8|0,0:0|0:0,0:0:0:0:
288,189,176837,2,0,L|411:176,1,103.999995239258
507,145,177129,1,8,0:0:0:0:
328,271,177276,2,0,B|268:299|268:299|229:280|229:280|179:295|123:268,1,207.999990478516
291,192,177715,1,8,0:0:0:0:
291,192,177861,1,0,0:0:0:0:
87,143,178007,2,0,P|45:136|-15:105,2,103.999995239258,0|0|8,0:0|0:0|0:0,0:0:0:0:
336,144,178446,2,0,B|387:144|425:108|425:108|469:108|469:108|510:57,1,207.999990478516
342,251,178885,5,8,0:0:0:0:
342,251,179032,1,0,0:0:0:0:
217,120,179178,2,0,P|190:60|197:10,1,103.999995239258
108,219,179471,2,0,P|61:257|14:276,1,103.999995239258,8|0,0:0|0:0,0:0:0:0:
244,314,179763,1,2,0:0:0:0:
286,330,179837,1,8,0:0:0:0:
331,333,179910,1,8,0:0:0:0:
370,334,179983,1,8,0:0:0:0:
410,316,180056,1,8,0:0:0:0:
443,286,180129,1,8,0:0:0:0:
472,246,180202,2,0,B|494:195|494:195|473:140|473:140|490:105|486:48,2,207.999990478516,2|0|0,0:0|0:0|0:0,0:0:0:0:
219,283,180934,5,2,0:0:0:0:
170,279,181007,1,8,0:0:0:0:
133,254,181081,1,8,0:0:0:0:
107,215,181154,1,8,0:0:0:0:
122,172,181227,1,8,0:0:0:0:
153,146,181300,1,8,0:0:0:0:
197,137,181373,2,0,B|257:121|257:121|300:137|300:137|350:122|406:149,1,207.999990478516,4|0,0:0|0:0,0:0:0:0:
172,63,181812,1,8,0:0:0:0:
419,219,181959,1,0,0:0:0:0:
282,11,182105,1,0,0:0:0:0:
220,233,182251,1,0,0:0:0:0:
452,117,182398,1,8,0:0:0:0:
326,285,182544,2,0,P|282:314|212:321,1,103.999995239258
128,144,182837,2,0,P|121:86|145:43,1,103.999995239258,0|8,0:0|0:0,0:0:0:0:
144,272,183129,2,0,P|75:271|40:249,1,103.999995239258
248,168,183422,2,0,P|289:222|305:272,1,103.999995239258,0|8,0:0|0:0,0:0:0:0:
168,89,183715,5,0,0:0:0:0:
356,109,183861,2,0,L|475:101,1,103.999995239258
248,168,184154,2,0,P|244:102|252:43,1,103.999995239258,8|0,0:0|0:0,0:0:0:0:
206,249,184446,2,0,B|166:264|166:264|108:240|108:240|67:261|-3:239,1,207.999990478516,8|0,0:0|0:0,0:0:0:0:
311,114,184885,2,0,B|353:104|353:104|403:123|403:123|444:102|514:124,1,207.999990478516,8|0,0:0|0:0,0:0:0:0:
386,332,185324,1,8,0:0:0:0:
386,332,185471,1,0,0:0:0:0:
257,190,185617,6,0,P|248:124|252:86,1,103.999995239258
304,304,185910,2,0,P|241:316|193:307,1,103.999995239258,8|0,0:0|0:0,0:0:0:0:
387,168,186202,2,0,P|438:157|501:168,1,103.999995239258
398,312,186495,1,8,0:0:0:0:
274,198,186641,2,0,B|261:154|261:154|277:115|277:115|250:80|275:0,1,207.999990478516
239,296,187081,2,0,P|294:301|342:296,1,103.999995239258,8|0,0:0|0:0,0:0:0:0:
165,155,187373,2,0,P|110:148|35:154,1,103.999995239258
101,262,187666,1,8,0:0:0:0:
218,92,187812,2,0,B|184:84|146:65|146:65|96:77|96:77|55:69|-3:84,1,207.999990478516
292,157,188251,2,0,P|315:83|311:43,1,103.999995239258,8|0,0:0|0:0,0:0:0:0:
261,341,188544,5,8,0:0:0:0:
292,157,188690,1,0,0:0:0:0:
224,320,188837,5,8,0:0:0:0:
199,129,188983,1,0,0:0:0:0:
178,307,189129,5,8,0:0:0:0:
109,118,189276,1,0,0:0:0:0:
136,312,189422,5,8,0:0:0:0:
2,131,189568,1,0,0:0:0:0:
234,361,189715,5,2,0:0:0:0:
276,373,189788,1,8,0:0:0:0:
310,379,189861,1,8,0:0:0:0:
357,383,189934,1,8,0:0:0:0:
398,377,190007,1,8,0:0:0:0:
438,362,190081,1,8,0:0:0:0:
469,331,190154,1,8,0:0:0:0:
493,290,190227,1,8,0:0:0:0:
503,248,190300,2,0,P|500:222|485:191,1,51.999997619629
359,289,190446,2,0,P|368:325|378:346,1,51.999997619629
312,113,190593,5,2,0:0:0:0:
218,239,190739,2,0,B|198:251|171:221|134:243|134:243|85:237|40:260|40:260|4:236|-27:247,1,223.999993164063,6|0,0:0|0:0,0:0:0:0:
262,175,191178,1,8,0:0:0:0:
30,333,191324,1,0,0:0:0:0:
113,75,191471,1,0,0:0:0:0:
223,319,191617,1,0,0:0:0:0:
0,184,191763,1,8,0:0:0:0:
301,241,191910,2,0,P|371:243|431:225,1,111.999996582031
171,183,192202,2,0,P|161:250|167:299,1,111.999996582031,0|8,0:0|0:0,0:0:0:0:
241,80,192495,2,0,P|180:62|121:65,1,111.999996582031
365,156,192788,6,0,P|380:107|379:38,1,111.999996582031,0|8,0:0|0:0,0:0:0:0:
206,239,193081,2,0,B|256:263|293:250|293:250|330:295|386:276|386:276|446:286,1,223.999993164063
202,162,193520,1,8,0:0:0:0:
336,368,193666,1,0,0:0:0:0:
433,101,193812,2,0,L|460:-9,2,111.999996582031,0|0|8,0:0|0:0|0:0,0:0:0:0:
304,208,194251,2,0,B|274:203|274:203|218:222|181:177|181:177|144:190|94:166,1,223.999993164063
250,121,194690,2,0,L|364:113,1,111.999996582031,8|0,0:0|0:0,0:0:0:0:
171,266,194983,6,0,P|106:279|57:265,1,111.999996582031
299,211,195276,2,0,P|308:270|299:328,1,111.999996582031,8|0,0:0|0:0,0:0:0:0:
128,128,195568,2,0,L|107:18,2,111.999996582031,0|0|8,0:0|0:0|0:0,0:0:0:0:
288,240,196007,2,8,B|344:254|344:254|387:238|387:238|460:264|522:220,1,223.999993164063,0|0,0:0|0:0,0:0:0:0:
235,182,196446,1,8,0:0:0:0:
413,372,196593,1,0,0:0:0:0:
456,111,196739,2,0,L|472:-9,2,111.999996582031,0|0|8,0:0|0:0|0:0,0:0:0:0:
240,256,197178,2,0,B|178:269|178:269|128:247|128:247|63:272|21:249,1,223.999993164063
341,207,197617,6,0,P|355:270|343:319,1,111.999996582031,8|0,0:0|0:0,0:0:0:0:
256,120,197910,2,0,P|313:101|374:99,1,111.999996582031
161,203,198202,2,0,P|149:145|148:63,1,111.999996582031,8|0,0:0|0:0,0:0:0:0:
225,292,198495,2,0,P|167:307|99:306,2,111.999996582031,0|0|8,0:0|0:0|0:0,0:0:0:0:
432,208,198934,2,0,B|453:166|453:166|431:134|431:134|464:83|427:2,1,223.999993164063
353,285,199373,2,0,P|413:311|481:302,1,111.999996582031,8|0,0:0|0:0,0:0:0:0:
184,339,199666,5,2,0:0:0:0:
150,344,199739,1,8,0:0:0:0:
116,347,199812,1,8,0:0:0:0:
87,350,199885,1,8,0:0:0:0:
56,354,199959,2,0,L|-5:359,1,55.9999982910157
271,255,200105,6,0,B|299:247|327:263|327:263|373:241|425:265|425:265|478:252|501:221,1,223.999993164063,4|0,0:0|0:0,0:0:0:0:
245,184,200544,1,8,0:0:0:0:
457,331,200690,1,0,0:0:0:0:
430,106,200837,1,0,0:0:0:0:
284,321,200983,1,0,0:0:0:0:
502,215,201129,1,8,0:0:0:0:
245,184,201276,2,0,L|114:175,1,111.999996582031
329,143,201568,2,0,P|334:213|314:254,1,111.999996582031,0|8,0:0|0:0,0:0:0:0:
254,78,201861,2,0,P|314:57|371:53,1,111.999996582031
182,151,202154,2,0,P|124:166|51:161,1,111.999996582031,0|8,0:0|0:0,0:0:0:0:
224,240,202446,2,0,B|278:252|278:252|327:238|391:257|391:257|473:247,1,223.999993164063
448,256,202885,1,8,0:0:0:0:
448,256,203032,1,0,0:0:0:0:
216,322,203178,2,0,B|188:332|147:337|147:337|116:318|116:318|45:336|-8:304,1,223.999993164063
169,241,203617,2,0,B|191:187|191:187|187:150|187:150|201:94|184:20,1,223.999993164063,8|0,0:0|0:0,0:0:0:0:
91,283,204056,2,0,P|141:315|222:306,1,111.999996582031,8|0,0:0|0:0,0:0:0:0:
350,159,204349,6,0,P|372:90|364:33,1,111.999996582031
264,211,204641,2,0,P|318:252|370:267,1,111.999996582031,8|0,0:0|0:0,0:0:0:0:
220,142,204934,2,0,B|190:134|161:140|161:140|107:127|107:127|63:143|-13:132,1,223.999993164063,0|8,0:0|0:0,0:0:0:0:
249,69,205373,2,0,B|293:61|293:61|352:76|352:76|405:63|480:79,1,223.999993164063
352,0,205812,1,8,0:0:0:0:
352,0,205959,1,0,0:0:0:0:
287,141,206105,2,0,B|275:196|275:196|296:256|296:256|273:300|277:361,1,223.999993164063,0|8,0:0|0:0,0:0:0:0:
124,231,206544,2,0,B|105:189|105:189|121:153|121:153|97:102|122:18,1,223.999993164063
205,270,206983,2,0,P|154:306|87:314,1,111.999996582031,8|0,0:0|0:0,0:0:0:0:
422,125,207276,5,8,0:0:0:0:
279,357,207422,1,0,0:0:0:0:
398,132,207568,5,8,0:0:0:0:
195,354,207715,1,0,0:0:0:0:
367,139,207861,5,8,0:0:0:0:
110,340,208007,1,0,0:0:0:0:
340,147,208154,5,8,0:0:0:0:
38,307,208300,1,0,0:0:0:0:
301,155,208446,5,2,0:0:0:0:
322,118,208520,1,8,0:0:0:0:
316,76,208593,1,8,0:0:0:0:
289,44,208666,1,8,0:0:0:0:
247,33,208739,1,8,0:0:0:0:
198,41,208812,1,8,0:0:0:0:
143,52,208885,1,8,0:0:0:0:
93,51,208959,1,8,0:0:0:0:
48,40,209032,1,8,0:0:0:0:
289,225,209470,6,0,B|392:272|496:222,1,191.999994140625,4|0,0:0|0:0,0:0:0:0:
213,169,209910,2,0,P|199:225|210:289,1,95.9999970703126,8|0,0:0|0:0,0:0:0:0:
359,146,210202,1,0,0:0:0:0:
119,231,210349,1,0,0:0:0:0:
340,319,210495,1,8,0:0:0:0:
177,198,210641,2,0,B|123:96|204:18,1,191.999994140625,4|0,0:0|0:0,0:0:0:0:
246,256,211081,2,0,P|197:278|137:281,1,95.9999970703126,8|0,0:0|0:0,0:0:0:0:
299,150,211373,1,0,0:0:0:0:
176,353,211520,1,0,0:0:0:0:
53,173,211666,1,8,0:0:0:0:
296,228,211812,2,0,B|330:227|354:239|354:239|398:213|501:230,1,191.999994140625,4|0,0:0|0:0,0:0:0:0:
192,288,212251,6,0,B|156:292|128:273|128:273|81:286|81:286|45:263|-16:282,2,191.999994140625,8|0|8,0:0|0:0|0:0,0:0:0:0:
256,192,213129,1,0,0:0:0:0:
320,96,213422,2,0,B|356:92|384:110|384:110|430:98|430:98|467:121|528:102,2,191.999994140625,8|0|8,0:3|0:3|0:3,0:3:0:0:
112,197,214154,6,0,B|54:97|134:16,1,191.999994140625,4|0,0:0|0:0,0:0:0:0:
183,254,214593,2,0,P|133:282|73:291,1,95.9999970703126,8|0,0:0|0:0,0:0:0:0:
230,169,214885,1,0,0:0:0:0:
135,368,215032,1,0,0:0:0:0:
24,211,215178,1,8,0:0:0:0:
274,271,215324,2,0,B|395:302|446:215,1,191.999994140625,4|0,0:0|0:0,0:0:0:0:
233,193,215763,2,0,L|123:184,1,95.9999970703126,8|0,0:0|0:0,0:0:0:0:
410,338,216056,1,0,0:0:0:0:
286,130,216202,1,0,0:0:0:0:
206,373,216349,1,8,0:0:0:0:
438,214,216495,2,0,P|476:171|374:166,1,191.999994140625,4|0,0:0|0:0,0:0:0:0:
179,294,216934,6,0,B|151:318|121:306|121:306|100:284|68:281|68:281|26:292|-19:272,2,191.999994140625,8|0|8,0:0|0:0|0:0,0:0:0:0:
256,192,217812,1,0,0:0:0:0:
320,48,218105,2,0,B|349:26|384:32|384:32|400:60|432:63|432:63|474:52|519:72,2,191.999994140625,8|0|8,0:0|0:0|0:0,0:0:0:0:
191,211,218837,6,0,B|102:288|1:192,1,191.999994140625,4|0,0:0|0:0,0:0:0:0:
325,148,219276,2,0,L|441:137,1,95.9999970703126,8|0,0:0|0:0,0:0:0:0:
257,350,219568,1,0,0:0:0:0:
257,350,219715,1,0,0:0:0:0:
144,149,219861,2,0,L|34:132,1,95.9999970703126,8|0,0:0|0:0,0:0:0:0:
258,365,220154,5,0,0:0:0:0:
258,365,220300,1,0,0:0:0:0:
385,115,220446,2,0,L|509:98,1,95.9999970703126,8|0,0:0|0:0,0:0:0:0:
96,98,220739,2,0,L|-9:81,2,95.9999970703126
312,190,221178,2,0,B|398:258|489:190,1,191.999994140625,4|0,0:0|0:0,0:0:0:0:
184,312,221617,6,0,B|158:337|158:337|95:310|69:363|69:363|-20:346,2,191.999994140625,8|0|8,0:0|0:0|0:0,0:0:0:0:
256,192,222495,1,0,0:0:0:0:
328,312,222788,2,0,B|354:337|354:337|417:310|443:363|443:363|532:346,2,191.999994140625,8|0|8,0:0|0:0|0:0,0:0:0:0:
204,127,223520,6,0,P|145:82|23:101,1,191.999994140625,4|0,0:0|0:0,0:0:0:0:
289,269,223959,2,0,P|336:245|378:205,1,95.9999970703126,8|0,0:0|0:0,0:0:0:0:
351,57,224251,2,0,P|306:27|251:11,1,95.9999970703126
119,118,224544,2,0,P|120:170|138:225,1,95.9999970703126,8|0,0:0|0:0,0:0:0:0:
256,352,224837,1,0,0:0:0:0:
256,352,224983,1,0,0:0:0:0:
360,170,225129,2,0,L|470:156,1,95.9999970703126,8|0,0:0|0:0,0:0:0:0:
256,371,225422,1,0,0:0:0:0:
256,371,225568,1,0,0:0:0:0:
129,163,225715,2,0,L|31:151,1,95.9999970703126,8|0,0:0|0:0,0:0:0:0:
320,176,226154,5,2,0:0:0:0:
79,299,226300,1,2,0:0:0:0:
192,176,226593,5,2,0:0:0:0:
433,299,226739,1,2,0:0:0:0:
256,48,227032,5,8,0:0:0:0:
164,191,227324,5,2,0:0:0:0:
189,214,227398,1,2,0:0:0:0:
227,225,227471,1,2,0:0:0:0:
376,198,227617,1,0,0:0:0:0:
67,161,227763,5,8,0:0:0:0:
323,358,227910,1,8,0:0:0:0:
198,45,228056,1,8,0:0:0:0:
118,357,228202,1,4,0:0:0:0:
256,192,228349,12,0,234202,0:0:0:0:
