osu file format v14

[General]
AudioFilename: 08. Foreground Eclipse Storytellers.mp3
AudioLeadIn: 0
PreviewTime: 74485
Countdown: 0
SampleSet: Soft
StackLeniency: 0.7
Mode: 0
LetterboxInBreaks: 0
WidescreenStoryboard: 0

[Editor]
DistanceSpacing: 0.8
BeatDivisor: 4
GridSize: 4
TimelineZoom: 1.300001

[Metadata]
Title:Storytellers
TitleUnicode:Storytellers
Artist:Foreground Eclipse
ArtistUnicode:Foreground Eclipse
Creator:Luna-
Version:Insane
Source:
Tags:
BeatmapID:804813
BeatmapSetID:330741

[Difficulty]
HPDrainRate:6
CircleSize:4.2
OverallDifficulty:8
ApproachRate:9
SliderMultiplier:1.8
SliderTickRate:1

[Events]
//Background and Video events
0,0,"40581704_p2.jpg",0,0
//Break Periods
//Storyboard Layer 0 (Background)
//Storyboard Layer 1 (Fail)
//Storyboard Layer 2 (Pass)
//Storyboard Layer 3 (Foreground)
//Storyboard Sound Samples

[TimingPoints]
1043,327.868852459016,4,2,1,50,1,0
1043,-125,4,2,1,50,0,0
10223,-100,4,2,1,90,0,0
32518,-125,4,2,1,80,0,0
74485,-100,4,2,1,90,0,1
95469,-100,4,2,1,90,0,0
116452,-125,4,2,1,80,0,0
158420,-100,4,2,1,90,0,1
179321,-100,4,2,1,90,0,0
179403,-100,4,2,1,90,0,1
200387,-111.111111111111,4,2,1,80,0,0
225305,-111.111111111111,4,2,1,60,0,0
226616,-111.111111111111,4,2,1,50,0,0
227928,-111.111111111111,4,2,1,40,0,0
229239,-111.111111111111,4,2,1,30,0,0
230551,-111.111111111111,4,2,1,20,0,0
231862,-111.111111111111,4,2,1,5,0,0

[Colours]
Combo1 : 203,153,201
Combo2 : 119,158,203
Combo3 : 255,209,220
Combo4 : 119,190,119

[HitObjects]
100,120,1043,6,0,P|136:124|176:116,1,72,2|0,0:1|0:0,0:0:0:0:
264,36,1370,2,0,P|300:38|338:53,1,72
432,124,1698,1,0,0:0:0:0:
432,124,1862,2,0,P|436:196|432:220,1,72
300,252,2190,1,0,0:0:0:0:
212,220,2354,2,0,P|148:204|64:212,1,144
308,328,2846,2,0,P|378:315|441:281,1,144
228,120,3338,2,0,L|148:112,1,72
328,72,3665,6,0,P|368:72|404:84,1,72,2|0,0:1|0:0,0:0:0:0:
272,184,3993,2,0,P|237:193|201:193,1,72
380,152,4321,1,0,0:0:0:0:
380,152,4485,2,0,P|416:168|443:194,1,72
336,340,4813,1,0,0:0:0:0:
264,280,4977,2,0,P|324:248|400:272,1,144
208,352,5469,2,0,L|52:340,1,144
200,180,5961,2,0,L|292:176,1,72
439,189,6288,6,0,P|455:153|460:120,1,72,2|0,0:1|0:0,0:0:0:0:
348,112,6616,2,0,P|347:72|337:40,1,72
224,64,6944,1,0,0:0:0:0:
224,64,7108,2,0,L|148:68,1,72
48,188,7436,1,0,0:0:0:0:
104,264,7600,2,0,P|200:272|252:264,1,144
408,120,8092,2,0,P|312:112|260:120,1,144
48,188,8583,2,0,P|32:128|32:108,1,72
104,264,8911,6,0,P|99:299|87:333,1,72,2|0,0:1|0:0,0:0:0:0:
188,192,9239,2,0,P|199:226|202:261,1,72
332,316,9567,1,0,0:0:0:0:
332,316,9731,2,0,L|404:312,1,72
484,240,10059,1,0,0:0:0:0:
332,144,10223,6,0,P|264:132|220:136,1,90,8|2,0:0|0:0,0:0:0:0:
168,116,10469,1,2,0:0:0:0:
168,116,10551,2,0,L|64:124,1,90,8|2,0:0|0:0,0:0:0:0:
32,184,10797,1,2,0:0:0:0:
32,184,10879,2,0,P|24:232|32:284,1,90,8|2,0:0|0:0,0:0:0:0:
92,316,11124,1,2,0:0:0:0:
92,316,11206,2,0,P|144:321|224:304,1,135
288,236,11534,6,0,P|336:232|396:252,1,90,2|0,0:0|0:0,0:0:0:0:
492,348,11862,2,0,P|432:360|364:352,1,90,8|0,0:0|0:0,0:0:0:0:
212,228,12190,1,2,0:0:0:0:
296,356,12354,1,2,0:0:0:0:
348,184,12518,1,8,0:0:0:0:
216,320,12682,2,0,P|156:316|48:260,1,180,2|2,0:0|0:0,0:0:0:0:
296,220,13174,1,8,0:0:0:0:
296,220,13338,2,0,P|356:216|464:160,1,180,2|2,0:0|0:0,0:0:0:0:
248,112,13829,1,8,0:0:0:0:
216,320,13993,1,2,0:0:0:0:
176,200,14157,6,0,P|96:176|-8:208,2,180,6|8|2,0:0|0:0|0:0,0:0:0:0:
284,284,14977,1,2,0:0:0:0:
124,316,15141,1,8,0:0:0:0:
168,116,15305,2,0,P|216:92|360:84,1,180,2|2,0:0|0:0,0:0:0:0:
116,232,15797,1,8,0:0:0:0:
116,232,15961,2,0,P|52:168|52:68,1,180,2|2,0:0|0:0,0:0:0:0:
224,180,16452,1,8,0:0:0:0:
160,344,16616,1,2,0:0:0:0:
28,244,16780,6,0,P|32:200|48:156,1,90,6|0,0:0|0:0,0:0:0:0:
252,256,17108,2,0,P|267:298|271:342,1,90,8|0,0:0|0:0,0:0:0:0:
116,232,17436,1,2,0:0:0:0:
288,176,17600,1,2,0:0:0:0:
192,312,17764,1,8,0:0:0:0:
212,120,17928,2,0,P|288:84|372:132,1,180,2|2,0:0|0:0,0:0:0:0:
192,312,18420,1,8,0:0:0:0:
116,232,18583,2,0,P|104:164|120:56,1,180,2|2,0:0|0:0,0:0:0:0:
308,32,19075,1,8,0:0:0:0:
248,204,19239,1,2,0:0:0:0:
192,88,19403,6,0,L|8:100,2,180,6|8|2,0:0|0:0|0:0,0:0:0:0:
368,148,20223,1,2,0:0:0:0:
308,32,20387,1,8,0:0:0:0:
248,204,20551,2,0,P|248:276|320:356,1,180,2|2,0:0|0:0,0:0:0:0:
368,148,21042,1,8,0:0:0:0:
272,104,21206,2,0,P|200:104|120:176,1,180,2|2,0:0|0:0,0:0:0:0:
200,336,21698,1,8,0:0:0:0:
324,228,21862,1,2,0:0:0:0:
136,252,22026,6,0,P|80:268|36:268,1,90,6|0,0:0|0:0,0:0:0:0:
144,120,22354,2,0,P|188:123|231:137,1,90,8|0,0:0|0:0,0:0:0:0:
296,292,22682,1,2,0:0:0:0:
136,252,22846,1,2,0:0:0:0:
256,136,23010,1,8,0:0:0:0:
176,328,23174,2,0,P|92:324|52:240,1,180,2|2,0:0|0:0,0:0:0:0:
256,136,23665,1,8,0:0:0:0:
356,196,23829,2,0,P|360:252|344:384,1,180,2|0,0:0|0:0,0:0:0:0:
224,220,24321,1,8,0:0:0:0:
232,40,24485,1,2,0:0:0:0:
328,128,24649,6,0,P|384:136|484:72,2,180,6|8|2,0:0|0:0|0:0,0:0:0:0:
148,108,25469,1,2,0:0:0:0:
224,220,25633,1,8,0:0:0:0:
232,40,25797,2,0,P|124:20|56:44,1,180,2|2,0:0|0:0,0:0:0:0:
224,220,26288,1,8,0:0:0:0:
320,160,26452,2,0,P|424:152|484:212,1,180,2|2,0:0|0:0,0:0:0:0:
224,220,26944,1,8,0:0:0:0:
232,40,27108,1,2,0:0:0:0:
124,124,27272,6,0,P|64:124|12:136,1,90,6|0,0:0|0:0,0:0:0:0:
124,288,27600,2,0,P|168:294|213:293,1,90,8|0,0:0|0:0,0:0:0:0:
216,128,27928,1,2,0:0:0:0:
80,216,28092,1,2,0:0:0:0:
224,296,28256,1,8,0:0:0:0:
296,204,28420,2,0,P|348:188|472:216,1,180,2|2,0:0|0:0,0:0:0:0:
224,296,28911,1,8,0:0:0:0:
216,128,29075,2,0,P|256:91|380:64,1,180,2|2,0:0|0:0,0:0:0:0:
220,208,29567,1,8,0:0:0:0:
64,116,29731,1,2,0:0:0:0:
184,68,29895,6,0,P|204:132|180:248,2,180,6|8|2,0:0|0:0|0:0,0:0:0:0:
88,220,30715,1,2,0:0:0:0:
272,200,30879,1,8,0:0:0:0:
112,88,31042,2,0,P|28:112|12:212,1,180,2|2,0:0|0:0,0:0:0:0:
136,320,31534,1,8,0:0:0:0:
272,200,31698,1,2,0:0:0:0:
88,220,31862,1,8,0:0:0:0:
248,344,32026,1,2,0:0:0:0:
232,112,32190,1,8,0:0:0:0:
164,240,32354,1,2,0:0:0:0:
336,144,32518,6,0,P|384:136|488:160,2,144,4|2|8,0:0|0:0|0:0,0:0:0:0:
164,240,33338,1,0,0:0:0:0:
232,112,33502,1,2,0:0:0:0:
284,288,33665,2,0,P|364:272|408:220,1,144
236,192,34157,1,2,0:0:0:0:
180,344,34321,1,0,0:0:0:0:
124,236,34485,2,0,P|53:246|3:296,1,144,8|2,0:0|0:0,0:0:0:0:
180,344,34977,1,0,0:0:0:0:
236,192,35141,6,0,P|248:144|248:96,1,72,2|0,0:0|0:0,0:0:0:0:
92,48,35469,2,0,P|95:83|105:118,1,72,2|0,0:0|0:0,0:0:0:0:
244,40,35797,2,0,P|312:28|408:48,1,144,8|2,0:0|0:0,0:0:0:0:
228,136,36288,2,0,P|172:104|152:8,1,144
328,108,36780,1,2,0:0:0:0:
384,200,36944,1,0,0:0:0:0:
296,264,37108,2,0,L|288:356,1,72,8|0,0:0|0:0,0:0:0:0:
196,196,37436,2,0,L|188:104,1,72,2|0,0:0|0:0,0:0:0:0:
140,296,37764,6,0,P|88:316|-4:288,2,144,2|2|8,0:0|0:0|0:0,0:0:0:0:
296,264,38583,1,0,0:0:0:0:
196,196,38747,1,2,0:0:0:0:
232,352,38911,2,0,P|300:372|384:328,1,144
456,224,39403,1,2,0:0:0:0:
280,208,39567,1,0,0:0:0:0:
372,268,39731,2,0,L|364:120,1,144,8|2,0:0|0:0,0:0:0:0:
272,32,40223,1,0,0:0:0:0:
108,168,40387,6,0,P|172:180|204:176,1,72
272,116,40715,1,2,0:0:0:0:
456,224,40879,2,0,P|408:272|320:272,1,144,2|0,0:1|0:0,0:0:0:0:
178,179,41370,1,0,0:0:0:0:
256,324,41534,1,0,0:0:0:0:
344,180,41698,2,0,P|368:144|376:32,1,144,2|2,0:0|0:0,0:0:0:0:
178,179,42190,1,2,0:0:0:0:
300,272,42354,1,8,0:0:0:0:
300,96,42518,1,2,0:0:0:0:
208,296,42682,2,0,P|160:312|124:312,1,72,8|0,0:0|0:0,0:0:0:0:
260,188,43010,6,0,P|328:184|388:244,2,144,6|8|2,0:0|0:0|0:0,0:0:0:0:
120,236,43829,1,2,0:0:0:0:
300,272,43993,1,8,0:0:0:0:
236,104,44157,2,0,L|68:116,1,144,2|2,0:0|0:0,0:0:0:0:
260,188,44649,1,8,0:0:0:0:
296,20,44813,1,2,0:0:0:0:
368,96,44977,2,0,L|448:88,1,72,2|2,0:0|0:0,0:0:0:0:
260,188,45305,2,0,L|180:180,1,72,8|2,0:0|0:0,0:0:0:0:
380,236,45633,6,0,P|392:284|380:328,1,72,2|0,0:0|0:0,0:0:0:0:
260,188,45961,2,0,P|257:152|268:118,1,72,8|0,0:0|0:0,0:0:0:0:
376,24,46288,1,2,0:0:0:0:
200,88,46452,1,2,0:0:0:0:
348,168,46616,1,8,0:0:0:0:
260,16,46780,2,0,P|192:12|92:24,1,144,2|2,0:0|0:0,0:0:0:0:
52,172,47272,1,8,0:0:0:0:
248,124,47436,1,2,0:0:0:0:
136,96,47600,2,0,L|152:180,1,72,2|2,0:0|0:0,0:0:0:0:
272,280,47928,2,0,L|288:196,1,72,8|2,0:0|0:0,0:0:0:0:
376,68,48256,6,0,P|428:56|512:84,2,144,6|8|2,0:0|0:0|0:0,0:0:0:0:
248,124,49075,1,2,0:0:0:0:
320,4,49239,1,8,0:0:0:0:
360,180,49403,2,0,P|348:260|292:324,1,144,2|2,0:0|0:0,0:0:0:0:
164,304,49895,1,8,0:0:0:0:
184,132,50059,1,2,0:0:0:0:
100,212,50223,2,0,L|28:216,1,72,2|2,0:0|0:0,0:0:0:0:
164,304,50551,2,0,L|236:308,1,72,8|2,0:0|0:0,0:0:0:0:
268,140,50879,6,0,P|272:88|264:48,1,72,2|0,0:0|0:0,0:0:0:0:
180,204,51206,1,8,0:0:0:0:
280,248,51370,2,0,P|356:260|432:232,1,144,2|2,0:1|0:0,0:0:0:0:
492,124,51862,1,8,0:0:0:0:
392,32,52026,1,2,0:0:0:0:
304,136,52190,2,0,L|148:124,1,144,2|8,0:1|0:0,0:0:0:0:
284,32,52682,1,2,0:0:0:0:
392,128,52846,2,0,P|380:184|356:212,1,72,2|2,0:0|0:0,0:0:0:0:
252,280,53174,1,8,0:0:0:0:
216,277,53256,1,8,0:0:0:0:
180,274,53338,1,8,0:3:0:0:
144,271,53420,1,8,0:3:0:0:
108,268,53502,6,0,P|68:204|72:120,1,144,6|8,0:0|0:0,0:0:0:0:
180,48,53993,1,0,0:0:0:0:
272,160,54157,1,2,0:0:0:0:
272,160,54321,2,0,P|336:160|404:84,1,144,2|8,0:0|0:0,0:0:0:0:
260,64,54813,1,2,0:0:0:0:
176,168,54977,1,2,0:0:0:0:
288,244,55141,2,0,L|436:228,1,144,8|2,0:0|0:0,0:0:0:0:
260,64,55633,1,2,0:0:0:0:
212,208,55797,1,8,0:0:0:0:
316,144,55961,1,2,0:0:0:0:
144,124,56124,6,0,P|80:120|4:160,1,144,6|8,0:0|0:0,0:0:0:0:
168,272,56616,1,0,0:0:0:0:
236,104,56780,1,2,0:0:0:0:
236,104,56944,2,0,L|388:108,1,144,2|8,0:0|0:0,0:0:0:0:
440,244,57436,1,2,0:0:0:0:
328,344,57600,1,2,0:0:0:0:
372,200,57764,2,0,P|428:164|508:200,1,144,8|2,0:0|0:0,0:0:0:0:
336,284,58256,1,2,0:0:0:0:
336,120,58420,1,8,0:0:0:0:
440,244,58583,1,2,0:0:0:0:
260,192,58747,6,0,P|176:184|88:192,1,144,6|8,0:0|0:0,0:0:0:0:
240,300,59239,1,0,0:0:0:0:
372,200,59403,1,2,0:0:0:0:
372,200,59567,2,0,P|380:124|352:52,1,144,2|8,0:0|0:0,0:0:0:0:
260,192,60059,1,2,0:0:0:0:
324,340,60223,1,2,0:0:0:0:
448,236,60387,2,0,P|487:170|492:93,1,144,8|2,0:0|0:0,0:0:0:0:
324,52,60879,1,2,0:0:0:0:
380,168,61042,1,8,0:0:0:0:
412,20,61206,1,2,0:0:0:0:
284,148,61370,6,0,P|208:156|124:140,1,144,6|8,0:0|0:0,0:0:0:0:
260,28,61862,1,0,0:0:0:0:
408,104,62026,1,2,0:0:0:0:
408,104,62190,2,0,P|456:160|476:236,1,144,2|8,0:0|0:0,0:0:0:0:
300,216,62682,1,2,0:0:0:0:
340,48,62846,1,2,0:0:0:0:
376,240,63010,2,0,P|324:292|256:284,1,144,8|2,0:0|0:0,0:0:0:0:
156,152,63502,1,2,0:0:0:0:
300,216,63665,1,8,0:0:0:0:
212,80,63829,1,2,0:0:0:0:
128,220,63993,6,0,P|128:276|172:352,1,144,6|8,0:0|0:0,0:0:0:0:
232,168,64485,1,0,0:0:0:0:
148,68,64649,1,2,0:0:0:0:
148,68,64813,2,0,L|0:64,1,144,2|8,0:0|0:0,0:0:0:0:
144,168,65305,1,2,0:0:0:0:
324,156,65469,1,2,0:0:0:0:
240,80,65633,2,0,P|212:144|232:224,1,144,8|2,0:0|0:0,0:0:0:0:
368,256,66124,1,2,0:0:0:0:
324,156,66288,1,8,0:0:0:0:
284,332,66452,1,2,0:0:0:0:
456,284,66616,6,0,P|456:212|424:128,1,144,6|8,0:0|0:0,0:0:0:0:
312,52,67108,1,0,0:0:0:0:
256,192,67272,1,2,0:0:0:0:
256,192,67436,2,0,P|178:197|96:176,1,144,2|8,0:0|0:0,0:0:0:0:
248,104,67928,1,2,0:0:0:0:
348,192,68092,1,2,0:0:0:0:
256,288,68256,2,0,L|96:272,1,144,8|2,0:0|0:0,0:0:0:0:
256,192,68747,1,2,0:0:0:0:
348,288,68911,1,8,0:0:0:0:
240,364,69075,1,2,0:0:0:0:
348,192,69239,6,0,P|420:184|500:200,1,144,6|8,0:0|0:0,0:0:0:0:
348,288,69731,1,0,0:0:0:0:
256,192,69895,1,2,0:0:0:0:
256,192,70059,2,0,P|240:123|272:52,1,144,2|8,0:0|0:0,0:0:0:0:
348,192,70551,1,2,0:0:0:0:
264,308,70715,1,2,0:0:0:0:
156,212,70879,2,0,P|96:204|16:224,1,144,8|2,0:0|0:0,0:0:0:0:
184,300,71370,1,2,0:0:0:0:
196,128,71534,1,8,0:0:0:0:
296,224,71698,1,2,0:0:0:0:
128,196,71862,6,0,P|100:140|140:48,1,144,6|8,0:0|0:0,0:0:0:0:
272,24,72354,1,0,0:0:0:0:
336,176,72518,1,2,0:0:0:0:
196,128,72682,2,0,P|280:96|332:108,1,144,2|8,0:0|0:0,0:0:0:0:
392,260,73174,1,2,0:0:0:0:
366,259,73256,1,2,0:0:0:0:
341,258,73338,1,2,0:0:0:0:
316,257,73420,1,2,0:0:0:0:
291,257,73502,2,0,P|240:288|220:292,1,72,8|0,0:0|0:0,0:0:0:0:
64,216,73829,6,0,L|52:156,1,36,2|8,0:0|0:0,0:0:0:0:
128,152,73993,2,0,L|116:92,1,36,8|8,0:0|0:0,0:0:0:0:
196,104,74157,2,0,L|184:44,1,36,8|8,0:0|0:0,0:0:0:0:
260,40,74321,2,0,L|248:-20,1,36,8|8,0:0|0:0,0:0:0:0:
340,88,74485,6,0,P|432:108|496:52,2,180,6|8|2,0:0|0:0|0:0,0:0:0:0:
196,104,75305,1,2,0:0:0:0:
324,4,75469,1,8,0:0:0:0:
328,164,75633,2,0,B|340:228|340:228|300:352,1,180,2|2,0:0|0:0,0:0:0:0:
140,228,76124,1,8,0:0:0:0:
100,143,76288,2,0,P|187:145|230:239,1,180,2|2,0:0|0:0,0:0:0:0:
52,260,76780,1,8,0:0:0:0:
80,64,76944,1,2,0:0:0:0:
256,152,77108,6,0,P|308:148|344:128,1,90,6|0,0:0|0:0,0:0:0:0:
176,44,77436,2,0,P|135:24|91:22,1,90,8|0,0:0|0:0,0:0:0:0:
176,208,77764,1,2,0:0:0:0:
268,64,77928,1,2,0:0:0:0:
112,124,78092,1,8,0:0:0:0:
340,232,78256,2,0,P|364:168|356:52,1,180,2|2,0:0|0:0,0:0:0:0:
176,208,78747,1,8,0:0:0:0:
312,328,78911,2,0,L|508:336,1,180,2|2,0:0|0:0,0:0:0:0:
340,232,79403,1,8,0:0:0:0:
248,372,79567,1,2,0:0:0:0:
432,216,79731,6,0,P|372:144|264:172,2,180,6|8|2,0:0|0:0|0:0,0:0:0:0:
248,248,80551,1,2,0:0:0:0:
308,64,80715,1,8,0:0:0:0:
336,300,80879,2,0,P|256:340|144:292,1,180,2|2,0:0|0:0,0:0:0:0:
16,228,81370,1,8,0:0:0:0:
128,88,81534,2,0,L|316:72,1,180,2|2,0:0|0:0,0:0:0:0:
148,176,82026,1,8,0:0:0:0:
228,0,82190,1,2,0:0:0:0:
348,160,82354,6,0,P|408:140|428:120,1,90,6|0,0:0|0:0,0:0:0:0:
244,128,82682,1,8,0:0:0:0:
312,284,82846,2,0,P|377:283|476:224,1,180,2|2,0:0|0:0,0:0:0:0:
232,216,83338,1,8,0:0:0:0:
152,376,83502,1,2,0:0:0:0:
40,224,83665,2,0,L|56:128,1,90,2|2,0:0|0:0,0:0:0:0:
232,216,83993,1,8,0:0:0:0:
160,296,84157,2,0,P|128:232|176:120,1,180,2|2,0:0|0:0,0:0:0:0:
304,300,84649,1,8,0:0:0:0:
152,376,84813,1,8,0:0:0:0:
108,372,84895,1,8,0:0:0:0:
62,368,84977,6,0,L|48:188,2,180,6|8|2,0:0|0:0|0:0,0:0:0:0:
204,216,85797,1,2,0:0:0:0:
128,28,85961,1,8,0:0:0:0:
40,92,86124,2,0,P|108:136|216:88,1,180,2|2,0:0|0:0,0:0:0:0:
364,236,86616,1,8,0:0:0:0:
452,172,86780,2,0,P|384:128|276:176,1,180,2|2,0:0|0:0,0:0:0:0:
264,340,87272,1,8,0:0:0:0:
364,236,87436,1,2,0:0:0:0:
180,216,87600,6,0,P|128:228|84:228,1,90,6|0,0:0|0:0,0:0:0:0:
184,68,87928,2,0,P|228:69|272:80,1,90,8|0,0:0|0:0,0:0:0:0:
364,236,88256,1,2,0:0:0:0:
248,168,88420,1,2,0:0:0:0:
364,104,88583,1,8,0:0:0:0:
316,304,88747,2,0,P|224:332|136:316,1,180,2|2,0:0|0:0,0:0:0:0:
52,176,89239,1,8,0:0:0:0:
184,68,89403,2,0,P|212:160|196:248,1,180,2|2,0:0|0:0,0:0:0:0:
56,356,89895,1,8,0:0:0:0:
52,176,90059,1,2,0:0:0:0:
140,276,90223,6,0,L|320:256,2,180,6|8|2,0:0|0:0|0:0,0:0:0:0:
56,356,91042,1,2,0:0:0:0:
112,128,91206,1,8,0:0:0:0:
176,204,91370,2,0,P|104:224|12:144,1,180,2|2,0:0|0:0,0:0:0:0:
208,72,91862,1,8,0:0:0:0:
280,172,92026,2,0,B|288:224|288:224|272:360,1,180,2|2,0:0|0:0,0:0:0:0:
176,204,92518,1,8,0:0:0:0:
208,72,92682,1,2,0:0:0:0:
352,148,92846,6,0,P|396:148|440:132,1,90,6|0,0:0|0:0,0:0:0:0:
276,56,93174,1,8,0:0:0:0:
176,204,93338,2,0,P|132:204|88:188,1,90,2|2,0:0|0:0,0:0:0:0:
208,72,93665,1,2,0:0:0:0:
304,204,93829,1,8,0:0:0:0:
168,296,93993,6,0,P|128:216|140:92,1,180,2|2,0:0|0:0,0:0:0:0:
136,104,94403,1,2,0:0:0:0:
144,84,94485,1,8,0:0:0:0:
368,92,94649,1,2,0:0:0:0:
216,228,94813,1,8,0:0:0:0:
272,16,94977,1,2,0:0:0:0:
348,208,95141,1,8,0:0:0:0:
353,248,95223,1,8,0:0:0:0:
358,288,95305,1,8,0:0:0:0:
363,328,95387,1,8,0:0:0:0:
368,368,95469,6,0,P|468:344|508:276,2,180,6|8|2,0:0|0:0|0:0,0:0:0:0:
216,228,96288,1,2,0:0:0:0:
248,360,96452,1,8,0:0:0:0:
348,208,96616,2,0,P|366:132|356:28,1,180,2|2,0:0|0:0,0:0:0:0:
216,228,97108,1,8,0:0:0:0:
316,356,97272,2,0,P|391:374|496:364,1,180,2|2,0:0|0:0,0:0:0:0:
348,208,97764,1,8,0:0:0:0:
232,336,97928,1,2,0:0:0:0:
408,280,98092,6,0,P|440:208|436:168,1,90,6|0,0:0|0:0,0:0:0:0:
248,80,98420,2,0,P|256:123|280:161,1,90,8|0,0:0|0:0,0:0:0:0:
488,120,98747,1,2,0:0:0:0:
360,20,98911,1,2,0:0:0:0:
348,208,99075,1,8,0:0:0:0:
392,112,99239,2,0,P|320:104|200:108,1,180,2|2,0:0|0:0,0:0:0:0:
120,216,99731,1,8,0:0:0:0:
242,288,99895,2,0,P|325:288|348:208,1,180,2|2,0:0|0:0,0:0:0:0:
176,160,100387,1,8,0:0:0:0:
160,344,100551,1,2,0:0:0:0:
288,124,100715,6,0,P|252:68|132:48,2,180,6|8|2,0:0|0:0|0:0,0:0:0:0:
208,292,101534,1,2,0:0:0:0:
176,160,101698,1,8,0:0:0:0:
316,224,101862,2,0,B|364:232|364:232|496:196,1,180,2|2,0:0|0:0,0:0:0:0:
288,124,102354,1,8,0:0:0:0:
176,160,102518,2,0,B|128:168|128:168|-4:132,1,180,2|2,0:0|0:0,0:0:0:0:
216,72,103010,1,8,0:0:0:0:
208,292,103174,1,2,0:0:0:0:
288,124,103338,6,0,L|384:132,1,90,6|0,0:0|0:0,0:0:0:0:
224,224,103665,2,0,L|128:232,1,90,8|0,0:0|0:0,0:0:0:0:
216,72,103993,1,2,0:0:0:0:
312,208,104157,1,2,0:0:0:0:
208,292,104321,1,8,0:0:0:0:
288,124,104485,2,0,P|396:60|448:76,1,180,2|2,0:0|0:0,0:0:0:0:
312,208,104977,1,8,0:0:0:0:
192,144,105141,2,0,L|8:152,1,180,2|2,0:0|0:0,0:0:0:0:
208,292,105633,1,8,0:0:0:0:
243,292,105715,1,8,0:0:0:0:
279,293,105797,1,8,0:0:0:0:
315,294,105879,1,8,0:0:0:0:
351,294,105961,6,0,P|396:224|368:120,1,180,6|8,0:0|0:0,0:0:0:0:
204,236,106452,1,2,0:0:0:0:
308,360,106616,1,2,0:0:0:0:
316,196,106780,1,2,0:0:0:0:
200,336,106944,1,8,0:0:0:0:
200,336,107108,2,0,P|104:312|40:224,1,180,2|2,0:0|0:0,0:0:0:0:
256,180,107600,1,8,0:0:0:0:
308,360,107764,1,2,0:0:0:0:
204,236,107928,1,2,0:0:0:0:
368,216,108092,1,2,0:0:0:0:
284,364,108256,2,0,P|272:316|272:272,1,90,8|2,0:0|0:0,0:0:0:0:
436,96,108583,6,0,P|448:232|436:276,1,180,6|8,0:0|0:0,0:0:0:0:
204,236,109075,1,2,0:0:0:0:
156,148,109239,2,0,P|152:96|164:52,1,90,2|2,0:0|0:0,0:0:0:0:
196,240,109567,1,8,0:0:0:0:
72,220,109731,2,0,P|48:160|64:36,1,180,2|2,0:0|0:0,0:0:0:0:
280,204,110223,2,0,P|284:256|272:300,1,90,8|2,0:0|0:0,0:0:0:0:
136,308,110551,1,2,0:0:0:0:
156,148,110715,1,2,0:0:0:0:
192,244,110879,1,8,0:0:0:0:
68,144,111042,1,2,0:0:0:0:
228,84,111206,6,0,P|312:56|416:80,1,180,6|8,0:0|0:0,0:0:0:0:
280,204,111698,1,2,0:0:0:0:
156,148,111862,2,0,L|148:56,1,90,2|2,0:0|0:0,0:0:0:0:
280,204,112190,1,8,0:0:0:0:
68,144,112354,2,0,L|64:332,1,180,2|2,0:0|0:0,0:0:0:0:
280,204,112846,2,0,L|276:316,1,90,8|2,0:0|0:0,0:0:0:0:
156,148,113174,1,2,0:0:0:0:
268,76,113338,1,2,0:0:0:0:
176,248,113502,1,8,0:0:0:0:
172,56,113665,1,2,0:0:0:0:
280,204,113829,6,0,P|336:212|456:176,1,180,6|8,0:0|0:0,0:0:0:0:
268,76,114321,1,0,0:0:0:0:
156,148,114485,2,0,L|64:152,1,90,2|2,0:0|0:0,0:0:0:0:
172,56,114813,1,8,0:0:0:0:
208,236,114977,1,2,0:0:0:0:
268,76,115141,1,8,0:0:0:0:
299,76,115223,1,8,0:0:0:0:
330,77,115305,1,8,0:0:0:0:
362,78,115387,1,8,0:0:0:0:
393,79,115469,6,0,L|452:80,1,45,8|8,0:0|0:0,0:0:0:0:
360,156,115633,2,0,L|418:156,1,45,8|8,0:3|0:3,0:3:0:0:
324,232,115797,2,0,L|382:232,1,45,8|8,0:3|0:3,0:3:0:0:
290,308,115961,2,0,L|348:308,1,45,8|8,0:3|0:3,0:3:0:0:
232,372,116124,2,0,P|182:370|128:348,1,90,8|2,0:0|0:0,0:0:0:0:
64,208,116452,5,6,0:0:0:0:
192,240,116616,1,2,0:0:0:0:
84,316,116780,2,0,P|24:324|0:320,1,72,8|2,0:0|0:0,0:0:0:0:
148,168,117108,2,0,P|183:166|218:174,1,72,2|2,0:0|0:0,0:0:0:0:
64,208,117436,1,8,0:0:0:0:
112,68,117600,1,2,0:0:0:0:
192,240,117764,2,0,L|192:320,1,72,2|2,0:0|0:0,0:0:0:0:
288,180,118092,2,0,L|288:100,1,72,8|2,0:0|0:0,0:0:0:0:
392,208,118420,1,8,0:0:0:0:
312,292,118583,1,2,0:0:0:0:
208,96,118747,1,8,0:0:0:0:
288,180,118911,1,2,0:0:0:0:
368,88,119075,6,0,P|400:80|444:84,1,72,6|2,0:0|0:0,0:0:0:0:
288,180,119403,2,0,P|252:182|217:174,1,72,8|2,0:0|0:0,0:0:0:0:
88,48,119731,1,2,0:0:0:0:
132,200,119895,1,2,0:0:0:0:
196,56,120059,1,8,0:0:0:0:
44,172,120223,1,2,0:0:0:0:
44,172,120387,2,0,L|48:248,1,72,2|2,0:0|0:0,0:0:0:0:
176,348,120715,2,0,L|180:272,1,72,8|2,0:0|0:0,0:0:0:0:
256,148,121042,1,8,0:0:0:0:
324,272,121206,1,2,0:0:0:0:
296,120,121370,1,8,0:0:0:0:
304,340,121534,1,2,0:0:0:0:
336,96,121698,6,0,L|416:96,2,72,6|2|8,0:0|0:0|0:0,0:0:0:0:
220,176,122190,1,2,0:0:0:0:
188,32,122354,1,2,0:0:0:0:
296,120,122518,1,2,0:0:0:0:
152,208,122682,1,8,0:0:0:0:
192,52,122846,1,2,0:0:0:0:
232,248,123010,2,0,P|236:296|224:328,1,72,2|2,0:0|0:0,0:0:0:0:
80,240,123338,2,0,P|76:192|88:160,1,72,8|2,0:0|0:0,0:0:0:0:
220,176,123665,1,8,0:0:0:0:
132,296,123829,1,2,0:0:0:0:
152,116,123993,1,8,0:0:0:0:
296,220,124157,1,2,0:0:0:0:
64,124,124321,6,0,L|72:48,2,72,6|2|8,0:0|0:0|0:0,0:0:0:0:
136,224,124813,1,2,0:0:0:0:
224,128,124977,2,0,L|232:52,1,72,2|2,0:0|0:0,0:0:0:0:
152,204,125305,1,8,0:0:0:0:
312,144,125469,1,2,0:0:0:0:
312,144,125551,1,2,0:0:0:0:
312,144,125633,2,0,L|392:144,1,72,8|0,0:0|0:0,0:0:0:0:
288,280,125961,1,8,0:3:0:0:
259,301,126042,1,8,0:3:0:0:
226,314,126124,1,8,0:3:0:0:
190,316,126206,1,8,0:3:0:0:
155,306,126288,1,8,0:3:0:0:
52,172,126452,6,8,L|56:124,1,36
136,124,126616,2,8,L|140:76,1,36
220,76,126780,2,8,L|224:28,1,36
304,28,126944,5,4,0:0:0:0:
338,18,127026,1,0,0:0:0:0:
374,19,127108,1,8,0:0:0:0:
407,32,127190,1,0,0:0:0:0:
436,54,127272,1,0,0:0:0:0:
456,84,127354,1,0,0:0:0:0:
465,118,127436,1,8,0:0:0:0:
464,154,127518,1,0,0:0:0:0:
452,188,127600,2,0,L|432:224,7,36,0|0|8|0|0|0|8|0,0:0|0:0|0:0|0:0|0:0|0:0|0:0|0:0,0:0:0:0:
408,244,128256,5,0,0:0:0:0:
375,258,128337,1,0,0:0:0:0:
339,259,128419,1,8,0:0:0:0:
305,247,128501,1,0,0:0:0:0:
278,224,128583,1,0,0:0:0:0:
252,204,128665,1,0,0:0:0:0:
218,192,128746,1,8,0:0:0:0:
182,193,128828,1,0,0:0:0:0:
149,207,128911,2,0,L|92:208,7,36,0|0|8|0|0|0|8|0,0:0|0:0|0:0|0:0|0:0|0:0|0:0|0:0,0:0:0:0:
84,228,129567,5,4,0:0:0:0:
69,260,129648,1,0,0:0:0:0:
69,296,129730,1,8,0:0:0:0:
82,329,129812,1,0,0:0:0:0:
107,355,129894,1,0,0:0:0:0:
140,368,129976,1,0,0:0:0:0:
176,368,130058,1,8,0:0:0:0:
209,355,130140,1,0,0:0:0:0:
234,329,130223,2,0,L|288:332,7,36,0|0|8|0|0|0|8|0,0:0|0:0|0:0|0:0|0:0|0:0|0:0|0:0,0:0:0:0:
308,324,130879,5,0,0:0:0:0:
337,303,130960,1,0,0:0:0:0:
359,274,131042,1,8,0:0:0:0:
371,241,131124,1,0,0:0:0:0:
374,205,131206,1,0,0:0:0:0:
367,170,131288,1,0,0:0:0:0:
349,139,131370,1,8,0:0:0:0:
323,114,131452,1,0,0:0:0:0:
292,96,131534,2,0,L|296:52,7,36,0|0|8|0|0|0|8|0,0:0|0:0|0:0|0:0|0:0|0:0|0:0|0:0,0:0:0:0:
264,40,132190,5,4,0:0:0:0:
228,33,132271,1,0,0:0:0:0:
193,39,132353,1,8,0:0:0:0:
163,58,132435,1,0,0:0:0:0:
141,86,132517,1,0,0:0:0:0:
131,121,132599,1,0,0:0:0:0:
135,156,132681,1,8,0:0:0:0:
151,188,132763,1,0,0:0:0:0:
177,212,132846,2,0,L|176:248,7,36,0|0|8|0|0|0|8|0,0:0|0:0|0:0|0:0|0:0|0:0|0:0|0:0,0:0:0:0:
212,248,133502,5,0,0:0:0:0:
245,236,133583,1,0,0:0:0:0:
280,243,133665,1,8,0:0:0:0:
307,267,133747,1,0,0:0:0:0:
318,301,133829,1,0,0:0:0:0:
311,335,133911,1,0,0:0:0:0:
288,362,133993,1,8,0:0:0:0:
248,376,134075,1,0,0:0:0:0:
219,367,134157,2,0,L|176:360,7,36,0|0|8|0|0|0|8|0,0:0|0:0|0:0|0:0|0:0|0:0|0:0|0:0,0:0:0:0:
148,360,134813,5,4,0:0:0:0:
112,354,134894,1,0,0:0:0:0:
80,338,134976,1,8,0:0:0:0:
54,313,135058,1,0,0:0:0:0:
38,281,135140,1,0,0:0:0:0:
31,246,135222,1,0,0:0:0:0:
36,210,135304,1,8,0:0:0:0:
51,178,135386,1,0,0:0:0:0:
76,152,135469,2,0,L|132:156,7,36,0|0|8|0|0|0|8|0,0:0|0:0|0:0|0:0|0:0|0:0|0:0|0:0,0:0:0:0:
148,164,136124,5,0,0:0:0:0:
176,186,136205,1,0,0:0:0:0:
209,199,136287,1,8,0:0:0:0:
245,202,136369,1,0,0:0:0:0:
280,196,136451,1,0,0:0:0:0:
312,180,136533,1,0,0:0:0:0:
339,156,136615,1,8,0:0:0:0:
357,125,136697,1,0,0:0:0:0:
367,91,136780,6,0,L|364:56,1,36
284,80,136944,2,8,L|281:45,1,36
200,68,137108,2,8,L|197:33,1,36
117,57,137272,2,8,L|114:22,1,36
36,68,137436,6,0,P|16:124|48:224,1,144,6|8,0:0|0:0,0:0:0:0:
136,308,137928,1,0,0:0:0:0:
188,172,138092,1,2,0:0:0:0:
188,172,138256,2,0,L|340:180,1,144,2|8,0:0|0:0,0:0:0:0:
440,264,138747,1,2,0:0:0:0:
300,352,138911,1,2,0:0:0:0:
276,260,139075,2,0,P|348:272|392:360,1,144,8|2,0:0|0:0,0:0:0:0:
208,324,139567,1,2,0:0:0:0:
188,172,139731,1,8,0:0:0:0:
116,268,139895,1,2,0:0:0:0:
308,176,140059,6,0,P|356:192|460:188,1,144,6|8,0:0|0:0,0:0:0:0:
248,80,140551,1,0,0:0:0:0:
188,172,140715,1,2,0:0:0:0:
188,172,140879,2,0,P|140:156|36:160,1,144,2|8,0:0|0:0,0:0:0:0:
248,268,141370,1,2,0:0:0:0:
308,176,141534,1,2,0:0:0:0:
144,252,141698,2,0,P|168:340|228:372,1,144,8|2,0:0|0:0,0:0:0:0:
308,176,142190,1,2,0:0:0:0:
188,172,142354,1,8,0:0:0:0:
248,268,142518,1,2,0:0:0:0:
196,88,142682,6,0,B|128:80|68:88|68:88|88:112,1,144,6|8,0:0|0:0,0:0:0:0:
188,172,143174,1,0,0:0:0:0:
288,64,143338,1,2,0:0:0:0:
288,64,143502,2,0,P|356:56|424:108,1,144,2|8,0:0|0:0,0:0:0:0:
384,288,143993,1,2,0:0:0:0:
336,136,144157,1,2,0:0:0:0:
488,180,144321,2,0,L|480:24,1,144,8|2,0:0|0:0,0:0:0:0:
336,136,144813,1,2,0:0:0:0:
384,288,144977,1,8,0:0:0:0:
412,184,145141,1,2,0:0:0:0:
256,196,145305,6,0,P|176:200|88:164,1,144,6|8,0:0|0:0,0:0:0:0:
248,92,145797,1,0,0:0:0:0:
340,252,145961,1,2,0:0:0:0:
340,252,146124,2,0,P|420:256|508:220,1,144,2|8,0:0|0:0,0:0:0:0:
336,136,146616,1,2,0:0:0:0:
256,196,146780,1,2,0:0:0:0:
176,136,146944,2,0,P|96:132|8:168,1,144,8|2,0:0|0:0,0:0:0:0:
156,240,147436,1,2,0:0:0:0:
256,196,147600,1,8,0:0:0:0:
192,40,147764,1,2,0:0:0:0:
120,104,147928,6,0,P|200:136|264:104,1,144,6|8,0:0|0:0,0:0:0:0:
356,60,148420,1,0,0:0:0:0:
412,164,148583,1,2,0:0:0:0:
412,164,148747,2,0,B|428:216|428:216|408:328,1,144,2|8,0:0|0:0,0:0:0:0:
256,196,149239,1,2,0:0:0:0:
288,308,149403,1,2,0:0:0:0:
332,144,149567,2,0,P|312:68|256:20,1,144,8|2,0:0|0:0,0:0:0:0:
128,52,150059,1,2,0:0:0:0:
192,176,150223,1,8,0:0:0:0:
248,24,150387,1,2,0:0:0:0:
76,136,150551,6,0,P|64:224|80:296,1,144,6|8,0:0|0:0,0:0:0:0:
200,348,151042,1,0,0:0:0:0:
288,208,151206,1,2,0:0:0:0:
288,208,151370,2,0,P|244:188|144:216,1,144,2|8,0:0|0:0,0:0:0:0:
288,308,151862,1,2,0:0:0:0:
424,240,152026,1,2,0:0:0:0:
460,316,152190,2,0,P|380:312|340:244,1,144,8|2,0:0|0:0,0:0:0:0:
392,92,152682,1,2,0:0:0:0:
476,192,152846,1,8,0:0:0:0:
308,172,153010,1,2,0:0:0:0:
148,276,153174,6,0,P|236:284|288:236,1,144,6|8,0:0|0:0,0:0:0:0:
144,184,153665,1,0,0:0:0:0:
48,260,153829,1,2,0:0:0:0:
48,260,153993,2,0,L|60:100,1,144,2|8,0:0|0:0,0:0:0:0:
232,168,154485,2,0,L|240:88,1,72,2|2,0:0|0:0,0:0:0:0:
144,184,154813,2,0,P|156:264|208:304,1,144,8|2,0:0|0:0,0:0:0:0:
340,184,155305,1,2,0:0:0:0:
304,60,155469,1,8,0:0:0:0:
276,228,155633,1,2,0:0:0:0:
444,104,155797,5,8,0:0:0:0:
415,105,155878,1,8,0:0:0:0:
386,106,155960,1,8,0:0:0:0:
357,107,156042,1,8,0:0:0:0:
328,108,156124,1,8,0:0:0:0:
300,109,156206,1,8,0:0:0:0:
271,110,156288,1,8,0:0:0:0:
104,164,156452,6,8,L|84:200,3,36
156,248,156780,2,8,L|144:300,3,36
236,288,157108,6,0,L|240:336,1,36,2|2,0:0|0:0,0:0:0:0:
320,256,157272,2,0,L|324:208,1,36,2|2,0:0|0:0,0:0:0:0:
400,280,157436,2,0,L|404:328,1,36,8|0,0:0|0:0,0:0:0:0:
484,252,157600,1,6,0:0:0:0:
384,128,157764,1,2,0:0:0:0:
228,164,157928,2,8,L|192:168,2,36
384,128,158256,1,2,0:0:0:0:
320,256,158420,6,0,P|304:192|320:76,2,180,6|8|2,0:0|0:0|0:0,0:0:0:0:
192,167,159239,1,2,0:0:0:0:
112,304,159403,1,8,0:0:0:0:
348,352,159567,2,0,P|240:300|176:324,1,180,2|2,0:0|0:0,0:0:0:0:
112,172,160059,1,8,0:0:0:0:
20,340,160223,2,0,P|12:248|44:156,1,180,2|2,0:0|0:0,0:0:0:0:
188,32,160715,1,8,0:0:0:0:
216,192,160879,1,2,0:0:0:0:
112,172,161042,6,0,P|108:124|120:80,1,90,6|0,0:0|0:0,0:0:0:0:
296,224,161370,2,0,P|306:267|302:312,1,90,8|0,0:0|0:0,0:0:0:0:
216,192,161698,1,2,0:0:0:0:
188,32,161862,1,2,0:0:0:0:
112,172,162026,1,8,0:0:0:0:
296,88,162190,2,0,P|372:60|492:100,1,180,2|2,0:0|0:0,0:0:0:0:
216,192,162682,1,8,0:0:0:0:
188,32,162846,2,0,P|112:60|-8:20,1,180,2|2,0:0|0:0,0:0:0:0:
48,256,163338,1,8,0:0:0:0:
216,192,163502,1,2,0:0:0:0:
112,172,163665,6,0,L|140:368,2,180,6|8|2,0:0|0:0|0:0,0:0:0:0:
264,320,164485,1,2,0:0:0:0:
320,152,164649,1,8,0:0:0:0:
220,188,164813,2,0,P|272:244|400:224,1,180,2|2,0:0|0:0,0:0:0:0:
268,64,165305,1,8,0:0:0:0:
180,112,165469,2,0,L|0:96,1,180,2|2,0:0|0:0,0:0:0:0:
204,8,165961,1,8,0:0:0:0:
220,188,166124,1,2,0:0:0:0:
352,64,166288,6,0,P|408:48|448:56,1,90,6|0,0:0|0:0,0:0:0:0:
328,184,166616,1,8,0:0:0:0:
220,188,166780,2,0,B|192:152|192:152|204:8,1,180,2|2,0:0|0:0,0:0:0:0:
60,128,167272,2,0,L|56:220,1,90,8|2,0:0|0:0,0:0:0:0:
164,340,167600,1,2,0:0:0:0:
216,212,167764,1,2,0:0:0:0:
64,300,167928,1,8,0:0:0:0:
252,352,168092,2,0,P|320:360|424:296,1,180,2|2,0:0|0:0,0:0:0:0:
288,112,168583,1,8,0:0:0:0:
324,288,168747,1,2,0:0:0:0:
360,176,168911,6,0,P|408:152|512:216,2,180,6|8|2,0:0|0:0|0:0,0:0:0:0:
216,212,169731,1,2,0:0:0:0:
288,112,169895,1,8,0:0:0:0:
324,288,170059,2,0,P|260:328|152:332,1,180,2|2,0:0|0:0,0:0:0:0:
56,172,170551,1,8,0:0:0:0:
160,84,170715,2,0,P|192:168|168:252,1,180,2|2,0:0|0:0,0:0:0:0:
32,328,171206,1,8,0:0:0:0:
56,172,171370,1,2,0:0:0:0:
168,251,171534,6,0,L|360:256,2,180,6|8|2,0:0|0:0|0:0,0:0:0:0:
56,172,172354,1,2,0:0:0:0:
32,328,172518,1,8,0:0:0:0:
216,320,172682,2,0,P|232:216|200:124,1,180,2|2,0:0|0:0,0:0:0:0:
124,328,173174,1,8,0:0:0:0:
320,312,173338,2,0,P|336:208|304:116,1,180,2|2,0:0|0:0,0:0:0:0:
192,40,173829,1,8,0:0:0:0:
152,188,173993,1,2,0:0:0:0:
296,72,174157,6,0,P|356:60|392:60,1,90,6|0,0:0|0:0,0:0:0:0:
152,188,174485,2,0,P|107:185|63:175,1,90,8|0,0:0|0:0,0:0:0:0:
192,40,174813,1,2,0:0:0:0:
264,208,174977,1,2,0:0:0:0:
136,108,175141,1,8,0:0:0:0:
296,72,175305,2,0,B|328:116|328:116|344:252,1,180,2|2,0:0|0:0,0:0:0:0:
152,188,175797,1,8,0:0:0:0:
68,120,175961,2,0,P|124:84|232:116,1,180,2|2,0:0|0:0,0:0:0:0:
268,288,176452,1,8,0:0:0:0:
152,188,176616,1,2,0:0:0:0:
316,152,176780,5,2,0:0:0:0:
351,149,176861,1,2,0:0:0:0:
387,147,176943,1,2,0:0:0:0:
423,145,177025,1,2,0:0:0:0:
460,144,177108,2,8,L|456:92,3,45
388,56,177436,5,2,0:0:0:0:
352,53,177517,1,2,0:0:0:0:
316,51,177599,1,2,0:0:0:0:
280,49,177681,1,2,0:0:0:0:
244,48,177764,2,8,L|248:-4,3,45
160,36,178092,6,0,L|103:0,1,45,2|2,0:0|0:0,0:0:0:0:
100,96,178256,2,0,L|34:82,1,45,2|2,0:0|0:0,0:0:0:0:
72,172,178420,2,8,L|6:181,1,45
64,256,178583,2,8,L|5:287,1,45
96,328,178747,1,2,0:0:0:0:
276,236,178911,1,2,0:0:0:0:
148,152,179075,1,8,0:0:0:0:
252,352,179239,1,2,0:0:0:0:
428,184,179403,6,0,L|440:0,2,180,6|2|10,0:0|0:0|0:0,0:0:0:0:
276,236,180223,1,2,0:0:0:0:
328,104,180387,1,2,0:0:0:0:
356,304,180551,2,0,P|284:340|192:300,1,180,2|2,0:0|0:0,0:0:0:0:
4,236,181042,2,0,P|76:200|168:240,1,180,2|8,0:0|0:0,0:0:0:0:
84,304,181534,1,2,0:0:0:0:
136,112,181698,1,0,0:0:0:0:
244,212,181862,1,2,0:0:0:0:
48,136,182026,6,0,P|36:88|44:32,1,90,6|0,0:0|0:0,0:0:0:0:
244,212,182354,2,0,P|246:256|235:299,1,90,2|0,0:0|0:0,0:0:0:0:
84,304,182682,1,8,0:0:0:0:
136,112,182846,1,2,0:0:0:0:
164,228,183010,1,2,0:0:0:0:
48,136,183174,2,0,P|76:48|156:24,1,180,2|2,0:0|0:0,0:0:0:0:
244,212,183665,2,0,P|336:216|432:184,1,180,2|8,0:0|0:0,0:0:0:0:
252,100,184157,1,2,0:0:0:0:
164,228,184321,1,0,0:0:0:0:
248,72,184485,1,2,0:0:0:0:
419,190,184649,6,0,P|427:302|375:366,2,180,6|2|8,0:0|0:0|0:0,0:0:0:0:
232,260,185469,1,2,0:0:0:0:
304,364,185633,1,2,0:0:0:0:
304,160,185797,2,0,B|256:140|256:140|120:160,1,180,2|2,0:0|0:0,0:0:0:0:
232,260,186288,2,0,P|332:252|388:168,1,180,2|8,0:0|0:0,0:0:0:0:
140,252,186780,2,0,L|148:364,1,90,2|0,0:0|0:0,0:0:0:0:
228,176,187108,1,2,0:0:0:0:
128,92,187272,6,0,P|84:80|32:84,1,90,6|0,0:0|0:0,0:0:0:0:
228,176,187600,2,0,P|272:178|315:166,1,90,2|0,0:0|0:0,0:0:0:0:
224,72,187928,1,8,0:0:0:0:
132,168,188092,1,2,0:0:0:0:
232,260,188256,1,2,0:0:0:0:
72,92,188420,2,0,P|36:176|88:252,1,180,2|2,0:0|0:0,0:0:0:0:
232,260,188911,2,0,L|428:264,1,180,2|8,0:0|0:0,0:0:0:0:
232,360,189403,1,2,0:0:0:0:
208,168,189567,1,0,0:0:0:0:
128,280,189731,1,2,0:0:0:0:
300,184,189895,6,0,P|276:104|180:76,2,180,6|2|8,0:0|0:0|0:0,0:0:0:0:
128,280,190715,1,2,0:0:0:0:
208,168,190879,1,2,0:0:0:0:
232,360,191042,2,0,B|180:368|180:368|48:344,1,180,2|2,0:0|0:0,0:0:0:0:
280,276,191534,2,0,B|332:284|332:284|464:260,1,180,2|8,0:0|0:0,0:0:0:0:
312,140,192026,1,2,0:0:0:0:
188,208,192190,2,0,L|192:300,1,90,0|2,0:0|0:0,0:0:0:0:
384,188,192518,6,0,P|396:136|392:92,1,90,6|0,0:0|0:0,0:0:0:0:
172,112,192846,2,0,P|160:60|164:16,1,90,2|0,0:0|0:0,0:0:0:0:
312,140,193174,1,8,0:0:0:0:
188,208,193338,1,2,0:0:0:0:
240,32,193502,1,2,0:0:0:0:
268,216,193665,2,0,B|280:316|263:365|263:365|244:340,1,180,2|2,0:0|0:0,0:0:0:0:
104,228,194157,2,0,P|88:148|128:36,1,180,2|8,0:0|0:0,0:0:0:0:
312,140,194649,1,2,0:0:0:0:
188,208,194813,1,0,0:0:0:0:
240,32,194977,1,2,0:0:0:0:
320,160,195141,6,0,L|500:148,2,180,6|2|8,0:0|0:0|0:0,0:0:0:0:
156,120,195961,1,2,0:0:0:0:
204,280,196124,1,2,0:0:0:0:
248,96,196288,2,0,P|200:36|84:60,1,180,2|2,0:0|0:0,0:0:0:0:
84,56,196698,1,2,0:0:0:0:
68,72,196780,1,2,0:0:0:0:
88,236,196944,1,2,0:0:0:0:
240,172,197108,2,8,L|288:168,2,45
88,236,197436,1,2,0:0:0:0:
76,278,197517,1,2,0:0:0:0:
88,321,197599,1,2,0:0:0:0:
120,352,197681,1,2,0:0:0:0:
163,362,197764,6,0,P|200:312|200:280,1,90,6|0,0:0|0:0,0:0:0:0:
277,95,198092,2,0,P|247:128|240:172,1,90,8|0,0:0|0:0,0:0:0:0:
332,316,198420,1,10,0:0:0:0:
400,164,198583,1,2,0:0:0:0:
320,224,198747,1,8,0:0:0:0:
496,224,198911,2,0,B|504:168|504:168|464:40,1,180,2|2,0:0|0:0,0:0:0:0:
316,8,199403,1,2,0:0:0:0:
216,128,199567,1,8,0:0:0:0:
220,163,199648,1,8,0:0:0:0:
225,199,199730,1,8,0:0:0:0:
230,235,199812,1,8,0:0:0:0:
235,270,199895,1,8,0:0:0:0:
96,204,200059,2,0,L|84:112,1,90,2|2,0:0|0:0,0:0:0:0:
320,224,200387,6,0,P|300:344|272:372,1,161.999995056153,6|8,0:0|0:0,0:0:0:0:
225,199,200879,1,0,0:0:0:0:
300,112,201042,2,0,L|392:108,1,80.9999975280763,2|2,0:0|0:0,0:0:0:0:
320,224,201370,1,8,0:0:0:0:
200,128,201534,2,0,P|244:52|320:28,1,161.999995056153,2|2,0:0|0:0,0:0:0:0:
320,224,202026,1,8,0:0:0:0:
112,192,202190,2,0,P|89:107|126:36,1,161.999995056153,2|2,0:0|0:0,0:0:0:0:
225,199,202682,2,0,L|220:284,1,80.9999975280763,8|2,0:0|0:0,0:0:0:0:
356,119,203010,6,0,B|300:103|300:103|200:128,1,161.999995056153,6|8,0:0|0:0,0:0:0:0:
320,224,203502,1,0,0:0:0:0:
456,164,203665,2,0,L|460:84,1,80.9999975280763,2|2,0:0|0:0,0:0:0:0:
320,224,203993,1,8,0:0:0:0:
280,312,204157,2,0,P|372:304|412:248,1,161.999995056153,2|2,0:0|0:0,0:0:0:0:
244,204,204649,1,8,0:0:0:0:
152,336,204813,2,0,P|60:328|20:272,1,161.999995056153,2|2,0:0|0:0,0:0:0:0:
160,176,205305,2,0,L|152:88,1,80.9999975280763,8|2,0:0|0:0,0:0:0:0:
320,224,205633,6,0,L|300:60,1,161.999995056153,6|8,0:0|0:0,0:0:0:0:
176,24,206124,1,0,0:0:0:0:
96,128,206288,2,0,P|160:140|196:120,1,80.9999975280763,2|2,0:0|0:0,0:0:0:0:
324,40,206616,1,8,0:0:0:0:
370,121,206780,2,0,P|291:126|226:34,1,161.999995056153,2|2,0:0|0:0,0:0:0:0:
452,40,207272,1,8,0:0:0:0:
472,152,207436,2,0,P|480:232|476:336,1,161.999995056153,2|2,0:0|0:0,0:0:0:0:
292,256,207928,2,0,P|248:248|204:256,1,80.9999975280763,8|2,0:0|0:0,0:0:0:0:
376,336,208256,6,0,P|400:260|368:164,1,161.999995056153,6|8,0:0|0:0,0:0:0:0:
276,92,208747,1,0,0:0:0:0:
184,196,208911,2,0,L|104:192,1,80.9999975280763,2|2,0:0|0:0,0:0:0:0:
176,88,209239,1,8,0:0:0:0:
292,256,209403,2,0,P|273:325|184:376,1,161.999995056153,2|2,0:0|0:0,0:0:0:0:
68,272,209895,1,8,0:0:0:0:
132,124,210059,2,0,L|316:108,1,161.999995056153,2|2,0:0|0:0,0:0:0:0:
172,248,210551,2,8,P|124:232|100:196,1,80.9999975280763,8|2,0:0|0:0,0:0:0:0:
264,184,210879,6,0,P|272:264|256:344,1,161.999995056153,6|8,0:0|0:0,0:0:0:0:
68,272,211370,1,0,0:0:0:0:
132,124,211534,2,0,L|120:40,1,80.9999975280763,2|2,0:0|0:0,0:0:0:0:
52,184,211862,1,8,0:0:0:0:
208,172,212026,2,0,P|280:160|344:88,1,161.999995056153,2|2,0:0|0:0,0:0:0:0:
184,40,212518,1,8,0:0:0:0:
132,124,212682,2,0,P|124:188|176:268,1,161.999995056153,2|2,0:0|0:0,0:0:0:0:
252,92,213174,2,0,P|260:44|256:12,1,80.9999975280763,8|2,0:0|0:0,0:0:0:0:
208,172,213502,6,0,L|380:156,1,161.999995056153,6|8,0:0|0:0,0:0:0:0:
256,292,213993,1,0,0:0:0:0:
124,268,214157,2,0,P|104:216|112:176,1,80.9999975280763,2|2,0:0|0:0,0:0:0:0:
184,96,214485,1,8,0:0:0:0:
328,224,214649,2,0,P|348:260|312:376,1,161.999995056153,2|2,0:0|0:0,0:0:0:0:
212,236,215141,1,8,0:0:0:0:
260,124,215305,2,0,B|298:109|298:109|428:120,1,161.999995056153,2|2,0:0|0:0,0:0:0:0:
212,236,215797,2,0,L|128:236,1,80.9999975280763,8|2,0:0|0:0,0:0:0:0:
300,348,216124,6,0,P|380:352|452:304,1,161.999995056153,6|8,0:0|0:0,0:0:0:0:
328,224,216616,1,0,0:0:0:0:
204,328,216780,2,0,P|144:332|116:320,1,80.9999975280763,2|2,0:0|0:0,0:0:0:0:
72,180,217108,1,8,0:0:0:0:
136,92,217272,2,0,P|176:156|148:252,1,161.999995056153,2|2,0:0|0:0,0:0:0:0:
40,92,217764,1,8,0:0:0:0:
184,16,217928,2,0,L|360:24,1,161.999995056153,2|2,0:0|0:0,0:0:0:0:
456,148,218420,2,0,L|360:152,1,80.9999975280763,8|2,0:0|0:0,0:0:0:0:
136,192,218747,6,0,P|196:176|304:240,1,161.999995056153,6|8,0:0|0:0,0:0:0:0:
144,300,219239,1,0,0:0:0:0:
40,184,219403,2,0,L|48:96,1,80.9999975280763,2|2,0:0|0:0,0:0:0:0:
136,236,219731,1,8,0:0:0:0:
236,192,219895,2,0,L|248:28,1,161.999995056153,2|2,0:0|0:0,0:0:0:0:
116,160,220387,1,8,0:0:0:0:
208,288,220551,2,0,P|272:308|376:256,1,161.999995056153,2|2,0:0|0:0,0:0:0:0:
381,253,220960,1,0,0:0:0:0:
397,225,221042,1,2,0:0:0:0:
404,193,221124,1,2,0:0:0:0:
402,161,221206,1,2,0:0:0:0:
391,131,221288,1,2,0:0:0:0:
371,105,221370,6,0,L|288:100,1,80.9999975280763,6|0,0:0|0:0,0:0:0:0:
180,152,221698,1,2,0:0:0:0:
228,264,221862,1,2,0:0:0:0:
304,168,222026,1,2,0:0:0:0:
104,136,222190,1,2,0:0:0:0:
148,300,222354,5,2,0:0:0:0:
252,164,222518,1,2,0:0:0:0:
36,244,222682,1,2,0:0:0:0:
208,352,222846,1,2,0:0:0:0:
180,152,223010,5,2,0:0:0:0:
88,340,223174,1,2,0:0:0:0:
324,260,223338,1,2,0:0:0:0:
160,64,223502,5,2,0:0:0:0:
208,352,223665,1,2,0:0:0:0:
256,192,223993,5,4,0:0:0:0:
256,192,224075,12,0,231862,0:0:0:0:
