osu file format v14

[General]
AudioFilename: 01. Opening.mp3
AudioLeadIn: 0
PreviewTime: 17322
Countdown: 1
SampleSet: None
StackLeniency: 0.7
Mode: 0
LetterboxInBreaks: 1
WidescreenStoryboard: 1

[Editor]
DistanceSpacing: 0.5
BeatDivisor: 4
GridSize: 4
TimelineZoom: 1.7

[Metadata]
Title:Opening
TitleUnicode:Opening
Artist:Foreground Eclipse
ArtistUnicode:Foreground Eclipse
Creator:emmy
Version:Extra2
Source:
Tags:Missing,Loving...and Suffering EP merami teto suzuori
BeatmapID:880312
BeatmapSetID:227094

[Difficulty]
HPDrainRate:6
CircleSize:4
OverallDifficulty:8
ApproachRate:9
SliderMultiplier:1.5
SliderTickRate:1

[Events]
//Background and Video events
0,0,"opening.png",0,0
//Break Periods
//Storyboard Layer 0 (Background)
//Storyboard Layer 1 (Fail)
//Storyboard Layer 2 (Pass)
//Storyboard Layer 3 (Foreground)
//Storyboard Sound Samples

[TimingPoints]
989,333.333333333333,4,2,0,10,1,0
32985,-153.846153846154,4,2,0,10,0,0

[Colours]
Combo1 : 151,122,205
Combo2 : 255,151,255
Combo3 : 255,255,204
Combo4 : 89,172,255

[HitObjects]
199,191,1322,5,0,0:0:0:0:
284,143,1488,1,0,0:0:0:0:
284,240,1655,1,2,0:0:0:0:
194,186,1822,5,0,0:0:0:0:
291,141,1987,1,0,0:0:0:0:
282,248,2154,1,0,0:0:0:0:
364,304,2321,6,0,P|424:308|448:296,1,75,2|0,0:0|0:0,0:0:0:0:
476,204,2655,2,0,P|416:200|392:212,1,75,2|0,0:0|0:0,0:0:0:0:
364,304,2988,5,2,0:0:0:0:
272,356,3155,1,0,0:0:0:0:
168,348,3321,1,2,0:0:0:0:
228,260,3488,1,0,0:0:0:0:
116,168,3655,6,0,L|128:88,1,75,2|0,0:0|0:0,0:0:0:0:
114,205,3988,6,0,L|105:124,1,75,2|0,0:0|0:0,0:0:0:0:
122,241,4321,6,0,L|93:165,1,75,2|0,0:0|0:0,0:0:0:0:
204,72,4655,5,0,0:0:0:0:
208,76,4821,1,2,0:0:0:0:
336,164,4988,6,0,B|388:176|388:176|432:156|432:156|484:168,2,150,2|2|0,0:0|0:0|0:0,0:0:0:0:
448,252,5821,1,2,0:0:0:0:
300,308,5988,2,0,B|324:316|324:316|348:316|348:316|372:324,1,75,2|0,0:0|0:0,0:0:0:0:
152,292,6321,6,0,B|144:268|144:268|144:244|144:244|136:220,1,75,2|0,0:0|0:0,0:0:0:0:
104,120,6655,1,2,0:0:0:0:
236,60,6821,1,0,0:0:0:0:
100,128,6988,1,0,0:0:0:0:
242,59,7155,1,0,0:0:0:0:
344,188,7321,5,2,0:0:0:0:
248,59,7488,1,0,0:0:0:0:
97,136,7655,1,2,0:0:0:0:
254,59,7821,1,0,0:0:0:0:
344,192,7988,5,0,0:0:0:0:
100,128,8155,1,0,0:0:0:0:
261,60,8321,1,2,0:0:0:0:
343,197,8488,1,0,0:0:0:0:
268,268,8655,2,0,L|184:288,1,75,2|0,0:0|0:0,0:0:0:0:
343,201,8988,5,0,0:0:0:0:
376,304,9155,1,2,0:0:0:0:
234,265,9321,2,0,L|150:248,1,75,2|0,0:0|0:0,0:0:0:0:
244,40,9655,2,0,L|328:57,1,75,0|2,0:0|0:0,0:0:0:0:
424,112,9988,5,0,0:0:0:0:
428,120,10155,1,0,0:0:0:0:
432,128,10321,1,2,0:0:0:0:
436,136,10488,1,0,0:0:0:0:
359,273,10655,1,2,0:0:0:0:
340,117,10821,1,0,0:0:0:0:
447,232,10988,1,0,0:0:0:0:
293,202,11155,1,0,0:0:0:0:
204,304,11321,6,0,L|124:292,1,75,2|0,0:0|0:0,0:0:0:0:
241,306,11654,6,0,L|160:315,1,75,2|0,0:0|0:0,0:0:0:0:
277,298,11987,6,0,L|201:327,1,75,2|0,0:0|0:0,0:0:0:0:
131,293,12321,5,2,0:0:0:0:
124,176,12488,2,0,L|128:96,1,75
24,220,12821,1,0,0:0:0:0:
240,184,12988,2,0,P|275:196|312:195,2,75,2|0|2,0:0|0:0|0:0,0:0:0:0:
388,100,13488,1,0,0:0:0:0:
400,292,13655,2,0,L|408:218,1,75,0|2,0:0|0:0,0:0:0:0:
280,316,13988,2,0,L|200:300,1,75
88,284,14321,5,2,0:0:0:0:
84,276,14488,1,0,0:0:0:0:
80,268,14655,1,0,0:0:0:0:
140,192,14821,1,0,0:0:0:0:
176,36,14988,6,0,P|177:73|192:108,1,75
324,176,15321,2,0,P|323:138|308:104,1,75,2|0,0:0|0:0,0:0:0:0:
163,43,15655,2,0,P|167:80|184:113,1,75,2|0,0:0|0:0,0:0:0:0:
320,164,15988,2,0,P|313:127|292:96,1,75
326,188,16321,1,2,0:0:0:0:
251,340,16488,1,0,0:0:0:0:
401,260,16655,1,2,0:0:0:0:
233,237,16821,1,0,0:0:0:0:
355,355,16988,5,0,0:0:0:0:
225,232,17155,1,0,0:0:0:0:
144,144,17321,2,0,L|148:68,1,75,2|0,0:0|0:0,0:0:0:0:
218,226,17655,1,0,0:0:0:0:
264,84,17821,1,2,0:0:0:0:
416,120,17988,2,0,L|396:44,1,75
396,308,18321,2,0,L|409:230,1,75
215,219,18655,1,0,0:0:0:0:
320,219,18821,1,0,0:0:0:0:
267,310,18988,1,0,0:0:0:0:
208,217,19155,5,0,0:0:0:0:
323,227,19321,1,2,0:0:0:0:
256,322,19488,1,0,0:0:0:0:
201,214,19655,5,2,0:0:0:0:
326,236,19821,1,0,0:0:0:0:
243,334,19988,1,0,0:0:0:0:
138,322,20155,5,0,0:0:0:0:
58,253,20322,6,0,B|57:212|57:212|62:175,1,75,2|0,0:0|0:0,0:0:0:0:
129,42,20655,2,0,B|130:83|130:83|125:120,1,75
32,72,20988,1,0,0:0:0:0:
224,128,21155,1,0,0:0:0:0:
232,116,21488,5,0,0:0:0:0:
376,68,21655,2,0,P|372:192|356:224,1,150
362,213,22155,1,0,0:0:0:0:
136,244,22321,2,0,P|140:120|156:88,1,150,2|0,0:0|0:0,0:0:0:0:
136,244,22821,1,2,0:0:0:0:
248,344,22988,6,0,P|308:352|336:340,1,75
360,204,23321,2,0,P|300:196|272:208,1,75,2|0,0:0|0:0,0:0:0:0:
234,342,23655,2,0,P|293:355|322:346,1,75,0|2,0:0|0:0,0:0:0:0:
324,120,23988,2,0,L|328:40,1,75
108,153,24322,1,2,0:0:0:0:
204,108,24488,1,0,0:0:0:0:
120,44,24655,6,0,P|64:56|24:40,1,75,0|2,0:0|0:0,0:0:0:0:
52,276,24988,2,0,P|40:241|44:204,1,75
196,316,25322,1,0,0:0:0:0:
60,293,25488,1,0,0:0:0:0:
196,228,25655,5,0,0:0:0:0:
69,310,25822,5,0,0:0:0:0:
218,324,25988,1,0,0:0:0:0:
304,200,26155,1,0,0:0:0:0:
160,152,26322,1,2,0:0:0:0:
304,120,26488,1,0,0:0:0:0:
308,284,26655,1,2,0:0:0:0:
392,148,26822,1,0,0:0:0:0:
315,117,26988,1,0,0:0:0:0:
304,297,27155,1,0,0:0:0:0:
409,156,27322,5,2,0:0:0:0:
220,220,27488,1,0,0:0:0:0:
88,88,27655,1,2,0:0:0:0:
235,232,27822,1,0,0:0:0:0:
100,296,27988,1,0,0:0:0:0:
254,237,28155,1,0,0:0:0:0:
220,92,28322,2,0,L|228:12,2,75
220,92,28822,1,0,0:0:0:0:
352,160,28988,6,0,L|344:248,1,75
220,324,29322,1,0,0:0:0:0:
188,176,29488,1,0,0:0:0:0:
92,292,29655,1,0,0:0:0:0:
256,240,29822,1,0,0:0:0:0:
36,136,29988,6,0,L|48:52,1,75,2|0,0:0|0:0,0:0:0:0:
29,194,30322,6,0,L|18:110,1,75,2|0,0:0|0:0,0:0:0:0:
37,253,30655,6,0,L|5:174,1,75,2|0,0:0|0:0,0:0:0:0:
216,104,30988,2,0,P|280:112|312:36,1,150
216,104,31488,1,0,0:0:0:0:
312,220,31655,1,0,0:0:0:0:
168,180,31822,1,0,0:0:0:0:
144,32,31988,1,0,0:0:0:0:
140,48,32322,5,2,0:0:0:0:
136,64,32488,5,0,0:0:0:0:
132,80,32655,5,2,0:0:0:0:
128,96,32822,5,0,0:0:0:0:
84,280,32988,6,0,B|164:268|152:308|232:296,1,146.249993305207
