osu file format v14

[General]
AudioFilename: audio.mp3
AudioLeadIn: 0
PreviewTime: 108177
Countdown: 0
SampleSet: Soft
StackLeniency: 0.3
Mode: 0
LetterboxInBreaks: 0
WidescreenStoryboard: 1

[Editor]
Bookmarks: 47638,68254,83177,168561,225177
DistanceSpacing: 1.4
BeatDivisor: 4
GridSize: 16
TimelineZoom: 2.2

[Metadata]
Title:I Bet You'll Forget That Even If You Noticed That
TitleUnicode:I Bet You'll Forget That Even If You Noticed That
Artist:Foreground Eclipse
ArtistUnicode:Foreground Eclipse
Creator:Seni
Version:Hard
Source:東方永夜抄 ~ Imperishable Night.
Tags:Akitoshi Corinn Bergy touhou doujin screamo Extend Ash Hourai Victim Fujiwara no Mokou Teto Meramipop Merami Comiket 81 c81 エクステンドアッシュ ~ 蓬莱人
BeatmapID:1343055
BeatmapSetID:601135

[Difficulty]
HPDrainRate:5
CircleSize:3
OverallDifficulty:6
ApproachRate:8
SliderMultiplier:1.7
SliderTickRate:1

[Events]
//Background and Video events
0,0,"bow_feathers_fire_fujiwara_no_mokou_imouko_long_hair_red_eyes_shirt_touhou_white_hair_1600x900.jpg",0,0
//Break Periods
2,128146,137042
2,171223,178888
2,189684,196119
//Storyboard Layer 0 (Background)
//Storyboard Layer 1 (Fail)
//Storyboard Layer 2 (Pass)
//Storyboard Layer 3 (Foreground)
//Storyboard Sound Samples

[TimingPoints]
18408,307.692307692308,4,2,3,100,1,0
28254,-100,4,2,3,60,0,0
49177,-133.333333333333,4,2,3,60,0,0
68869,-100,4,2,3,60,0,0
88254,-133.333333333333,4,2,3,60,0,0
93484,-133.333333333333,4,2,3,80,0,0
98408,-133.333333333333,4,2,3,60,0,0
103331,-133.333333333333,4,2,3,60,0,0
108254,-100,4,2,3,80,0,1
127946,-133.333333333333,4,2,3,60,0,0
137792,-100,4,2,3,80,0,1
147638,-100,4,2,3,80,0,0
150100,-133.333333333333,4,2,3,80,0,0
184561,-133.333333333333,4,2,3,80,0,1
189177,-133.333333333333,4,2,3,80,0,0
198561,-100,4,2,3,80,0,0
199331,-100,4,2,3,80,0,1
232561,-100,4,2,3,80,0,0

[Colours]
Combo1 : 192,192,192
Combo2 : 255,0,0
Combo3 : 255,255,128
Combo4 : 255,128,0

[HitObjects]
96,125,28254,6,0,P|143:150|270:101,1,170,6|8,0:0|0:0,0:0:0:0:
174,43,28715,1,2,0:0:0:0:
393,103,29023,1,2,0:0:0:0:
393,103,29100,1,2,0:0:0:0:
393,103,29177,2,0,L|384:218,1,85,8|2,0:0|0:0,0:0:0:0:
299,273,29484,6,0,L|283:80,1,170,2|8,0:0|0:0,0:0:0:0:
174,43,29946,1,2,0:0:0:0:
83,252,30254,1,2,0:0:0:0:
83,252,30331,1,2,0:0:0:0:
83,252,30408,2,0,B|127:265|127:265|182:251,1,85,8|2,0:0|0:0,0:0:0:0:
277,216,30715,6,0,B|365:192|365:192|468:222,1,170,2|8,0:0|0:0,0:0:0:0:
366,308,31177,1,2,0:0:0:0:
164,363,31484,1,2,0:0:0:0:
164,363,31561,1,2,0:0:0:0:
164,363,31638,2,0,L|159:251,1,85,8|2,0:0|0:0,0:0:0:0:
74,191,31946,6,0,P|125:159|173:154,1,85,2|2,0:0|0:0,0:0:0:0:
234,241,32254,2,0,P|183:273|135:278,1,85,8|2,0:0|0:0,0:0:0:0:
46,240,32561,2,0,B|33:200|33:200|48:119,1,85,2|2,0:0|0:0,0:0:0:0:
61,101,32792,1,2,0:0:0:0:
61,101,32869,2,0,L|172:89,1,85,8|2,0:0|0:0,0:0:0:0:
236,22,33177,6,0,P|254:139|202:189,1,170,6|8,0:0|0:0,0:0:0:0:
145,91,33638,1,2,0:0:0:0:
390,70,33946,1,2,0:0:0:0:
390,70,34023,1,2,0:0:0:0:
390,70,34100,2,0,L|489:77,1,85,8|2,0:0|0:0,0:0:0:0:
508,189,34408,6,0,L|309:202,1,170,2|8,0:0|0:0,0:0:0:0:
232,145,34869,1,2,0:0:0:0:
439,74,35177,1,2,0:0:0:0:
439,74,35254,1,2,0:0:0:0:
439,74,35331,2,0,L|437:193,1,85,8|2,0:0|0:0,0:0:0:0:
501,249,35638,6,0,P|425:198|337:220,1,170,2|8,0:0|0:0,0:0:0:0:
277,304,36100,1,2,0:0:0:0:
134,130,36408,1,2,0:0:0:0:
134,130,36484,1,2,0:0:0:0:
134,130,36561,2,0,L|255:124,1,85,8|2,0:0|0:0,0:0:0:0:
295,33,36869,6,0,L|370:36,4,42.5,12|2|2|2|12,0:0|0:0|0:0|0:0|0:0,0:0:0:0:
372,124,37331,1,2,0:0:0:0:
447,64,37484,1,12,0:0:0:0:
447,64,37561,1,8,0:0:0:0:
447,64,37638,2,0,L|494:66,4,42.5,8|8|8|8|8,0:0|0:0|0:0|0:0|0:0,0:0:0:0:
490,175,38100,6,0,B|516:260|516:260|480:373,1,170,6|8,0:0|0:0,0:0:0:0:
405,254,38561,1,2,0:0:0:0:
203,340,38869,1,2,0:0:0:0:
203,340,38946,1,2,0:0:0:0:
203,340,39023,2,0,P|138:350|88:322,1,85,8|2,0:0|0:0,0:0:0:0:
160,242,39331,6,0,P|192:137|145:68,1,170,2|8,0:0|0:0,0:0:0:0:
73,161,39792,1,2,0:0:0:0:
276,38,40100,1,2,0:0:0:0:
276,38,40177,1,2,0:0:0:0:
276,38,40254,2,0,L|388:47,1,85,8|2,0:0|0:0,0:0:0:0:
423,146,40561,6,0,L|244:157,1,170,2|8,0:0|0:0,0:0:0:0:
149,96,41023,1,2,0:0:0:0:
28,289,41331,1,2,0:0:0:0:
28,289,41408,1,2,0:0:0:0:
28,289,41484,2,0,L|122:296,1,85,8|2,0:0|0:0,0:0:0:0:
220,348,41792,6,0,L|332:339,1,85,2|2,0:0|0:0,0:0:0:0:
404,274,42100,2,0,P|419:223|404:167,1,85,8|2,0:0|0:0,0:0:0:0:
297,216,42408,2,0,L|185:207,1,85,2|2,0:0|0:0,0:0:0:0:
162,243,42639,1,2,0:0:0:0:
162,243,42715,2,0,P|155:289|169:334,1,85,8|2,0:0|0:0,0:0:0:0:
275,279,43023,6,0,B|291:201|291:201|261:77,1,170,6|8,0:0|0:0,0:0:0:0:
334,10,43484,1,2,0:0:0:0:
112,9,43792,1,2,0:0:0:0:
112,9,43869,1,2,0:0:0:0:
112,9,43946,2,0,L|135:129,1,85,8|2,0:0|0:0,0:0:0:0:
200,188,44254,6,0,P|281:217|376:152,1,170,2|8,0:0|0:0,0:0:0:0:
273,96,44715,1,2,0:0:0:0:
67,186,45023,1,2,0:0:0:0:
67,186,45100,1,2,0:0:0:0:
67,186,45177,2,0,L|43:306,1,85,8|2,0:0|0:0,0:0:0:0:
152,330,45484,6,0,P|231:350|314:302,1,170,2|8,0:0|0:0,0:0:0:0:
217,231,45945,1,2,0:0:0:0:
399,129,46254,1,2,0:0:0:0:
399,129,46331,1,2,0:0:0:0:
399,129,46408,2,0,L|417:222,1,85,8|2,0:0|0:0,0:0:0:0:
484,309,46715,6,0,P|421:329|372:317,1,85,6|2,0:0|0:0,0:0:0:0:
316,245,47023,2,0,P|273:225|226:223,1,85,8|2,0:0|0:0,0:0:0:0:
246,341,47331,1,8,0:0:0:0:
246,341,47408,1,8,0:0:0:0:
246,341,47484,1,2,0:0:0:0:
142,282,47638,2,0,P|126:242|126:200,1,85,12|2,0:0|0:0,0:0:0:0:
256,192,47946,12,0,48869,0:0:0:0:
196,97,49177,6,0,B|228:109|228:109|343:89,1,127.500004863739,6|8,0:0|0:0,0:0:0:0:
495,65,49792,1,0,0:0:0:0:
495,65,50100,1,8,0:0:0:0:
495,65,50408,6,0,L|489:155,1,63.7500024318696,2|2,0:0|0:0,0:0:0:0:
405,183,50715,2,0,L|400:111,1,63.7500024318696,8|0,0:0|0:0,0:0:0:0:
335,39,51023,2,0,P|270:26|193:61,1,127.500004863739,0|8,0:0|0:0,0:0:0:0:
34,143,51638,6,0,L|39:215,1,63.7500024318696,2|2,0:0|0:0,0:0:0:0:
45,309,51946,2,0,L|191:318,1,127.500004863739,8|0,0:0|0:0,0:0:0:0:
267,167,52561,1,8,0:0:0:0:
267,167,52869,6,0,L|338:171,1,63.7500024318696,2|2,0:0|0:0,0:0:0:0:
384,252,53177,2,0,L|473:245,1,63.7500024318696,8|0,0:0|0:0,0:0:0:0:
504,165,53484,1,0,0:0:0:0:
504,165,53792,1,8,0:0:0:0:
504,165,54100,6,0,L|499:93,1,63.7500024318696,2|2,0:0|0:0,0:0:0:0:
411,31,54408,2,0,B|376:26|376:26|326:36,1,63.7500024318696,8|0,0:0|0:0,0:0:0:0:
379,132,54715,2,0,L|374:203,1,63.7500024318696,0|0,0:0|0:0,0:0:0:0:
299,282,55023,1,8,0:0:0:0:
88,321,55331,6,0,P|79:285|91:235,1,63.7500024318696,2|2,0:0|0:0,0:0:0:0:
176,220,55638,2,0,P|185:256|173:306,1,63.7500024318696,8|0,0:0|0:0,0:0:0:0:
266,341,55946,2,0,L|414:347,1,127.500004863739,0|8,0:0|0:0,0:0:0:0:
474,159,56561,6,0,L|483:66,1,63.7500024318696,2|2,0:0|0:0,0:0:0:0:
386,52,56869,2,0,L|393:123,1,63.7500024318696,8|0,0:0|0:0,0:0:0:0:
327,195,57177,2,0,P|285:204|240:193,1,63.7500024318696,0|0,0:0|0:0,0:0:0:0:
285,101,57484,1,8,0:0:0:0:
63,107,57792,6,0,L|69:177,1,63.7500024318696,2|2,0:0|0:0,0:0:0:0:
164,208,58100,2,0,P|199:197|252:206,1,63.7500024318696,8|0,0:0|0:0,0:0:0:0:
210,299,58408,1,0,0:0:0:0:
219,308,58715,1,8,0:0:0:0:
219,308,58869,1,0,0:0:0:0:
219,308,59023,6,0,P|264:309|299:331,1,63.7500024318696,6|0,0:0|0:0,0:0:0:0:
375,334,59331,2,0,P|420:332|455:310,1,63.7500024318696,8|0,0:0|0:0,0:0:0:0:
387,232,59638,2,0,B|375:184|375:184|386:79,1,127.500004863739,0|8,0:0|0:0,0:0:0:0:
198,23,60254,6,0,L|189:104,1,63.7500024318696,2|2,0:0|0:0,0:0:0:0:
85,77,60561,2,0,L|92:147,1,63.7500024318696,8|0,0:0|0:0,0:0:0:0:
155,228,60869,2,0,P|103:249|16:219,1,127.500004863739,0|8,0:0|0:0,0:0:0:0:
243,170,61484,1,2,0:0:0:0:
243,170,61638,6,0,B|258:212|258:212|243:320,2,127.500004863739,2|0|0,0:0|0:0|0:0,0:0:0:0:
163,94,62408,2,0,L|157:22,1,63.7500024318696,8|0,0:0|0:0,0:0:0:0:
264,50,62715,2,0,P|298:57|333:53,1,63.7500024318696,2|2,0:0|0:0,0:0:0:0:
417,115,63023,2,0,P|451:106|486:110,1,63.7500024318696,8|0,0:0|0:0,0:0:0:0:
462,216,63331,2,0,L|465:287,1,63.7500024318696,0|0,0:0|0:0,0:0:0:0:
407,372,63638,1,8,0:0:0:0:
225,313,63946,6,0,L|222:242,1,63.7500024318696,2|2,0:0|0:0,0:0:0:0:
296,170,64253,1,8,0:0:0:0:
296,170,64561,2,0,L|390:174,1,63.7500024318696,0|0,0:0|0:0,0:0:0:0:
358,281,64869,2,0,L|429:277,1,63.7500024318696,8|0,0:0|0:0,0:0:0:0:
472,180,65177,1,2,0:0:0:0:
472,180,65331,2,0,L|470:333,1,127.500004863739,2|0,0:0|0:0,0:0:0:0:
363,333,65792,2,0,B|331:327|331:327|285:337,1,63.7500024318696,0|0,0:0|0:0,0:0:0:0:
231,247,66100,2,0,B|199:253|199:253|153:243,1,63.7500024318696,8|0,0:0|0:0,0:0:0:0:
61,209,66408,6,0,L|59:362,1,127.500004863739,2|8,0:0|0:0,0:0:0:0:
276,333,67023,2,0,P|336:358|405:334,1,127.500004863739,0|8,0:0|0:0,0:0:0:0:
341,131,67638,2,0,L|342:284,1,127.500004863739,2|8,0:0|0:0,0:0:0:0:
405,50,68254,2,0,P|345:25|276:49,1,127.500004863739,2|8,0:0|0:0,0:0:0:0:
510,218,68869,6,0,L|508:123,1,85,6|2,0:0|0:0,0:0:0:0:
405,50,69177,2,0,L|403:144,1,85,8|0,0:0|0:0,0:0:0:0:
332,241,69484,2,0,P|275:251|226:230,1,85,2|2,0:0|0:0,0:0:0:0:
199,126,69792,2,0,P|256:116|305:137,1,85,8|0,0:0|0:0,0:0:0:0:
249,244,70100,6,0,L|250:338,1,85,2|2,0:0|0:0,0:0:0:0:
345,243,70408,2,0,P|390:231|436:241,1,85,8|0,0:0|0:0,0:0:0:0:
393,360,70715,2,0,B|408:295|408:295|380:169,1,170,2|8,0:0|0:0,0:0:0:0:
169,57,71331,6,0,P|226:45|279:62,1,85,2|2,0:0|0:0,0:0:0:0:
220,173,71638,2,0,L|219:287,1,85,8|0,0:0|0:0,0:0:0:0:
123,343,71946,1,2,0:0:0:0:
123,343,72254,6,0,P|180:355|233:338,1,85,8|2,0:0|0:0,0:0:0:0:
262,236,72561,2,0,P|308:228|354:240,1,85,2|2,0:0|0:0,0:0:0:0:
416,342,72869,2,0,P|458:346|498:334,1,85,8|0,0:0|0:0,0:0:0:0:
445,217,73177,2,0,P|478:132|425:50,1,170,2|8,0:0|0:0,0:0:0:0:
233,184,73792,6,0,L|127:190,1,85,2|2,0:0|0:0,0:0:0:0:
198,70,74100,2,0,L|303:76,1,85,8|0,0:0|0:0,0:0:0:0:
338,190,74408,2,0,P|320:242|270:279,1,85,2|2,0:0|0:0,0:0:0:0:
172,269,74715,2,0,P|139:235|125:190,1,85,8|0,0:0|0:0,0:0:0:0:
23,123,75023,5,2,0:0:0:0:
23,123,75177,1,2,0:0:0:0:
0,248,75331,2,0,B|-10:297|-10:297|11:367,1,85,8|0,0:0|0:0,0:0:0:0:
121,292,75638,2,0,B|198:277|198:277|323:302,1,170,2|8,0:0|0:0,0:0:0:0:
464,109,76254,6,0,L|455:225,1,85,2|2,0:0|0:0,0:0:0:0:
338,205,76561,2,0,L|330:110,1,85,8|0,0:0|0:0,0:0:0:0:
257,25,76869,2,0,P|204:9|139:29,1,85,2|2,0:0|0:0,0:0:0:0:
115,115,77177,2,0,P|161:109|206:124,1,85,8|2,0:0|0:0,0:0:0:0:
147,227,77484,2,0,L|154:321,2,85,2|2|8,0:0|0:0|0:0,0:0:0:0:
265,243,77946,2,0,P|336:297|431:283,1,170,0|2,0:0|0:0,0:0:0:0:
368,180,78408,1,8,0:0:0:0:
148,89,78715,6,0,L|50:87,2,85,6|2|8,0:0|0:0|0:0,0:0:0:0:
260,27,79177,1,0,0:0:0:0:
260,27,79331,2,0,L|358:25,2,85,2|2|8,0:0|0:0|0:0,0:0:0:0:
212,141,79792,1,2,0:0:0:0:
212,141,79946,6,0,P|205:193|216:254,1,85,6|2,0:0|0:0,0:0:0:0:
313,281,80254,2,0,P|320:229|309:168,1,85,8|0,0:0|0:0,0:0:0:0:
419,137,80561,2,0,P|435:245|419:333,1,170,2|8,0:0|0:0,0:0:0:0:
213,350,81177,6,0,L|207:255,1,85,2|2,0:0|0:0,0:0:0:0:
115,190,81484,2,0,L|109:284,1,85,8|0,0:0|0:0,0:0:0:0:
7,337,81792,1,2,0:0:0:0:
7,337,82100,6,0,L|12:242,1,85,8|6,0:0|0:0,0:0:0:0:
96,167,82408,2,0,L|90:73,2,85,6|2|8,0:0|0:0|0:0,0:0:0:0:
210,198,82869,1,0,0:0:0:0:
210,198,83023,2,0,B|254:191|254:191|325:204,1,85,2|2,0:0|0:0,0:0:0:0:
326,313,83331,1,8,0:0:0:0:
500,152,83638,6,0,L|495:67,1,85,6|2,0:0|0:0,0:0:0:0:
392,5,83946,2,0,L|307:0,1,85,2|2,0:0|0:0,0:0:0:0:
247,104,84254,2,0,L|331:108,1,85,2|2,0:0|0:0,0:0:0:0:
277,214,84561,2,0,L|272:309,1,85,8|2,0:0|0:0,0:0:0:0:
160,330,84869,5,6,0:0:0:0:
160,330,85023,2,0,P|72:337|0:250,1,170,2|0,0:0|0:0,0:0:0:0:
113,222,85484,2,0,L|119:128,1,85,2|2,0:0|0:0,0:0:0:0:
167,27,85792,2,0,B|213:0|213:0|345:33,1,170,8|2,0:0|0:0,0:0:0:0:
417,226,86408,6,0,L|411:320,1,85,8|0,0:0|0:0,0:0:0:0:
303,360,86715,2,0,L|297:266,1,85,2|2,0:0|0:0,0:0:0:0:
228,179,87023,2,0,P|276:160|329:167,1,85,8|6,0:0|0:0,0:0:0:0:
417,226,87331,2,0,P|464:227|507:208,1,85,6|2,0:0|0:0,0:0:0:0:
440,123,87638,2,0,B|448:83|448:83|434:30,1,85,8|2,0:0|0:0,0:0:0:0:
326,87,87946,2,0,P|256:101|156:43,1,170,8|8,0:0|0:0,0:0:0:0:
26,166,88561,6,0,B|43:247|43:247|28:284|28:284|49:376,1,191.250007295609,6|8,0:0|0:0,0:0:0:0:
261,306,89484,1,8,0:0:0:0:
136,360,89792,6,0,B|120:293|120:293|135:256|135:256|118:175,1,191.250007295609,2|8,0:0|0:0,0:0:0:0:
366,114,90715,1,8,0:0:0:0:
462,208,91023,6,0,B|374:246|374:246|264:214,2,191.250007295609,2|8|8,0:0|0:0|0:0,0:0:0:0:
366,114,92254,2,0,L|381:324,1,191.250007295609,8|8,0:0|0:0,0:0:0:0:
151,343,93177,1,8,0:0:0:0:
151,343,93484,6,0,P|125:300|139:212,1,127.500004863739,6|8,0:0|0:0,0:0:0:0:
276,118,94100,1,2,0:0:0:0:
276,118,94408,1,8,0:0:0:0:
375,265,94715,2,0,L|244:272,1,127.500004863739,6|8,0:0|0:0,0:0:0:0:
105,162,95331,1,2,0:0:0:0:
105,162,95638,1,8,0:0:0:0:
237,41,95946,6,0,L|246:168,1,127.500004863739,6|8,0:0|0:0,0:0:0:0:
263,346,96561,1,2,0:0:0:0:
263,346,96869,1,8,0:0:0:0:
441,334,97177,2,0,L|431:206,1,127.500004863739,6|8,0:0|0:0,0:0:0:0:
391,36,97792,1,2,0:0:0:0:
391,36,98100,2,0,L|394:-8,2,31.8750012159348,8|0|0,0:0|0:0|0:0,0:0:0:0:
302,53,98408,6,0,B|231:45|231:45|191:64|191:64|100:54,1,191.250007295609,6|8,0:0|0:0,0:0:0:0:
142,263,99331,1,8,0:0:0:0:
245,345,99638,2,0,B|276:280|276:280|250:149,1,191.250007295609,2|8,0:0|0:0,0:0:0:0:
25,130,100561,1,8,0:0:0:0:
157,66,100869,6,0,B|249:34|249:34|369:64,2,191.250007295609,2|8|8,0:0|0:0|0:0,0:0:0:0:
25,130,102100,2,0,P|0:233|60:311,1,191.250007295609,8|8,0:0|0:0,0:0:0:0:
267,350,103023,1,8,0:0:0:0:
385,252,103331,6,0,L|529:261,1,127.500004863739,6|2,0:0|0:0,0:0:0:0:
488,109,103946,2,0,L|344:118,1,127.500004863739,2|2,0:0|0:0,0:0:0:0:
217,62,104561,2,0,P|203:133|229:201,1,127.500004863739,6|2,0:0|0:0,0:0:0:0:
362,240,105177,2,0,P|376:169|350:101,1,127.500004863739,2|2,0:0|0:0,0:0:0:0:
217,62,105792,1,14,0:0:0:0:
256,192,105869,12,10,107638,0:0:0:0:
115,239,108254,6,0,L|228:250,1,85,6|2,0:0|0:0,0:0:0:0:
297,165,108561,2,0,L|184:154,1,85,8|2,0:0|0:0,0:0:0:0:
294,57,108869,2,0,P|360:78|402:186,1,170,2|8,0:0|0:0,0:0:0:0:
470,274,109331,6,0,B|408:289|408:289|269:266,1,170,2|2,0:0|0:0,0:0:0:0:
200,346,109792,2,0,L|293:360,1,85,8|2,0:0|0:0,0:0:0:0:
411,341,110100,2,0,L|426:139,1,170,0|8,0:0|0:0,0:0:0:0:
487,60,110561,1,2,0:0:0:0:
359,54,110715,6,0,P|314:69|245:52,1,85,6|0,0:0|0:0,0:0:0:0:
160,13,111023,2,0,P|112:10|68:26,1,85,8|2,0:0|0:0,0:0:0:0:
133,133,111331,2,0,L|140:221,1,85,0|2,0:0|0:0,0:0:0:0:
139,217,111561,1,2,0:0:0:0:
139,217,111638,1,8,0:0:0:0:
252,159,111792,1,2,0:0:0:0:
261,272,111946,6,0,L|270:376,2,85,2|2|8,0:0|0:0|0:0,0:0:0:0:
252,159,112408,1,2,0:0:0:0:
378,153,112561,2,0,L|472:145,1,85,2|2,0:0|0:0,0:0:0:0:
495,191,112792,1,2,0:0:0:0:
495,191,112869,2,0,P|505:233|499:285,1,85,8|2,0:0|0:0,0:0:0:0:
386,243,113177,6,0,L|196:259,1,170,6|8,0:0|0:0,0:0:0:0:
97,267,113638,1,2,0:0:0:0:
45,159,113792,2,0,L|139:167,1,85,0|2,0:0|0:0,0:0:0:0:
184,176,114023,1,2,0:0:0:0:
184,176,114100,2,0,P|194:134|188:82,1,85,8|2,0:0|0:0,0:0:0:0:
298,40,114408,6,0,P|292:123|364:200,1,170,2|8,0:0|0:0,0:0:0:0:
407,88,114869,1,2,0:0:0:0:
486,176,115023,2,0,B|499:222|499:222|485:295,1,85,0|2,0:0|0:0,0:0:0:0:
480,313,115254,1,2,0:0:0:0:
480,313,115331,2,0,L|386:321,1,85,8|2,0:0|0:0,0:0:0:0:
280,362,115638,6,0,B|268:309|268:309|298:168,1,170,6|8,0:0|0:0,0:0:0:0:
364,90,116100,1,2,0:0:0:0:
239,62,116254,2,0,B|197:75|197:75|119:59,1,85,0|2,0:0|0:0,0:0:0:0:
143,120,116484,1,2,0:0:0:0:
143,120,116561,2,0,L|124:213,1,85,8|2,0:0|0:0,0:0:0:0:
36,283,116869,6,0,L|38:355,4,42.5,2|2|2|2|8,0:0|0:0|0:0|0:0|0:0,0:0:0:0:
125,203,117331,1,2,0:0:0:0:
156,317,117484,2,0,L|158:389,4,42.5,8|2|2|2|12,0:0|0:0|0:0|0:0|0:0,0:0:0:0:
261,259,117946,1,2,0:0:0:0:
261,259,118023,1,2,0:0:0:0:
261,259,118100,6,0,P|316:265|385:254,1,85,6|0,0:0|0:0,0:0:0:0:
404,158,118408,2,0,P|349:152|280:163,1,85,8|2,0:0|0:0,0:0:0:0:
201,170,118715,2,0,P|104:183|6:166,1,170,0|8,0:0|0:0,0:0:0:0:
81,63,119177,6,0,P|178:50|276:67,1,170,2|2,0:0|0:0,0:0:0:0:
355,113,119638,1,8,0:0:0:0:
453,45,119792,2,0,P|475:125|415:219,1,170,2|2,0:0|0:0,0:0:0:0:
400,234,120177,1,2,0:0:0:0:
399,233,120254,2,0,L|293:239,1,85,8|2,0:0|0:0,0:0:0:0:
222,326,120561,6,0,B|199:270|199:270|214:137,1,170,6|8,0:0|0:0,0:0:0:0:
305,73,121023,2,0,B|328:129|328:129|313:262,1,170,2|2,0:0|0:0,0:0:0:0:
366,355,121484,2,0,L|460:349,1,85,8|2,0:0|0:0,0:0:0:0:
507,234,121792,6,0,L|412:228,2,85,2|2|8,0:0|0:0|0:0,0:0:0:0:
469,111,122254,1,2,0:0:0:0:
355,105,122408,2,0,L|260:99,1,85,2|2,0:0|0:0,0:0:0:0:
214,96,122638,1,2,0:0:0:0:
214,96,122715,2,0,P|198:138|214:202,1,85,8|2,0:0|0:0,0:0:0:0:
88,216,123023,6,0,L|286:227,1,170,6|8,0:0|0:0,0:0:0:0:
308,342,123484,2,0,L|109:330,1,170,2|2,0:0|0:0,0:0:0:0:
82,324,123869,1,2,0:0:0:0:
82,324,123946,2,0,B|73:279|73:279|93:210,1,85,8|2,0:0|0:0,0:0:0:0:
149,140,124254,6,0,P|210:175|329:127,1,170,6|8,0:0|0:0,0:0:0:0:
233,57,124715,2,0,P|312:34|387:71,1,170,2|2,0:0|0:0,0:0:0:0:
410,127,125100,1,2,0:0:0:0:
410,127,125177,2,0,L|412:211,1,85,8|2,0:0|0:0,0:0:0:0:
294,222,125484,6,0,L|95:233,1,170,6|8,0:0|0:0,0:0:0:0:
105,353,125946,2,0,L|303:341,1,170,2|2,0:0|0:0,0:0:0:0:
330,342,126331,1,2,0:0:0:0:
330,342,126408,2,0,L|429:336,1,85,8|2,0:0|0:0,0:0:0:0:
498,251,126715,5,12,0:0:0:0:
498,251,126792,1,8,0:0:0:0:
498,251,126869,1,8,0:0:0:0:
426,140,127023,2,0,L|327:134,1,85,6|8,0:0|0:0,0:0:0:0:
264,237,127331,2,0,L|169:242,1,85,6|8,0:0|0:0,0:0:0:0:
147,117,127638,2,0,L|48:111,1,85,8|6,0:0|0:0,0:0:0:0:
3,223,127946,1,6,0:0:0:0:
16,145,137792,6,0,L|18:240,1,85,6|2,0:0|0:0,0:0:0:0:
116,298,138100,2,0,L|118:204,1,85,2|8,0:0|0:0,0:0:0:0:
194,132,138407,2,0,P|251:122|300:143,1,85,2|2,0:0|0:0,0:0:0:0:
322,239,138715,2,0,P|265:249|216:228,1,85,8|2,0:0|0:0,0:0:0:0:
276,128,139023,6,0,L|275:34,1,85,8|2,0:0|0:0,0:0:0:0:
194,132,139331,2,0,P|137:142|88:121,1,85,2|8,0:0|0:0,0:0:0:0:
154,24,139638,2,0,B|139:89|139:89|168:214,1,170,2|8,0:0|0:0,0:0:0:0:
358,326,140254,6,0,P|301:338|248:321,1,85,8|2,0:0|0:0,0:0:0:0:
308,219,140561,2,0,L|314:105,1,85,2|8,0:0|0:0,0:0:0:0:
402,54,140869,1,2,0:0:0:0:
402,54,141177,6,0,P|345:42|292:59,1,85,8|2,0:0|0:0,0:0:0:0:
258,148,141484,2,0,P|212:156|166:144,1,85,8|2,0:0|0:0,0:0:0:0:
127,38,141792,2,0,P|70:26|17:43,1,85,2|8,0:0|0:0,0:0:0:0:
75,146,142100,2,0,P|41:230|94:312,1,170,2|8,0:0|0:0,0:0:0:0:
279,200,142715,6,0,L|385:194,1,85,8|2,0:0|0:0,0:0:0:0:
317,305,143023,2,0,L|212:299,1,85,2|8,0:0|0:0,0:0:0:0:
175,194,143331,2,0,P|193:142|243:105,1,85,2|2,0:0|0:0,0:0:0:0:
332,113,143638,2,0,P|365:147|379:192,1,85,8|2,0:0|0:0,0:0:0:0:
471,256,143946,5,8,0:0:0:0:
471,256,144100,1,2,0:0:0:0:
500,140,144254,2,0,B|507:95|507:95|490:32,1,85,2|8,0:0|0:0,0:0:0:0:
386,102,144561,2,0,B|309:117|309:117|184:92,1,170,2|8,0:0|0:0,0:0:0:0:
53,271,145177,6,0,L|62:155,1,85,8|2,0:0|0:0,0:0:0:0:
170,228,145484,2,0,L|178:323,1,85,2|8,0:0|0:0,0:0:0:0:
288,356,145792,2,0,P|343:358|401:323,1,85,2|2,0:0|0:0,0:0:0:0:
447,255,146100,1,8,0:0:0:0:
416,139,146254,1,2,0:0:0:0:
299,120,146407,6,0,L|292:26,2,85,8|2|2,0:0|0:0|0:0,0:0:0:0:
185,80,146869,1,8,0:0:0:0:
176,198,147023,2,0,L|169:292,1,85,2|2,0:0|0:0,0:0:0:0:
57,325,147331,2,0,L|50:231,1,85,8|2,0:0|0:0,0:0:0:0:
41,121,147638,1,6,0:0:0:0:
256,192,147715,12,8,149792,3:0:0:0:
71,62,150100,6,0,L|216:65,2,127.500004863739,6|8|2,0:0|0:0|0:0,0:0:0:0:
10,230,151023,1,8,0:0:0:0:
166,315,151331,2,0,P|186:260|174:165,2,127.500004863739,2|8|0,0:0|0:0|0:0,0:0:0:0:
10,230,152254,1,8,0:0:0:0:
169,150,152561,2,0,L|314:153,2,127.500004863739,2|8|2,0:0|0:0|0:0,0:0:0:0:
277,7,153484,1,8,0:0:0:0:
435,89,153792,2,0,B|456:145|456:145|440:238,2,127.500004863739,2|8|0,0:0|0:0|0:0,0:0:0:0:
277,7,154715,1,8,0:0:0:0:
169,150,155023,6,0,L|26:153,2,127.500004863739,2|8|2,0:0|0:0|0:0,0:0:0:0:
318,247,155946,1,8,0:0:0:0:
163,336,156254,2,0,L|20:339,2,127.500004863739,2|8|0,0:0|0:0|0:0,0:0:0:0:
318,247,157177,1,8,0:0:0:0:
485,186,157484,6,0,P|498:269|478:328,1,127.500004863739,2|8,0:0|0:0,0:0:0:0:
318,247,158100,2,0,P|305:164|325:105,1,127.500004863739,2|8,0:0|0:0,0:0:0:0:
470,33,158715,2,0,L|322:23,1,127.500004863739,2|8,0:0|0:0,0:0:0:0:
231,165,159331,2,0,L|379:155,1,127.500004863739,2|8,0:0|0:0,0:0:0:0:
277,315,159946,5,6,0:0:0:0:
129,214,160254,2,0,B|116:164|116:164|143:62,2,127.500004863739,8|2|8,0:0|0:0|0:0,0:0:0:0:
297,154,161177,2,0,L|154:163,1,127.500004863739,2|8,0:0|0:0,0:0:0:0:
200,338,161792,2,0,L|57:347,1,127.500004863739,2|8,0:0|0:0,0:0:0:0:
7,179,162408,5,2,0:0:0:0:
158,86,162715,2,0,L|300:95,2,127.500004863739,8|2|8,0:0|0:0|0:0,0:0:0:0:
210,258,163638,2,0,B|270:273|270:273|352:259,1,127.500004863739,2|8,0:0|0:0,0:0:0:0:
409,98,164254,2,0,B|349:83|349:83|267:97,1,127.500004863739,2|8,0:0|0:0,0:0:0:0:
117,28,164869,5,2,0:0:0:0:
17,176,165177,2,0,L|26:332,1,127.500004863739,8|2,0:0|0:0,0:0:0:0:
179,214,165792,2,0,L|170:370,1,127.500004863739,8|2,0:0|0:0,0:0:0:0:
288,205,166408,2,0,P|270:148|197:106,2,127.500004863739,8|2|8,0:0|0:0|0:0,0:0:0:0:
371,362,167331,6,0,L|513:353,1,127.500004863739,2|8,0:0|0:0,0:0:0:0:
504,175,167946,2,0,L|361:166,1,127.500004863739,2|8,0:0|0:0,0:0:0:0:
206,112,168561,2,0,B|190:169|190:169|212:252,2,127.500004863739,2|8|2,0:0|0:0|0:0,0:0:0:0:
346,0,169484,1,8,0:0:0:0:
376,166,169792,1,6,0:0:0:0:
256,192,169869,12,0,171023,0:0:0:0:
441,62,179638,6,0,L|295:65,2,127.500004863739,6|8|2,0:0|0:0|0:0,0:0:0:0:
508,227,180561,1,8,0:0:0:0:
350,311,180869,2,0,P|330:256|342:161,2,127.500004863739,2|8|2,0:0|0:0|0:0,0:0:0:0:
508,227,181792,1,8,0:0:0:0:
343,158,182099,2,0,L|197:161,2,127.500004863739,2|8|2,0:0|0:0|0:0,0:0:0:0:
243,27,183022,1,8,0:0:0:0:
87,115,183330,2,0,B|68:165|68:165|86:260,2,127.500004863739,2|8|2,0:0|0:0|0:0,0:0:0:0:
243,27,184253,1,8,0:0:0:0:
273,202,184561,1,10,0:0:0:0:
256,192,184638,12,8,186408,0:0:0:0:
256,192,187023,5,8,0:0:0:0:
256,192,187100,12,8,188869,0:0:0:0:
256,192,189484,5,6,0:0:0:0:
256,192,196869,12,12,198100,3:0:0:0:
311,179,198561,6,0,P|345:122|315:3,1,170,12|12,0:0|0:0,0:0:0:0:
230,89,199023,1,12,0:0:0:0:
230,89,199331,6,0,P|175:83|106:94,1,85,6|2,0:0|0:0,0:0:0:0:
89,190,199639,2,0,P|144:196|213:185,1,85,8|2,0:0|0:0,0:0:0:0:
286,232,199946,2,0,B|374:211|374:211|477:236,1,170,0|8,0:0|0:0,0:0:0:0:
378,325,200408,6,0,B|290:346|290:346|187:321,1,170,2|2,0:0|0:0,0:0:0:0:
127,244,200869,1,8,0:0:0:0:
31,314,201023,2,0,P|9:234|70:137,1,170,2|2,0:0|0:0,0:0:0:0:
94,135,201408,1,2,0:0:0:0:
94,135,201485,2,0,L|200:129,1,85,8|2,0:0|0:0,0:0:0:0:
276,61,201792,6,0,B|299:117|299:117|284:250,1,170,6|8,0:0|0:0,0:0:0:0:
189,294,202254,2,0,B|166:238|166:238|181:105,1,170,2|2,0:0|0:0,0:0:0:0:
123,23,202715,2,0,L|29:29,1,85,8|2,0:0|0:0,0:0:0:0:
1,142,203023,6,0,L|96:148,2,85,2|2|8,0:0|0:0|0:0,0:0:0:0:
10,261,203485,1,2,0:0:0:0:
128,267,203639,2,0,L|223:273,1,85,2|2,0:0|0:0,0:0:0:0:
267,280,203869,1,2,0:0:0:0:
267,280,203946,2,0,P|282:237|267:173,1,85,8|2,0:0|0:0,0:0:0:0:
389,152,204254,6,0,L|191:141,1,170,6|8,0:0|0:0,0:0:0:0:
176,31,204715,2,0,L|375:43,1,170,2|2,0:0|0:0,0:0:0:0:
391,69,205100,1,2,0:0:0:0:
391,69,205177,2,0,B|399:113|399:113|380:183,1,85,8|2,0:0|0:0,0:0:0:0:
336,260,205485,6,0,P|268:228|154:273,1,170,2|8,0:0|0:0,0:0:0:0:
93,332,205946,2,0,P|161:364|275:319,1,170,2|2,0:0|0:0,0:0:0:0:
255,286,206331,1,2,0:0:0:0:
255,286,206408,2,0,L|250:166,1,85,8|2,0:0|0:0,0:0:0:0:
154,149,206715,6,0,L|353:138,1,170,6|8,0:0|0:0,0:0:0:0:
400,33,207176,2,0,L|202:45,1,170,2|2,0:0|0:0,0:0:0:0:
173,48,207562,1,2,0:0:0:0:
173,48,207638,2,0,L|74:54,1,85,8|2,0:0|0:0,0:0:0:0:
12,146,207946,5,8,0:0:0:0:
12,146,208023,1,2,0:0:0:0:
12,146,208100,1,2,0:0:0:0:
68,250,208254,2,0,L|115:247,4,42.5,0|0|0|0|2,0:0|0:0|0:0|0:0|0:0,0:0:0:0:
138,153,208715,1,2,0:0:0:0:
138,153,208792,1,2,0:0:0:0:
138,153,208869,2,0,L|237:159,1,85,12|2,0:0|0:0,0:0:0:0:
286,259,209177,6,0,L|191:253,1,85,6|2,0:0|0:0,0:0:0:0:
128,347,209484,2,0,L|222:352,1,85,8|2,0:0|0:0,0:0:0:0:
332,340,209792,2,0,P|377:278|340:185,1,170,0|8,0:0|0:0,0:0:0:0:
415,93,210254,6,0,B|353:78|353:78|211:101,1,170,2|2,0:0|0:0,0:0:0:0:
160,14,210715,2,0,L|253:0,1,85,8|2,0:0|0:0,0:0:0:0:
363,0,211023,2,0,L|378:202,1,170,0|8,0:0|0:0,0:0:0:0:
449,262,211484,1,2,0:0:0:0:
364,345,211638,6,0,P|319:329|250:346,1,85,6|2,0:0|0:0,0:0:0:0:
164,355,211946,2,0,P|116:358|72:342,1,85,8|2,0:0|0:0,0:0:0:0:
136,236,212254,2,0,L|145:126,1,85,0|2,0:0|0:0,0:0:0:0:
142,151,212484,1,2,0:0:0:0:
142,151,212561,1,8,0:0:0:0:
234,222,212715,1,2,0:0:0:0:
245,108,212869,6,0,L|254:4,2,85,2|2|8,0:0|0:0|0:0,0:0:0:0:
234,222,213331,1,2,0:0:0:0:
347,231,213484,2,0,L|441:239,1,85,2|2,0:0|0:0,0:0:0:0:
473,201,213715,1,2,0:0:0:0:
473,201,213792,2,0,P|483:159|477:107,1,85,8|2,0:0|0:0,0:0:0:0:
363,145,214100,6,0,L|173:129,1,170,6|8,0:0|0:0,0:0:0:0:
74,121,214561,1,2,0:0:0:0:
34,233,214715,2,0,L|128:225,1,85,0|2,0:0|0:0,0:0:0:0:
174,226,214946,1,2,0:0:0:0:
174,226,215023,2,0,B|186:271|186:271|178:320,1,85,8|2,0:0|0:0,0:0:0:0:
293,345,215331,6,0,B|304:271|304:271|284:171,1,170,2|8,0:0|0:0,0:0:0:0:
327,66,215792,1,2,0:0:0:0:
403,157,215946,2,0,L|501:155,1,85,0|2,0:0|0:0,0:0:0:0:
494,210,216177,1,2,0:0:0:0:
494,210,216254,2,0,L|496:308,1,85,8|2,0:0|0:0,0:0:0:0:
381,328,216561,6,0,L|377:158,1,170,6|8,0:0|0:0,0:0:0:0:
274,218,217023,1,2,0:0:0:0:
204,120,217177,2,0,B|163:109|163:109|84:123,1,85,0|2,0:0|0:0,0:0:0:0:
84,157,217407,1,2,0:0:0:0:
84,157,217484,2,0,L|86:255,1,85,8|2,0:0|0:0,0:0:0:0:
118,357,217792,6,0,L|212:347,1,85,2|2,0:0|0:0,0:0:0:0:
189,226,218100,2,0,L|283:216,1,85,8|2,0:0|0:0,0:0:0:0:
322,326,218408,2,0,L|416:316,1,85,0|2,0:0|0:0,0:0:0:0:
461,308,218638,1,2,0:0:0:0:
460,307,218715,2,0,B|471:266|471:266|457:187,1,85,8|2,0:0|0:0,0:0:0:0:
399,122,219023,6,0,L|314:130,1,85,6|2,0:0|0:0,0:0:0:0:
236,222,219331,2,0,L|320:230,1,85,8|2,0:0|0:0,0:0:0:0:
440,225,219638,2,0,P|507:155|489:58,1,170,0|8,0:0|0:0,0:0:0:0:
387,61,220100,2,0,B|308:45|308:45|220:65,1,170,2|2,0:0|0:0,0:0:0:0:
193,181,220561,1,8,0:0:0:0:
311,167,220715,2,0,P|333:247|264:345,1,170,2|2,0:0|0:0,0:0:0:0:
247,347,221100,1,2,0:0:0:0:
247,347,221177,2,0,L|141:336,1,85,8|2,0:0|0:0,0:0:0:0:
44,322,221484,6,0,B|21:266|21:266|36:133,1,170,6|8,0:0|0:0,0:0:0:0:
128,83,221946,2,0,B|151:139|151:139|136:272,1,170,2|2,0:0|0:0,0:0:0:0:
208,344,222407,2,0,L|302:338,1,85,8|2,0:0|0:0,0:0:0:0:
340,228,222715,6,0,L|245:234,2,85,2|2|8,0:0|0:0|0:0,0:0:0:0:
391,119,223177,1,2,0:0:0:0:
272,126,223331,2,0,L|177:132,1,85,2|2,0:0|0:0,0:0:0:0:
132,139,223561,1,2,0:0:0:0:
132,139,223638,2,0,P|116:96|132:32,1,85,8|2,0:0|0:0,0:0:0:0:
233,17,223946,6,0,L|431:6,1,170,6|8,0:0|0:0,0:0:0:0:
441,115,224407,2,0,L|242:127,1,170,2|2,0:0|0:0,0:0:0:0:
215,133,224792,1,2,0:0:0:0:
215,133,224869,2,0,B|206:179|206:179|226:247,1,85,8|2,0:0|0:0,0:0:0:0:
258,328,225177,6,0,L|447:316,1,170,6|8,0:0|0:0,0:0:0:0:
474,207,225638,2,0,L|284:217,1,170,2|2,0:0|0:0,0:0:0:0:
248,222,226023,1,2,0:0:0:0:
248,222,226100,2,0,L|244:115,1,85,8|2,0:0|0:0,0:0:0:0:
300,31,226407,6,0,B|255:23|255:23|96:35,1,170,6|8,0:0|0:0,0:0:0:0:
75,138,226869,2,0,B|119:145|119:145|279:134,1,170,2|2,0:0|0:0,0:0:0:0:
299,134,227254,1,2,0:0:0:0:
299,134,227331,2,0,L|383:127,1,85,8|2,0:0|0:0,0:0:0:0:
475,51,227638,6,0,B|496:136|496:136|456:252,1,170,6|8,0:0|0:0,0:0:0:0:
425,325,228100,2,0,L|255:338,1,170,2|2,0:0|0:0,0:0:0:0:
200,344,228484,1,2,0:0:0:0:
200,344,228561,2,0,L|191:242,1,85,8|2,0:0|0:0,0:0:0:0:
94,177,228869,6,0,L|102:75,2,85,6|2|6,0:0|0:0|0:0,0:0:0:0:
193,259,229330,1,2,0:0:0:0:
193,259,229484,2,0,L|199:343,2,85,6|2|6,0:0|0:0|0:0,0:0:0:0:
289,174,229946,1,2,0:0:0:0:
289,174,230100,6,0,L|297:72,2,85,6|2|6,0:0|0:0|0:0,0:0:0:0:
388,256,230561,1,2,0:0:0:0:
388,256,230715,2,0,L|394:340,2,85,6|2|6,0:0|0:0|0:0,0:0:0:0:
412,129,231177,1,2,0:0:0:0:
412,129,231331,6,0,L|318:139,1,85,6|8,0:0|0:0,0:0:0:0:
252,241,231638,2,0,L|158:232,1,85,6|8,0:0|0:0,0:0:0:0:
148,105,231946,2,0,L|54:115,1,85,6|8,0:0|0:0,0:0:0:0:
34,239,232254,2,0,B|25:284|25:284|37:341,1,85,12|8,0:0|0:0,0:0:0:0:
157,350,232561,5,12,0:0:0:0:
