osu file format v14

[General]
AudioFilename: audio.mp3
AudioLeadIn: 0
PreviewTime: 108177
Countdown: 0
SampleSet: Soft
StackLeniency: 0.3
Mode: 0
LetterboxInBreaks: 0
WidescreenStoryboard: 1

[Editor]
Bookmarks: 49177,78715,88561,147023,208638
DistanceSpacing: 1
BeatDivisor: 4
GridSize: 4
TimelineZoom: 2.799999

[Metadata]
Title:I Bet You'll Forget That Even If You Noticed That
TitleUnicode:I Bet You'll Forget That Even If You Noticed That
Artist:Foreground Eclipse
ArtistUnicode:Foreground Eclipse
Creator:Seni
Version:Extra
Source:東方永夜抄 ~ Imperishable Night.
Tags:Akitoshi Corinn Bergy touhou doujin screamo Extend Ash Hourai Victim Fujiwara no Mokou Teto Meramipop Merami Comiket 81 c81 エクステンドアッシュ ~ 蓬莱人
BeatmapID:1398002
BeatmapSetID:601135

[Difficulty]
HPDrainRate:5
CircleSize:3.8
OverallDifficulty:8.5
ApproachRate:9.2
SliderMultiplier:1.9
SliderTickRate:1

[Events]
//Background and Video events
0,0,"bow_feathers_fire_fujiwara_no_mokou_imouko_long_hair_red_eyes_shirt_touhou_white_hair_1600x900.jpg",0,0
//Break Periods
2,24407,25222
2,130608,136299
2,171223,179068
2,189684,193530
//Storyboard Layer 0 (Background)
//Storyboard Layer 1 (Fail)
//Storyboard Layer 2 (Pass)
//Storyboard Layer 3 (Foreground)
//Storyboard Sound Samples

[TimingPoints]
18408,307.692307692308,4,2,3,100,1,0
25792,-142.857142857143,4,2,3,80,0,0
26869,-100,4,2,3,80,0,0
47946,-125,4,2,3,80,0,0
49177,-125,4,2,3,80,0,0
60177,-125,4,2,3,5,0,0
60254,-125,4,2,3,80,0,0
61408,-125,4,2,3,5,0,0
61484,-125,4,2,3,80,0,0
63869,-125,4,2,3,5,0,0
63946,-125,4,2,3,80,0,0
66331,-125,4,2,3,5,0,0
66408,-125,4,2,3,80,0,0
68869,-100,4,2,3,80,0,0
78638,-100,4,2,3,5,0,0
78715,-100,4,2,3,80,0,0
88715,-133.333333333333,4,2,3,80,0,0
103331,-100,4,2,3,80,0,0
108254,-83.3333333333333,4,2,3,100,0,1
123023,-90.9090909090909,4,2,3,100,0,1
127946,-133.333333333333,4,2,3,80,0,0
137792,-100,4,2,3,80,0,1
147638,-100,4,2,3,80,0,0
184561,-100,4,2,3,80,0,1
187023,-100,4,2,3,90,0,1
189177,-100,4,2,3,5,0,0
189484,-100,4,2,3,90,0,0
194408,-133.333333333333,4,2,3,90,0,0
199331,-83.3333333333333,4,2,3,100,0,1
204254,-90.9090909090909,4,2,3,100,0,1
209177,-83.3333333333333,4,2,3,100,0,1
223946,-90.9090909090909,4,2,3,100,0,1
232561,-83.3333333333333,4,2,3,80,0,0

[Colours]
Combo1 : 192,192,192
Combo2 : 255,0,0
Combo3 : 255,255,128
Combo4 : 255,128,0

[HitObjects]
256,192,18407,12,0,23331,0:0:0:0:
256,192,25792,12,0,26715,0:0:0:0:
120,104,26869,5,2,0:0:0:0:
120,104,26946,1,2,0:0:0:0:
120,104,27023,1,12,0:0:0:0:
132,240,27177,1,2,0:0:0:0:
254,51,27331,5,8,0:0:0:0:
266,187,27484,1,2,0:0:0:0:
111,8,27638,5,8,0:0:0:0:
99,144,27792,2,0,L|53:153,2,31.6666666666667,2|2|2,0:0|0:0|0:0,0:0:0:0:
96,166,27946,2,0,P|149:182|199:171,1,95,12|2,0:0|0:0,0:0:0:0:
365,38,28254,5,6,0:0:0:0:
152,89,28408,1,2,0:0:0:0:
324,189,28561,1,8,0:0:0:0:
275,8,28715,1,2,0:0:0:0:
275,8,29023,2,0,L|205:11,1,47.5,2|2,0:0|0:0,0:0:0:0:
244,39,29177,2,0,L|149:34,1,95,8|2,0:0|0:0,0:0:0:0:
31,198,29484,5,2,0:0:0:0:
212,148,29638,1,2,0:0:0:0:
28,80,29792,1,8,0:0:0:0:
209,130,29946,1,2,0:0:0:0:
209,130,30254,2,0,L|279:133,1,47.5,2|2,0:0|0:0,0:0:0:0:
240,161,30408,2,0,L|334:156,1,95,8|2,0:0|0:0,0:0:0:0:
467,333,30715,5,2,0:0:0:0:
412,154,30869,1,2,0:0:0:0:
328,310,31023,1,8,0:0:0:0:
512,256,31177,1,2,0:0:0:0:
512,256,31484,2,0,L|509:186,1,47.5,2|2,0:0|0:0,0:0:0:0:
481,225,31638,2,0,B|433:216|433:216|361:232,1,95,8|2,0:0|0:0,0:0:0:0:
332,378,31946,5,2,0:0:0:0:
273,184,32100,1,2,0:0:0:0:
180,308,32254,2,0,B|228:317|228:317|300:301,1,95,8|2,0:0|0:0,0:0:0:0:
163,154,32561,2,0,B|115:145|115:145|43:161,1,95,2|2,0:0|0:0,0:0:0:0:
24,216,32792,1,2,0:0:0:0:
24,216,32869,2,0,L|33:322,1,95,8|2,0:0|0:0,0:0:0:0:
226,200,33177,5,6,0:0:0:0:
177,382,33331,1,2,0:0:0:0:
115,226,33484,1,8,0:0:0:0:
304,277,33638,1,2,0:0:0:0:
304,277,33946,2,0,L|307:207,1,47.5,2|2,0:0|0:0,0:0:0:0:
335,246,34100,2,0,L|330:151,1,95,8|2,0:0|0:0,0:0:0:0:
253,9,34408,5,2,0:0:0:0:
443,63,34561,1,2,0:0:0:0:
245,139,34715,1,8,0:0:0:0:
435,85,34869,1,2,0:0:0:0:
435,85,35177,2,0,L|438:155,1,47.5,2|2,0:0|0:0,0:0:0:0:
466,116,35331,2,0,L|461:210,1,95,8|2,0:0|0:0,0:0:0:0:
365,361,35638,5,2,0:0:0:0:
319,200,35792,1,2,0:0:0:0:
233,381,35946,1,8,0:0:0:0:
187,220,36100,1,2,0:0:0:0:
187,220,36408,2,0,L|117:223,1,47.5,2|2,0:0|0:0,0:0:0:0:
156,251,36561,2,0,B|146:300|146:300|160:370,1,95,8|2,0:0|0:0,0:0:0:0:
233,381,36792,1,2,0:0:0:0:
233,381,36869,6,0,L|305:375,3,47.5,12|2|2|2,0:0|0:0|0:0|0:0,0:0:0:0:
287,276,37177,2,0,L|359:270,3,47.5,12|2|2|2,0:0|0:0|0:0|0:0,0:0:0:0:
416,343,37484,1,12,0:0:0:0:
433,312,37561,1,8,0:0:0:0:
440,277,37638,1,8,0:0:0:0:
434,242,37715,1,8,0:0:0:0:
417,211,37792,1,8,0:0:0:0:
399,180,37869,1,8,0:0:0:0:
392,145,37946,1,8,0:0:0:0:
398,110,38023,1,8,0:0:0:0:
415,79,38100,5,6,0:0:0:0:
190,90,38254,1,2,0:0:0:0:
317,207,38408,1,8,0:0:0:0:
308,25,38561,1,2,0:0:0:0:
308,25,38869,1,2,0:0:0:0:
310,48,38946,1,2,0:0:0:0:
312,71,39023,2,0,L|217:74,1,95,8|2,0:0|0:0,0:0:0:0:
72,245,39331,5,2,0:0:0:0:
137,75,39484,1,2,0:0:0:0:
209,241,39638,1,8,0:0:0:0:
112,69,39792,1,2,0:0:0:0:
112,69,40100,1,2,0:0:0:0:
110,92,40177,1,2,0:0:0:0:
108,115,40254,2,0,L|202:118,1,95,8|2,0:0|0:0,0:0:0:0:
391,253,40561,5,2,0:0:0:0:
194,290,40715,1,2,0:0:0:0:
306,151,40869,1,8,0:0:0:0:
344,331,41023,1,2,0:0:0:0:
344,331,41331,1,2,0:0:0:0:
321,333,41408,1,2,0:0:0:0:
298,335,41484,2,0,B|286:286|286:286|294:240,1,95,8|2,0:0|0:0,0:0:0:0:
441,97,41792,5,2,0:0:0:0:
373,288,41946,1,2,0:0:0:0:
299,91,42100,1,8,0:0:0:0:
497,172,42254,1,2,0:0:0:0:
293,235,42408,2,0,L|175:236,1,95,2|2,0:0|0:0,0:0:0:0:
138,195,42638,1,2,0:0:0:0:
138,195,42715,2,0,P|125:146|134:91,1,95,8|2,0:0|0:0,0:0:0:0:
314,19,43023,5,6,0:0:0:0:
225,213,43177,1,2,0:0:0:0:
172,19,43331,1,8,0:0:0:0:
261,208,43484,1,2,0:0:0:0:
261,208,43792,1,2,0:0:0:0:
259,231,43869,1,2,0:0:0:0:
257,254,43946,2,0,L|260:348,1,95,8|2,0:0|0:0,0:0:0:0:
478,352,44254,5,2,0:0:0:0:
414,179,44408,1,2,0:0:0:0:
337,338,44561,1,8,0:0:0:0:
506,282,44715,1,2,0:0:0:0:
506,282,45023,1,2,0:0:0:0:
504,259,45100,1,2,0:0:0:0:
502,236,45177,2,0,L|505:141,1,95,8|2,0:0|0:0,0:0:0:0:
346,18,45484,5,2,0:0:0:0:
401,199,45638,1,2,0:0:0:0:
511,50,45792,1,8,0:0:0:0:
327,95,45946,1,2,0:0:0:0:
327,95,46254,1,2,0:0:0:0:
329,118,46331,1,2,0:0:0:0:
331,141,46408,2,0,B|286:154|286:154|236:144,1,95,8|2,0:0|0:0,0:0:0:0:
88,1,46715,5,6,0:0:0:0:
283,68,46869,1,2,0:0:0:0:
88,138,47023,1,8,0:0:0:0:
289,41,47177,1,2,0:0:0:0:
54,6,47331,5,8,0:0:0:0:
56,41,47408,1,8,0:0:0:0:
59,77,47484,1,2,0:0:0:0:
61,112,47561,1,2,0:0:0:0:
64,148,47638,2,0,L|111:152,1,47.5,12|0,0:0|0:0,0:0:0:0:
228,230,47792,2,0,L|180:234,1,47.5,8|0,0:0|0:0,0:0:0:0:
26,256,47946,5,12,0:0:0:0:
26,265,48023,1,8,0:0:0:0:
25,274,48100,1,8,0:0:0:0:
24,284,48177,1,8,0:0:0:0:
24,291,48254,2,0,L|29:346,1,38,6|2,0:0|0:0,0:0:0:0:
121,290,48408,5,8,0:0:0:0:
120,299,48484,1,8,0:0:0:0:
119,308,48561,2,0,L|123:363,1,38,2|2,0:0|0:0,0:0:0:0:
214,325,48715,2,0,L|218:380,1,38,4|4,0:3|0:3,0:0:0:0:
235,197,48869,5,2,0:0:0:0:
264,174,48946,1,2,0:0:0:0:
300,165,49023,1,4,0:3:0:0:
336,171,49100,1,0,0:3:0:0:
368,189,49177,6,0,L|380:82,1,76,6|2,0:0|0:0,0:0:0:0:
449,244,49484,2,0,P|383:284|298:254,1,152,8|0,0:0|0:0,0:0:0:0:
313,267,50100,1,8,0:0:0:0:
48,273,50408,6,0,L|56:348,1,76,2|2,0:0|0:0,0:0:0:0:
169,148,50715,2,0,L|151:298,1,152,8|0,0:0|0:0,0:0:0:0:
151,298,51331,1,8,0:0:0:0:
378,182,51638,6,0,L|370:107,1,76,2|2,0:0|0:0,0:0:0:0:
503,156,51946,2,0,L|485:306,1,152,8|0,0:0|0:0,0:0:0:0:
485,307,52561,1,8,0:0:0:0:
251,365,52869,6,0,L|161:360,1,76,2|2,0:0|0:0,0:0:0:0:
182,246,53177,2,0,L|106:250,1,76,8|0,0:0|0:0,0:0:0:0:
231,123,53484,1,0,0:0:0:0:
231,123,53792,1,8,0:0:0:0:
33,24,54100,6,0,L|39:113,1,76,2|2,0:0|0:0,0:0:0:0:
138,226,54408,2,0,L|148:66,1,152,8|0,0:0|0:0,0:0:0:0:
147,74,55023,1,8,0:0:0:0:
387,171,55331,6,0,L|298:177,1,76,2|2,0:0|0:0,0:0:0:0:
454,105,55638,2,0,B|480:159|480:159|464:262,1,152,8|0,0:0|0:0,0:0:0:0:
465,249,56254,1,8,0:0:0:0:
193,262,56561,6,0,L|198:337,1,76,2|2,0:0|0:0,0:0:0:0:
127,195,56869,2,0,B|180:169|180:169|284:185,1,152,8|0,0:0|0:0,0:0:0:0:
271,183,57484,1,8,0:0:0:0:
489,24,57792,6,0,L|485:118,1,76,2|2,0:0|0:0,0:0:0:0:
371,205,58100,2,0,L|367:129,1,76,8|0,0:0|0:0,0:0:0:0:
260,42,58408,1,0,0:0:0:0:
260,42,58715,5,8,0:0:0:0:
156,97,58869,1,8,0:0:0:0:
261,160,59023,6,0,L|343:164,1,76,6|0,0:0|0:0,0:0:0:0:
409,264,59331,2,0,L|327:268,1,76,8|0,0:0|0:0,0:0:0:0:
210,276,59638,1,0,0:0:0:0:
210,276,59946,2,0,P|133:291|87:272,1,114,8|0,0:0|0:0,0:0:0:0:
48,224,60254,6,0,L|44:133,1,76,2|2,0:0|0:0,0:0:0:0:
159,119,60561,2,0,L|155:194,1,76,8|0,0:0|0:0,0:0:0:0:
269,87,60869,1,0,0:0:0:0:
269,87,61177,2,0,L|382:81,1,114,8|0,0:0|0:0,0:0:0:0:
450,123,61484,6,0,P|455:169|446:205,1,76,2|2,0:0|0:0,0:0:0:0:
358,280,61792,1,8,0:0:0:0:
219,167,61946,2,0,L|377:158,1,152,0|0,0:0|0:0,0:0:0:0:
234,257,62408,1,8,0:0:0:0:
234,257,62561,1,0,0:0:0:0:
131,203,62715,6,0,P|126:157|135:121,1,76,2|2,0:0|0:0,0:0:0:0:
203,37,63023,2,0,P|141:19|36:60,1,152,8|0,0:0|0:0,0:0:0:0:
58,41,63638,2,0,L|45:171,1,114,8|0,0:0|0:0,0:0:0:0:
15,225,63946,6,0,L|24:317,1,76,2|2,0:0|0:0,0:0:0:0:
154,339,64254,1,8,0:0:0:0:
154,339,64561,2,0,P|207:329|244:338,1,76,0|0,0:0|0:0,0:0:0:0:
319,290,64869,2,0,P|294:261|261:242,1,76,8|0,0:0|0:0,0:0:0:0:
413,247,65177,6,0,P|422:283|419:321,1,76,2|2,0:0|0:0,0:0:0:0:
471,170,65484,2,0,P|417:150|330:197,1,152,8|0,0:0|0:0,0:0:0:0:
335,188,66100,2,0,L|327:54,1,114,8|0,0:0|0:0,0:0:0:0:
270,20,66408,6,0,L|194:24,1,76,2|2,0:0|0:0,0:0:0:0:
138,136,66715,2,0,L|62:131,1,76,8|0,0:0|0:0,0:0:0:0:
246,227,67023,1,0,0:0:0:0:
246,227,67331,1,8,0:0:0:0:
246,227,67638,6,0,L|321:222,1,76,2|2,0:0|0:0,0:0:0:0:
376,124,67946,2,0,L|300:119,1,76,8|0,0:0|3:0,0:0:0:0:
366,18,68254,2,0,L|441:13,1,76,2|8,0:0|3:0,0:0:0:0:
473,36,68484,1,2,0:0:0:0:
471,58,68561,1,8,0:0:0:0:
469,81,68638,1,0,0:0:0:0:
467,104,68715,1,8,0:0:0:0:
465,126,68792,1,0,0:0:0:0:
464,149,68869,6,0,L|352:155,1,95,6|2,0:0|0:0,0:0:0:0:
265,259,69177,2,0,L|376:265,1,95,8|0,0:0|0:0,0:0:0:0:
187,159,69484,1,2,0:0:0:0:
198,318,69638,1,2,0:0:0:0:
293,178,69792,1,8,0:0:0:0:
106,193,69946,1,0,0:0:0:0:
213,340,70100,5,2,0:0:0:0:
200,137,70254,1,2,0:0:0:0:
57,267,70408,1,8,0:0:0:0:
265,259,70561,1,0,0:0:0:0:
265,259,70638,1,0,0:0:0:0:
265,259,70715,2,0,L|359:255,1,95,2|2,0:0|0:0,0:0:0:0:
492,127,71023,2,0,L|488:221,1,95,8|0,0:0|0:0,0:0:0:0:
350,126,71331,6,0,L|346:31,1,95,2|2,0:0|0:0,0:0:0:0:
225,182,71638,1,8,0:0:0:0:
109,109,71792,1,0,0:0:0:0:
109,109,71869,1,0,0:0:0:0:
109,109,71946,2,0,P|50:103|-18:132,1,95,2|2,0:0|0:0,0:0:0:0:
253,13,72254,2,0,L|158:16,1,95,8|2,0:0|0:0,0:0:0:0:
66,200,72561,5,2,0:0:0:0:
211,106,72715,1,2,0:0:0:0:
39,63,72869,1,8,0:0:0:0:
220,142,73023,1,0,0:0:0:0:
220,142,73100,1,0,0:0:0:0:
220,142,73177,2,0,L|223:236,1,95,2|2,0:0|0:0,0:0:0:0:
34,292,73484,2,0,P|80:282|126:291,1,95,8|0,0:0|0:0,0:0:0:0:
275,342,73792,5,2,0:0:0:0:
79,371,73946,1,2,0:0:0:0:
134,202,74100,1,8,0:0:0:0:
162,381,74254,1,0,0:0:0:0:
20,233,74408,5,2,0:0:0:0:
242,253,74561,1,2,0:0:0:0:
47,379,74715,1,8,0:0:0:0:
99,184,74869,1,0,0:0:0:0:
99,184,74946,1,0,0:0:0:0:
99,184,75023,6,0,B|112:140|112:140|100:92,1,95,2|2,0:0|0:0,0:0:0:0:
225,8,75331,1,8,0:0:0:0:
241,161,75484,1,0,0:0:0:0:
241,161,75561,1,0,0:0:0:0:
241,161,75638,2,0,B|229:209|229:209|242:253,1,95,2|2,0:0|0:0,0:0:0:0:
423,201,75946,2,0,L|304:207,1,95,8|0,0:0|0:0,0:0:0:0:
502,108,76254,5,2,0:0:0:0:
395,304,76408,1,2,0:0:0:0:
323,101,76561,1,8,0:0:0:0:
508,206,76715,1,0,0:0:0:0:
508,206,76792,1,0,0:0:0:0:
508,206,76869,2,0,L|512:300,1,95,2|2,0:0|0:0,0:0:0:0:
264,347,77177,5,8,0:0:0:0:
452,365,77331,1,2,0:0:0:0:
405,184,77484,5,2,0:0:0:0:
360,372,77638,1,2,0:0:0:0:
230,169,77792,1,8,0:0:0:0:
185,357,77946,1,0,0:0:0:0:
185,357,78023,1,0,0:0:0:0:
185,357,78100,2,0,B|136:368|136:368|78:352,1,95,2|2,0:0|0:0,0:0:0:0:
137,109,78408,2,0,B|119:167|119:167|134:248,1,142.5,8|0,0:0|0:0,0:0:0:0:
202,281,78715,6,0,L|309:276,1,95,6|2,0:0|0:0,0:0:0:0:
423,119,79023,1,8,0:0:0:0:
262,182,79177,1,0,0:0:0:0:
262,182,79254,1,0,0:0:0:0:
262,182,79331,5,2,0:0:0:0:
436,238,79484,1,2,0:0:0:0:
411,53,79638,1,8,0:0:0:0:
415,253,79792,1,2,0:0:0:0:
258,99,79946,5,6,0:0:0:0:
481,105,80100,1,2,0:0:0:0:
314,229,80254,1,8,0:0:0:0:
308,14,80408,1,0,0:0:0:0:
308,14,80484,1,0,0:0:0:0:
308,14,80561,2,0,B|260:4|260:4|172:25,1,95,2|2,0:0|0:0,0:0:0:0:
103,170,80869,2,0,B|151:160|151:160|239:181,1,95,8|2,0:0|0:0,0:0:0:0:
0,65,81177,6,0,L|104:69,1,95,2|2,0:0|0:0,0:0:0:0:
150,243,81484,1,8,0:0:0:0:
302,90,81638,1,0,0:0:0:0:
302,90,81715,1,0,0:0:0:0:
302,90,81792,2,0,L|198:94,1,95,2|2,0:0|0:0,0:0:0:0:
150,243,82100,2,0,L|153:337,1,95,8|6,0:0|0:0,0:0:0:0:
358,199,82408,5,6,0:0:0:0:
252,368,82561,1,2,0:0:0:0:
211,180,82715,1,8,0:0:0:0:
408,280,82869,1,0,0:0:0:0:
408,280,82946,1,0,0:0:0:0:
408,280,83023,2,0,L|411:374,1,95,2|2,0:0|0:0,0:0:0:0:
249,251,83331,2,0,L|252:156,1,95,8|6,0:0|0:0,0:0:0:0:
142,318,83638,5,6,0:0:0:0:
323,351,83792,1,2,0:0:0:0:
342,168,83946,1,8,0:0:0:0:
292,345,84100,1,0,0:0:0:0:
292,345,84177,1,0,0:0:0:0:
292,345,84254,5,2,0:0:0:0:
499,337,84408,1,2,0:0:0:0:
363,146,84561,1,8,0:0:0:0:
360,344,84715,1,2,0:0:0:0:
472,185,84869,6,0,B|482:137|482:137|457:69,1,95,6|2,0:0|0:0,0:0:0:0:
298,32,85177,1,8,0:0:0:0:
328,231,85331,1,0,0:0:0:0:
328,231,85408,1,0,0:0:0:0:
328,231,85484,2,0,P|247:247|205:232,1,95,2|2,0:0|0:0,0:0:0:0:
193,91,85792,2,0,P|224:125|267:145,1,95,8|2,0:0|0:0,0:0:0:0:
389,17,86100,6,0,P|341:15|297:31,1,95,2|2,0:0|0:0,0:0:0:0:
175,190,86408,1,8,0:0:0:0:
364,222,86561,1,0,0:0:0:0:
364,222,86638,1,0,0:0:0:0:
364,222,86715,2,0,L|361:102,1,95,2|2,0:0|0:0,0:0:0:0:
201,211,87023,2,0,L|198:305,1,95,8|6,0:0|0:0,0:0:0:0:
246,110,87331,6,0,B|198:100|198:100|117:122,1,95,6|2,0:0|0:0,0:0:0:0:
46,219,87638,1,8,0:0:0:0:
154,323,87792,1,2,0:0:0:0:
182,335,87869,1,2,0:0:0:0:
214,336,87946,1,8,0:0:0:0:
243,325,88023,1,8,0:0:0:0:
272,314,88100,1,8,0:0:0:0:
304,315,88177,1,8,0:0:0:0:
333,328,88254,2,0,P|374:343|436:333,1,95,8|2,0:0|0:0,0:0:0:0:
495,140,88561,5,6,0:0:0:0:
390,232,88715,2,0,L|383:374,2,142.500005435944,2|8|2,0:0|0:0|0:0,0:0:0:0:
353,49,89484,1,8,0:0:0:0:
263,201,89638,1,8,0:0:0:0:
263,201,89715,1,8,0:0:0:0:
263,201,89792,1,2,0:0:0:0:
317,122,89946,6,0,P|250:102|185:132,2,142.500005435944,2|8|2,0:0|0:0|0:0,0:0:0:0:
305,275,90715,2,0,P|262:287|216:275,1,71.2500027179719,8|0,0:0|0:0,0:0:0:0:
150,212,91023,1,2,0:0:0:0:
48,287,91177,6,0,B|22:232|22:232|42:128,2,142.500005435944,2|8|2,0:0|0:0|0:0,0:0:0:0:
150,212,91946,1,8,0:0:0:0:
251,308,92100,1,2,0:0:0:0:
251,308,92177,1,2,0:0:0:0:
251,308,92254,6,0,L|334:300,1,71.2500027179719,8|2,0:0|0:0,0:0:0:0:
407,234,92561,1,2,0:0:0:0:
407,234,92715,1,8,0:0:0:0:
315,126,92869,2,0,L|308:196,1,71.2500027179719,2|2,0:0|0:0,0:0:0:0:
422,120,93177,2,0,L|415:49,1,71.2500027179719,8|2,0:0|0:0,0:0:0:0:
183,18,93484,6,0,L|253:11,1,71.2500027179719,6|0,0:0|0:0,0:0:0:0:
315,126,93792,2,0,L|244:119,1,71.2500027179719,8|0,0:0|0:0,0:0:0:0:
128,110,94100,1,2,0:0:0:0:
128,110,94254,1,0,0:0:0:0:
180,203,94408,2,0,L|186:273,1,71.2500027179719,8|0,0:0|0:0,0:0:0:0:
272,158,94715,6,0,P|240:123|198:108,1,71.2500027179719,6|0,0:0|0:0,0:0:0:0:
361,116,95023,2,0,P|370:150|366:185,1,71.2500027179719,8|0,0:0|0:0,0:0:0:0:
295,262,95331,1,2,0:0:0:0:
295,262,95484,1,0,0:0:0:0:
411,276,95638,2,0,P|438:253|456:223,1,71.2500027179719,8|0,0:0|0:0,0:0:0:0:
295,262,95946,6,0,P|297:301|314:342,1,71.2500027179719,6|2,0:0|0:0,0:0:0:0:
187,265,96254,2,0,P|188:229|199:195,1,71.2500027179719,8|0,0:0|0:0,0:0:0:0:
268,114,96561,1,2,0:0:0:0:
268,114,96715,1,2,0:0:0:0:
163,18,96869,2,0,L|167:97,1,71.2500027179719,8|0,0:0|0:0,0:0:0:0:
47,237,97177,6,0,L|50:165,1,71.2500027179719,6|0,0:0|0:0,0:0:0:0:
190,193,97484,2,0,L|186:264,1,71.2500027179719,8|0,0:0|0:0,0:0:0:0:
112,345,97792,1,2,0:0:0:0:
112,345,97946,1,0,0:0:0:0:
218,357,98100,2,0,L|289:353,1,71.2500027179719,8|0,0:0|0:0,0:0:0:0:
289,353,98331,1,0,0:0:0:0:
289,353,98408,1,6,0:0:0:0:
389,296,98561,6,0,L|396:153,2,142.500005435944,2|8|2,0:0|0:0|0:0,0:0:0:0:
296,200,99331,1,8,0:0:0:0:
187,276,99484,1,8,0:0:0:0:
187,276,99561,1,8,0:0:0:0:
187,276,99638,1,2,0:0:0:0:
137,176,99792,6,0,P|58:157|-12:190,2,142.500005435944,2|8|2,0:0|0:0|0:0,0:0:0:0:
82,321,100561,2,0,L|70:237,1,71.2500027179719,8|0,0:0|0:0,0:0:0:0:
212,153,100869,1,2,0:0:0:0:
305,239,101023,2,0,L|284:380,2,142.500005435944,2|8|2,0:0|0:0|0:0,0:0:0:0:
428,181,101792,1,8,0:0:0:0:
333,103,101946,1,2,0:0:0:0:
333,103,102023,1,2,0:0:0:0:
333,103,102100,6,0,L|262:92,1,71.2500027179719,8|2,0:0|0:0,0:0:0:0:
129,72,102408,1,2,0:0:0:0:
215,0,102561,1,8,0:0:0:0:
192,145,102715,2,0,L|181:215,1,71.2500027179719,2|2,0:0|0:0,0:0:0:0:
333,103,103023,2,0,L|343:173,1,71.2500027179719,8|2,0:0|0:0,0:0:0:0:
420,175,103254,1,0,0:0:0:0:
420,175,103331,6,0,L|408:296,1,95,6|0,0:0|0:0,0:0:0:0:
236,274,103638,2,0,B|287:265|287:265|331:277,1,95,2|4,0:0|0:3,0:0:0:0:
467,327,103946,1,2,0:0:0:0:
281,347,104100,1,4,0:3:0:0:
343,173,104254,1,2,0:0:0:0:
370,365,104408,1,4,0:3:0:0:
173,359,104561,6,0,B|122:368|122:368|78:356,1,95,6|4,0:0|0:3,0:0:0:0:
245,179,104869,2,0,L|233:300,1,95,2|4,0:0|0:3,0:0:0:0:
107,92,105177,5,2,0:0:0:0:
343,138,105331,1,4,0:3:0:0:
145,253,105484,1,2,0:0:0:0:
193,25,105638,1,4,0:3:0:0:
414,199,105792,5,14,0:0:0:0:
376,221,105869,1,8,0:0:0:0:
333,228,105946,1,8,0:0:0:0:
293,211,106023,1,8,0:0:0:0:
264,179,106100,1,10,0:0:0:0:
234,146,106177,1,8,0:0:0:0:
193,131,106254,1,8,0:0:0:0:
149,135,106331,1,8,0:0:0:0:
113,159,106408,1,10,0:0:0:0:
94,199,106484,1,8,0:0:0:0:
94,243,106561,1,8,0:0:0:0:
114,281,106638,1,8,0:0:0:0:
150,306,106715,1,10,0:0:0:0:
194,310,106792,1,8,0:0:0:0:
234,295,106869,1,8,0:0:0:0:
263,262,106946,1,8,0:0:0:0:
277,220,107023,6,0,L|343:224,1,47.5,14|8,0:0|0:0,0:0:0:0:
193,131,107177,2,0,L|136:135,1,47.5,8|8,0:0|0:0,0:0:0:0:
310,55,107331,1,10,0:0:0:0:
350,58,107408,1,8,0:0:0:0:
391,61,107484,1,8,0:0:0:0:
430,65,107561,1,8,0:0:0:0:
470,69,107638,1,10,0:0:0:0:
470,69,108254,5,6,0:0:0:0:
367,215,108408,1,2,0:0:0:0:
267,41,108561,2,0,L|389:32,1,113.999996520996,8|2,0:0|0:0,0:0:0:0:
465,171,108869,2,0,P|470:240|444:292,1,113.999996520996,2|2,0:0|0:0,0:0:0:0:
453,281,109100,1,2,0:0:0:0:
453,281,109177,1,8,0:0:0:0:
301,195,109331,6,0,P|349:260|360:165,1,227.999993041992,2|2,0:0|0:0,0:0:0:0:
279,318,109792,2,0,P|332:337|388:330,1,113.999996520996,8|2,0:0|0:0,0:0:0:0:
305,113,110100,1,0,0:0:0:0:
210,274,110254,1,2,0:0:0:0:
210,274,110331,1,2,0:0:0:0:
210,274,110408,1,8,0:0:0:0:
143,111,110561,1,2,0:0:0:0:
314,226,110715,6,0,L|434:234,1,113.999996520996,6|0,0:0|0:0,0:0:0:0:
273,353,111023,2,0,L|153:361,1,113.999996520996,8|2,0:0|0:0,0:0:0:0:
37,228,111331,1,0,0:0:0:0:
207,170,111484,1,2,0:0:0:0:
207,170,111561,1,2,0:0:0:0:
207,170,111638,2,0,B|218:228|218:228|185:294,1,113.999996520996,8|2,0:0|0:0,0:0:0:0:
105,87,111946,5,2,0:0:0:0:
313,166,112100,1,2,0:0:0:0:
130,214,112254,1,8,0:0:0:0:
195,45,112408,1,2,0:0:0:0:
258,243,112561,6,0,B|267:371|267:371,1,113.999996520996,2|2,0:0|0:0,0:0:0:0:
348,348,112792,1,2,0:0:0:0:
348,348,112869,2,0,P|409:332|469:357,1,113.999996520996,8|2,0:0|0:0,0:0:0:0:
312,165,113177,6,0,P|259:149|205:165,1,113.999996520996,6|2,0:0|0:0,0:0:0:0:
146,310,113484,1,8,0:0:0:0:
146,310,113638,1,2,0:0:0:0:
41,196,113792,2,0,B|23:136|23:136|44:43,1,113.999996520996,0|2,0:0|0:0,0:0:0:0:
58,15,114023,1,2,0:0:0:0:
58,15,114100,2,0,L|205:8,1,113.999996520996,8|2,0:0|0:0,0:0:0:0:
330,161,114408,6,0,L|183:154,1,113.999996520996,2|2,0:0|0:0,0:0:0:0:
276,0,114715,1,8,0:0:0:0:
388,87,114869,2,0,P|422:188|321:257,1,227.999993041992,2|2,0:0|0:0,0:0:0:0:
338,257,115254,1,2,0:0:0:0:
338,257,115331,1,8,0:0:0:0:
239,161,115484,1,2,0:0:0:0:
136,286,115638,6,0,B|191:310|191:310|259:288,1,113.999996520996,6|2,0:0|0:0,0:0:0:0:
330,161,115946,1,8,0:0:0:0:
330,161,116100,1,2,0:0:0:0:
205,99,116254,2,0,L|197:212,1,113.999996520996,0|2,0:0|0:0,0:0:0:0:
177,302,116484,1,2,0:0:0:0:
177,302,116561,2,0,B|125:318|125:318|70:294,1,113.999996520996,8|2,0:0|0:0,0:0:0:0:
115,150,116869,5,2,0:0:0:0:
154,133,116946,1,2,0:0:0:0:
196,131,117023,1,2,0:0:0:0:
237,143,117100,1,2,0:0:0:0:
271,169,117177,1,8,0:0:0:0:
305,194,117254,1,2,0:0:0:0:
345,206,117331,1,2,0:0:0:0:
388,204,117408,1,2,0:0:0:0:
427,188,117484,6,0,L|436:117,1,56.9999982604981,8|2,0:0|0:0,0:0:0:0:
346,49,117638,2,0,L|353:105,1,56.9999982604981,2|2,0:0|0:0,0:0:0:0:
440,195,117792,2,0,L|452:116,1,56.9999982604981,12|2,0:0|0:0,0:0:0:0:
332,41,117946,2,0,L|341:104,1,56.9999982604981,2|2,0:0|0:0,0:0:0:0:
373,242,118100,5,6,0:0:0:0:
469,62,118254,1,0,0:0:0:0:
256,30,118408,2,0,B|115:22,1,113.999996520996,8|2,0:0|0:0,0:0:0:0:
3,223,118715,2,0,B|11:82,1,113.999996520996,0|2,0:0|0:0,0:0:0:0:
9,109,118946,1,2,0:0:0:0:
9,109,119023,1,8,0:0:0:0:
209,107,119177,1,2,0:0:0:0:
23,18,119331,5,2,0:0:0:0:
109,206,119484,1,2,0:0:0:0:
191,39,119638,1,8,0:0:0:0:
13,163,119792,2,0,P|7:235|141:309,1,227.999993041992,2|2,0:0|0:0,0:0:0:0:
124,312,120177,1,2,0:0:0:0:
124,312,120254,1,8,0:0:0:0:
246,205,120408,1,2,0:0:0:0:
109,206,120561,5,6,0:0:0:0:
310,294,120715,1,2,0:0:0:0:
104,351,120869,1,8,0:0:0:0:
316,259,121023,2,0,B|294:91|294:91|256:163,1,227.999993041992,2|2,0:0|0:0,0:0:0:0:
215,199,121408,1,2,0:0:0:0:
215,199,121484,2,0,P|158:220|93:193,1,113.999996520996,8|2,0:0|0:0,0:0:0:0:
53,27,121792,5,2,0:0:0:0:
287,87,121946,1,2,0:0:0:0:
51,123,122100,1,8,0:0:0:0:
289,55,122254,1,2,0:0:0:0:
25,11,122408,2,0,L|27:162,1,113.999996520996,2|2,0:0|0:0,0:0:0:0:
30,206,122638,1,2,0:0:0:0:
30,206,122715,2,0,L|143:204,1,113.999996520996,8|2,0:0|0:0,0:0:0:0:
286,108,123023,6,0,L|399:110,2,104.500003189087,6|2|8,0:0|0:0|0:0,0:0:0:0:
413,191,123484,2,0,P|475:132|395:28,1,209.000006378174,2|2,0:0|0:0,0:0:0:0:
426,34,123869,1,2,0:0:0:0:
426,34,123946,1,8,0:0:0:0:
290,147,124100,1,2,0:0:0:0:
159,25,124254,6,0,P|95:13|24:61,2,104.500003189087,6|2|8,0:0|0:0|0:0,0:0:0:0:
128,244,124715,2,0,B|110:102|110:102|167:164,1,209.000006378174,2|2,0:0|0:0,0:0:0:0:
154,150,125100,1,2,0:0:0:0:
154,150,125177,1,8,0:0:0:0:
243,326,125331,1,2,0:0:0:0:
342,188,125484,6,0,L|455:194,2,104.500003189087,6|2|8,0:0|0:0|0:0,0:0:0:0:
172,310,125946,2,0,L|399:296,1,209.000006378174,2|2,0:0|0:0,0:0:0:0:
380,297,126331,1,2,0:0:0:0:
380,297,126408,1,8,0:0:0:0:
231,226,126561,5,2,0:0:0:0:
231,226,126638,1,2,0:0:0:0:
231,226,126715,2,0,L|234:282,1,52.2500015945435,12|8,0:0|0:0,0:0:0:0:
326,158,126869,2,0,L|329:101,1,52.2500015945435,8|8,0:0|0:0,0:0:0:0:
117,222,127023,5,6,0:0:0:0:
320,254,127177,1,8,0:0:0:0:
247,60,127331,1,6,0:0:0:0:
202,298,127484,5,8,0:0:0:0:
332,137,127638,1,8,0:0:0:0:
129,104,127792,1,6,0:0:0:0:
344,270,127946,5,6,0:0:0:0:
256,192,128023,12,6,130408,0:0:0:0:
280,40,136869,6,0,L|286:94,3,35.625001358986,8|8|8|8,0:0|0:0|0:0|0:0,0:0:0:0:
173,106,137177,2,0,L|169:141,3,35.625001358986,8|8|8|8,3:0|0:0|0:0|0:0,0:0:0:0:
90,21,137484,1,8,0:0:0:0:
69,50,137561,1,8,0:0:0:0:
58,83,137638,1,8,0:0:0:0:
57,119,137715,1,8,0:0:0:0:
68,154,137792,6,0,L|194:162,1,95,6|2,0:0|0:0,0:0:0:0:
239,0,138100,1,2,0:0:0:0:
292,193,138254,1,8,0:0:0:0:
387,39,138408,1,2,0:0:0:0:
193,91,138561,1,2,0:0:0:0:
370,206,138715,1,8,0:0:0:0:
317,13,138869,1,2,0:0:0:0:
196,178,139023,6,0,L|187:291,1,95,8|2,0:0|0:0,0:0:0:0:
350,223,139331,1,2,0:0:0:0:
350,223,139484,1,8,0:0:0:0:
250,92,139638,2,0,P|204:78|157:85,1,95,2|2,0:0|0:0,0:0:0:0:
297,309,139946,2,0,P|342:322|389:315,1,95,8|2,0:0|0:0,0:0:0:0:
357,128,140254,6,0,L|348:241,1,95,8|2,0:0|0:0,0:0:0:0:
206,282,140561,1,2,0:0:0:0:
206,282,140715,1,8,0:0:0:0:
113,148,140869,2,0,B|64:134|64:134|-8:153,1,95,2|2,0:0|0:0,0:0:0:0:
120,307,141177,2,0,B|169:321|169:321|241:302,1,95,8|2,0:0|0:0,0:0:0:0:
324,151,141484,5,8,0:0:0:0:
157,231,141638,1,2,0:0:0:0:
335,297,141792,1,2,0:0:0:0:
149,205,141946,1,8,0:0:0:0:
333,124,142100,2,0,P|397:109|465:126,1,95,2|2,0:0|0:0,0:0:0:0:
273,23,142408,2,0,P|238:55|216:97,1,95,8|2,0:0|0:0,0:0:0:0:
386,288,142715,5,8,0:0:0:0:
333,124,142869,1,2,0:0:0:0:
208,243,143023,1,2,0:0:0:0:
370,150,143177,1,8,0:0:0:0:
184,62,143331,5,2,0:0:0:0:
253,238,143484,1,2,0:0:0:0:
375,103,143638,1,8,0:0:0:0:
208,243,143792,1,2,0:0:0:0:
400,335,143946,5,8,0:0:0:0:
162,249,144100,1,2,0:0:0:0:
370,150,144254,1,2,0:0:0:0:
168,295,144408,1,8,0:0:0:0:
404,382,144561,2,0,L|409:242,1,95,2|2,0:0|0:0,0:0:0:0:
203,174,144869,2,0,L|206:268,1,95,8|2,0:0|0:0,0:0:0:0:
259,94,145177,6,0,B|215:79|215:79|136:90,1,95,8|2,0:0|0:0,0:0:0:0:
1,181,145484,2,0,B|45:166|45:166|124:177,1,95,2|8,0:0|0:0,0:0:0:0:
233,288,145792,1,2,0:0:0:0:
233,288,145946,1,2,0:0:0:0:
60,354,146100,2,0,L|57:260,1,95,8|2,0:0|0:0,0:0:0:0:
208,17,146408,6,0,L|205:111,1,95,8|2,0:0|0:0,0:0:0:0:
354,224,146715,2,0,L|351:130,1,95,2|8,0:0|0:0,0:0:0:0:
158,207,147023,2,0,L|252:204,1,95,2|2,0:0|0:0,0:0:0:0:
347,44,147331,2,0,L|253:41,1,95,8|2,0:0|0:0,0:0:0:0:
72,120,147638,5,6,0:0:0:0:
15,188,147946,1,6,0:0:0:0:
64,265,148254,1,6,0:0:0:0:
152,241,148561,1,6,0:0:0:0:
151,150,148869,5,2,0:0:0:0:
179,130,148946,1,8,0:0:0:0:
213,123,149023,1,8,0:0:0:0:
246,128,149100,1,8,0:0:0:0:
277,145,149177,1,8,0:0:0:0:
308,162,149254,1,8,0:0:0:0:
341,168,149331,1,8,0:0:0:0:
376,161,149408,1,8,0:0:0:0:
405,142,149484,2,0,L|399:91,3,47.5,4|8|8|8,3:3|0:0|0:0|0:0,0:0:0:0:
382,51,149792,2,0,L|388:-6,3,47.5,8|8|8|8,3:0|3:0|3:0|3:0,0:0:0:0:
289,31,150100,6,0,B|280:91|323:130|323:130|271:154|265:225,1,190,6|8,0:0|0:0,0:0:0:0:
343,335,150561,1,0,0:0:0:0:
459,219,150715,2,0,P|405:214|349:215,1,95,2|0,0:0|0:0,0:0:0:0:
236,297,151023,2,0,P|290:302|346:301,1,95,8|0,0:0|0:0,0:0:0:0:
175,222,151331,6,0,P|139:287|206:389,1,190,2|8,0:0|0:0,0:0:0:0:
266,169,151792,2,0,B|180:126|180:126|76:165,1,190,0|0,0:0|0:0,0:0:0:0:
166,316,152254,2,0,L|176:201,1,95,8|0,0:0|0:0,0:0:0:0:
0,81,152561,6,0,L|16:270,1,190,2|8,0:0|0:0,0:0:0:0:
152,354,153023,1,0,0:0:0:0:
269,226,153177,2,0,L|162:220,1,95,2|0,0:0|0:0,0:0:0:0:
114,88,153484,2,0,L|221:82,1,95,8|0,0:0|0:0,0:0:0:0:
352,180,153792,6,0,B|367:230|367:230|341:300,2,95,2|0|8,0:0|0:0|0:0,0:0:0:0:
255,324,154254,2,0,B|347:364|347:364|458:326,1,190,0|0,0:0|0:0,0:0:0:0:
352,180,154715,2,0,B|311:165|311:165|261:180,1,95,8|0,0:0|0:0,0:0:0:0:
474,78,155023,6,0,L|349:85,1,95,2|0,0:0|0:0,0:0:0:0:
204,0,155331,2,0,L|329:7,1,95,8|0,0:0|0:0,0:0:0:0:
166,101,155638,2,0,P|127:79|97:27,1,95,2|0,0:0|0:0,0:0:0:0:
123,194,155946,2,0,P|168:204|214:192,1,95,8|0,0:0|0:0,0:0:0:0:
82,292,156254,6,0,P|42:266|18:225,2,95,2|0|8,0:0|0:0|0:0,0:0:0:0:
219,225,156715,2,0,P|294:187|418:244,1,190,0|0,0:0|0:0,0:0:0:0:
320,384,157177,2,0,L|311:275,1,95,8|0,0:0|0:0,0:0:0:0:
478,158,157484,6,0,L|460:373,1,190,2|8,0:0|0:0,0:0:0:0:
217,206,157946,1,0,0:0:0:0:
217,206,158100,2,0,B|314:185|314:185|410:242,1,190,2|8,0:0|0:0,0:0:0:0:
281,341,158561,1,0,0:0:0:0:
281,341,158715,2,0,B|184:362|184:362|88:305,1,190,2|8,0:0|0:0,0:0:0:0:
211,160,159177,1,0,0:0:0:0:
211,160,159331,2,0,L|202:276,1,95,2|0,0:0|0:0,0:0:0:0:
41,165,159638,2,0,L|33:70,1,95,8|0,0:0|0:0,0:0:0:0:
237,31,159946,5,6,0:0:0:0:
237,31,160254,2,0,L|359:43,1,95,8|0,0:0|0:0,0:0:0:0:
452,138,160561,2,0,L|357:147,1,95,2|0,0:0|0:0,0:0:0:0:
227,20,160869,2,0,L|360:35,1,95,8|0,0:0|0:0,0:0:0:0:
461,148,161177,6,0,P|478:192|471:242,1,95,2|0,0:0|0:0,0:0:0:0:
274,155,161484,2,0,P|303:118|346:99,1,95,8|0,0:0|0:0,0:0:0:0:
373,313,161792,2,0,P|326:305|286:274,1,95,2|0,0:0|0:0,0:0:0:0:
461,148,162100,2,0,P|478:192|471:242,1,95,8|0,0:0|0:0,0:0:0:0:
274,155,162408,5,2,0:0:0:0:
274,155,162715,2,0,P|227:149|154:153,1,95,8|0,0:0|0:0,0:0:0:0:
64,257,163023,2,0,P|111:263|184:259,1,95,2|0,0:0|0:0,0:0:0:0:
286,145,163331,2,0,P|233:138|152:143,1,95,8|0,0:0|0:0,0:0:0:0:
51,266,163638,6,0,B|49:263|52:272|42:318|42:318|57:365,1,95,2|0,0:0|0:0,0:0:0:0:
109,172,163946,2,0,B|112:171|102:169|68:137|68:137|20:127,1,95,8|0,0:0|0:0,0:0:0:0:
161,268,164254,2,0,B|159:271|165:263|210:250|210:250|243:213,1,95,2|0,0:0|0:0,0:0:0:0:
51,266,164561,2,0,B|49:263|52:272|42:318|42:318|57:365,1,95,8|0,0:0|0:0,0:0:0:0:
109,172,164869,5,2,0:0:0:0:
109,172,165177,2,0,P|74:113|140:6,1,190,8|2,0:0|0:0,0:0:0:0:
205,187,165638,1,0,0:0:0:0:
205,187,165792,6,0,P|171:246|45:243,1,190,8|0,0:0|0:0,0:0:0:0:
169,96,166254,1,0,0:0:0:0:
169,96,166408,2,0,P|237:95|297:205,1,190,8|2,0:0|0:0,0:0:0:0:
351,329,166869,1,0,0:0:0:0:
351,329,167023,2,0,L|455:338,1,95,8|0,0:0|0:0,0:0:0:0:
488,172,167331,6,0,L|280:190,1,190,2|8,0:0|0:0,0:0:0:0:
223,346,167792,1,0,0:0:0:0:
223,346,167946,2,0,L|431:364,1,190,2|8,0:0|0:0,0:0:0:0:
157,256,168408,1,0,0:0:0:0:
157,256,168561,6,0,P|114:317|110:367,1,95,2|0,0:0|0:0,0:0:0:0:
280,234,168869,2,0,P|248:166|207:137,1,95,8|0,0:0|0:0,0:0:0:0:
237,351,169177,2,0,P|311:357|356:336,1,95,2|0,0:0|0:0,0:0:0:0:
485,230,169484,2,0,P|410:223|365:244,1,95,8|0,0:0|0:0,0:0:0:0:
218,96,169792,5,6,0:0:0:0:
256,192,169869,12,0,171023,0:0:0:0:
123,39,179638,6,0,P|112:95|122:136,1,95,6|0,0:0|0:0,0:0:0:0:
221,182,179946,2,0,P|229:135|218:89,1,95,8|0,0:0|0:0,0:0:0:0:
300,22,180254,2,0,L|396:27,1,95,2|0,0:0|0:0,0:0:0:0:
459,131,180561,2,0,L|363:136,1,95,8|0,0:0|0:0,0:0:0:0:
213,323,180869,6,0,L|309:328,1,95,2|0,0:0|0:0,0:0:0:0:
221,182,181177,2,0,L|125:187,1,95,8|0,0:0|0:0,0:0:0:0:
336,219,181484,2,0,L|331:124,1,95,2|0,0:0|0:0,0:0:0:0:
131,92,181792,2,0,L|126:186,1,95,8|0,0:0|0:0,0:0:0:0:
204,353,182100,6,0,P|281:335|321:349,1,95,2|0,0:0|0:0,0:0:0:0:
487,330,182408,2,0,P|439:332|396:314,1,95,8|0,0:0|0:0,0:0:0:0:
454,124,182715,2,0,L|458:218,1,95,2|0,0:0|0:0,0:0:0:0:
267,213,183023,2,0,L|271:118,1,95,8|0,0:0|0:0,0:0:0:0:
91,11,183331,6,0,B|45:25|45:25|-34:7,1,95,2|0,0:0|0:0,0:0:0:0:
172,179,183638,2,0,B|218:165|218:165|297:183,1,95,8|0,0:0|0:0,0:0:0:0:
25,260,183946,2,0,P|8:217|6:164,1,95,2|0,0:0|0:0,0:0:0:0:
222,291,184254,2,0,P|219:338|202:382,1,95,8|0,0:0|0:0,0:0:0:0:
172,179,184561,5,10,0:0:0:0:
217,166,184638,1,8,0:0:0:0:
263,176,184715,1,8,0:0:0:0:
299,206,184792,1,8,0:0:0:0:
317,249,184869,1,8,0:0:0:0:
328,295,184946,1,8,0:0:0:0:
360,329,185023,1,8,0:0:0:0:
404,345,185100,1,8,0:0:0:0:
451,337,185177,1,8,0:0:0:0:
488,308,185254,1,8,0:0:0:0:
507,265,185331,1,8,0:0:0:0:
503,218,185408,1,8,0:0:0:0:
477,179,185484,1,8,0:0:0:0:
436,157,185561,1,8,0:0:0:0:
387,159,185638,1,8,0:0:0:0:
346,182,185715,1,8,0:0:0:0:
322,222,185792,6,0,L|330:274,3,47.5,8|8|8|8,0:0|0:0|0:0|0:0,0:0:0:0:
206,271,186100,2,0,L|198:317,3,47.5,8|8|8|8,0:0|0:0|0:0|0:0,0:0:0:0:
173,137,186408,2,0,L|126:129,3,47.5,8|8|8|8,0:0|0:0|0:0|0:0,0:0:0:0:
250,55,186715,2,0,L|296:62,3,47.5,8|8|8|8,0:0|0:0|0:0|0:0,0:0:0:0:
398,10,187023,5,8,0:0:0:0:
412,55,187100,1,8,0:0:0:0:
406,101,187177,1,8,0:0:0:0:
381,142,187254,1,8,0:0:0:0:
342,168,187331,1,8,0:0:0:0:
296,177,187408,1,8,0:0:0:0:
250,165,187484,1,8,0:0:0:0:
215,134,187561,1,8,0:0:0:0:
180,102,187638,1,8,0:0:0:0:
134,91,187715,1,8,0:0:0:0:
88,99,187792,1,8,0:0:0:0:
49,126,187869,1,8,0:0:0:0:
24,168,187946,1,8,0:0:0:0:
17,214,188023,1,8,0:0:0:0:
30,260,188100,1,8,0:0:0:0:
59,296,188177,1,8,0:0:0:0:
101,318,188254,1,8,0:0:0:0:
149,321,188331,1,8,0:0:0:0:
194,307,188408,1,8,0:0:0:0:
230,276,188484,1,8,0:0:0:0:
266,245,188561,1,8,0:0:0:0:
311,231,188638,1,8,0:0:0:0:
360,235,188715,1,8,0:0:0:0:
402,257,188792,1,8,0:0:0:0:
431,293,188869,6,0,B|465:234|432:159|432:159|459:174|478:211,1,190,8|0,0:0|0:0,0:0:0:0:
467,193,189484,1,6,0:0:0:0:
409,282,194100,5,8,0:0:0:0:
409,282,194408,2,0,L|310:292,1,71.2500027179719,2|2,0:0|0:0,0:0:0:0:
224,160,194715,1,8,0:0:0:0:
294,93,194869,2,0,P|320:158|275:242,1,142.500005435944,2|2,0:0|0:0,0:0:0:0:
134,197,195331,2,0,P|129:145|144:101,1,71.2500027179719,8|0,0:0|0:0,0:0:0:0:
228,276,195638,6,0,P|233:328|218:372,1,71.2500027179719,2|2,0:0|0:0,0:0:0:0:
77,371,195946,1,8,0:0:0:0:
23,281,196100,2,0,L|20:130,1,142.500005435944,2|2,0:0|0:0,0:0:0:0:
147,44,196561,1,8,0:0:0:0:
211,155,196715,1,2,0:0:0:0:
211,155,196792,1,2,0:0:0:0:
211,155,196869,2,0,L|210:190,3,35.625001358986,12|8|8|8,0:0|3:0|3:0|3:0,0:0:0:0:
117,236,197177,2,0,L|117:271,3,35.625001358986,8|8|8|8,3:0|3:0|0:0|3:0,0:0:0:0:
206,334,197484,5,8,3:0:0:0:
232,335,197561,1,8,3:0:0:0:
259,337,197638,1,8,3:0:0:0:
285,339,197715,1,8,3:0:0:0:
313,311,197792,5,8,0:0:0:0:
340,310,197869,1,8,3:0:0:0:
366,308,197946,1,8,3:0:0:0:
393,306,198023,1,8,3:0:0:0:
419,304,198100,5,12,3:0:0:0:
390,275,198177,1,8,3:0:0:0:
388,234,198254,1,12,0:0:0:0:
414,203,198331,1,8,3:0:0:0:
454,198,198408,1,8,3:0:0:0:
488,221,198484,1,8,3:0:0:0:
497,260,198561,2,0,L|339:247,1,142.500005435944,12|12,0:0|0:0,0:0:0:0:
172,232,199023,1,12,0:0:0:0:
142,243,199331,5,6,0:0:0:0:
46,63,199484,1,2,0:0:0:0:
259,31,199638,2,0,B|400:23,1,113.999996520996,8|2,0:0|0:0,0:0:0:0:
183,150,199946,2,0,B|42:142,1,113.999996520996,0|2,0:0|0:0,0:0:0:0:
69,143,200177,1,2,0:0:0:0:
69,143,200254,1,8,0:0:0:0:
177,292,200408,1,2,0:0:0:0:
270,159,200561,5,2,0:0:0:0:
75,273,200715,1,2,0:0:0:0:
285,327,200869,1,8,0:0:0:0:
69,190,201023,2,0,P|1:235|63:356,1,227.999993041992,2|2,0:0|0:0,0:0:0:0:
47,352,201408,1,2,0:0:0:0:
47,352,201484,1,8,0:0:0:0:
241,257,201638,1,2,0:0:0:0:
135,127,201792,5,6,0:0:0:0:
175,330,201946,1,2,0:0:0:0:
270,144,202100,1,8,0:0:0:0:
310,347,202254,2,0,B|385:342|468:361|468:361|427:342|405:301,1,227.999993041992,2|2,0:0|0:0,0:0:0:0:
379,253,202638,1,2,0:0:0:0:
379,253,202715,2,0,P|366:181|402:112,1,113.999996520996,8|2,0:0|0:0,0:0:0:0:
483,33,203023,5,2,0:0:0:0:
249,93,203177,1,2,0:0:0:0:
485,129,203331,1,8,0:0:0:0:
247,61,203484,1,2,0:0:0:0:
511,17,203638,2,0,L|509:168,1,113.999996520996,2|2,0:0|0:0,0:0:0:0:
506,212,203869,1,2,0:0:0:0:
506,212,203946,2,0,L|393:210,1,113.999996520996,8|2,0:0|0:0,0:0:0:0:
229,109,204254,6,0,L|116:111,2,104.500003189087,6|2|8,0:0|0:0|0:0,0:0:0:0:
102,192,204715,2,0,P|40:133|120:29,1,209.000006378174,2|2,0:0|0:0,0:0:0:0:
89,35,205100,1,2,0:0:0:0:
89,35,205177,1,8,0:0:0:0:
225,148,205331,1,2,0:0:0:0:
356,26,205484,6,0,P|420:14|491:62,2,104.500003189087,2|2|8,0:0|0:0|0:0,0:0:0:0:
387,245,205946,2,0,B|405:103|405:103|348:165,1,209.000006378174,2|2,0:0|0:0,0:0:0:0:
361,151,206331,1,2,0:0:0:0:
361,151,206408,1,8,0:0:0:0:
272,327,206561,1,2,0:0:0:0:
173,189,206715,6,0,L|60:195,2,104.500003189087,6|2|8,0:0|0:0|0:0,0:0:0:0:
355,279,207177,2,0,B|304:306|304:306|153:313,1,209.000006378174,2|2,0:0|0:0,0:0:0:0:
154,314,207561,1,2,0:0:0:0:
154,314,207638,1,8,0:0:0:0:
30,213,207792,5,2,0:0:0:0:
30,213,207869,1,2,0:0:0:0:
30,213,207946,2,0,L|33:157,1,52.2500015945435,8|2,0:0|0:0,0:0:0:0:
117,34,208100,2,0,L|120:91,1,52.2500015945435,2|2,0:0|0:0,0:0:0:0:
200,182,208254,5,0,0:0:0:0:
234,210,208330,1,0,0:0:0:0:
279,213,208407,1,0,0:0:0:0:
317,190,208484,1,0,0:0:0:0:
335,148,208561,2,2,L|337:95,3,52.2500015945435,2|0|2|2,0:0|0:0|0:0|0:0,0:0:0:0:
435,55,208869,2,0,L|445:200,1,104.500003189087,12|2,0:0|0:0,0:0:0:0:
232,227,209177,5,6,0:0:0:0:
449,260,209331,1,2,0:0:0:0:
218,263,209484,1,8,0:0:0:0:
351,137,209638,1,2,0:0:0:0:
336,353,209792,2,0,B|209:354,1,113.999996520996,0|2,0:0|0:0,0:0:0:0:
222,353,210023,1,2,0:0:0:0:
222,353,210100,1,8,0:0:0:0:
51,268,210254,6,0,B|136:267|136:267|172:233|172:233|283:232,1,227.999993041992,2|2,0:0|0:0,0:0:0:0:
94,38,210715,2,0,B|94:151,1,113.999996520996,8|2,0:0|0:0,0:0:0:0:
215,323,211023,1,0,0:0:0:0:
193,136,211177,1,2,0:0:0:0:
193,136,211254,1,2,0:0:0:0:
193,136,211331,1,8,0:0:0:0:
51,268,211484,1,2,0:0:0:0:
270,196,211638,6,0,P|290:132|258:61,1,113.999996520996,6|2,0:0|0:0,0:0:0:0:
76,18,211946,1,8,0:0:0:0:
193,136,212100,1,2,0:0:0:0:
346,30,212254,2,0,L|477:37,1,113.999996520996,0|2,0:0|0:0,0:0:0:0:
459,36,212484,1,2,0:0:0:0:
459,36,212561,1,8,0:0:0:0:
416,249,212715,1,2,0:0:0:0:
240,134,212869,5,2,0:0:0:0:
498,217,213023,1,2,0:0:0:0:
242,256,213177,1,8,0:0:0:0:
499,179,213331,1,2,0:0:0:0:
242,97,213484,2,0,L|75:107,1,113.999996520996,2|2,0:0|0:0,0:0:0:0:
128,103,213715,1,2,0:0:0:0:
128,103,213792,1,8,0:0:0:0:
65,286,213946,1,2,0:0:0:0:
29,114,214100,5,6,0:0:0:0:
222,240,214254,1,2,0:0:0:0:
23,288,214408,1,8,0:0:0:0:
136,111,214561,1,2,0:0:0:0:
304,191,214715,2,0,B|318:243|318:243|300:306,1,113.999996520996,0|2,0:0|0:0,0:0:0:0:
236,351,214946,1,2,0:0:0:0:
236,351,215023,2,0,L|98:359,1,113.999996520996,8|2,0:0|0:0,0:0:0:0:
0,144,215331,5,2,0:0:0:0:
200,175,215484,1,2,0:0:0:0:
23,288,215638,1,8,0:0:0:0:
128,98,215792,2,0,P|202:71|305:194,1,227.999993041992,2|2,0:0|0:0,0:0:0:0:
304,160,216177,1,2,0:0:0:0:
304,160,216254,1,8,0:0:0:0:
285,353,216408,1,2,0:0:0:0:
428,215,216561,5,6,0:0:0:0:
210,270,216715,1,2,0:0:0:0:
414,352,216869,1,8,0:0:0:0:
311,167,217023,1,2,0:0:0:0:
130,219,217177,2,0,B|118:279|118:279|148:348,1,113.999996520996,0|2,0:0|0:0,0:0:0:0:
139,327,217408,1,2,0:0:0:0:
139,327,217484,1,8,0:0:0:0:
251,161,217638,1,2,0:0:0:0:
29,176,217792,5,2,0:0:0:0:
210,270,217946,1,2,0:0:0:0:
181,68,218100,1,8,0:0:0:0:
136,347,218254,2,0,B|231:360|231:360|270:335|270:335|374:348,1,227.999993041992,2|2,0:0|0:0,0:0:0:0:
355,345,218638,1,2,0:0:0:0:
354,344,218715,1,8,0:0:0:0:
373,122,218869,1,2,0:0:0:0:
210,270,219023,5,6,0:0:0:0:
464,289,219177,1,2,0:0:0:0:
284,102,219331,2,0,B|277:215,1,113.999996520996,8|2,0:0|0:0,0:0:0:0:
496,212,219638,2,0,B|488:71,1,113.999996520996,0|2,0:0|0:0,0:0:0:0:
490,98,219869,1,2,0:0:0:0:
490,98,219946,1,8,0:0:0:0:
287,65,220100,1,2,0:0:0:0:
476,7,220254,5,2,0:0:0:0:
390,195,220408,1,2,0:0:0:0:
308,28,220561,1,8,0:0:0:0:
486,152,220715,2,0,P|492:224|358:298,1,227.999993041992,2|2,0:0|0:0,0:0:0:0:
375,301,221100,1,2,0:0:0:0:
375,301,221177,1,8,0:0:0:0:
253,194,221331,1,2,0:0:0:0:
391,201,221484,5,6,0:0:0:0:
189,283,221638,1,2,0:0:0:0:
395,340,221792,1,8,0:0:0:0:
183,248,221946,2,0,B|205:80|205:80|243:152,1,227.999993041992,2|2,0:0|0:0,0:0:0:0:
284,194,222331,1,2,0:0:0:0:
284,194,222408,2,0,P|341:215|406:188,1,113.999996520996,8|2,0:0|0:0,0:0:0:0:
446,16,222715,5,2,0:0:0:0:
205,80,222869,1,2,0:0:0:0:
448,112,223023,1,8,0:0:0:0:
210,44,223177,1,2,0:0:0:0:
474,0,223331,2,0,L|472:151,1,113.999996520996,2|2,0:0|0:0,0:0:0:0:
469,195,223561,1,2,0:0:0:0:
469,195,223638,2,0,L|356:193,1,113.999996520996,8|2,0:0|0:0,0:0:0:0:
213,97,223946,6,0,L|100:99,2,104.500003189087,6|2|8,0:0|0:0|0:0,0:0:0:0:
86,180,224408,2,0,P|24:121|104:17,1,209.000006378174,2|2,0:0|0:0,0:0:0:0:
73,23,224792,1,2,0:0:0:0:
73,23,224869,1,8,0:0:0:0:
209,136,225023,1,2,0:0:0:0:
340,14,225177,6,0,P|404:2|475:50,2,104.500003189087,6|2|8,0:0|0:0|0:0,0:0:0:0:
371,233,225638,2,0,B|389:91|389:91|332:153,1,209.000006378174,2|2,0:0|0:0,0:0:0:0:
345,139,226023,1,2,0:0:0:0:
345,139,226100,1,8,0:0:0:0:
256,315,226254,1,2,0:0:0:0:
157,177,226408,6,0,L|44:183,2,104.500003189087,6|2|8,0:0|0:0|0:0,0:0:0:0:
286,317,226869,2,0,L|59:303,1,209.000006378174,2|2,0:0|0:0,0:0:0:0:
46,304,227254,1,2,0:0:0:0:
46,304,227331,2,0,P|35:247|61:174,1,104.500003189087,8|2,0:0|0:0,0:0:0:0:
225,102,227638,5,6,0:0:0:0:
133,257,227792,1,2,0:0:0:0:
86,70,227946,1,8,0:0:0:0:
267,182,228100,2,0,B|370:216|370:216|471:172,1,209.000006378174,2|2,0:0|0:0,0:0:0:0:
495,158,228484,1,2,0:0:0:0:
495,158,228561,2,0,L|483:39,1,104.500003189087,8|2,0:0|0:0,0:0:0:0:
240,117,228869,6,0,L|230:221,1,104.500003189087,6|2,0:0|0:0,0:0:0:0:
410,320,229177,2,0,L|400:215,1,104.500003189087,6|2,0:0|0:0,0:0:0:0:
223,96,229484,2,0,L|211:221,1,104.500003189087,6|2,0:0|0:0,0:0:0:0:
427,340,229792,2,0,L|415:214,1,104.500003189087,6|2,0:0|0:0,0:0:0:0:
140,305,230100,6,0,P|216:320|282:302,1,104.500003189087,6|2,0:0|0:0,0:0:0:0:
379,131,230408,2,0,P|431:129|481:144,1,104.500003189087,6|2,0:0|0:0,0:0:0:0:
116,327,230715,2,0,P|189:341|253:324,1,104.500003189087,6|2,0:0|0:0,0:0:0:0:
401,110,231023,2,0,P|453:107|504:121,1,104.500003189087,6|2,0:0|0:0,0:0:0:0:
180,247,231331,5,6,0:0:0:0:
180,247,231484,1,8,0:0:0:0:
446,200,231638,1,6,0:0:0:0:
446,200,231792,1,8,0:0:0:0:
203,82,231946,1,6,0:0:0:0:
203,82,232100,1,8,0:0:0:0:
332,323,232254,1,12,0:0:0:0:
332,323,232408,1,8,0:0:0:0:
367,54,232561,1,12,0:0:0:0:
