osu file format v14

[General]
AudioFilename: fge.mp3
AudioLeadIn: 1500
PreviewTime: 172460
Countdown: 0
SampleSet: Soft
StackLeniency: 0.3
Mode: 0
LetterboxInBreaks: 0
WidescreenStoryboard: 1

[Editor]
Bookmarks: 155360,193760,201410
DistanceSpacing: 0.1
BeatDivisor: 4
GridSize: 32
TimelineZoom: 4.700003

[Metadata]
Title:From Under Cover (Caught Up In A Love Song)
TitleUnicode:From Under Cover (Caught Up In A Love Song)
Artist:Foreground Eclipse
ArtistUnicode:Foreground Eclipse
Creator:Seni
Version:I've Stopped Time and Everything is at My Mercy
Source:
Tags:めらみぽっぷ touhou doujin meramipop teto stories that last through the sleepless nights c85 HB24 Akitoshi Linada
BeatmapID:1115737
BeatmapSetID:462386

[Difficulty]
HPDrainRate:5
CircleSize:4.3
OverallDifficulty:9.5
ApproachRate:9.5
SliderMultiplier:1.8
SliderTickRate:2

[Events]
//Background and Video events
0,0,"sanaebg.png",0,0
//Break Periods
//Storyboard Layer 0 (Background)
//Storyboard Layer 1 (Fail)
//Storyboard Layer 2 (Pass)
//Storyboard Layer 3 (Foreground)
//Storyboard Sound Samples

[TimingPoints]
860,300,4,2,3,20,1,0
860,-125,4,2,3,20,0,0
2060,-125,4,2,3,25,0,0
3260,-125,4,2,3,35,0,0
4460,-125,4,2,3,40,0,0
5660,-125,4,2,3,45,0,0
6860,-125,4,2,3,50,0,0
8060,-125,4,2,3,55,0,0
9260,-125,4,2,3,70,0,0
10460,-90.9090909090909,4,2,3,80,0,0
29660,-111.111111111111,4,2,3,70,0,0
38060,-100,4,2,3,60,0,0
39260,-90.9090909090908,4,2,3,80,0,0
56060,-125,4,2,3,80,0,0
56510,-125,4,2,3,5,0,0
56660,-125,4,2,3,80,0,0
56810,-125,4,2,3,5,0,0
56960,-125,4,2,3,80,0,0
57110,-125,4,2,3,5,0,0
57260,-125,4,2,3,80,0,0
57710,-125,4,2,3,5,0,0
57860,-125,4,2,3,80,0,0
58010,-125,4,2,3,5,0,0
58160,-125,4,2,3,80,0,0
58460,-76.9230769230769,4,2,3,100,0,1
65660,-83.3333333333333,4,2,3,90,0,0
66335,-83.3333333333333,4,2,3,5,0,0
66410,-83.3333333333333,4,2,3,90,0,0
66710,-100,4,2,3,90,0,0
67760,-111.111111111111,4,2,3,90,0,0
67985,-111.111111111111,4,2,3,5,0,0
68060,-76.9230769230769,4,2,3,100,0,1
72185,-76.9230769230769,4,2,3,5,0,1
72260,-76.9230769230769,4,2,3,100,0,1
73085,-76.9230769230769,4,2,3,5,0,1
73160,-76.9230769230769,4,2,3,100,0,1
77060,-76.9230769230769,4,2,8,100,0,1
77435,-76.9230769230769,4,2,8,100,0,0
77510,-142.857142857143,4,2,3,90,0,1
77735,-142.857142857143,4,2,3,5,0,1
77810,-142.857142857143,4,2,3,90,0,1
78935,-142.857142857143,4,2,3,5,0,1
79010,-142.857142857143,4,2,3,90,0,1
80135,-142.857142857143,4,2,3,5,0,1
80210,-142.857142857143,4,2,3,90,0,1
81335,-142.857142857143,4,2,3,5,0,1
81410,-142.857142857143,4,2,3,90,0,1
82235,-142.857142857143,4,2,3,90,0,0
82310,-100,4,2,3,90,0,1
84710,-83.3333333333333,4,2,3,90,0,1
86060,-100,4,2,3,90,0,1
87110,-100,4,2,3,80,0,0
89660,-90.9090909090909,4,2,3,80,0,0
104660,-90.9090909090909,4,2,3,80,0,0
105260,-90.9090909090909,4,2,3,80,0,0
105410,-90.9090909090909,4,2,3,80,0,0
105710,-90.9090909090909,4,2,3,90,0,0
106460,-76.9230769230769,4,2,3,100,0,1
113660,-83.3333333333333,4,2,3,90,0,0
114335,-83.3333333333333,4,2,3,5,0,0
114410,-83.3333333333333,4,2,3,90,0,0
114710,-100,4,2,3,90,0,0
115760,-100,4,2,3,90,0,0
116060,-76.9230769230769,4,2,3,100,0,1
120185,-76.9230769230769,4,2,3,5,0,1
120260,-76.9230769230769,4,2,3,100,0,1
121085,-76.9230769230769,4,2,3,5,0,1
121160,-76.9230769230769,4,2,3,100,0,1
125360,-76.9230769230769,4,2,3,100,0,1
125660,-100,4,2,3,80,0,0
135260,-90.9090909090909,4,2,3,80,0,0
144710,-90.9090909090909,4,2,3,80,0,0
144860,-133.333333333333,4,2,3,80,0,0
145085,-133.333333333333,4,2,3,5,0,0
145160,-133.333333333333,4,2,3,80,0,0
145385,-133.333333333333,4,2,3,5,0,0
145460,-133.333333333333,4,2,3,80,0,0
145835,-133.333333333333,4,2,3,5,0,0
145910,-133.333333333333,4,2,3,80,0,0
146135,-133.333333333333,4,2,3,5,0,0
146210,-133.333333333333,4,2,3,80,0,0
147485,-133.333333333333,4,2,3,5,0,0
147560,-133.333333333333,4,2,3,80,0,0
147785,-133.333333333333,4,2,3,5,0,0
147860,-133.333333333333,4,2,3,80,0,0
148235,-133.333333333333,4,2,3,5,0,0
148310,-133.333333333333,4,2,3,80,0,0
148535,-133.333333333333,4,2,3,5,0,0
148610,-133.333333333333,4,2,3,80,0,0
149885,-133.333333333333,4,2,3,5,0,0
149960,-133.333333333333,4,2,3,80,0,0
150185,-133.333333333333,4,2,3,5,0,0
150260,-133.333333333333,4,2,3,80,0,0
150635,-133.333333333333,4,2,3,5,0,0
150710,-133.333333333333,4,2,3,80,0,0
150935,-133.333333333333,4,2,3,5,0,0
151010,-133.333333333333,4,2,3,80,0,0
152285,-133.333333333333,4,2,3,5,0,0
152360,-133.333333333333,4,2,3,80,0,0
152585,-133.333333333333,4,2,3,5,0,0
152660,-133.333333333333,4,2,3,80,0,0
153035,-133.333333333333,4,2,3,5,0,0
153110,-133.333333333333,4,2,3,80,0,0
153335,-133.333333333333,4,2,3,5,0,0
153410,-133.333333333333,4,2,3,80,0,0
154460,-133.333333333333,4,2,3,80,0,0
164060,-133.333333333333,4,2,3,80,0,0
168860,-133.333333333333,4,2,3,60,0,0
170060,-133.333333333333,4,2,3,60,0,0
170960,-133.333333333333,4,2,3,70,0,0
171860,-133.333333333333,4,2,3,80,0,0
172160,-133.333333333333,4,2,3,80,0,0
172460,-133.333333333333,4,2,3,81,0,0
172535,-133.333333333333,4,2,3,82,0,0
172610,-133.333333333333,4,2,3,83,0,0
172685,-133.333333333333,4,2,3,84,0,0
172760,-133.333333333333,4,2,3,85,0,0
173060,-133.333333333333,4,2,3,90,0,0
173510,-133.333333333333,4,2,3,5,0,0
173660,-76.9230769230769,4,2,3,100,0,1
180860,-83.3333333333333,4,2,3,80,0,0
181535,-83.3333333333333,4,2,3,5,0,0
181610,-83.3333333333333,4,2,3,80,0,0
181910,-90.9090909090909,4,2,3,80,0,0
183185,-90.9090909090909,4,2,3,5,0,0
183260,-76.9230769230769,4,2,3,100,0,1
187385,-76.9230769230769,4,2,3,5,0,1
187460,-76.9230769230769,4,2,3,100,0,1
188285,-76.9230769230769,4,2,3,5,0,1
188360,-76.9230769230769,4,2,3,100,0,1
190685,-76.9230769230769,4,2,3,5,0,1
190760,-76.9230769230769,4,2,3,100,0,1
191510,-90.9090909090909,4,2,3,100,0,1
191735,-90.9090909090909,4,2,3,5,0,1
191810,-90.9090909090909,4,2,3,100,0,1
192860,-83.3333333333333,4,2,3,80,0,0
201860,-83.3333333333333,4,2,3,80,0,0
202160,-83.3333333333333,4,2,3,80,0,0

[Colours]
Combo1 : 128,174,202
Combo2 : 196,196,196
Combo3 : 202,9,9

[HitObjects]
208,40,860,6,0,P|240:72|256:124,1,72,2|0,0:3|0:3,0:3:0:0:
156,124,1160,1,0,0:3:0:0:
156,124,1310,2,0,P|156:169|130:217,1,72,2|0,0:3|0:3,0:3:0:0:
84,288,1610,1,0,0:3:0:0:
84,288,1760,2,0,L|164:280,1,72,2|0,0:3|0:3,0:3:0:0:
300,364,2060,6,0,L|220:356,1,72,2|0,0:3|0:3,0:3:0:0:
268,228,2360,2,0,L|339:220,1,72,0|0,0:3|0:3,0:3:0:0:
415,144,2660,1,2,0:3:0:0:
312,132,2810,1,0,0:3:0:0:
420,129,2960,1,0,0:3:0:0:
307,117,3110,1,0,0:3:0:0:
428,28,3260,6,0,P|388:32|332:16,1,72,2|0,0:3|0:3,0:3:0:0:
224,12,3560,1,0,0:3:0:0:
224,12,3710,2,0,P|236:50|233:108,1,72,2|0,0:3|0:3,0:3:0:0:
340,180,4010,1,0,0:3:0:0:
340,180,4160,2,0,L|432:156,1,72,2|0,0:3|0:3,0:3:0:0:
252,228,4460,6,0,P|240:172|248:140,1,72,2|0,0:3|0:3,0:3:0:0:
400,248,4760,2,0,P|397:305|381:334,1,72,0|0,0:3|0:3,0:3:0:0:
276,364,5060,1,2,0:3:0:0:
288,332,5210,1,0,0:3:0:0:
200,280,5360,1,0,0:3:0:0:
188,312,5510,1,0,0:3:0:0:
72,348,5660,6,0,P|32:316|16:276,1,72,2|0,0:3|0:3,0:3:0:0:
108,260,5960,1,0,0:3:0:0:
108,260,6110,2,0,P|102:209|119:169,1,72,2|0,0:3|0:3,0:3:0:0:
16,104,6410,1,0,0:3:0:0:
16,104,6560,2,0,P|22:139|15:174,1,72,2|0,0:3|0:3,0:3:0:0:
104,48,6860,6,0,L|208:36,1,72,2|0,0:3|0:3,0:3:0:0:
264,160,7160,2,0,L|192:151,1,72,0|0,0:3|0:3,0:3:0:0:
292,56,7460,1,2,0:3:0:0:
352,140,7610,1,0,0:3:0:0:
312,44,7760,1,0,0:3:0:0:
372,128,7910,1,0,0:3:0:0:
448,40,8060,6,0,L|464:128,1,72,2|0,0:3|0:3,0:3:0:0:
428,212,8360,1,0,0:3:0:0:
428,212,8510,2,0,P|368:228|332:220,1,72,2|0,0:3|0:3,0:3:0:0:
293,295,8810,1,0,0:3:0:0:
236,193,8960,1,2,0:3:0:0:
173,294,9110,1,0,0:3:0:0:
135,136,9260,5,6,0:0:0:0:
103,108,9560,5,6,0:0:0:0:
71,80,9860,5,6,0:0:0:0:
19,94,9935,1,2,0:0:0:0:
0,144,10010,1,2,0:0:0:0:
29,189,10085,1,2,0:0:0:0:
82,192,10160,2,0,P|93:186|105:173,6,18,2|2|2|2|2|2|2,0:0|0:0|0:0|0:0|0:0|0:0|0:0,0:0:0:0:
82,192,10460,6,0,P|67:244|89:300,1,99.0000030212403,6|2,0:0|0:0,0:0:0:0:
204,384,10760,1,8,0:0:0:0:
257,236,10910,1,2,0:0:0:0:
257,236,10985,1,2,0:0:0:0:
257,236,11060,2,0,B|141:244,1,99.0000030212403,2|2,0:0|0:0,0:0:0:0:
365,182,11360,1,8,0:0:0:0:
282,332,11510,1,2,0:0:0:0:
198,159,11660,6,0,B|190:43,1,99.0000030212403,2|2,0:0|0:0,0:0:0:0:
406,66,11960,2,0,B|399:164,1,99.0000030212403,8|2,0:0|0:0,0:0:0:0:
398,199,12185,1,2,0:0:0:0:
398,199,12260,1,2,0:0:0:0:
201,190,12410,1,2,0:0:0:0:
330,103,12560,1,8,0:0:0:0:
322,275,12710,1,2,0:0:0:0:
209,46,12860,6,0,B|157:36|157:36|105:45,1,99.0000030212403,6|2,0:0|0:0,0:0:0:0:
0,162,13160,1,8,0:0:0:0:
150,228,13310,1,2,0:0:0:0:
150,228,13385,1,2,0:0:0:0:
150,228,13460,2,0,B|157:112,1,99.0000030212403,2|2,0:0|0:0,0:0:0:0:
0,162,13760,1,8,0:0:0:0:
68,322,13910,1,2,0:0:0:0:
288,249,14060,6,0,B|339:239|339:239|391:248,1,99.0000030212403,2|2,0:0|0:0,0:0:0:0:
498,159,14360,2,0,B|446:168|446:168|394:159,1,99.0000030212403,8|2,0:0|0:0,0:0:0:0:
370,155,14585,1,2,0:0:0:0:
370,155,14660,1,2,0:0:0:0:
341,317,14810,1,2,0:0:0:0:
255,108,14960,1,12,0:0:0:0:
448,87,15110,1,2,0:0:0:0:
206,337,15260,6,0,L|106:329,1,99.0000030212403,6|2,0:0|0:0,0:0:0:0:
81,163,15560,1,8,0:0:0:0:
293,176,15710,1,2,0:0:0:0:
293,176,15785,1,2,0:0:0:0:
293,176,15860,2,0,P|297:226|277:284,1,99.0000030212403,2|2,0:0|0:0,0:0:0:0:
165,210,16160,1,8,0:0:0:0:
231,58,16310,1,2,0:0:0:0:
392,204,16460,6,0,B|442:215|442:215|491:208,1,99.0000030212403,2|2,0:0|0:0,0:0:0:0:
265,69,16760,1,8,0:0:0:0:
293,249,16910,1,2,0:0:0:0:
293,249,16985,1,2,0:0:0:0:
293,249,17060,1,2,0:0:0:0:
447,128,17210,1,2,0:0:0:0:
206,178,17360,1,8,0:0:0:0:
368,330,17510,1,2,0:0:0:0:
265,69,17660,5,6,0:0:0:0:
253,325,17810,1,0,0:0:0:0:
148,92,17960,5,8,0:0:0:0:
340,235,18110,1,2,0:0:0:0:
340,235,18185,1,2,0:0:0:0:
340,235,18260,1,8,0:0:0:0:
106,271,18410,1,2,0:0:0:0:
366,145,18560,5,8,0:0:0:0:
94,41,18710,1,10,0:0:0:0:
381,8,18860,6,0,P|386:39|387:63,1,49.5000015106202,2|2,0:0|0:0,0:0:0:0:
192,192,19010,2,0,P|187:161|186:137,1,49.5000015106202,8|8,0:0|0:0,0:0:0:0:
366,145,19160,1,10,0:0:0:0:
397,166,19235,1,8,0:0:0:0:
418,197,19310,1,8,0:0:0:0:
425,235,19385,1,8,0:0:0:0:
417,272,19460,1,10,0:0:0:0:
395,303,19535,1,8,0:0:0:0:
362,323,19610,1,8,0:0:0:0:
324,329,19685,1,8,0:0:0:0:
287,319,19760,1,10,0:0:0:0:
246,292,19835,1,8,0:0:0:0:
198,280,19910,1,8,0:0:0:0:
149,284,19985,1,8,0:0:0:0:
104,303,20060,6,0,P|90:253|95:205,1,99.0000030212403,6|2,0:0|0:0,0:0:0:0:
171,70,20360,1,8,0:0:0:0:
320,133,20510,1,2,0:0:0:0:
320,133,20585,1,2,0:0:0:0:
320,133,20660,2,0,P|334:183|329:231,1,99.0000030212403,2|2,0:0|0:0,0:0:0:0:
272,359,20960,1,8,0:0:0:0:
430,238,21110,1,2,0:0:0:0:
232,190,21260,6,0,L|133:184,1,99.0000030212403,2|2,0:0|0:0,0:0:0:0:
34,50,21560,2,0,L|132:44,1,99.0000030212403,8|2,0:0|0:0,0:0:0:0:
167,46,21785,1,2,0:0:0:0:
167,46,21860,1,2,0:0:0:0:
365,83,22010,1,2,0:0:0:0:
232,190,22160,1,8,0:0:0:0:
261,22,22310,1,2,0:0:0:0:
460,27,22460,6,0,P|475:77|466:127,1,99.0000030212403,6|2,0:0|0:0,0:0:0:0:
350,221,22760,1,8,0:0:0:0:
266,77,22910,1,2,0:0:0:0:
266,77,22985,1,2,0:0:0:0:
266,77,23060,2,0,L|382:84,1,99.0000030212403,2|2,0:0|0:0,0:0:0:0:
504,177,23360,1,8,0:0:0:0:
422,17,23510,1,2,0:0:0:0:
269,162,23660,6,0,L|262:278,1,99.0000030212403,2|2,0:0|0:0,0:0:0:0:
101,310,23960,2,0,L|94:194,1,99.0000030212403,8|2,0:0|0:0,0:0:0:0:
95,176,24185,1,2,0:0:0:0:
95,176,24260,1,2,0:0:0:0:
170,9,24410,1,2,0:0:0:0:
268,150,24560,1,8,0:0:0:0:
72,67,24710,1,2,0:0:0:0:
357,100,24860,6,0,P|375:145|366:193,1,99.0000030212403,6|0,0:0|0:0,0:0:0:0:
230,317,25160,1,8,0:0:0:0:
169,155,25310,1,2,0:0:0:0:
169,155,25385,1,2,0:0:0:0:
169,155,25460,2,0,B|289:148,1,99.0000030212403,2|2,0:0|0:0,0:0:0:0:
336,353,25760,2,0,B|216:346,1,99.0000030212403,8|2,0:0|0:0,0:0:0:0:
77,149,26060,5,2,0:0:0:0:
147,360,26210,1,2,0:0:0:0:
267,149,26360,1,8,0:0:0:0:
40,238,26510,1,2,0:0:0:0:
40,238,26585,1,2,0:0:0:0:
40,238,26660,5,8,0:0:0:0:
237,347,26810,1,2,0:0:0:0:
80,75,26960,1,8,0:0:0:0:
31,353,27110,1,2,0:0:0:0:
305,179,27260,6,0,L|429:191,1,99.0000030212403,6|2,0:0|0:0,0:0:0:0:
478,330,27560,5,8,0:0:0:0:
456,61,27710,1,2,0:0:0:0:
368,325,27860,5,8,0:0:0:0:
346,57,28010,1,2,0:0:0:0:
258,321,28160,5,8,0:0:0:0:
236,52,28310,1,2,0:0:0:0:
231,74,28385,1,0,0:0:0:0:
227,96,28460,5,8,0:0:0:0:
148,316,28610,1,8,0:0:0:0:
126,48,28760,1,2,0:0:0:0:
121,66,28835,1,0,0:0:0:0:
117,88,28910,5,8,0:0:0:0:
46,316,29060,1,8,0:0:0:0:
224,172,29210,6,0,L|216:224,1,49.5000015106202,2|2,0:0|0:0,0:0:0:0:
252,352,29360,1,8,0:0:0:0:
285,362,29435,1,8,0:0:0:0:
319,363,29510,1,2,0:0:0:0:
353,358,29585,1,2,0:0:0:0:
379,346,29660,6,0,B|403:334|431:334|431:334|403:274|431:222,1,161.999995056153,6|2,0:0|0:0,0:0:0:0:
329,198,30110,1,0,0:0:0:0:
329,198,30260,2,0,P|309:142|321:90,1,80.9999975280763,2|0,0:0|0:0,0:0:0:0:
405,138,30560,2,0,P|445:134|497:166,1,80.9999975280763,2|0,0:0|0:0,0:0:0:0:
367,300,30860,6,0,B|287:324|287:272|195:300,1,161.999995056153,2|2,0:0|0:0,0:0:0:0:
60,248,31310,1,0,0:0:0:0:
60,248,31460,2,0,P|100:236|144:236,1,80.9999975280763,2|0,0:0|0:0,0:0:0:0:
12,164,31760,2,0,P|5:122|11:79,1,80.9999975280763,2|0,0:0|0:0,0:0:0:0:
216,32,32060,6,0,B|240:32|264:24|264:24|292:76|272:140,1,161.999995056153,6|2,0:0|0:0,0:0:0:0:
328,220,32510,1,0,0:0:0:0:
328,220,32660,2,0,P|372:212|432:228,1,80.9999975280763,2|0,0:0|0:0,0:0:0:0:
472,84,32960,2,0,P|428:92|368:76,1,80.9999975280763,2|0,0:0|0:0,0:0:0:0:
273,133,33260,6,0,B|196:164|196:100|113:133,1,161.999995056153,2|2,0:0|0:0,0:0:0:0:
235,59,33710,1,0,0:0:0:0:
235,59,33860,2,0,P|186:43|123:43,1,80.9999975280763,2|0,0:0|0:0,0:0:0:0:
48,84,34160,2,0,P|36:152|60:192,1,80.9999975280763,2|0,0:0|0:0,0:0:0:0:
112,340,34460,6,0,B|140:348|168:336|168:336|144:284|168:232,1,161.999995056153,6|2,0:0|0:0,0:0:0:0:
264,284,34910,1,0,0:0:0:0:
264,284,35060,2,0,P|312:300|356:288,1,80.9999975280763,2|0,0:0|0:0,0:0:0:0:
452,328,35360,2,0,P|452:260|432:224,1,80.9999975280763,2|0,0:0|0:0,0:0:0:0:
314,125,35660,6,0,P|304:164|309:204,1,80.9999975280763,2|0,0:0|0:0,0:0:0:0:
357,34,35960,2,0,P|317:24|277:29,1,80.9999975280763,2|0,0:0|0:0,0:0:0:0:
405,173,36260,2,0,P|444:182|484:177,1,80.9999975280763,2|0,0:0|0:0,0:0:0:0:
454,10,36560,2,0,L|448:114,1,80.9999975280763,2|0,0:0|0:0,0:0:0:0:
297,282,36860,6,0,L|292:201,1,80.9999975280763,6|0,0:0|0:0,0:0:0:0:
454,279,37160,2,0,L|449:359,1,80.9999975280763,2|0,0:0|0:0,0:0:0:0:
494,197,37460,6,0,B|450:191|450:191|381:206,1,80.9999975280763,2|0,0:0|0:0,0:0:0:0:
297,282,37760,2,0,B|253:288|253:288|184:273,1,80.9999975280763,2|0,0:0|0:0,0:0:0:0:
87,70,38060,6,0,B|139:58|200:79,1,90,4|0,0:0|0:0,0:0:0:0:
147,286,38360,2,0,B|110:246|104:207,1,90,6|0,0:0|0:0,0:0:0:0:
305,126,38661,2,0,B|289:177|258:202,1,90,4|0,0:0|0:0,0:0:0:0:
236,53,38960,1,8,0:0:0:0:
271,34,39035,1,8,0:0:0:0:
311,30,39110,1,8,0:0:0:0:
350,41,39185,1,8,0:0:0:0:
382,65,39260,6,0,L|392:163,1,99.0000030212403,6|2,0:0|0:0,0:0:0:0:
415,352,39560,1,8,0:0:0:0:
504,230,39710,1,2,0:0:0:0:
504,230,39785,1,2,0:0:0:0:
504,230,39860,2,0,L|396:242,1,99.0000030212403,2|2,0:0|0:0,0:0:0:0:
274,336,40160,1,8,0:0:0:0:
331,176,40310,1,2,0:0:0:0:
157,204,40460,6,0,L|265:216,1,99.0000030212403,2|2,0:0|0:0,0:0:0:0:
118,358,40760,1,8,0:0:0:0:
71,220,40910,1,2,0:0:0:0:
71,220,40985,1,2,0:0:0:0:
71,220,41060,2,0,B|73:181|73:181|85:151|85:151|85:101,1,99.0000030212403,2|2,0:0|0:0,0:0:0:0:
157,20,41360,1,8,0:0:0:0:
0,131,41510,1,2,0:0:0:0:
157,204,41660,6,0,B|193:213|193:213|226:210|226:210|273:225,1,99.0000030212403,4|2,0:0|0:0,0:0:0:0:
408,264,41960,1,8,0:0:0:0:
241,377,42110,1,2,0:0:0:0:
241,377,42185,1,2,0:0:0:0:
241,377,42260,2,0,P|218:338|218:272,1,99.0000030212403,2|2,0:0|0:0,0:0:0:0:
382,171,42560,2,0,P|404:209|404:275,1,99.0000030212403,8|2,0:0|0:0,0:0:0:0:
355,343,42860,5,2,0:0:0:0:
499,217,43010,1,2,0:0:0:0:
306,130,43160,2,0,L|198:138,1,99.0000030212403,8|2,0:0|0:0,0:0:0:0:
27,212,43460,1,2,2:0:0:0:
98,380,43610,1,2,2:0:0:0:
140,199,43760,1,8,2:0:0:0:
0,322,43910,1,2,2:0:0:0:
183,306,44060,6,0,L|291:298,1,99.0000030212403,6|2,0:0|0:0,0:0:0:0:
291,66,44360,1,8,2:0:0:0:
483,174,44510,1,2,2:0:0:0:
483,174,44585,1,2,2:0:0:0:
483,174,44660,1,2,2:0:0:0:
266,194,44810,1,2,2:0:0:0:
421,50,44960,1,8,2:0:0:0:
382,257,45110,1,2,2:0:0:0:
291,66,45260,6,0,L|171:79,1,99.0000030212403,2|2,0:0|0:0,0:0:0:0:
54,97,45560,1,8,0:0:0:0:
274,201,45710,1,2,0:0:0:0:
274,201,45785,1,2,0:0:0:0:
274,201,45860,2,0,L|154:214,1,99.0000030212403,2|2,0:0|0:0,0:0:0:0:
12,228,46160,1,8,0:0:0:0:
151,101,46310,1,2,0:0:0:0:
248,279,46460,6,0,L|256:408,1,99.0000030212403,6|2,0:0|0:0,0:0:0:0:
488,249,46760,1,8,0:0:0:0:
313,174,46910,1,2,0:0:0:0:
313,174,46985,1,2,0:0:0:0:
313,174,47060,1,2,0:0:0:0:
333,354,47210,1,2,0:0:0:0:
488,249,47360,1,8,0:0:0:0:
309,169,47510,1,2,0:0:0:0:
482,348,47660,6,0,L|490:219,1,99.0000030212403,6|2,0:0|0:0,0:0:0:0:
489,117,47960,1,8,2:0:0:0:
489,117,48035,1,8,2:0:0:0:
489,117,48110,2,0,P|463:116|433:126,1,49.5000015106202,2|2,2:0|2:0,2:0:0:0:
324,69,48260,1,6,0:0:0:0:
297,82,48335,1,2,0:0:0:0:
267,86,48410,1,2,0:0:0:0:
236,83,48485,1,2,0:0:0:0:
209,68,48560,5,8,0:0:0:0:
168,48,48635,1,8,0:0:0:0:
123,49,48710,1,2,0:0:0:0:
89,78,48785,1,2,0:0:0:0:
80,121,48860,6,0,B|82:154|82:154|74:194|74:194|80:233,1,99.0000030212403,6|2,0:0|0:0,0:0:0:0:
170,355,49160,1,8,0:0:0:0:
267,211,49310,1,2,0:0:0:0:
267,211,49385,1,2,0:0:0:0:
267,211,49460,2,0,L|156:198,1,99.0000030212403,2|2,0:0|0:0,0:0:0:0:
69,59,49760,2,0,L|180:46,1,99.0000030212403,8|2,0:0|0:0,0:0:0:0:
344,168,50060,6,0,B|351:220|351:220|339:266,1,99.0000030212403,2|2,0:0|0:0,0:0:0:0:
439,354,50360,1,8,0:0:0:0:
442,198,50510,1,2,0:0:0:0:
442,198,50585,1,2,0:0:0:0:
442,198,50660,6,0,B|435:146|435:146|447:100,1,99.0000030212403,2|2,0:0|0:0,0:0:0:0:
317,19,50960,1,8,0:0:0:0:
512,154,51110,1,2,0:0:0:0:
344,168,51260,6,0,B|311:166|311:166|271:174|271:174|232:168,1,99.0000030212403,6|2,0:0|0:0,0:0:0:0:
142,324,51560,1,8,0:0:0:0:
316,355,51710,1,2,0:0:0:0:
316,355,51785,1,2,0:0:0:0:
316,355,51860,2,0,L|325:249,1,99.0000030212403,2|2,0:0|0:0,0:0:0:0:
223,160,52160,1,8,0:0:0:0:
415,262,52310,1,2,0:0:0:0:
217,355,52460,6,0,P|164:362|104:342,1,99.0000030212403,2|2,0:0|0:0,0:0:0:0:
127,157,52760,2,0,P|179:149|239:169,1,99.0000030212403,8|2,0:0|0:0,0:0:0:0:
324,180,52985,1,2,0:0:0:0:
324,180,53060,2,0,P|376:187|436:167,1,99.0000030212403,2|2,0:0|0:0,0:0:0:0:
288,75,53360,1,8,0:0:0:0:
170,241,53510,1,2,0:0:0:0:
108,59,53660,6,0,P|56:52|-4:72,1,99.0000030212403,6|2,0:0|0:0,0:0:0:0:
78,240,53960,1,8,0:0:0:0:
197,129,54110,1,2,0:0:0:0:
197,129,54185,1,2,0:0:0:0:
197,129,54260,2,0,B|203:15,1,99.0000030212403,2|2,0:0|0:0,0:0:0:0:
345,145,54560,1,8,0:0:0:0:
170,241,54710,1,2,0:0:0:0:
344,307,54860,5,2,0:0:0:0:
197,129,55010,1,2,0:0:0:0:
123,344,55160,1,8,0:0:0:0:
300,225,55310,1,2,0:0:0:0:
300,225,55385,1,2,0:0:0:0:
300,225,55460,2,0,L|428:216,1,99.0000030212403,2|2,0:0|0:0,0:0:0:0:
198,92,55760,2,0,L|70:83,1,99.0000030212403,8|2,0:0|0:0,0:0:0:0:
372,39,56060,5,6,0:0:0:0:
372,39,56210,1,0,0:0:0:0:
270,164,56360,2,0,L|286:244,1,72
454,178,56660,2,0,L|376:151,1,72
349,330,56960,2,0,L|410:276,1,72
274,168,57260,5,6,0:0:0:0:
274,168,57410,1,0,0:0:0:0:
349,330,57560,2,0,L|443:321,1,72
274,168,57860,2,0,L|180:177,1,72
17,132,58160,1,8,0:0:0:0:
17,132,58235,1,8,0:0:0:0:
17,132,58310,1,8,0:0:0:0:
17,132,58385,1,8,0:0:0:0:
17,132,58460,6,0,B|107:122|107:122|143:80|143:80|249:71,1,233.999989288331,6|8,0:0|0:0,0:0:0:0:
340,236,58910,1,2,0:0:0:0:
114,323,59060,2,0,P|96:267|107:211,1,116.999994644165,2|2,0:0|0:0,0:0:0:0:
332,141,59360,2,0,B|209:152,1,116.999994644165,8|2,0:0|0:0,0:0:0:0:
459,230,59660,5,6,0:0:0:0:
215,151,59810,1,2,0:0:0:0:
367,358,59960,1,12,0:0:0:0:
367,102,60110,1,2,0:0:0:0:
215,308,60260,5,6,0:0:0:0:
91,3,60410,1,2,0:0:0:0:
369,177,60560,1,12,0:0:0:0:
42,199,60710,1,2,0:0:0:0:
288,3,60860,6,0,B|349:36|432:12|432:12|462:53|443:115,1,233.999989288331,6|8,0:0|0:0,0:0:0:0:
224,176,61310,1,0,0:0:0:0:
384,272,61460,2,0,B|393:238|393:238|388:196|388:196|397:158,1,116.999994644165,2|2,0:0|0:0,0:0:0:0:
224,296,61760,1,8,0:0:0:0:
464,200,61910,1,2,0:0:0:0:
216,88,62060,6,0,P|152:80|80:112,1,116.999994644165,4|2,0:0|0:0,0:0:0:0:
322,350,62360,2,0,P|386:358|458:326,1,116.999994644165,8|2,0:0|0:0,0:0:0:0:
310,58,62660,2,0,L|303:175,1,116.999994644165,2|2,0:0|0:0,0:0:0:0:
189,384,62960,2,0,L|182:267,1,116.999994644165,8|0,0:0|0:0,0:0:0:0:
408,276,63260,6,0,B|356:298|309:266|309:266|245:280|245:280|176:266,1,233.999989288331,6|8,0:0|0:0,0:0:0:0:
366,188,63710,1,2,0:0:0:0:
236,77,63860,2,0,P|224:142|244:209,1,116.999994644165,2|2,0:0|0:0,0:0:0:0:
488,254,64160,2,0,P|500:189|480:122,1,116.999994644165,8|2,0:0|0:0,0:0:0:0:
166,289,64460,6,0,B|223:306|223:306|295:295,1,116.999994644165,6|2,0:0|0:0,0:0:0:0:
406,197,64760,1,8,0:0:0:0:
229,221,64910,1,2,0:0:0:0:
350,366,65060,1,2,0:0:0:0:
320,155,65210,1,2,0:0:0:0:
166,289,65360,2,0,B|109:306|109:306|37:295,1,116.999994644165,8|0,0:0|0:0,0:0:0:0:
316,48,65660,6,0,P|384:16|520:104,1,215.999993408203,6|8,0:0|0:0,0:0:0:0:
396,276,66110,2,0,B|326:259|326:259|222:281,1,161.999995056153,4|0,0:0|0:0,0:0:0:0:
237,277,66410,1,2,0:0:0:0:
148,110,66560,1,8,0:0:0:0:
119,364,66710,6,0,B|179:352|179:352|228:373|228:373|304:357,1,180,6|2,0:0|0:0,0:0:0:0:
345,202,67160,1,8,0:0:0:0:
17,82,67310,6,0,B|3:146|3:146|24:195|24:195|12:255,1,180,6|2,0:0|0:0,0:0:0:0:
228,143,67760,2,0,P|164:125|94:145,1,121.499996292114,12|0,0:0|0:0,0:0:0:0:
163,247,68060,6,0,B|191:263|191:263|232:248|283:259,1,116.999994644165,6|0,0:0|0:0,0:0:0:0:
432,312,68360,1,8,0:0:0:0:
228,143,68510,1,0,0:0:0:0:
352,364,68660,2,0,B|344:304|344:304|368:228,1,116.999994644165,2|2,0:0|0:0,0:0:0:0:
329,54,68960,1,8,0:0:0:0:
276,212,69110,1,2,0:0:0:0:
446,134,69260,5,6,0:0:0:0:
159,47,69410,1,2,0:0:0:0:
422,41,69560,5,12,0:0:0:0:
128,207,69710,1,2,0:0:0:0:
512,203,69860,5,6,0:0:0:0:
77,113,70010,1,2,0:0:0:0:
422,41,70160,5,12,0:0:0:0:
358,338,70310,1,2,0:0:0:0:
65,23,70460,6,0,B|44:68|77:113|77:113|44:159|44:159|65:212|27:283,1,233.999989288331,6|8,0:0|0:0,0:0:0:0:
148,53,70910,1,0,0:0:0:0:
255,182,71060,2,0,P|195:194|135:178,1,116.999994644165,2|2,0:0|0:0,0:0:0:0:
324,112,71360,1,8,0:0:0:0:
136,260,71510,1,2,0:0:0:0:
312,248,71660,6,0,B|328:308|328:308|316:372,1,116.999994644165,4|2,0:0|0:0,0:0:0:0:
182,46,71960,2,0,B|226:22|278:42|278:42|318:19|367:39,1,175.499991966248,8|2,0:0|0:0,0:0:0:0:
439,61,72260,2,0,B|453:124|453:124|438:193,1,116.999994644165,2|2,0:0|0:0,0:0:0:0:
336,334,72560,1,8,0:0:0:0:
237,148,72710,1,2,0:0:0:0:
130,270,72860,6,0,B|186:258|186:258|242:266|242:266|326:246,1,175.499991966248,6|0,0:0|0:0,0:0:0:0:
330,244,73160,1,8,0:0:0:0:
119,124,73310,2,0,B|108:200|108:200|130:269|130:269|122:304|113:364,1,233.999989288331,2|2,0:0|0:0,0:0:0:0:
336,334,73760,2,0,L|353:218,1,116.999994644165,8|2,0:0|0:0,0:0:0:0:
432,24,74060,6,0,B|376:37|376:37|316:24,1,116.999994644165,4|2,0:0|0:0,0:0:0:0:
131,51,74360,2,0,L|215:35,1,58.4999973220826,8|8,0:0|0:0,0:0:0:0:
303,131,74510,1,2,0:0:0:0:
303,131,74585,1,2,0:0:0:0:
303,131,74660,2,0,L|245:141,1,58.4999973220826,8|8,0:0|0:0,0:0:0:0:
125,163,74810,1,2,0:0:0:0:
89,184,74885,1,2,0:0:0:0:
65,217,74960,1,8,0:0:0:0:
60,257,75035,1,8,0:0:0:0:
69,296,75110,1,8,0:0:0:0:
95,326,75185,1,8,0:0:0:0:
130,346,75260,6,0,L|203:360,1,58.4999973220826,6|0,0:0|0:0,0:0:0:0:
285,230,75410,2,0,L|227:241,1,58.4999973220826,8|0,0:0|0:0,0:0:0:0:
360,336,75560,1,8,0:0:0:0:
440,140,75710,1,2,0:0:0:0:
456,168,75785,1,2,0:0:0:0:
468,196,75860,1,8,0:0:0:0:
360,336,76010,1,2,0:0:0:0:
284,112,76160,1,8,0:0:0:0:
163,311,76310,6,0,B|114:312|74:341|74:341|16:283|39:194,1,233.999989288331,6|8,0:0|0:0,0:0:0:0:
80,112,76685,1,8,0:0:0:0:
80,112,76760,2,0,P|20:124|4:120,1,58.4999973220826,8|8,0:0|0:0,0:0:0:0:
116,12,76910,2,0,P|166:45|175:60,1,58.4999973220826,6|8,0:0|0:0,0:0:0:0:
252,228,77060,5,10,0:0:0:0:
33,37,77210,1,10,0:0:0:0:
332,0,77360,1,10,0:0:0:0:
128,209,77510,6,0,B|90:214|90:214|58:209|58:209|12:217,1,94.499997116089,6|0,0:0|0:0,0:0:0:0:
4,220,77810,1,2,0:0:0:0:
139,348,77960,2,0,P|175:352|215:344,1,62.9999980773926,2|2,0:0|0:0,0:0:0:0:
313,304,78185,1,2,0:0:0:0:
301,296,78260,2,0,L|285:204,1,62.9999980773926,8|2,0:0|0:0,0:0:0:0:
418,230,78560,1,2,0:0:0:0:
356,25,78710,6,0,B|318:19|318:19|286:24|286:24|240:16,1,94.499997116089,6|0,0:0|0:0,0:0:0:0:
231,15,79010,1,2,0:0:0:0:
152,104,79160,2,0,L|141:166,1,62.9999980773926,2|2,0:0|0:0,0:0:0:0:
36,190,79385,1,2,0:0:0:0:
48,200,79460,2,0,L|58:262,1,62.9999980773926,8|2,0:0|0:0,0:0:0:0:
112,371,79760,1,2,0:0:0:0:
332,285,79910,6,0,B|344:245|344:245|332:173,1,94.499997116089,6|0,0:0|0:0,0:0:0:0:
328,161,80210,1,2,0:0:0:0:
421,71,80360,2,0,L|431:133,1,62.9999980773926,2|0,0:0|0:0,0:0:0:0:
505,191,80585,1,2,0:0:0:0:
497,203,80660,1,8,0:0:0:0:
259,238,80810,1,2,0:0:0:0:
414,328,80960,1,2,0:0:0:0:
132,352,81110,6,0,B|120:312|120:312|132:240,1,94.499997116089,6|0,0:0|0:0,0:0:0:0:
136,228,81410,1,2,0:0:0:0:
224,112,81560,1,8,0:0:0:0:
304,228,81710,1,2,0:0:0:0:
282,232,81785,1,2,0:0:0:0:
252,238,81860,5,8,0:0:0:0:
71,44,82010,1,8,0:0:0:0:
373,127,82160,1,8,0:0:0:0:
55,313,82310,6,0,B|24:211|24:211|42:141,1,180,6|0,0:0|0:0,0:0:0:0:
263,153,82760,2,0,B|276:193|276:193|266:241,1,90,8|0,0:0|0:0,0:0:0:0:
121,213,83060,1,2,0:0:0:0:
121,213,83135,1,2,0:0:0:0:
121,213,83210,2,0,P|157:201|185:197,1,45,2|0,0:0|0:0,0:0:0:0:
181,301,83360,1,8,0:0:0:0:
181,301,83435,1,2,0:0:0:0:
181,301,83510,2,0,P|177:337|169:364,1,45,2|2,0:0|0:0,0:0:0:0:
280,364,83660,5,14,0:0:0:0:
317,348,83735,1,8,0:0:0:0:
357,344,83810,1,8,0:0:0:0:
397,347,83885,1,8,0:0:0:0:
434,362,83960,1,2,0:0:0:0:
465,336,84035,1,2,0:0:0:0:
483,300,84110,1,8,0:0:0:0:
485,260,84185,1,8,0:0:0:0:
472,221,84260,6,0,P|442:204|422:184,1,45,2|0,0:0|0:0,0:0:0:0:
314,211,84410,2,0,P|313:176|321:150,1,45,8|8,0:0|0:0,0:0:0:0:
386,70,84560,1,2,0:0:0:0:
386,70,84635,1,2,0:0:0:0:
386,70,84710,6,0,B|350:94|306:78|306:78|283:91|258:94|258:94|218:70|165:79,1,215.999993408203,6|2,0:0|0:0,0:0:0:0:
99,117,85085,1,2,0:0:0:0:
99,117,85160,2,0,L|88:190,1,53.9999983520508,8|2,0:0|0:0,0:0:0:0:
188,238,85310,1,2,0:0:0:0:
188,238,85385,1,2,0:0:0:0:
188,238,85460,2,0,L|199:165,1,53.9999983520508,12|2,0:0|0:0,0:0:0:0:
132,344,85610,5,8,0:0:0:0:
132,344,85685,1,8,0:0:0:0:
132,344,85760,2,0,L|205:355,1,53.9999983520508,8|2,0:0|0:0,0:0:0:0:
345,221,85910,1,2,0:0:0:0:
345,221,85985,1,2,0:0:0:0:
345,221,86060,5,12,0:0:0:0:
307,198,86135,1,8,0:0:0:0:
262,192,86210,1,2,0:0:0:0:
220,207,86285,1,2,0:0:0:0:
188,238,86360,2,0,L|143:231,1,45,2|2,0:3|0:0,0:0:0:0:
209,89,86510,2,0,L|253:96,1,45,8|2,0:0|0:0,0:0:0:0:
369,10,86660,2,0,L|324:3,1,45,2|2,0:3|0:0,0:0:0:0:
147,0,86810,5,2,0:0:0:0:
118,32,86885,1,2,0:0:0:0:
103,75,86960,1,8,0:0:0:0:
108,120,87035,1,8,0:0:0:0:
130,159,87110,6,0,P|155:231|72:312,1,180,6|2,0:0|0:0,0:0:0:0:
95,306,87485,1,0,0:0:0:0:
95,306,87560,1,8,0:0:0:0:
43,152,87710,1,0,0:0:0:0:
228,162,87860,1,8,0:0:0:0:
70,221,88010,1,2,0:0:0:0:
83,44,88160,1,8,0:0:0:0:
170,237,88310,1,2,0:0:0:0:
170,237,88385,1,2,0:0:0:0:
170,237,88460,5,8,0:0:0:0:
278,51,88610,1,6,0:0:0:0:
71,137,88760,1,0,0:0:0:0:
211,318,88910,2,0,P|254:274|211:156,1,180,6|2,0:0|0:0,0:0:0:0:
364,312,89360,1,8,0:0:0:0:
397,320,89435,1,8,0:0:0:0:
431,315,89510,1,8,0:0:0:0:
459,295,89585,1,8,0:0:0:0:
472,263,89660,6,0,L|460:135,1,99.0000030212403,6|2,0:0|0:0,0:0:0:0:
445,0,89960,1,8,0:0:0:0:
348,103,90110,1,2,0:0:0:0:
348,103,90185,1,2,0:0:0:0:
348,103,90260,2,0,L|220:115,1,99.0000030212403,2|2,0:0|0:0,0:0:0:0:
15,135,90560,1,8,0:0:0:0:
107,0,90710,1,2,0:0:0:0:
149,192,90860,6,0,L|158:290,1,99.0000030212403,2|2,0:0|0:0,0:0:0:0:
340,196,91160,1,8,0:0:0:0:
189,99,91310,1,2,0:0:0:0:
189,99,91385,1,2,0:0:0:0:
189,99,91460,2,0,P|148:91|89:111,1,99.0000030212403,2|2,0:0|0:0,0:0:0:0:
300,288,91760,2,0,P|340:295|400:276,1,99.0000030212403,8|2,0:0|0:0,0:0:0:0:
303,57,92060,5,6,0:0:0:0:
185,222,92210,1,2,0:0:0:0:
340,196,92360,1,8,0:0:0:0:
189,99,92510,1,2,0:0:0:0:
189,99,92585,1,2,0:0:0:0:
189,99,92660,2,0,L|201:-13,1,99.0000030212403,2|2,0:0|0:0,0:0:0:0:
406,94,92960,1,8,0:0:0:0:
262,205,93110,1,2,0:0:0:0:
345,12,93260,6,0,P|390:-5|443:0,1,99.0000030212403,2|2,0:0|0:0,0:0:0:0:
466,175,93560,2,0,P|421:191|368:185,1,99.0000030212403,8|2,0:0|0:0,0:0:0:0:
153,355,93860,5,2,0:0:0:0:
329,253,94010,1,2,0:0:0:0:
127,231,94160,1,8,0:0:0:0:
279,369,94310,1,2,0:0:0:0:
236,170,94460,6,0,L|222:46,1,99.0000030212403,6|2,0:0|0:0,0:0:0:0:
402,0,94760,1,8,0:0:0:0:
500,149,94910,1,2,0:0:0:0:
500,149,94985,1,2,0:0:0:0:
500,149,95060,2,0,B|448:161|448:161|384:153,1,99.0000030212403,2|2,0:0|0:0,0:0:0:0:
209,128,95360,1,8,0:0:0:0:
298,0,95510,1,2,0:0:0:0:
443,83,95660,6,0,L|431:195,1,99.0000030212403,2|2,0:0|0:0,0:0:0:0:
396,296,95960,1,8,0:0:0:0:
316,96,96110,1,2,0:0:0:0:
316,96,96185,1,2,0:0:0:0:
316,96,96260,2,0,L|304:208,1,99.0000030212403,2|2,0:0|0:0,0:0:0:0:
279,377,96560,1,8,0:0:0:0:
396,296,96710,1,2,0:0:0:0:
207,210,96860,6,0,L|196:111,1,99.0000030212403,6|2,0:0|0:0,0:0:0:0:
32,164,97160,1,8,0:0:0:0:
60,304,97310,1,2,0:0:0:0:
60,304,97385,1,2,0:0:0:0:
60,304,97460,1,2,0:0:0:0:
232,240,97610,1,2,0:0:0:0:
32,164,97760,1,12,0:0:0:0:
243,80,97910,1,2,0:0:0:0:
37,83,98060,5,12,0:0:0:0:
29,99,98135,1,0,0:0:0:0:
21,115,98210,2,0,P|29:155|41:183,1,49.5000015106202,2|2,0:0|0:0,0:0:0:0:
120,256,98360,1,8,0:0:0:0:
101,270,98435,1,8,0:0:0:0:
83,284,98510,2,0,P|43:292|12:293,1,49.5000015106202,2|2,0:0|0:0,0:0:0:0:
116,128,98660,5,8,0:0:0:0:
151,130,98735,1,2,0:0:0:0:
184,132,98810,2,0,P|220:156|244:188,1,49.5000015106202,2|2,0:0|0:0,0:0:0:0:
268,320,98960,1,12,0:0:0:0:
348,156,99110,1,2,0:0:0:0:
480,320,99260,6,0,B|452:326|452:326|419:321|419:321|382:328,1,99.0000030212403,6|2,0:0|0:0,0:0:0:0:
268,204,99560,1,8,0:0:0:0:
432,128,99710,1,2,0:0:0:0:
432,128,99785,1,2,0:0:0:0:
432,128,99860,2,0,L|440:232,1,99.0000030212403,2|2,0:0|0:0,0:0:0:0:
286,290,100160,1,8,0:0:0:0:
235,117,100310,1,2,0:0:0:0:
170,325,100460,6,0,B|118:329|118:329|38:313,1,99.0000030212403,2|2,0:0|0:0,0:0:0:0:
0,177,100760,1,8,0:0:0:0:
138,112,100910,1,0,0:0:0:0:
138,112,100985,1,0,0:0:0:0:
138,112,101060,2,0,B|190:108|190:108|270:124,1,99.0000030212403,2|2,0:0|0:0,0:0:0:0:
400,229,101360,1,8,0:0:0:0:
330,371,101510,1,2,0:0:0:0:
176,294,101660,6,0,B|183:256|183:256|178:224|178:224|185:196,1,99.0000030212403,6|2,0:0|0:0,0:0:0:0:
284,22,101960,1,8,0:0:0:0:
425,156,102110,1,0,0:0:0:0:
425,156,102185,1,0,0:0:0:0:
425,156,102260,2,0,L|324:164,1,99.0000030212403,2|2,0:0|0:0,0:0:0:0:
200,41,102560,1,8,0:0:0:0:
203,230,102710,1,2,0:0:0:0:
332,76,102860,5,2,0:0:0:0:
122,83,103010,1,2,0:0:0:0:
283,237,103160,1,8,0:0:0:0:
284,22,103310,1,2,0:0:0:0:
284,22,103385,1,2,0:0:0:0:
284,22,103460,1,2,0:0:0:0:
203,230,103610,1,2,0:0:0:0:
445,195,103760,1,8,0:0:0:0:
202,143,103910,1,2,0:0:0:0:
482,108,104060,6,0,B|444:101|444:101|412:106|412:106|364:95,1,99.0000030212403,6|2,0:0|0:0,0:0:0:0:
201,12,104360,1,8,0:0:0:0:
197,32,104435,1,0,0:0:0:0:
193,56,104510,2,0,L|181:132,1,49.5000015106202,2|0,0:0|0:0,0:0:0:0:
45,184,104660,5,8,0:3:0:0:
49,224,104735,1,8,0:3:0:0:
53,264,104810,2,0,L|61:336,1,49.5000015106202,4|4,0:3|0:3,0:3:0:0:
288,240,104960,5,8,0:3:0:0:
280,284,105035,1,0,0:3:0:0:
272,328,105110,2,0,L|260:392,1,49.5000015106202,8|0,0:3|0:3,0:3:0:0:
168,176,105260,5,6,0:3:0:0:
180,124,105335,1,0,0:0:0:0:
192,72,105410,2,0,L|260:64,1,49.5000015106202,8|8,0:3|0:3,0:3:0:0:
444,152,105560,2,0,L|376:144,1,49.5000015106202,4|4,0:3|0:3,0:3:0:0:
168,176,105710,2,0,L|236:184,1,49.5000015106202,2|2,0:0|0:0,0:0:0:0:
460,260,105860,5,12,0:0:0:0:
133,300,106010,1,2,0:0:0:0:
444,152,106160,5,12,0:0:0:0:
94,78,106310,1,2,0:0:0:0:
456,60,106460,6,0,P|372:96|400:232,1,233.999989288331,6|8,0:0|0:0,0:0:0:0:
146,186,106910,1,2,0:0:0:0:
324,31,107060,2,0,L|200:11,1,116.999994644165,2|2,0:0|0:0,0:0:0:0:
260,288,107360,2,0,L|384:268,1,116.999994644165,8|2,0:0|0:0,0:0:0:0:
146,186,107660,5,6,0:0:0:0:
394,238,107810,1,2,0:0:0:0:
163,342,107960,1,12,0:0:0:0:
289,122,108110,1,2,0:0:0:0:
316,374,108260,5,6,0:0:0:0:
53,103,108410,1,2,0:0:0:0:
423,167,108560,1,12,0:0:0:0:
86,332,108710,1,2,0:0:0:0:
261,0,108860,6,0,B|271:60|226:98|226:98|241:150|241:150|207:191|220:240,1,233.999989288331,6|8,0:0|0:0,0:0:0:0:
170,23,109310,1,0,0:0:0:0:
412,211,109460,2,0,P|355:224|297:214,1,116.999994644165,2|2,0:0|0:0,0:0:0:0:
431,62,109760,1,8,0:0:0:0:
170,23,109910,1,2,0:0:0:0:
297,214,110060,6,0,B|284:274|284:274|294:332,1,116.999994644165,4|2,0:0|0:0,0:0:0:0:
509,125,110360,2,0,B|522:65|522:65|512:7,1,116.999994644165,8|2,0:0|0:0,0:0:0:0:
368,275,110660,2,0,L|498:266,1,116.999994644165,2|2,0:0|0:0,0:0:0:0:
431,62,110960,2,0,B|371:75|371:75|313:65,1,116.999994644165,8|2,0:0|0:0,0:0:0:0:
84,20,111260,6,0,B|96:68|64:104|64:104|76:148|76:148|32:188|40:259,1,233.999989288331,6|8,0:0|0:0,0:0:0:0:
0,44,111710,1,0,0:0:0:0:
143,227,111860,2,0,P|189:248|277:227,1,116.999994644165,2|2,0:0|0:0,0:0:0:0:
433,109,112160,2,0,P|387:88|299:109,1,116.999994644165,8|2,0:0|0:0,0:0:0:0:
354,310,112460,6,0,L|368:185,1,116.999994644165,4|2,0:0|0:0,0:0:0:0:
230,33,112760,1,8,0:0:0:0:
248,221,112910,1,2,0:0:0:0:
380,101,113060,1,0,0:0:0:0:
150,125,113210,1,2,0:0:0:0:
208,309,113360,2,0,P|265:317|318:295,1,116.999994644165,8|0,0:0|0:0,0:0:0:0:
263,45,113660,6,0,P|120:35|66:112,1,215.999993408203,6|8,0:0|0:0,0:0:0:0:
339,326,114110,2,0,B|280:335|280:335|242:320|242:320|154:330,1,161.999995056153,4|0,0:0|0:0,0:0:0:0:
180,326,114410,1,2,0:0:0:0:
268,120,114560,1,8,0:0:0:0:
425,336,114710,6,0,B|457:332|481:304|481:304|465:256|465:256|481:216|477:160,1,180,6|2,0:0|0:0,0:0:0:0:
268,120,115160,1,8,0:0:0:0:
512,65,115310,2,0,B|439:58|439:58|411:37|411:37|315:29,1,180,6|2,0:0|0:0,0:0:0:0:
170,61,115760,1,8,0:0:0:0:
135,75,115835,1,8,0:0:0:0:
98,80,115910,1,8,0:0:0:0:
61,76,115985,1,8,0:0:0:0:
26,63,116060,6,0,B|15:126|15:126|26:197,1,116.999994644165,6|0,0:0|0:0,0:0:0:0:
340,276,116360,2,0,L|456:284,1,116.999994644165,8|2,0:0|0:0,0:0:0:0:
340,124,116660,1,2,0:0:0:0:
224,324,116810,1,2,0:0:0:0:
84,121,116960,2,0,L|204:112,1,116.999994644165,8|2,0:0|0:0,0:0:0:0:
47,229,117260,5,6,0:0:0:0:
355,293,117410,1,2,0:0:0:0:
0,303,117560,5,12,0:0:0:0:
361,157,117710,1,2,0:0:0:0:
0,155,117860,5,6,0:0:0:0:
441,229,118010,1,2,0:0:0:0:
117,0,118160,5,12,0:0:0:0:
162,292,118310,1,2,0:0:0:0:
296,24,118460,6,0,B|308:76|308:76|292:136|292:136|320:196|320:196|312:260,1,233.999989288331,6|8,0:0|0:0,0:0:0:0:
84,284,118910,1,0,0:0:0:0:
35,69,119060,2,0,L|155:78,1,116.999994644165,2|2,0:0|0:0,0:0:0:0:
392,8,119360,1,8,0:0:0:0:
248,191,119510,1,2,0:0:0:0:
448,336,119660,6,0,B|464:272|464:272|452:204,1,116.999994644165,4|2,0:0|0:0,0:0:0:0:
243,20,119960,2,0,B|229:112|229:112|250:196,1,175.499991966248,8|2,0:0|0:0,0:0:0:0:
317,258,120260,6,0,B|333:194|333:194|321:126,1,116.999994644165,2|0,0:0|0:0,0:0:0:0:
112,95,120560,1,8,0:0:0:0:
244,313,120710,1,2,0:0:0:0:
380,66,120860,6,0,B|324:54|324:54|260:66|260:66|204:54,1,175.499991966248,6|0,0:0|0:0,0:0:0:0:
179,48,121160,1,8,0:0:0:0:
491,236,121310,6,0,B|474:157|474:157|491:68|491:68|474:-10,1,233.999989288331,2|2,0:0|0:0,0:0:0:0:
362,176,121760,2,0,L|356:308,1,116.999994644165,8|2,0:0|0:0,0:0:0:0:
128,363,122060,2,0,L|122:246,1,116.999994644165,4|0,0:0|0:0,0:0:0:0:
50,113,122360,1,8,0:0:0:0:
5,305,122510,1,2,0:0:0:0:
218,234,122660,1,2,0:0:0:0:
0,181,122810,1,2,0:0:0:0:
154,310,122960,2,0,P|278:314|314:262,1,175.499991966248,8|0,0:0|0:0,0:0:0:0:
346,214,123260,5,6,0:0:0:0:
384,200,123335,1,2,0:0:0:0:
424,200,123410,1,2,0:0:0:0:
462,213,123485,1,2,0:0:0:0:
489,243,123560,1,8,0:0:0:0:
504,281,123635,1,8,0:0:0:0:
501,321,123710,1,2,0:0:0:0:
270,278,123860,2,0,B|258:218|258:218|270:162,1,116.999994644165,8|2,0:0|0:0,0:0:0:0:
307,41,124160,1,8,0:0:0:0:
384,276,124310,6,0,B|324:292|324:292|272:276|272:276|212:292|212:292|152:276,1,233.999989288331,6|2,0:0|0:0,0:0:0:0:
68,92,124760,1,8,0:0:0:0:
68,92,124835,1,8,0:0:0:0:
68,92,124910,2,0,P|112:148|-5:163,1,233.999989288331,6|2,0:0|0:0,0:0:0:0:
48,336,125360,1,8,0:0:0:0:
83,315,125435,1,8,0:0:0:0:
123,310,125510,1,8,0:0:0:0:
163,316,125585,1,8,0:0:0:0:
196,338,125660,6,0,B|232:344|232:344|260:340|260:340|292:344,1,90,6|2,0:0|0:0,0:0:0:0:
404,228,125960,1,8,0:0:0:0:
232,168,126110,1,2,0:0:0:0:
232,168,126185,1,2,0:0:0:0:
232,168,126260,2,0,B|224:224|224:224|232:272,1,90,2|2,0:0|0:0,0:0:0:0:
425,328,126560,2,0,B|433:272|433:272|425:224,1,90,8|2,0:0|0:0,0:0:0:0:
320,104,126860,5,2,0:0:0:0:
512,152,127010,1,2,0:0:0:0:
444,0,127160,1,8,0:0:0:0:
404,200,127310,1,2,0:0:0:0:
404,200,127385,1,2,0:0:0:0:
404,200,127460,2,0,L|272:216,1,90,2|2,0:0|0:0,0:0:0:0:
220,12,127760,2,0,L|352:28,1,90,8|2,0:0|0:0,0:0:0:0:
78,186,128060,6,0,L|88:96,1,90,6|2,0:0|0:0,0:0:0:0:
246,221,128360,1,8,0:0:0:0:
131,329,128510,1,2,0:0:0:0:
131,329,128585,1,2,0:0:0:0:
131,329,128660,2,0,L|41:318,1,90,2|2,0:0|0:0,0:0:0:0:
179,132,128960,2,0,L|268:121,1,90,8|2,0:0|0:0,0:0:0:0:
400,260,129260,5,2,0:0:0:0:
215,303,129410,1,2,0:0:0:0:
343,160,129560,1,8,0:0:0:0:
444,350,129710,1,2,0:0:0:0:
444,350,129785,1,2,0:0:0:0:
444,350,129860,2,0,P|388:358|332:342,1,90,2|2,0:0|0:0,0:0:0:0:
169,217,130160,2,0,P|225:209|281:225,1,90,8|2,0:0|0:0,0:0:0:0:
423,54,130460,6,0,B|397:57|397:57|369:53|369:53|333:59,1,90,6|2,0:0|0:0,0:0:0:0:
405,211,130760,1,8,0:0:0:0:
502,107,130910,1,2,0:0:0:0:
502,107,130985,1,2,0:0:0:0:
502,107,131060,2,0,B|513:63|513:63|510:15,1,90,2|2,0:0|0:0,0:0:0:0:
319,157,131360,2,0,B|307:200|307:200|310:248,1,90,8|2,0:0|0:0,0:0:0:0:
423,54,131660,5,2,0:0:0:0:
240,142,131810,1,2,0:0:0:0:
405,211,131960,1,8,0:0:0:0:
286,26,132110,1,2,0:0:0:0:
286,26,132185,1,2,0:0:0:0:
286,26,132260,2,0,P|240:19|197:26,1,90,2|2,0:0|0:0,0:0:0:0:
104,204,132560,2,0,P|150:211|193:204,1,90,8|2,0:0|0:0,0:0:0:0:
0,137,132860,5,6,0:0:0:0:
118,294,133010,1,2,0:0:0:0:
148,113,133160,1,8,0:0:0:0:
0,233,133310,1,2,0:0:0:0:
0,233,133385,1,2,0:0:0:0:
0,233,133460,5,8,0:0:0:0:
239,326,133610,1,2,0:0:0:0:
48,359,133760,5,8,0:0:0:0:
148,113,133910,2,0,L|192:118,1,45,2|2,0:0|0:0,0:0:0:0:
199,269,134060,5,12,0:0:0:0:
192,275,134135,1,8,0:0:0:0:
186,281,134210,1,8,0:0:0:0:
179,287,134285,1,8,0:0:0:0:
164,298,134360,5,2,0:0:0:0:
141,303,134435,1,8,0:0:0:0:
116,292,134510,1,8,0:0:0:0:
101,263,134585,1,2,0:0:0:0:
106,227,134660,1,2,0:0:0:0:
132,197,134735,1,2,0:0:0:0:
174,185,134810,1,8,0:0:0:0:
221,200,134885,1,2,0:0:0:0:
274,203,134960,1,2,0:0:0:0:
328,182,135035,1,8,0:0:0:0:
369,134,135110,1,8,0:0:0:0:
361,66,135185,1,8,0:0:0:0:
298,31,135260,6,0,B|260:38|260:38|233:31|233:31|188:37,1,99.0000030212403,6|2,0:0|0:0,0:0:0:0:
132,197,135560,1,8,0:0:0:0:
44,64,135710,1,2,0:0:0:0:
44,64,135785,1,2,0:0:0:0:
44,64,135860,2,0,L|32:176,1,99.0000030212403,2|2,0:0|0:0,0:0:0:0:
240,204,136160,2,0,L|229:105,1,99.0000030212403,8|2,0:0|0:0,0:0:0:0:
89,271,136460,5,2,0:0:0:0:
228,384,136610,1,2,0:0:0:0:
322,232,136760,1,8,0:0:0:0:
171,319,136910,1,2,0:0:0:0:
171,319,136985,1,2,0:0:0:0:
171,319,137060,2,0,P|220:299|299:331,1,99.0000030212403,2|2,0:0|0:0,0:0:0:0:
386,182,137360,2,0,P|337:202|258:170,1,99.0000030212403,8|2,0:0|0:0,0:0:0:0:
129,13,137660,6,0,B|167:5|167:5|194:12|194:12|239:6,1,99.0000030212403,6|2,0:0|0:0,0:0:0:0:
329,116,137960,1,8,0:0:0:0:
171,198,138110,1,2,0:0:0:0:
171,198,138185,1,2,0:0:0:0:
171,198,138260,2,0,B|154:152|154:152|160:103,1,99.0000030212403,2|2,0:0|0:0,0:0:0:0:
357,211,138560,2,0,B|374:257|374:257|368:306,1,99.0000030212403,8|2,0:0|0:0,0:0:0:0:
207,320,138860,5,2,0:0:0:0:
243,141,139010,1,2,0:0:0:0:
453,235,139160,1,12,0:0:0:0:
283,277,139310,1,2,0:0:0:0:
283,277,139385,1,2,0:0:0:0:
283,277,139460,2,0,L|163:269,1,99.0000030212403,2|2,0:0|0:0,0:0:0:0:
314,372,139760,1,8,0:0:0:0:
343,180,139910,1,2,0:0:0:0:
135,65,140060,6,0,B|139:97|139:97|131:129|131:129|139:165,1,99.0000030212403,6|2,0:0|0:0,0:0:0:0:
343,180,140360,1,8,0:0:0:0:
372,22,140510,1,2,0:0:0:0:
372,22,140585,1,2,0:0:0:0:
372,22,140660,2,0,P|324:14|244:34,1,99.0000030212403,2|2,0:0|0:0,0:0:0:0:
334,219,140960,2,0,P|382:227|462:207,1,99.0000030212403,8|2,0:0|0:0,0:0:0:0:
212,82,141260,5,2,0:0:0:0:
238,287,141410,1,2,0:0:0:0:
382,132,141560,1,8,0:0:0:0:
163,162,141710,1,2,0:0:0:0:
163,162,141785,1,2,0:0:0:0:
163,162,141860,2,0,L|65:156,1,99.0000030212403,2|2,0:0|0:0,0:0:0:0:
292,228,142160,2,0,L|391:222,1,99.0000030212403,8|2,0:0|0:0,0:0:0:0:
212,82,142460,5,6,0:0:0:0:
238,287,142610,1,2,0:0:0:0:
342,107,142760,5,8,0:0:0:0:
325,328,142910,1,2,0:0:0:0:
126,51,143060,5,8,0:0:0:0:
108,319,143210,1,2,0:0:0:0:
352,24,143360,5,8,0:0:0:0:
411,343,143510,1,2,0:0:0:0:
411,343,143585,1,2,0:0:0:0:
411,343,143660,5,12,0:0:0:0:
212,82,143810,1,12,0:0:0:0:
385,41,143960,1,2,0:0:0:0:
385,41,144035,1,2,0:0:0:0:
385,41,144110,5,12,0:0:0:0:
299,336,144260,1,12,0:0:0:0:
134,45,144410,1,2,0:0:0:0:
134,45,144485,1,2,0:0:0:0:
134,45,144560,2,0,L|125:112,1,49.5000015106202,8|8,0:0|0:0,0:0:0:0:
251,166,144710,2,0,L|259:214,1,49.5000015106202,8|8,0:3|0:3,0:3:0:0:
160,336,144860,6,0,P|88:348|40:328,1,101.250003862381,6|0,0:0|0:0,0:0:0:0:
28,308,145160,2,0,L|20:196,1,101.250003862381,2|0,0:0|0:0,0:0:0:0:
4,104,145460,1,8,0:0:0:0:
4,104,145610,2,0,P|68:97|120:73,1,101.250003862381,2|0,0:0|0:0,0:0:0:0:
232,28,145910,6,0,L|244:128,1,101.250003862381,2|0,0:0|0:0,0:0:0:0:
240,216,146210,1,2,0:0:0:0:
240,216,146360,2,0,L|328:228,1,67.5000025749208,2|2,0:0|0:0,0:0:0:0:
312,312,146660,2,0,L|400:324,1,67.5000025749208,8|2,0:0|0:0,0:0:0:0:
400,240,146960,2,0,L|488:252,1,67.5000025749208,0|8,0:0|0:0,0:0:0:0:
508,168,147185,1,8,0:0:0:0:
508,168,147260,6,0,L|512:64,1,101.250003862381,6|0,0:0|0:0,0:0:0:0:
484,32,147560,2,0,P|431:14|372:21,1,101.250003862381,2|0,0:0|0:0,0:0:0:0:
296,56,147860,1,8,0:0:0:0:
296,56,148010,2,0,P|245:58|197:45,1,101.250003862381,2|0,0:0|0:0,0:0:0:0:
72,116,148310,6,0,L|36:232,1,101.250003862381,2|0,0:0|0:0,0:0:0:0:
108,300,148610,1,2,0:0:0:0:
108,300,148760,2,0,P|130:343|151:362,1,67.5000025749208,2|2,0:0|0:0,0:0:0:0:
260,348,149060,2,0,P|249:299|233:275,1,67.5000025749208,8|2,0:0|0:0,0:0:0:0:
164,220,149360,2,0,P|117:204|88:206,1,67.5000025749208,0|8,0:0|0:0,0:0:0:0:
0,208,149585,1,8,0:0:0:0:
0,208,149660,6,0,P|18:150|13:84,1,101.250003862381,6|0,0:0|0:0,0:0:0:0:
44,72,149960,2,0,L|156:56,1,101.250003862381,2|0,0:0|0:0,0:0:0:0:
248,24,150260,1,8,0:0:0:0:
248,24,150410,2,0,P|296:44|356:44,1,101.250003862381,2|0,0:0|0:0,0:0:0:0:
480,20,150710,6,0,L|472:128,1,101.250003862381,2|0,0:0|0:0,0:0:0:0:
468,216,151010,1,2,0:0:0:0:
468,216,151160,2,0,L|392:228,1,67.5000025749208,2|2,0:0|0:0,0:0:0:0:
372,140,151460,2,0,L|296:152,1,67.5000025749208,8|2,0:0|0:0,0:0:0:0:
308,236,151760,2,0,L|232:248,1,67.5000025749208,0|8,0:0|0:0,0:0:0:0:
144,244,151985,1,8,0:0:0:0:
144,244,152060,6,0,P|148:316|164:356,1,101.250003862381,6|0,0:0|0:0,0:0:0:0:
196,356,152360,2,0,L|315:374,1,101.250003862381,2|0,0:0|0:0,0:0:0:0:
396,360,152660,1,8,0:0:0:0:
396,360,152810,2,0,P|416:304|416:244,1,101.250003862381,2|0,0:0|0:0,0:0:0:0:
292,180,153110,6,0,L|191:164,1,101.250003862381,2|0,0:0|0:0,0:0:0:0:
232,64,153410,1,2,0:0:0:0:
232,64,153560,2,0,L|304:52,1,67.5000025749208,2|2,0:0|0:0,0:0:0:0:
400,84,153860,1,8,0:0:0:0:
400,84,154010,1,8,0:0:0:0:
400,84,154460,6,0,L|392:164,1,67.5000025749208,6|0,0:0|0:0,0:0:0:0:
492,144,154760,2,0,L|498:211,1,67.5000025749208,2|0,0:0|0:0,0:0:0:0:
348,276,155060,1,8,0:0:0:0:
444,260,155210,1,2,0:0:0:0:
348,276,155360,2,0,L|341:343,1,67.5000025749208,0|2,0:0|0:0,0:0:0:0:
148,280,155660,6,0,L|141:212,1,67.5000025749208,0|2,0:0|0:0,0:0:0:0:
276,184,155960,1,2,0:0:0:0:
176,136,156110,1,2,0:0:0:0:
288,68,156260,2,0,L|208:60,1,67.5000025749208,8|2,0:0|0:0,0:0:0:0:
136,20,156560,2,0,L|56:28,1,67.5000025749208,0|8,0:0|0:0,0:0:0:0:
24,104,156785,1,8,0:0:0:0:
24,104,156860,6,0,B|20:144|20:144|24:184,1,67.5000025749208,6|0,0:0|0:0,0:0:0:0:
146,212,157160,2,0,B|150:252|150:252|146:292,1,67.5000025749208,2|0,0:0|0:0,0:0:0:0:
292,308,157460,1,8,0:0:0:0:
192,344,157610,1,2,0:0:0:0:
292,308,157760,2,0,B|332:316|332:316|368:308,1,67.5000025749208,0|2,0:0|0:0,0:0:0:0:
484,124,158060,6,0,B|444:116|444:116|408:124,1,67.5000025749208,0|2,0:0|0:0,0:0:0:0:
388,248,158360,1,2,0:0:0:0:
332,144,158510,1,2,0:0:0:0:
292,264,158660,2,0,B|256:268|256:268|208:264,1,67.5000025749208,8|2,0:0|0:0,0:0:0:0:
220,160,158960,2,0,B|184:156|184:156|152:158,1,67.5000025749208,0|8,0:0|0:0,0:0:0:0:
80,224,159185,1,8,0:0:0:0:
80,224,159260,6,0,P|88:268|72:316,1,67.5000025749208,6|0,0:0|0:0,0:0:0:0:
164,344,159560,2,0,P|197:340|230:348,1,67.5000025749208,2|0,0:0|0:0,0:0:0:0:
300,276,159860,1,8,0:0:0:0:
332,356,160010,1,2,0:0:0:0:
380,232,160160,1,0,0:0:0:0:
424,356,160310,1,2,0:0:0:0:
460,276,160460,6,0,P|471:229|456:181,1,67.5000025749208,0|2,0:0|0:0,0:0:0:0:
372,144,160760,1,2,0:0:0:0:
480,104,160910,1,2,0:0:0:0:
378,49,161060,2,0,P|330:58|293:92,1,67.5000025749208,8|2,0:0|0:0,0:0:0:0:
228,134,161360,2,0,P|219:181|236:228,1,67.5000025749208,0|8,0:0|0:0,0:0:0:0:
148,264,161585,1,8,0:0:0:0:
148,264,161660,6,0,L|64:252,1,67.5000025749208,2|0,0:0|0:0,0:0:0:0:
16,160,161960,2,0,L|100:148,1,67.5000025749208,2|0,0:0|0:0,0:0:0:0:
44,48,162260,1,8,0:0:0:0:
44,48,162410,1,2,0:0:0:0:
160,36,162560,2,0,L|226:45,1,67.5000025749208,0|2,0:0|0:0,0:0:0:0:
320,136,162860,6,0,L|253:145,1,67.5000025749208,0|2,0:0|0:0,0:0:0:0:
184,220,163160,1,8,0:0:0:0:
312,264,163310,1,2,0:0:0:0:
208,344,163460,2,0,L|256:328,1,33.7500012874604,8|0,0:0|0:3,0:3:0:0:
320,356,163610,2,0,L|352:345,1,33.7500012874604,8|8,0:0|0:0,0:0:0:0:
442,323,163760,1,8,0:0:0:0:
442,323,163835,1,8,0:3:0:0:
442,323,163910,1,8,0:3:0:0:
442,323,163985,1,8,0:3:0:0:
442,323,164060,6,0,B|454:287|454:287|446:227,1,67.5000025749208,6|0,0:0|0:0,0:0:0:0:
477,137,164360,1,2,0:0:0:0:
477,137,164510,1,0,0:0:0:0:
396,52,164660,2,0,L|316:64,1,67.5000025749208,8|2,0:0|0:0,0:0:0:0:
216,144,164960,2,0,L|296:156,1,67.5000025749208,0|2,0:0|0:0,0:0:0:0:
420,300,165260,6,0,L|340:312,1,67.5000025749208,0|2,0:0|0:0,0:0:0:0:
272,240,165560,1,2,0:0:0:0:
252,344,165710,1,2,0:0:0:0:
117,265,165860,2,0,L|184:256,1,67.5000025749208,8|2,0:0|0:0,0:0:0:0:
32,356,166160,2,0,B|20:320|20:320|24:272,1,67.5000025749208,0|8,0:0|0:0,0:0:0:0:
48,216,166385,1,8,0:0:0:0:
48,216,166460,6,0,P|56:164|44:120,1,67.5000025749208,6|0,0:0|0:0,0:0:0:0:
144,40,166760,2,0,P|136:92|148:136,1,67.5000025749208,2|0,0:0|0:0,0:0:0:0:
224,176,167060,1,8,0:0:0:0:
224,176,167210,1,2,0:0:0:0:
256,60,167360,2,0,L|352:44,1,67.5000025749208,0|2,0:0|0:0,0:0:0:0:
460,264,167660,6,0,L|364:248,1,67.5000025749208,0|2,0:0|0:0,0:0:0:0:
300,376,167960,2,0,L|396:360,1,67.5000025749208,2|2,0:0|0:0,0:0:0:0:
216,291,168260,1,8,0:0:0:0:
216,291,168410,2,0,L|120:275,1,67.5000025749208,2|0,0:0|0:0,0:0:0:0:
52,240,168710,1,8,0:0:0:0:
52,240,168785,1,8,0:0:0:0:
52,240,168860,6,0,P|44:276|44:288,3,33.7500012874604,6|8|8|8,0:0|0:0|0:0|0:0,0:0:0:0:
32,152,169160,1,2,0:0:0:0:
19,136,169235,1,8,0:0:0:0:
19,115,169310,1,8,0:0:0:0:
27,96,169385,1,8,0:0:0:0:
42,83,169460,1,2,0:0:0:0:
61,79,169535,1,8,0:0:0:0:
81,81,169610,1,8,0:0:0:0:
98,91,169685,1,8,0:0:0:0:
107,109,169760,2,0,P|132:107|153:99,3,33.7500012874604,2|8|8|8,0:0|0:0|0:0|0:0,0:0:0:0:
224,85,170060,5,6,0:0:0:0:
256,97,170135,1,8,0:0:0:0:
288,104,170210,1,8,0:0:0:0:
321,106,170285,1,8,0:0:0:0:
354,103,170360,1,2,0:0:0:0:
386,92,170435,1,8,0:0:0:0:
411,70,170510,1,8,0:0:0:0:
418,33,170585,1,8,0:0:0:0:
399,0,170660,5,2,0:0:0:0:
367,20,170735,1,2,0:0:0:0:
359,56,170810,1,8,0:0:0:0:
370,91,170885,1,8,0:0:0:0:
395,118,170960,5,2,0:0:0:0:
425,138,171035,1,8,0:0:0:0:
444,169,171110,1,8,0:0:0:0:
448,206,171185,1,8,0:0:0:0:
436,244,171260,1,6,0:0:0:0:
406,271,171335,1,8,0:0:0:0:
363,281,171410,1,8,0:0:0:0:
321,268,171485,1,8,0:0:0:0:
291,235,171560,1,2,0:0:0:0:
257,206,171635,1,8,0:0:0:0:
215,188,171710,1,8,0:0:0:0:
171,190,171785,1,8,0:0:0:0:
129,213,171860,5,2,0:0:0:0:
101,251,171935,1,8,0:0:0:0:
100,298,172010,1,8,0:0:0:0:
120,340,172085,1,8,0:0:0:0:
160,370,172160,1,2,0:0:0:0:
210,373,172235,1,8,0:0:0:0:
259,360,172310,1,8,0:0:0:0:
290,320,172385,1,8,0:0:0:0:
304,267,172460,5,8,0:3:0:0:
288,208,172535,1,8,0:3:0:0:
239,163,172610,1,8,0:3:0:0:
171,156,172685,1,8,0:3:0:0:
106,186,172760,1,4,0:3:0:0:
34,163,172835,1,4,0:3:0:0:
7,90,172910,1,4,0:3:0:0:
55,24,172985,1,4,0:3:0:0:
140,34,173060,6,0,B|196:66|268:25|268:25|309:27|345:63,1,202.500007724762,12|0,0:0|0:3,0:3:0:0:
480,338,173660,6,0,B|435:350|402:316|402:316|440:242|415:164,1,233.999989288331,6|8,0:0|0:0,0:0:0:0:
388,0,174110,1,0,0:0:0:0:
336,180,174260,2,0,P|343:239|293:318,1,116.999994644165,2|2,0:0|0:0,0:0:0:0:
81,160,174560,2,0,P|74:101|124:22,1,116.999994644165,8|2,0:0|0:0,0:0:0:0:
336,180,174860,5,4,0:0:0:0:
61,262,175010,1,2,0:0:0:0:
237,33,175160,1,12,0:0:0:0:
229,323,175310,1,2,0:0:0:0:
66,85,175460,5,6,0:0:0:0:
396,203,175610,1,2,0:0:0:0:
61,298,175760,1,12,0:0:0:0:
274,22,175910,1,0,0:0:0:0:
263,373,176060,6,0,B|159:359|159:359|123:382|123:382|25:374,1,233.999989288331,6|8,0:0|0:0,0:0:0:0:
85,169,176510,1,0,0:0:0:0:
345,230,176660,2,0,P|358:287|346:344,1,116.999994644165,2|2,0:0|0:0,0:0:0:0:
210,281,176960,1,8,0:0:0:0:
365,138,177110,1,2,0:0:0:0:
174,35,177260,6,0,P|160:91|173:147,1,116.999994644165,4|2,0:0|0:0,0:0:0:0:
476,194,177560,2,0,P|489:137|476:81,1,116.999994644165,8|2,0:0|0:0,0:0:0:0:
303,255,177860,2,0,B|365:266|365:266|427:257,1,116.999994644165,2|2,0:0|0:0,0:0:0:0:
371,21,178160,2,0,L|364:145,1,116.999994644165,8|0,0:0|0:0,0:0:0:0:
360,336,178460,6,0,B|244:372|244:288|132:336,1,233.999989288331,6|8,0:0|0:0,0:0:0:0:
114,165,178910,1,2,0:0:0:0:
299,119,179060,2,0,P|314:198|292:263,1,116.999994644165,2|2,0:0|0:0,0:0:0:0:
30,228,179360,2,0,P|15:149|37:84,1,116.999994644165,8|2,0:0|0:0,0:0:0:0:
237,39,179660,6,0,B|296:24|296:24|384:39,1,116.999994644165,6|2,0:0|0:0,0:0:0:0:
505,198,179960,1,8,0:0:0:0:
299,119,180110,1,2,0:0:0:0:
474,69,180260,1,2,0:0:0:0:
401,249,180410,1,2,0:0:0:0:
210,181,180560,2,0,B|195:122|195:122|210:34,1,116.999994644165,8|0,0:0|0:0,0:0:0:0:
164,328,180860,6,0,B|125:339|125:339|81:331|81:331|33:339|33:339|-8:308|4:252,1,215.999993408203,6|8,0:0|0:0,0:0:0:0:
344,47,181310,2,0,B|320:50|284:28|284:28|240:60|192:36,1,161.999995056153,4|0,0:0|0:0,0:0:0:0:
192,36,181610,1,2,0:0:0:0:
120,264,181760,1,8,0:0:0:0:
400,232,181910,6,0,B|434:177|408:127|408:127|442:91|490:96,1,198.000006042481,6|2,0:0|0:0,0:0:0:0:
408,368,182360,1,8,0:0:0:0:
319,172,182510,2,0,P|263:160|207:272,1,198.000006042481,6|2,0:0|0:0,0:0:0:0:
168,108,182960,2,0,P|235:72|333:80,1,148.50000453186,8|0,0:0|0:0,0:0:0:0:
424,216,183260,6,0,P|404:160|432:80,1,116.999994644165,6|0,0:0|0:0,0:0:0:0:
332,360,183560,2,0,B|276:372|276:372|200:360,1,116.999994644165,8|0,0:0|0:0,0:0:0:0:
136,124,183860,1,2,0:0:0:0:
0,328,184010,1,2,0:0:0:0:
275,288,184160,2,0,L|299:160,1,116.999994644165,8|2,0:0|0:0,0:0:0:0:
136,124,184460,5,4,0:0:0:0:
447,194,184610,1,2,0:0:0:0:
96,231,184760,5,12,0:0:0:0:
466,80,184910,1,2,0:0:0:0:
28,147,185060,5,6,0:0:0:0:
463,298,185210,1,2,0:0:0:0:
153,0,185360,5,12,0:0:0:0:
211,298,185510,1,0,0:0:0:0:
376,0,185660,6,0,B|382:38|364:72|364:72|408:104|408:104|380:160|416:224,1,233.999989288331,6|8,0:0|0:0,0:0:0:0:
271,18,186110,1,0,0:0:0:0:
509,156,186260,2,0,P|456:196|390:205,1,116.999994644165,2|2,0:0|0:0,0:0:0:0:
199,187,186560,1,8,0:0:0:0:
410,330,186710,1,2,0:0:0:0:
172,366,186860,6,0,L|296:350,1,116.999994644165,4|2,0:0|0:0,0:0:0:0:
410,222,187160,2,0,P|432:136|370:43,1,175.499991966248,8|0,0:0|0:0,0:0:0:0:
326,41,187460,2,0,L|202:57,1,116.999994644165,2|2,0:0|0:0,0:0:0:0:
42,43,187760,1,8,0:0:0:0:
132,209,187910,1,2,0:0:0:0:
266,125,188060,6,0,B|202:133|202:133|146:113|146:113|94:119,1,175.499991966248,6|0,0:0|0:0,0:0:0:0:
67,124,188360,1,8,0:0:0:0:
50,355,188510,2,0,B|138:345|138:345|200:359|200:359|281:350,1,233.999989288331,2|2,0:0|0:0,0:0:0:0:
315,144,188960,2,0,L|178:159,1,116.999994644165,8|2,0:0|0:0,0:0:0:0:
467,200,189260,6,0,B|478:142|478:142|462:80,1,116.999994644165,4|2,0:0|0:0,0:0:0:0:
178,25,189560,1,8,0:0:0:0:
398,144,189710,1,2,0:0:0:0:
159,139,189860,1,2,0:0:0:0:
379,30,190010,1,2,0:0:0:0:
88,82,190160,2,0,B|77:140|77:140|93:202,1,116.999994644165,8|0,0:0|0:0,0:0:0:0:
239,330,190460,6,0,B|298:321|298:321|350:333|350:333|411:323,1,175.499991966248,6|0,0:0|0:0,0:0:0:0:
472,235,190760,2,0,L|344:255,1,116.999994644165,8|0,0:0|0:0,0:0:0:0:
120,288,191060,1,2,0:0:0:0:
232,40,191210,1,2,0:0:0:0:
411,322,191360,1,8,0:0:0:0:
49,360,191510,6,0,P|21:304|45:220,1,148.50000453186,6|2,0:0|0:0,0:0:0:0:
91,167,191810,1,2,0:0:0:0:
355,212,191960,1,8,0:0:0:0:
232,40,192110,2,0,L|217:171,1,99.0000030212403,6|0,0:0|0:0,0:0:0:0:
303,309,192410,1,8,0:0:0:0:
303,309,192485,1,8,0:0:0:0:
303,309,192560,2,0,L|308:358,1,49.5000015106202,2|2,0:0|0:0,0:0:0:0:
460,330,192710,1,8,0:0:0:0:
460,330,192785,1,8,0:0:0:0:
460,330,192860,6,0,L|475:199,1,107.999996704102,6|2,0:0|0:0,0:0:0:0:
266,80,193160,1,8,0:0:0:0:
462,40,193310,1,0,0:0:0:0:
462,40,193385,1,0,0:0:0:0:
462,40,193460,2,0,P|471:103|436:168,1,107.999996704102,2|2,0:0|0:0,0:0:0:0:
256,213,193760,1,8,0:0:0:0:
368,88,193910,1,2,0:0:0:0:
472,222,194060,6,0,B|489:276|489:276|473:324,1,107.999996704102,2|2,0:0|0:0,0:0:0:0:
263,349,194360,2,0,B|247:301|247:301|267:237,1,107.999996704102,8|0,0:0|0:0,0:0:0:0:
264,247,194585,1,0,0:0:0:0:
264,247,194660,1,2,0:0:0:0:
368,88,194810,1,2,0:0:0:0:
342,303,194960,1,8,0:0:0:0:
155,204,195110,1,2,0:0:0:0:
402,172,195260,6,0,L|509:159,1,107.999996704102,6|2,0:0|0:0,0:0:0:0:
322,9,195560,1,8,0:0:0:0:
265,168,195710,1,0,0:0:0:0:
265,168,195785,1,0,0:0:0:0:
265,168,195860,2,0,L|157:180,1,107.999996704102,2|2,0:0|0:0,0:0:0:0:
4,299,196160,1,8,0:0:0:0:
19,135,196310,1,2,0:0:0:0:
171,269,196460,6,0,L|183:376,1,107.999996704102,2|2,0:0|0:0,0:0:0:0:
372,289,196760,2,0,L|356:149,1,107.999996704102,8|2,0:0|0:0,0:0:0:0:
359,181,196985,1,0,0:0:0:0:
359,181,197060,1,0,0:0:0:0:
268,300,197210,1,2,0:0:0:0:
469,217,197360,1,8,0:0:0:0:
316,86,197510,1,2,0:0:0:0:
184,270,197660,6,0,B|177:303|177:303|186:334|186:334|176:374,1,107.999996704102,6|2,2:0|2:0,2:0:0:0:
3,228,197960,1,8,0:0:0:0:
153,148,198110,1,0,0:0:0:0:
153,148,198185,1,0,0:0:0:0:
153,148,198260,2,0,P|206:145|255:166,1,107.999996704102,2|2,0:0|0:0,0:0:0:0:
405,294,198560,1,8,0:0:0:0:
503,168,198710,1,2,0:0:0:0:
338,67,198860,6,0,L|330:183,1,107.999996704102,2|2,0:0|0:0,0:0:0:0:
145,255,199160,2,0,L|153:147,1,107.999996704102,8|2,0:0|0:0,0:0:0:0:
153,147,199385,1,2,0:0:0:0:
153,147,199460,1,2,0:0:0:0:
298,254,199610,1,2,0:0:0:0:
70,184,199760,1,8,0:0:0:0:
218,48,199910,1,2,0:0:0:0:
325,339,200060,6,0,B|291:345|291:345|260:336|260:336|220:346,1,107.999996704102,6|2,2:0|2:0,2:0:0:0:
53,319,200360,2,0,L|45:263,1,53.9999983520508,8|0,0:0|0:0,0:0:0:0:
172,206,200510,1,2,0:0:0:0:
180,202,200585,1,2,0:0:0:0:
188,198,200660,2,0,L|180:142,1,53.9999983520508,8|0,0:0|0:0,0:0:0:0:
100,16,200810,1,2,0:0:0:0:
256,64,200960,1,8,0:0:0:0:
52,120,201110,1,2,0:0:0:0:
272,192,201260,6,0,L|264:245,1,53.9999983520508,8|0,0:0|0:0,0:0:0:0:
176,280,201410,2,0,L|168:333,1,53.9999983520508,8|8,0:0|0:0,0:0:0:0:
308,348,201560,5,4,0:3:0:0:
365,361,201635,1,4,0:3:0:0:
421,346,201710,1,8,0:3:0:0:
464,305,201785,1,8,0:3:0:0:
474,246,201860,2,0,P|477:203|449:161,1,53.9999983520508,2|2,0:0|0:0,0:0:0:0:
361,184,202010,2,0,P|388:216|437:226,1,53.9999983520508,2|2,0:0|0:0,0:0:0:0:
456,24,202160,5,12,0:0:0:0:
308,348,202310,1,12,0:0:0:0:
