osu file format v14

[General]
AudioFilename: fge.mp3
AudioLeadIn: 1500
PreviewTime: 172460
Countdown: 0
SampleSet: Soft
StackLeniency: 0.3
Mode: 0
LetterboxInBreaks: 0
WidescreenStoryboard: 1

[Editor]
Bookmarks: 51560,104060,117485,137360,144260,155360,162260,168860
DistanceSpacing: 1.3
BeatDivisor: 4
GridSize: 4
TimelineZoom: 2.4

[Metadata]
Title:From Under Cover (Caught Up In A Love Song)
TitleUnicode:From Under Cover (Caught Up In A Love Song)
Artist:Foreground Eclipse
ArtistUnicode:Foreground Eclipse
Creator:Seni
Version:Hard
Source:
Tags:めらみぽっぷ touhou doujin meramipop teto stories that last through the sleepless nights c85 HB24 Akitoshi Linada
BeatmapID:1053802
BeatmapSetID:462386

[Difficulty]
HPDrainRate:5
CircleSize:3
OverallDifficulty:6
ApproachRate:8
SliderMultiplier:1.6
SliderTickRate:2

[Events]
//Background and Video events
0,0,"sanaebg.png",0,0
//Break Periods
2,56260,57710
2,77710,86360
2,125860,133310
2,145060,151010
//Storyboard Layer 0 (Background)
//Storyboard Layer 1 (Fail)
//Storyboard Layer 2 (Pass)
//Storyboard Layer 3 (Foreground)
//Storyboard Sound Samples

[TimingPoints]
860,300,4,2,3,20,1,0
860,-125,4,2,3,20,0,0
10460,-100,4,2,3,50,0,0
29660,-125,4,2,3,50,0,0
39260,-100,4,2,3,50,0,0
58460,-90.9090909090909,4,2,3,90,0,1
65660,-90.9090909090909,4,2,3,90,0,0
68060,-90.9090909090909,4,2,3,90,0,1
77360,-90.9090909090909,4,2,8,90,0,1
77510,-100,4,2,3,90,0,0
87110,-100,4,2,3,70,0,0
106460,-90.9090909090909,4,2,3,90,0,1
113660,-90.9090909090909,4,2,3,90,0,0
116060,-90.9090909090909,4,2,3,90,0,1
125660,-100,4,2,3,80,0,0
135260,-100,4,2,3,80,0,0
173660,-90.9090909090909,4,2,3,80,0,1
180860,-90.9090909090909,4,2,3,80,0,0
183260,-90.9090909090909,4,2,3,80,0,1
192860,-100,4,2,3,80,0,0

[Colours]
Combo1 : 128,174,202
Combo2 : 196,196,196
Combo3 : 202,9,9

[HitObjects]
120,56,10460,6,0,B|208:88|208:32|312:56,1,160,6|8,0:0|0:0,0:0:0:0:
389,39,10910,1,0,0:0:0:0:
389,39,10985,1,0,0:0:0:0:
389,39,11060,2,0,P|385:88|352:136,1,80,2|0,0:0|0:0,0:0:0:0:
292,195,11360,2,0,P|298:251|323:288,1,80,8|0,0:0|0:0,0:0:0:0:
393,345,11660,6,0,L|508:332,2,80,2|0|8,0:0|0:0|0:0,0:0:0:0:
313,275,12110,1,0,0:0:0:0:
313,275,12260,2,0,L|198:288,2,80,2|0|8,0:0|0:0|0:0,0:0:0:0:
418,259,12710,1,0,0:0:0:0:
508,213,12860,6,0,P|528:119|495:40,1,160,6|8,0:0|0:0,0:0:0:0:
399,34,13310,1,0,0:0:0:0:
399,34,13385,1,0,0:0:0:0:
399,34,13460,2,0,P|356:46|287:43,1,80,2|0,0:0|0:0,0:0:0:0:
216,7,13760,2,0,L|106:20,1,80,8|0,0:0|0:0,0:0:0:0:
43,78,14060,6,0,P|17:120|14:182,2,80,2|0|8,0:0|0:0|0:0,0:0:0:0:
138,110,14510,1,0,0:0:0:0:
138,110,14660,2,0,L|249:125,2,80,2|0|12,0:0|0:0|0:0,0:0:0:0:
205,25,15110,1,0,0:0:0:0:
205,25,15260,6,0,L|397:15,1,160,2|8,0:0|0:0,0:0:0:0:
466,64,15710,1,0,0:0:0:0:
466,64,15785,1,0,0:0:0:0:
466,64,15860,2,0,L|481:157,1,80,2|0,0:0|0:0,0:0:0:0:
444,250,16160,2,0,P|384:263|331:257,1,80,8|0,0:0|0:0,0:0:0:0:
272,201,16460,6,0,P|254:250|265:314,2,80,2|0|8,0:0|0:0|0:0,0:0:0:0:
317,98,16910,1,0,0:0:0:0:
317,98,17060,2,0,L|327:-2,1,80,2|0,0:0|0:0,0:0:0:0:
212,21,17360,2,0,L|219:100,1,80,8|0,0:0|0:0,0:0:0:0:
173,194,17660,6,0,L|60:202,2,80,6|0|8,0:0|0:0|0:0,0:0:0:0:
217,301,18110,1,0,0:0:0:0:
217,301,18185,1,0,0:0:0:0:
217,301,18260,2,0,L|330:309,1,80,8|0,0:0|0:0,0:0:0:0:
307,203,18560,2,0,L|386:208,1,80,8|0,0:0|0:0,0:0:0:0:
256,192,18860,12,10,19760,0:0:0:0:
129,252,20060,6,0,B|100:211|100:211|127:78,1,160,6|8,0:0|0:0,0:0:0:0:
154,8,20510,1,0,0:0:0:0:
154,8,20585,1,0,0:0:0:0:
154,8,20660,2,0,P|202:22|261:18,1,80,2|0,0:0|0:0,0:0:0:0:
344,19,20960,2,0,P|381:6|431:6,1,80,8|0,0:0|0:0,0:0:0:0:
500,83,21260,6,0,L|517:178,2,80,2|0|8,0:0|0:0|0:0,0:0:0:0:
402,138,21710,1,0,0:0:0:0:
402,138,21860,2,0,L|385:234,2,80,2|0|8,0:0|0:0|0:0,0:0:0:0:
295,115,22310,1,0,0:0:0:0:
197,160,22460,6,0,P|156:232|179:337,1,160,6|8,0:0|0:0,0:0:0:0:
251,375,22910,1,0,0:0:0:0:
251,375,22985,1,0,0:0:0:0:
251,375,23060,2,0,L|342:378,1,80,2|0,0:0|0:0,0:0:0:0:
442,358,23360,2,0,P|460:314|459:266,1,80,8|0,0:0|0:0,0:0:0:0:
471,170,23660,6,0,P|466:127|479:81,2,80,2|0|8,0:0|0:0|0:0,0:0:0:0:
356,158,24110,1,0,0:0:0:0:
356,158,24260,2,0,P|303:162|263:149,2,80,2|0|8,0:0|0:0|0:0,0:0:0:0:
321,55,24710,1,0,0:0:0:0:
321,55,24860,6,0,P|250:27|144:33,1,160,6|8,0:0|0:0,0:0:0:0:
55,16,25310,1,0,0:0:0:0:
55,16,25385,1,0,0:0:0:0:
55,16,25460,2,0,L|41:112,1,80,2|0,0:0|0:0,0:0:0:0:
145,140,25760,2,0,L|159:236,1,80,8|0,0:0|0:0,0:0:0:0:
172,330,26060,6,0,P|120:326|71:289,2,80,2|0|8,0:0|0:0|0:0,0:0:0:0:
255,269,26510,1,0,0:0:0:0:
255,269,26660,2,0,P|306:261|363:282,1,80,8|0,0:0|0:0,0:0:0:0:
434,316,26960,2,0,L|457:204,1,80,10|0,0:0|0:0,0:0:0:0:
390,145,27260,6,0,P|414:102|414:37,2,80,6|0|8,0:0|0:0|0:0,0:0:0:0:
284,172,27710,1,0,0:0:0:0:
284,172,27860,2,0,L|172:182,2,80,8|0|8,0:0|0:0|0:0,0:0:0:0:
237,272,28310,1,0,0:0:0:0:
237,272,28460,6,0,L|221:334,3,40,6|0|8|0,0:0|0:0|0:0|0:0,0:0:0:0:
176,336,28760,2,0,P|125:355|69:352,1,80,0|12,0:0|0:0,0:0:0:0:
13,285,29060,2,0,P|22:231|52:184,1,80,12|0,0:0|0:0,0:0:0:0:
140,173,29360,2,0,P|166:186|192:211,3,40,8|8|8|8,0:0|0:3|0:3|0:3,0:0:0:0:
205,225,29660,6,0,P|283:238|355:214,1,128,6|2,0:0|0:0,0:0:0:0:
479,127,30260,2,0,P|416:113|354:125,1,128,2|2,0:0|0:0,0:0:0:0:
179,87,30860,2,0,P|116:100|54:88,2,128,2|2|2,0:0|0:0|0:0,0:0:0:0:
348,27,31760,1,2,0:0:0:0:
493,131,32060,6,0,L|503:277,1,128,6|2,0:0|0:0,0:0:0:0:
337,334,32660,2,0,L|345:206,1,128,2|2,0:0|0:0,0:0:0:0:
183,131,33260,2,0,L|191:258,2,128,2|2|2,0:0|0:0|0:0,0:0:0:0:
26,218,34160,1,2,0:0:0:0:
152,345,34460,6,0,B|198:353|198:353|292:325,2,128,6|2|2,0:0|0:0|0:0,0:0:0:0:
26,218,35360,1,2,0:0:0:0:
98,54,35660,1,2,0:0:0:0:
214,190,35960,1,2,0:0:0:0:
330,54,36260,1,2,0:0:0:0:
402,218,36560,1,2,0:0:0:0:
214,190,36860,6,0,L|59:174,1,128,6|2,0:0|0:0,0:0:0:0:
205,42,37460,2,0,L|360:26,1,128,2|2,0:0|0:0,0:0:0:0:
481,128,38060,6,0,L|488:204,1,64,6|0,0:0|0:0,0:0:0:0:
446,271,38360,2,0,P|410:286|358:279,1,64,6|0,0:0|0:0,0:0:0:0:
300,318,38660,2,0,P|268:312|237:318,1,64,6|0,0:0|0:0,0:0:0:0:
160,271,38960,2,0,L|123:298,3,32,8|8|8|8,0:0|0:0|0:0|0:0,0:0:0:0:
153,237,39260,6,0,P|206:263|333:228,1,160,6|8,0:0|0:0,0:0:0:0:
410,281,39710,1,0,0:0:0:0:
410,281,39785,1,0,0:0:0:0:
410,281,39860,2,0,L|415:168,1,80,2|0,0:0|0:0,0:0:0:0:
467,103,40160,2,0,P|421:111|360:99,1,80,8|0,0:0|0:0,0:0:0:0:
295,45,40460,6,0,P|249:37|188:49,2,80,2|0|8,0:0|0:0|0:0,0:0:0:0:
308,156,40910,1,0,0:0:0:0:
308,156,41060,2,0,L|315:240,1,80,2|0,0:0|0:0,0:0:0:0:
265,336,41360,2,0,P|218:355|155:353,1,80,8|0,0:0|0:0,0:0:0:0:
78,338,41660,6,0,B|48:268|48:268|60:148,1,160,2|8,0:0|0:0,0:0:0:0:
168,142,42110,1,0,0:0:0:0:
168,142,42185,1,0,0:0:0:0:
168,142,42260,2,0,B|161:192|161:192|182:246,1,80,2|0,0:0|0:0,0:0:0:0:
277,257,42560,2,0,B|284:207|284:207|273:179,1,80,8|0,0:0|0:0,0:0:0:0:
370,121,42860,6,0,L|470:112,2,80,2|0|8,0:0|0:0|0:0,0:0:0:0:
294,36,43310,1,0,0:0:0:0:
294,36,43460,2,0,L|197:29,1,80,2|0,0:0|0:0,0:0:0:0:
104,52,43760,2,0,P|83:96|90:154,1,80,8|0,0:0|0:0,0:0:0:0:
144,219,44060,6,0,P|235:240|311:186,1,160,6|8,0:0|0:0,0:0:0:0:
212,129,44510,1,0,0:0:0:0:
212,129,44585,1,0,0:0:0:0:
212,129,44660,2,0,L|205:227,1,80,2|0,0:0|0:0,0:0:0:0:
214,321,44960,2,0,L|293:316,1,80,8|0,0:0|0:0,0:0:0:0:
339,218,45260,6,0,L|447:224,2,80,2|0|8,0:0|0:0|0:0,0:0:0:0:
261,135,45710,1,0,0:0:0:0:
261,135,45860,2,0,L|248:32,1,80,2|0,0:0|0:0,0:0:0:0:
355,14,46160,1,8,0:0:0:0:
355,14,46310,1,0,0:0:0:0:
457,59,46460,6,0,L|446:138,1,80,2|0,0:0|0:0,0:0:0:0:
378,228,46760,1,8,0:0:0:0:
284,290,46910,1,0,0:0:0:0:
284,290,46985,1,0,0:0:0:0:
284,290,47060,2,0,P|244:283|205:287,1,80,2|0,0:0|0:0,0:0:0:0:
95,315,47360,2,0,P|52:322|-1:312,1,80,8|0,0:0|0:0,0:0:0:0:
10,211,47660,6,0,L|23:112,1,80,6|0,0:0|0:0,0:0:0:0:
79,45,47960,2,0,L|74:-7,2,40,8|0|0,0:0|0:0|0:0,0:0:0:0:
137,131,48260,2,0,L|124:230,1,80,2|2,0:0|0:0,0:0:0:0:
229,227,48560,2,0,L|242:128,1,80,4|0,0:0|0:0,0:0:0:0:
194,53,48860,6,0,B|277:23|277:76|374:52,1,160,6|8,0:0|0:0,0:0:0:0:
449,117,49310,1,0,0:0:0:0:
449,117,49385,1,0,0:0:0:0:
449,117,49460,2,0,P|460:168|451:230,1,80,2|0,0:0|0:0,0:0:0:0:
393,282,49760,2,0,L|298:298,1,80,8|0,0:0|0:0,0:0:0:0:
221,232,50060,6,0,P|206:192|207:144,2,80,2|0|8,0:0|0:0|0:0,0:0:0:0:
315,172,50510,1,0,0:0:0:0:
315,172,50660,2,0,P|330:132|329:84,1,80,2|0,0:0|0:0,0:0:0:0:
236,35,50960,2,0,L|127:50,1,80,8|0,0:0|0:0,0:0:0:0:
64,109,51260,6,0,L|57:292,1,160,2|8,0:0|0:0,0:0:0:0:
166,300,51710,1,0,0:0:0:0:
166,300,51785,1,0,0:0:0:0:
166,300,51860,2,0,P|225:291|281:300,1,80,2|0,0:0|0:0,0:0:0:0:
350,330,52160,2,0,P|409:339|465:330,1,80,8|0,0:0|0:0,0:0:0:0:
480,237,52460,5,2,0:0:0:0:
382,183,52610,1,0,0:0:0:0:
471,123,52760,2,0,L|460:19,1,80,8|0,0:0|0:0,0:0:0:0:
410,20,53060,2,0,P|369:28|297:18,1,80,2|0,0:0|0:0,0:0:0:0:
278,126,53360,2,0,L|286:205,1,80,8|0,0:0|0:0,0:0:0:0:
260,314,53660,6,0,P|174:349|83:321,1,160,6|8,0:0|0:0,0:0:0:0:
32,255,54110,1,0,0:0:0:0:
32,255,54185,1,0,0:0:0:0:
32,255,54260,2,0,L|41:168,1,80,2|0,0:0|0:0,0:0:0:0:
104,83,54560,2,0,P|152:85|195:73,1,80,8|0,0:0|0:0,0:0:0:0:
284,31,54860,6,0,B|343:44|394:26|394:26|426:43|444:92,1,160,2|8,0:0|0:0,0:0:0:0:
452,169,55310,1,0,0:0:0:0:
452,169,55460,2,0,P|445:214|456:264,1,80,2|0,0:0|0:0,0:0:0:0:
385,339,55760,2,0,L|275:331,1,80,8|0,0:0|0:0,0:0:0:0:
224,254,56060,5,6,0:0:0:0:
220,246,58460,6,0,P|137:270|54:242,1,176.000005371094,6|8,0:0|0:0,0:0:0:0:
27,130,58910,1,0,0:0:0:0:
27,130,59060,2,0,B|37:87|80:61|80:61|128:69|176:57,1,176.000005371094,2|8,0:0|0:0,0:0:0:0:
276,30,59510,1,2,0:0:0:0:
276,30,59660,6,0,L|393:24,1,88.000002685547,0|0,0:0|0:0,0:0:0:0:
316,129,59960,2,0,P|265:137|202:107,1,88.000002685547,8|0,0:0|0:0,0:0:0:0:
135,190,60260,2,0,L|47:185,2,88.000002685547,2|0|8,0:0|0:0|0:0,0:0:0:0:
243,227,60710,1,0,0:0:0:0:
243,227,60860,6,0,B|262:303|238:368|238:368|268:384|301:387,1,176.000005371094,2|8,0:0|0:0,0:0:0:0:
386,361,61310,1,0,0:0:0:0:
386,361,61460,2,0,P|465:318|476:221,1,176.000005371094,2|8,0:0|0:0,0:0:0:0:
419,143,61910,1,2,0:0:0:0:
419,143,62060,6,0,L|309:135,1,88.000002685547,0|2,0:0|0:0,0:0:0:0:
307,23,62360,2,0,L|219:29,1,88.000002685547,8|0,0:0|0:0,0:0:0:0:
173,135,62660,2,0,L|63:127,2,88.000002685547,2|2|8,0:0|0:0|0:0,0:0:0:0:
203,245,63110,1,0,0:0:0:0:
203,245,63260,6,0,L|378:233,2,176.000005371094,6|8|2,0:0|0:0|0:0,0:0:0:0:
240,338,64010,1,2,0:0:0:0:
240,338,64160,2,0,L|328:344,1,88.000002685547,8|2,0:0|0:0,0:0:0:0:
432,309,64460,6,0,P|470:249|409:146,2,176.000005371094,0|8|2,0:0|0:0|0:0,0:0:0:0:
329,344,65210,1,2,0:0:0:0:
329,344,65360,2,0,L|241:350,1,88.000002685547,8|0,0:0|0:0,0:0:0:0:
135,320,65660,2,0,P|103:236|121:148,1,176.000005371094,6|8,0:0|0:0,0:0:0:0:
200,72,66110,2,0,B|293:41|293:94|394:68,1,176.000005371094,0|2,0:0|0:0,0:0:0:0:
461,145,66560,1,8,0:0:0:0:
461,145,66710,6,0,P|481:211|439:315,1,176.000005371094,6|2,0:0|0:0,0:0:0:0:
334,337,67160,1,8,0:0:0:0:
334,337,67310,2,0,P|250:310|146:345,1,176.000005371094,6|2,0:0|0:0,0:0:0:0:
264,254,67760,2,0,L|274:159,1,88.000002685547,8|0,0:0|0:0,0:0:0:0:
185,66,68060,6,0,B|114:74|38:50|38:50|49:92,1,176.000005371094,6|8,0:0|0:0,0:0:0:0:
93,180,68510,1,0,0:0:0:0:
93,180,68660,2,0,L|111:358,1,176.000005371094,2|8,0:0|0:0,0:0:0:0:
227,337,69110,1,2,0:0:0:0:
227,337,69260,6,0,P|271:352|327:354,2,88.000002685547,0|2|8,0:0|0:0|0:0,0:0:0:0:
290,249,69710,1,0,0:0:0:0:
290,249,69860,2,0,P|336:252|391:239,2,88.000002685547,2|2|8,0:0|0:0|0:0,0:0:0:0:
203,184,70310,1,0,0:0:0:0:
203,184,70460,6,0,P|111:207|19:170,1,176.000005371094,2|8,0:0|0:0,0:0:0:0:
25,67,70910,1,0,0:0:0:0:
25,67,71060,2,0,B|84:68|130:35|130:35|162:52|199:51,1,176.000005371094,2|8,0:0|0:0,0:0:0:0:
306,49,71510,1,2,0:0:0:0:
306,49,71660,6,0,L|302:152,1,88.000002685547,0|2,0:0|0:0,0:0:0:0:
417,128,71960,2,0,L|421:231,1,88.000002685547,8|0,0:0|0:0,0:0:0:0:
375,321,72260,2,0,P|313:339|249:328,2,88.000002685547,2|2|8,0:0|0:0|0:0,0:0:0:0:
297,235,72710,1,0,0:0:0:0:
297,235,72860,6,0,P|208:211|107:248,1,176.000005371094,6|8,0:0|0:0,0:0:0:0:
56,144,73310,1,0,0:0:0:0:
56,144,73460,2,0,P|50:100|58:57,1,88.000002685547,0|2,0:0|0:0,0:0:0:0:
171,67,73760,2,0,P|221:75|284:59,1,88.000002685547,8|0,0:0|0:0,0:0:0:0:
371,21,74060,6,0,P|363:71|379:134,1,88.000002685547,0|0,0:0|0:0,0:0:0:0:
341,218,74360,2,0,L|335:280,2,44.0000013427735,8|0|0,0:0|0:0|0:0,0:0:0:0:
226,218,74660,2,0,L|220:156,2,44.0000013427735,8|0|0,0:0|0:0|0:0,0:0:0:0:
115,251,74960,2,0,L|109:313,2,44.0000013427735,8|8|8,0:0|0:0|0:0,0:0:0:0:
63,158,75260,6,0,L|72:70,1,88.000002685547,10|8,0:0|0:0,0:0:0:0:
177,25,75560,1,8,0:0:0:0:
274,84,75710,2,0,L|289:132,2,44.0000013427735,0|0|8,0:0|0:0|0:0,0:0:0:0:
371,22,76010,1,0,0:0:0:0:
371,22,76160,1,8,0:0:0:0:
472,74,76310,6,0,P|507:157|482:254,1,176.000005371094,6|8,0:0|0:0,0:0:0:0:
419,329,76760,2,0,L|316:348,1,88.000002685547,8|4,0:0|0:3,0:0:0:0:
277,254,77060,2,0,L|174:235,1,88.000002685547,4|4,0:3|0:3,0:0:0:0:
111,167,77360,1,4,3:0:0:0:
47,251,77510,1,6,0:0:0:0:
256,192,87110,12,4,88910,0:0:0:0:
312,279,89660,6,0,B|240:319|224:264|132:304,1,160,2|8,0:0|0:0,0:0:0:0:
56,263,90110,1,0,0:0:0:0:
56,263,90185,1,0,0:0:0:0:
56,263,90260,2,0,P|32:214|37:152,1,80,2|0,0:0|0:0,0:0:0:0:
87,101,90560,2,0,L|179:75,1,80,8|0,0:0|0:0,0:0:0:0:
278,127,90860,6,0,P|297:167|299:221,2,80,2|0|8,0:0|0:0|0:0,0:0:0:0:
198,193,91310,1,0,0:0:0:0:
198,193,91460,2,0,P|193:237|210:288,1,80,2|0,0:0|0:0,0:0:0:0:
296,316,91760,2,0,L|399:288,1,80,8|0,0:0|0:0,0:0:0:0:
448,222,92060,6,0,L|430:42,1,160,2|8,0:0|0:0,0:0:0:0:
328,53,92510,1,0,0:0:0:0:
328,53,92585,1,0,0:0:0:0:
328,53,92660,2,0,P|276:69|218:67,1,80,2|0,0:0|0:0,0:0:0:0:
149,45,92960,2,0,P|94:43|39:59,1,80,8|0,0:0|0:0,0:0:0:0:
16,137,93260,6,0,L|4:238,1,80,2|0,0:0|0:0,0:0:0:0:
82,288,93560,2,0,L|94:389,1,80,8|0,0:0|0:0,0:0:0:0:
196,370,93860,2,0,P|241:350|291:306,1,80,2|0,0:0|0:0,0:0:0:0:
279,229,94160,2,0,L|261:150,1,80,8|0,0:0|0:0,0:0:0:0:
219,56,94460,6,0,P|294:22|389:46,1,160,6|8,0:0|0:0,0:0:0:0:
453,94,94910,1,0,0:0:0:0:
453,94,94985,1,0,0:0:0:0:
453,94,95060,2,0,L|456:178,1,80,2|0,0:0|0:0,0:0:0:0:
393,257,95360,2,0,P|345:261|303:280,1,80,8|0,0:0|0:0,0:0:0:0:
226,326,95660,6,0,B|165:321|117:346|117:346|78:333|59:292,1,160,2|8,0:0|0:0,0:0:0:0:
59,217,96110,1,0,0:0:0:0:
59,217,96260,2,0,P|56:162|41:124,1,80,2|0,0:0|0:0,0:0:0:0:
94,44,96560,2,0,L|202:37,1,80,8|0,0:0|0:0,0:0:0:0:
256,102,96860,6,0,P|242:144|241:189,2,80,2|0|8,0:0|0:0|0:0,0:0:0:0:
362,53,97310,1,0,0:0:0:0:
362,53,97385,1,0,0:0:0:0:
362,53,97460,2,0,L|449:47,2,80,2|0|12,0:0|0:0|0:0,0:0:0:0:
411,149,97910,1,0,0:0:0:0:
411,149,98060,6,0,L|488:156,2,40,8|2|2,0:0|0:0|0:0,0:0:0:0:
367,248,98360,2,0,L|276:254,1,80,8|2,0:0|0:0,0:0:0:0:
224,337,98660,2,0,L|148:346,2,40,8|2|2,0:0|0:0|0:0,0:0:0:0:
161,253,98960,2,0,L|74:248,1,80,6|0,0:0|0:0,0:0:0:0:
37,153,99260,6,0,P|89:129|214:159,1,160,6|8,0:0|0:0,0:0:0:0:
288,110,99710,1,0,0:0:0:0:
288,110,99785,1,0,0:0:0:0:
288,110,99860,2,0,L|295:221,1,80,2|0,0:0|0:0,0:0:0:0:
321,289,100160,2,0,P|274:278|214:293,1,80,8|0,0:0|0:0,0:0:0:0:
163,349,100460,6,0,P|123:351|84:341,2,80,2|0|8,0:0|0:0|0:0,0:0:0:0:
139,246,100910,1,0,0:0:0:0:
139,246,101060,2,0,L|147:158,1,80,2|0,0:0|0:0,0:0:0:0:
219,92,101360,2,0,P|268:74|327:76,1,80,8|0,0:0|0:0,0:0:0:0:
397,92,101660,6,0,L|418:266,1,160,2|8,0:0|0:0,0:0:0:0:
363,340,102110,1,0,0:0:0:0:
363,340,102185,1,0,0:0:0:0:
363,340,102260,2,0,P|319:345|263:333,1,80,2|0,0:0|0:0,0:0:0:0:
177,303,102560,2,0,P|172:258|184:203,1,80,8|0,0:0|0:0,0:0:0:0:
265,151,102860,6,0,L|367:142,2,80,2|0|8,0:0|0:0|0:0,0:0:0:0:
227,48,103310,1,0,0:0:0:0:
227,48,103460,2,0,L|125:39,1,80,2|0,0:0|0:0,0:0:0:0:
63,102,103760,2,0,P|45:147|49:203,1,80,8|0,0:0|0:0,0:0:0:0:
109,259,104060,6,0,P|156:266|210:249,1,80,6|0,0:0|0:0,0:0:0:0:
288,286,104360,2,0,L|292:325,2,40,8|0|0,0:0|0:0|0:0,0:0:0:0:
326,189,104660,2,0,L|333:103,1,80,8|8,0:0|0:3,0:0:0:0:
422,57,104960,2,0,L|462:44,2,40,8|0|0,0:0|0:3|0:3,0:0:0:0:
457,154,105260,6,0,L|463:233,1,80,14|8,0:0|0:3,0:0:0:0:
428,340,105560,2,0,L|468:353,2,40,8|8|8,0:0|0:3|0:3,0:0:0:0:
316,343,105860,2,0,L|211:334,1,80,8|0,0:0|0:0,0:0:0:0:
186,235,106160,2,0,L|291:226,1,80,8|0,0:0|0:0,0:0:0:0:
281,121,106460,6,0,L|87:103,1,176.000005371094,6|8,0:0|0:0,0:0:0:0:
22,183,106910,1,0,0:0:0:0:
22,183,107060,2,0,P|14:268|88:339,1,176.000005371094,2|8,0:0|0:0,0:0:0:0:
122,230,107510,1,2,0:0:0:0:
122,230,107660,6,0,L|129:143,1,88.000002685547,0|2,0:0|0:0,0:0:0:0:
221,210,107960,2,0,L|214:297,1,88.000002685547,8|0,0:0|0:0,0:0:0:0:
321,257,108260,2,0,L|328:170,2,88.000002685547,2|2|8,0:0|0:0|0:0,0:0:0:0:
390,349,108710,1,0,0:0:0:0:
390,349,108860,6,0,B|432:317|432:317|444:167,1,176.000005371094,2|8,0:0|0:0,0:0:0:0:
425,81,109310,1,0,0:0:0:0:
425,81,109460,2,0,P|353:47|248:82,1,176.000005371094,2|8,0:0|0:0,0:0:0:0:
335,158,109910,1,2,0:0:0:0:
335,158,110060,6,0,P|343:222|328:273,1,88.000002685547,0|2,0:0|0:0,0:0:0:0:
221,305,110360,2,0,P|157:313|106:298,1,88.000002685547,8|0,0:0|0:0,0:0:0:0:
38,229,110660,2,0,B|14:191|14:191|10:128,2,88.000002685547,2|2|8,0:0|0:0|0:0,0:0:0:0:
128,157,111110,1,0,0:0:0:0:
128,157,111260,6,0,B|222:129|222:182|311:151,2,176.000005371094,6|8|2,0:0|0:0|0:0,0:0:0:0:
182,257,112010,1,2,0:0:0:0:
182,257,112160,2,0,P|173:316|184:366,1,88.000002685547,8|2,0:0|0:0,0:0:0:0:
291,358,112460,6,0,P|372:376|489:354,2,176.000005371094,2|8|2,0:0|0:0|0:0,0:0:0:0:
343,256,113210,1,0,0:0:0:0:
343,256,113360,2,0,P|395:263|442:249,1,88.000002685547,8|0,0:0|0:0,0:0:0:0:
466,146,113660,6,0,P|384:115|281:164,1,176.000005371094,6|8,0:0|0:0,0:0:0:0:
208,206,114110,2,0,P|131:192|84:86,1,176.000005371094,0|2,0:0|0:0,0:0:0:0:
140,14,114560,1,8,0:0:0:0:
140,14,114710,6,0,L|336:1,1,176.000005371094,6|0,0:0|0:0,0:0:0:0:
417,55,115160,1,8,0:0:0:0:
417,55,115310,2,0,P|393:117|464:229,1,176.000005371094,6|4,0:0|0:0,0:0:0:0:
352,292,115760,2,0,L|252:316,1,88.000002685547,8|8,0:0|0:0,0:0:0:0:
159,269,116060,6,0,B|130:181|190:172|153:82,1,176.000005371094,6|8,0:0|0:0,0:0:0:0:
49,135,116510,1,0,0:0:0:0:
49,135,116660,2,0,P|33:211|51:320,1,176.000005371094,2|8,0:0|0:0,0:0:0:0:
159,269,117110,1,2,0:0:0:0:
159,269,117260,6,0,L|262:286,2,88.000002685547,0|2|8,0:0|0:0|0:0,0:0:0:0:
236,184,117710,1,0,0:0:0:0:
236,184,117860,2,0,L|339:167,2,88.000002685547,2|2|8,0:0|0:0|0:0,0:0:0:0:
124,158,118310,1,0,0:0:0:0:
124,158,118460,6,0,P|92:105|140:-2,1,176.000005371094,2|8,0:0|0:0,0:0:0:0:
241,28,118910,1,0,0:0:0:0:
241,28,119060,2,0,B|312:40|312:40|372:24|372:24|444:36,1,176.000005371094,2|8,0:0|0:0,0:0:0:0:
485,120,119510,1,2,0:0:0:0:
485,120,119660,6,0,P|479:182|497:231,1,88.000002685547,0|2,0:0|0:0,0:0:0:0:
374,234,119960,2,0,P|381:190|374:147,1,88.000002685547,8|0,0:0|0:0,0:0:0:0:
270,190,120260,2,0,L|169:198,2,88.000002685547,0|2|8,0:0|0:0|0:0,0:0:0:0:
215,89,120710,1,0,0:0:0:0:
215,89,120860,6,0,L|12:68,1,176.000005371094,6|8,0:0|0:0,0:0:0:0:
45,185,121310,1,0,0:0:0:0:
45,185,121460,2,0,P|41:240|59:287,1,88.000002685547,0|2,0:0|0:0,0:0:0:0:
153,220,121760,2,0,P|208:210|257:222,1,88.000002685547,8|2,0:0|0:0,0:0:0:0:
318,298,122060,6,0,P|285:227|318:104,1,176.000005371094,0|8,0:0|0:0,0:0:0:0:
265,23,122510,2,0,P|360:33|413:114,1,176.000005371094,0|2,0:0|0:0,0:0:0:0:
428,201,122960,2,0,P|432:251|418:291,1,88.000002685547,8|0,0:0|0:0,0:0:0:0:
256,192,123260,12,2,125660,0:0:0:0:
256,192,134060,12,8,134960,0:0:0:0:
184,124,135260,6,0,P|284:140|374:115,1,160,6|8,0:0|0:0,0:0:0:0:
433,176,135710,1,0,0:0:0:0:
433,176,135785,1,0,0:0:0:0:
433,176,135860,2,0,P|449:227|443:286,1,80,2|0,0:0|0:0,0:0:0:0:
378,329,136160,2,0,P|324:335|267:319,1,80,8|0,0:0|0:0,0:0:0:0:
201,295,136460,6,0,P|161:297|123:311,2,80,2|0|8,0:0|0:0|0:0,0:0:0:0:
281,235,136910,1,0,0:0:0:0:
281,235,137060,2,0,P|342:248|386:234,2,80,2|0|8,0:0|0:0|0:0,0:0:0:0:
333,144,137510,1,0,0:0:0:0:
394,55,137660,6,0,P|315:38|233:98,1,160,6|8,0:0|0:0,0:0:0:0:
147,49,138110,1,0,0:0:0:0:
147,49,138185,1,0,0:0:0:0:
147,49,138260,2,0,L|137:138,1,80,2|0,0:0|0:0,0:0:0:0:
38,159,138560,2,0,L|48:248,1,80,8|0,0:0|0:0,0:0:0:0:
102,326,138860,6,0,L|214:345,2,80,2|0|12,0:0|0:0|0:0,0:0:0:0:
168,235,139310,1,0,0:0:0:0:
168,235,139460,2,0,L|246:221,2,80,2|0|12,0:0|0:0|0:0,0:0:0:0:
127,138,139910,1,0,0:0:0:0:
127,138,140060,6,0,P|215:110|275:38,1,160,6|8,0:0|0:0,0:0:0:0:
364,47,140510,1,0,0:0:0:0:
364,47,140585,1,0,0:0:0:0:
364,47,140660,2,0,P|405:77|467:85,1,80,2|0,0:0|0:0,0:0:0:0:
488,172,140960,2,0,L|487:263,1,80,8|0,0:0|0:0,0:0:0:0:
392,294,141260,6,0,L|391:214,2,80,2|0|8,0:0|0:0|0:0,0:0:0:0:
304,350,141710,1,0,0:0:0:0:
304,350,141860,2,0,P|254:362|191:352,2,80,2|0|8,0:0|0:0|0:0,0:0:0:0:
251,260,142310,1,0,0:0:0:0:
251,260,142460,6,0,L|261:154,2,80,6|0|8,0:0|0:0|0:0,0:0:0:0:
157,214,142910,1,0,0:0:0:0:
156,213,143060,2,0,L|149:134,2,80,8|0|8,0:0|0:0|0:0,0:0:0:0:
56,184,143510,1,0,0:0:0:0:
56,184,143660,6,0,L|52:144,2,40,6|0|6,0:0|0:0|0:0,0:0:0:0:
31,284,143960,1,0,0:0:0:0:
128,320,144110,1,6,0:0:0:0:
128,320,144185,1,0,0:0:0:0:
128,320,144260,2,0,P|167:323|237:298,1,80,6|0,0:0|0:0,0:0:0:0:
287,247,144560,2,0,L|290:207,2,40,4|8|8,3:0|0:3|0:3,0:0:0:0:
359,321,144860,1,6,0:0:0:0:
256,192,151760,12,12,153860,0:3:0:0:
200,128,154460,6,0,L|91:117,2,80,6|0|0,0:0|0:0|0:0,0:0:0:0:
153,210,154910,1,0,0:0:0:0:
153,210,155060,2,0,L|44:199,2,80,8|0|0,0:0|0:0|0:0,0:0:0:0:
180,314,155510,1,0,0:0:0:0:
180,314,155660,6,0,L|289:303,2,80,0|2|2,0:0|0:0|0:0,0:0:0:0:
80,356,156110,1,0,0:0:0:0:
80,356,156260,2,0,P|75:284|96:245,1,80,8|0,0:0|0:0,0:0:0:0:
91,174,156560,2,0,P|96:102|75:63,1,80,0|8,0:0|0:0,0:0:0:0:
124,53,156785,1,8,0:0:0:0:
124,53,156860,6,0,L|234:58,2,80,2|0|2,0:0|0:0|0:0,0:0:0:0:
182,138,157310,1,0,0:0:0:0:
182,138,157460,2,0,L|292:143,2,80,8|0|0,0:0|0:0|0:0,0:0:0:0:
235,235,157910,1,0,0:0:0:0:
235,235,158060,6,0,P|223:289|231:348,2,80,0|2|2,0:0|0:0|0:0,0:0:0:0:
342,236,158510,1,0,0:0:0:0:
342,236,158660,2,0,P|406:243|454:228,1,80,8|0,0:0|0:0,0:0:0:0:
502,175,158960,2,0,L|486:70,1,80,0|8,0:0|0:0,0:0:0:0:
461,52,159185,1,8,0:0:0:0:
461,52,159260,6,0,P|405:32|348:41,2,80,6|0|0,0:0|0:0|0:0,0:0:0:0:
397,133,159710,1,0,0:0:0:0:
397,133,159860,2,0,P|341:153|284:144,2,80,8|2|0,0:0|0:0|0:0,0:0:0:0:
415,239,160310,1,0,0:0:0:0:
415,239,160460,6,0,P|429:286|410:343,2,80,0|2|2,0:0|0:0|0:0,0:0:0:0:
318,286,160910,1,0,0:0:0:0:
318,286,161060,2,0,L|210:278,1,80,8|2,0:0|0:0,0:0:0:0:
159,348,161360,2,0,L|51:356,1,80,0|8,0:0|0:0,0:0:0:0:
30,335,161585,1,8,0:0:0:0:
30,335,161660,6,0,P|10:285|14:237,2,80,2|0|2,0:0|0:0|0:0,0:0:0:0:
122,271,162110,1,0,0:0:0:0:
122,271,162260,2,0,P|142:221|138:173,2,80,8|0|0,0:0|0:0|0:0,0:0:0:0:
201,343,162710,1,0,0:0:0:0:
201,343,162860,6,0,L|280:348,2,80,0|2|2,0:0|0:0|0:0,0:0:0:0:
260,256,163310,1,0,0:0:0:0:
260,256,163460,2,0,L|252:191,3,40,8|0|2|2,0:0|0:0|0:0|0:0,0:0:0:0:
300,188,163760,2,0,L|292:123,3,40,8|8|8|8,0:3|0:3|0:3|0:3,0:0:0:0:
340,120,164060,6,0,L|432:111,2,80,2|0|2,0:0|0:0|0:0,0:0:0:0:
277,36,164510,1,0,0:0:0:0:
277,36,164660,2,0,L|185:27,2,80,8|0|0,0:0|0:0|0:0,0:0:0:0:
221,124,165110,1,0,0:0:0:0:
221,124,165260,6,0,P|229:196|214:233,2,80,0|0|2,0:0|0:0|0:0,0:0:0:0:
128,172,165710,1,0,0:0:0:0:
128,172,165860,2,0,P|120:244|135:281,1,80,8|0,0:0|0:0,0:0:0:0:
179,337,166160,2,0,L|289:355,1,80,0|8,0:0|0:0,0:0:0:0:
308,333,166385,1,8,0:0:0:0:
308,333,166460,6,0,P|368:322|423:333,2,80,2|0|2,0:0|0:0|0:0,0:0:0:0:
326,230,166910,1,0,0:0:0:0:
326,230,167060,2,0,L|310:129,2,80,8|0|0,0:0|0:0|0:0,0:0:0:0:
418,180,167510,1,0,0:0:0:0:
418,180,167660,6,0,L|430:100,2,80,0|2|2,0:0|0:0|0:0,0:0:0:0:
472,273,168110,1,0,0:0:0:0:
472,273,168260,2,0,P|430:287|372:276,1,80,8|0,0:0|0:0,0:0:0:0:
312,220,168560,2,0,P|272:218|234:231,1,80,0|0,0:0|0:0,0:0:0:0:
256,192,168860,12,8,169760,0:0:0:0:
256,192,170060,12,8,170960,0:0:0:0:
256,192,171260,12,8,172460,0:0:0:0:
352,68,173660,6,0,P|388:150|354:244,1,176.000005371094,6|8,0:0|0:0,0:0:0:0:
262,157,174110,1,0,0:0:0:0:
262,157,174260,2,0,P|157:165|86:116,1,176.000005371094,2|8,0:0|0:0,0:0:0:0:
178,224,174710,1,2,0:0:0:0:
178,224,174860,6,0,L|166:329,1,88.000002685547,0|2,0:0|0:0,0:0:0:0:
283,356,175160,2,0,P|340:349|391:363,1,88.000002685547,8|0,0:0|0:0,0:0:0:0:
444,258,175460,2,0,L|434:170,1,88.000002685547,2|0,0:0|0:0,0:0:0:0:
367,64,175760,2,0,P|423:46|480:53,1,88.000002685547,8|0,0:0|0:0,0:0:0:0:
435,171,176060,6,0,P|343:188|252:114,1,176.000005371094,2|8,0:0|0:0,0:0:0:0:
189,49,176510,1,0,0:0:0:0:
189,49,176660,2,0,P|225:110|144:193,1,176.000005371094,2|8,0:0|0:0,0:0:0:0:
52,239,177110,1,2,0:0:0:0:
52,239,177260,6,0,P|41:303|61:359,1,88.000002685547,0|2,0:0|0:0,0:0:0:0:
168,294,177560,2,0,L|260:284,1,88.000002685547,8|0,0:0|0:0,0:0:0:0:
372,334,177860,2,0,L|459:343,2,88.000002685547,2|2|8,0:0|0:0|0:0,0:0:0:0:
457,241,178310,1,0,0:0:0:0:
457,241,178460,6,0,P|474:165|432:58,2,176.000005371094,6|8|2,0:0|0:0|0:0,0:0:0:0:
331,225,179210,1,2,0:0:0:0:
331,225,179360,2,0,P|283:215|207:231,1,88.000002685547,8|2,0:0|0:0,0:0:0:0:
119,189,179660,6,0,P|88:247|101:355,2,176.000005371094,2|8|2,0:0|0:0|0:0,0:0:0:0:
180,79,180410,1,2,0:0:0:0:
180,79,180560,2,0,P|107:65|58:81,1,88.000002685547,8|0,0:0|0:0,0:0:0:0:
119,189,180860,6,0,P|191:205|294:136,1,176.000005371094,6|8,0:0|0:0,0:0:0:0:
370,66,181310,2,0,B|403:54|436:63|436:63|464:120|451:198,1,176.000005371094,0|0,0:0|0:0,0:0:0:0:
400,286,181760,1,8,0:0:0:0:
400,286,181910,6,0,L|203:312,1,176.000005371094,6|0,0:0|0:0,0:0:0:0:
102,349,182360,1,8,0:0:0:0:
102,349,182510,2,0,P|70:275|96:166,1,176.000005371094,6|0,0:0|0:0,0:0:0:0:
210,142,182960,2,0,P|257:150|313:138,1,88.000002685547,12|0,0:0|0:0,0:0:0:0:
419,175,183260,6,0,B|384:262|445:262|417:357,1,176.000005371094,6|8,0:0|0:0,0:0:0:0:
296,312,183710,1,0,0:0:0:0:
296,312,183860,2,0,P|203:292|115:329,1,176.000005371094,2|8,0:0|0:0,0:0:0:0:
9,276,184310,1,2,0:0:0:0:
9,276,184460,6,0,L|14:158,2,88.000002685547,0|2|8,0:0|0:0|0:0,0:0:0:0:
115,213,184910,1,0,0:0:0:0:
115,213,185060,2,0,L|120:95,2,88.000002685547,2|0|8,0:0|0:0|0:0,0:0:0:0:
164,325,185510,1,0,0:0:0:0:
164,325,185660,6,0,P|219:281|235:178,1,176.000005371094,6|8,0:0|0:0,0:0:0:0:
300,75,186110,1,0,0:0:0:0:
300,75,186260,2,0,L|102:69,1,176.000005371094,2|8,0:0|0:0,0:0:0:0:
30,150,186710,1,2,0:0:0:0:
30,150,186860,6,0,L|36:244,1,88.000002685547,0|2,0:0|0:0,0:0:0:0:
153,272,187160,2,0,L|158:184,1,88.000002685547,8|2,0:0|0:0,0:0:0:0:
262,110,187460,2,0,P|302:103|384:128,2,88.000002685547,2|2|8,0:0|0:0|0:0,0:0:0:0:
307,229,187910,1,0,0:0:0:0:
307,229,188060,6,0,B|363:256|426:226|426:226|457:238|470:266,1,176.000005371094,6|8,0:0|0:0,0:0:0:0:
400,353,188510,1,0,0:0:0:0:
400,353,188660,2,0,P|351:358|287:345,1,88.000002685547,0|2,0:0|0:0,0:0:0:0:
198,351,188960,2,0,P|149:346|85:359,1,88.000002685547,8|0,0:0|0:0,0:0:0:0:
30,269,189260,6,0,P|7:209|21:86,1,176.000005371094,2|8,0:0|0:0,0:0:0:0:
102,24,189710,2,0,B|169:43|169:43|217:31|217:31|285:47,1,176.000005371094,0|2,0:0|0:0,0:0:0:0:
217,154,190160,2,0,L|208:265,1,88.000002685547,8|0,0:0|0:0,0:0:0:0:
304,324,190460,2,0,P|380:340|484:306,1,176.000005371094,6|8,0:0|0:0,0:0:0:0:
502,193,190910,1,0,0:0:0:0:
502,193,191060,2,0,L|486:80,1,88.000002685547,2|2,0:0|0:0,0:0:0:0:
390,24,191360,1,8,0:0:0:0:
293,103,191510,6,0,L|258:313,1,176.000005371094,6|2,0:0|0:0,0:0:0:0:
199,171,191960,1,8,0:0:0:0:
199,171,192110,2,0,P|287:158|376:228,1,176.000005371094,6|8,0:0|0:0,0:0:0:0:
468,258,192560,2,0,L|516:251,3,44.0000013427735,8|8|8|8,0:0|0:0|0:0|0:0,0:0:0:0:
462,279,192860,5,6,0:0:0:0:
256,192,192935,12,8,194960,0:0:0:0:
256,192,195260,12,8,197360,0:0:0:0:
312,244,197660,6,0,L|136:262,1,160,6|8,0:0|0:0,0:0:0:0:
59,213,198110,1,0,0:0:0:0:
59,213,198185,1,0,0:0:0:0:
59,213,198260,2,0,P|46:146|57:102,1,80,2|0,0:0|0:0,0:0:0:0:
98,44,198560,2,0,L|189:37,1,80,8|0,0:0|0:0,0:0:0:0:
271,83,198860,6,0,P|288:130|277:187,2,80,2|0|8,0:0|0:0|0:0,0:0:0:0:
183,140,199310,1,0,0:0:0:0:
183,140,199460,2,0,P|174:189|195:243,1,80,2|0,0:0|0:0,0:0:0:0:
240,303,199760,2,0,L|336:314,1,80,8|0,0:0|0:0,0:0:0:0:
420,335,200060,6,0,P|452:283|431:153,1,160,6|8,0:0|0:0,0:0:0:0:
469,84,200510,1,0,0:0:0:0:
469,84,200585,1,0,0:0:0:0:
469,84,200660,2,0,L|365:73,1,80,8|0,0:0|0:0,0:0:0:0:
311,145,200960,2,0,L|231:153,1,80,8|0,0:0|0:0,0:0:0:0:
135,211,201260,6,0,L|93:252,2,40,6|0|2,0:0|0:0|0:0,0:0:0:0:
202,290,201560,2,0,P|257:287|316:300,1,80,2|8,0:0|0:3,0:0:0:0:
385,294,201860,2,0,L|427:335,2,40,6|2|2,0:0|0:0|0:0,0:0:0:0:
430,199,202160,5,12,0:3:0:0:
413,96,202310,1,12,0:3:0:0:
