osu file format v14

[General]
AudioFilename: fge.mp3
AudioLeadIn: 1500
PreviewTime: 172460
Countdown: 0
SampleSet: Soft
StackLeniency: 0.7
Mode: 0
LetterboxInBreaks: 0
WidescreenStoryboard: 1

[Editor]
DistanceSpacing: 1
BeatDivisor: 4
GridSize: 4
TimelineZoom: 1.5

[Metadata]
Title:From Under Cover (Caught Up In A Love Song)
TitleUnicode:From Under Cover (Caught Up In A Love Song)
Artist:Foreground Eclipse
ArtistUnicode:Foreground Eclipse
Creator:Seni
Version:Akitoshi's Normal
Source:
Tags:めらみぽっぷ touhou doujin meramipop teto stories that last through the sleepless nights c85 HB24 Akitoshi Linada
BeatmapID:1084459
BeatmapSetID:462386

[Difficulty]
HPDrainRate:4
CircleSize:3
OverallDifficulty:4
ApproachRate:5
SliderMultiplier:1
SliderTickRate:1

[Events]
//Background and Video events
0,0,"bg_unrelated_dq_pls.png",0,0
//Break Periods
2,149860,153260
//Storyboard Layer 0 (Background)
//Storyboard Layer 1 (Fail)
//Storyboard Layer 2 (Pass)
//Storyboard Layer 3 (Foreground)
//Storyboard Sound Samples

[TimingPoints]
860,300,4,2,0,20,1,0
860,-100,4,2,0,20,0,0
4460,-100,4,2,0,30,0,0
6860,-100,4,2,0,40,0,0
9260,-100,4,2,1,50,0,0
10160,-100,4,2,1,50,0,0
10460,-100,4,2,1,80,0,0
27560,-100,4,2,1,80,0,0
28460,-100,4,2,1,80,0,0
29660,-100,4,2,1,60,0,0
39260,-100,4,2,1,80,0,0
56060,-100,4,2,1,60,0,0
58160,-100,4,2,1,70,0,0
58460,-100,4,2,1,90,0,1
65660,-100,4,2,1,90,0,0
66710,-100,4,2,1,90,0,0
68060,-100,4,2,1,90,0,1
77435,-100,4,2,1,90,0,0
77510,-100,4,2,1,90,0,1
82235,-100,4,2,1,90,0,0
82310,-100,4,2,1,90,0,1
84710,-100,4,2,1,90,0,1
87110,-100,4,2,1,70,0,0
89660,-100,4,2,1,70,0,0
99260,-100,4,2,1,80,0,0
106460,-100,4,2,1,90,0,1
113660,-100,4,2,1,90,0,0
114710,-100,4,2,1,90,0,0
116060,-100,4,2,1,90,0,1
125660,-100,4,2,1,80,0,0
144860,-100,4,2,1,80,0,0
154460,-100,4,2,1,80,0,0
168860,-100,4,2,1,80,0,0
170060,-100,4,2,1,80,0,0
171260,-100,4,2,1,80,0,0
172460,-100,4,2,1,80,0,0
173060,-100,4,2,1,80,0,0
173660,-100,4,2,1,80,0,1
180860,-100,4,2,1,80,0,0
181910,-100,4,2,1,80,0,0
183260,-100,4,2,1,80,0,1
192860,-100,4,2,1,80,0,0
197660,-100,4,2,1,80,0,0
201860,-100,4,2,1,80,0,0

[Colours]
Combo1 : 255,192,0
Combo2 : 255,128,128
Combo3 : 255,128,64
Combo4 : 0,128,255

[HitObjects]
256,139,860,6,0,L|428:134,2,150,2|2|2,0:0|0:0|0:0,0:0:0:0:
155,134,2060,2,0,P|179:74|264:38,2,150,2|2|2,0:0|0:0|0:0,0:0:0:0:
149,234,3260,6,0,P|84:204|55:122,2,150,2|2|2,0:0|0:0|0:0,0:0:0:0:
248,223,4460,2,0,P|226:298|144:333,2,150,2|2|2,0:0|0:0|0:0,0:0:0:0:
235,123,5660,6,0,P|299:136|348:217,2,150,2|2|2,0:0|0:0|0:0,0:0:0:0:
136,139,6860,2,0,P|161:57|226:23,2,150,2|2|2,0:0|0:0|0:0,0:0:0:0:
147,238,8060,6,0,B|72:256|72:256|1:236,2,150,2|2|2,0:0|0:0|0:0,0:0:0:0:
227,178,9260,2,0,P|276:169|334:178,1,100,6|6,0:0|0:0,0:0:0:0:
396,246,9860,2,0,L|454:242,1,50,6|2,0:0|0:0,0:0:0:0:
481,207,10160,1,0,0:0:0:0:
500,108,10460,6,0,P|472:70|368:46,1,150,6|0,0:0|0:0,0:0:0:0:
326,52,11060,2,0,B|276:59|276:59|212:50,1,100,2|8,0:0|0:0,0:0:0:0:
127,63,11660,1,2,0:0:0:0:
80,151,11960,1,8,0:0:0:0:
110,247,12260,2,0,P|149:277|213:276,1,100,2|8,0:0|0:0,0:0:0:0:
293,246,12860,6,0,L|308:87,1,150,6|0,0:0|0:0,0:0:0:0:
314,46,13460,2,0,P|368:45|421:82,1,100,2|8,0:0|0:0,0:0:0:0:
456,153,14060,2,0,L|463:222,1,50,2|0,0:0|0:0,0:0:0:0:
425,238,14360,2,0,L|418:307,1,50,8|0,0:0|0:0,0:0:0:0:
384,323,14660,2,0,P|335:339|266:326,1,100,2|12,0:0|0:0,0:0:0:0:
202,281,15260,6,0,B|191:245|191:245|206:131,1,150,2|0,0:0|0:0,0:0:0:0:
209,83,15860,2,0,P|173:57|110:56,1,100,2|8,0:0|0:0,0:0:0:0:
53,129,16460,2,0,L|49:189,1,50,2|0,0:0|0:0,0:0:0:0:
85,214,16760,2,0,L|81:274,1,50,8|0,0:0|0:0,0:0:0:0:
117,299,17060,2,0,P|143:345|194:369,1,100,2|8,0:0|0:0,0:0:0:0:
283,370,17660,5,6,0:0:0:0:
371,323,17960,1,8,0:0:0:0:
414,232,18260,2,0,B|420:198|420:198|412:117,1,100,8|8,0:0|0:0,0:0:0:0:
339,65,18860,2,0,B|291:58|291:58|250:93|197:84|197:84|172:62|126:62|126:62|137:100|108:143,1,300,2|10,0:0|0:0,0:0:0:0:
45,207,20060,6,0,P|24:255|44:352,1,150,6|0,0:0|0:0,0:0:0:0:
85,372,20660,2,0,B|197:359,1,100,2|8,0:0|0:0,0:0:0:0:
270,309,21260,1,2,0:0:0:0:
301,214,21560,1,8,0:0:0:0:
267,119,21860,2,0,P|304:78|364:68,1,100,2|8,0:0|0:0,0:0:0:0:
443,87,22460,6,0,L|462:249,1,150,6|0,0:0|0:0,0:0:0:0:
462,285,23060,2,0,P|425:326|365:336,1,100,2|8,0:0|0:0,0:0:0:0:
289,306,23660,2,0,B|239:301|239:301|176:308,1,100,2|8,0:0|0:0,0:0:0:0:
90,320,24260,2,0,L|86:260,1,50,2|0,0:0|0:0,0:0:0:0:
71,221,24560,1,8,0:0:0:0:
22,133,24860,6,0,P|88:122|160:175,1,150,6|0,0:0|0:0,0:0:0:0:
193,196,25460,2,0,P|240:207|302:189,1,100,2|8,0:0|0:0,0:0:0:0:
385,165,26060,2,0,L|390:223,1,50,2|0,0:0|0:0,0:0:0:0:
424,250,26360,2,0,L|429:308,1,50,8|0,0:0|0:0,0:0:0:0:
392,335,26660,2,0,P|345:358|292:353,1,100,8|2,0:0|0:0,0:0:0:0:
209,309,27260,5,6,0:0:0:0:
131,246,27560,2,0,L|17:255,2,100,8|8|8,0:0|0:0|0:0,0:0:0:0:
225,211,28460,2,0,B|235:162|235:162|219:109,1,100,6|8,0:0|0:0,0:0:0:0:
207,65,28910,2,0,P|250:39|312:45,1,100,4|0,0:0|0:0,0:0:0:0:
345,58,29360,1,8,0:0:0:0:
414,130,29660,6,0,B|426:178|426:178|417:228|417:228|443:275|421:323,1,200,6|2,0:0|0:0,0:0:0:0:
330,280,30560,1,2,0:0:0:0:
239,323,30860,2,0,B|219:268|246:227|246:227|265:175|237:126,1,200,2|2,0:0|0:0,0:0:0:0:
183,47,31760,1,2,0:0:0:0:
93,90,32060,6,0,B|78:162|78:162|90:218|90:218|79:292,1,200,6|2,0:0|0:0,0:0:0:0:
146,360,32960,1,2,0:0:0:0:
239,323,33260,2,0,B|288:308|334:337|334:337|386:336|419:283,1,200,2|2,0:0|0:0,0:0:0:0:
429,187,34160,1,2,0:0:0:0:
362,112,34460,6,0,P|413:88|506:123,2,150,6|0|2,0:0|0:0|0:0,0:0:0:0:
277,164,35660,2,0,P|262:113|281:55,1,100,2|2,0:0|0:0,0:0:0:0:
358,16,36260,2,0,P|373:67|354:125,1,100,2|2,0:0|0:0,0:0:0:0:
277,164,36860,6,0,B|205:173|134:129|134:129|70:153,1,200,6|2,0:0|0:0,0:0:0:0:
27,226,37760,1,2,0:0:0:0:
111,279,38060,2,0,L|106:382,2,100,6|6|6,0:0|0:0|0:0,0:0:0:0:
181,208,38960,2,0,L|183:157,1,50,8|0,0:0|0:0,0:0:0:0:
195,109,39260,6,0,P|239:88|307:91,1,100,6|8,0:0|0:0,0:0:0:0:
384,119,39860,2,0,B|392:160|392:160|387:224,1,100,2|8,0:0|0:0,0:0:0:0:
345,308,40460,2,0,L|238:305,1,100,2|8,0:0|0:0,0:0:0:0:
210,268,40910,2,0,L|103:271,1,100,2|0,0:0|0:0,0:0:0:0:
72,237,41360,1,8,0:0:0:0:
130,155,41660,6,0,B|137:114|137:114|133:46,1,100,2|8,0:0|0:0,0:0:0:0:
233,55,42260,2,0,B|229:113|229:113|236:154,1,100,2|8,0:0|0:0,0:0:0:0:
307,224,42860,1,2,0:0:0:0:
407,232,43160,1,8,0:0:0:0:
490,176,43460,2,0,P|507:227|491:287,1,100,2|8,0:0|0:0,0:0:0:0:
421,334,44060,6,0,L|434:384,2,50,2|0|8,0:0|0:0|0:0,0:0:0:0:
327,297,44660,2,0,B|284:289|284:289|213:293,1,100,2|8,0:0|0:0,0:0:0:0:
127,292,45260,2,0,P|94:259|82:201,1,100,2|8,0:0|0:0,0:0:0:0:
79,158,45710,2,0,P|102:117|155:90,1,100,0|0,0:0|0:0,0:0:0:0:
198,87,46160,1,8,0:0:0:0:
296,105,46460,6,0,P|293:55|258:6,2,100,2|8|2,0:0|0:0|0:0,0:0:0:0:
263,199,47360,1,8,0:0:0:0:
333,269,47660,2,0,L|456:261,1,100,6|8,0:0|0:0,0:0:0:0:
442,361,48260,2,0,L|319:369,1,100,2|4,0:0|0:0,0:0:0:0:
251,326,48860,6,0,L|189:330,2,50,6|0|8,0:0|0:0|0:0,0:0:0:0:
333,269,49460,2,0,B|343:233|343:233|333:159,1,100,2|8,0:0|0:0,0:0:0:0:
310,74,50060,2,0,P|263:61|208:70,1,100,2|8,0:0|0:0,0:0:0:0:
175,102,50510,2,0,B|165:138|165:138|175:212,1,100,0|0,0:0|0:0,0:0:0:0:
184,248,50960,1,8,0:0:0:0:
197,347,51260,6,0,L|270:350,2,50,2|0|8,0:0|0:0|0:0,0:0:0:0:
97,336,51860,2,0,P|70:296|65:223,1,100,2|8,0:0|0:0,0:0:0:0:
101,153,52460,2,0,P|47:147|-4:169,2,100,2|8|2,0:0|0:0|0:0,0:0:0:0:
195,186,53360,1,8,0:0:0:0:
288,151,53660,6,0,L|288:44,1,100,6|8,0:0|0:0,0:0:0:0:
388,51,54260,2,0,L|388:158,1,100,2|8,0:0|0:0,0:0:0:0:
386,250,54860,2,0,B|338:268|338:268|270:263,1,100,2|8,0:0|0:0,0:0:0:0:
240,252,55310,2,0,P|204:212|200:156,1,100
207,118,55760,1,8,0:0:0:0:
303,93,56060,6,0,P|354:97|412:96,2,100,6|0|0,0:0|0:0|0:0,0:0:0:0:
229,24,56960,1,0,0:0:0:0:
136,62,57260,2,0,B|116:109|116:109|122:157,1,100,6|0,0:0|0:0,0:0:0:0:
184,236,57860,1,0,0:0:0:0:
122,314,58160,1,0,0:0:0:0:
58,236,58460,6,0,P|14:167|30:83,1,150,6|0,0:0|0:0,0:0:0:0:
36,54,59060,2,0,L|138:62,1,100,2|8,0:0|0:0,0:0:0:0:
234,79,59660,2,0,L|341:72,2,100,0|8|2,0:0|0:0|0:0,0:0:0:0:
185,166,60560,1,8,0:0:0:0:
231,254,60860,6,0,P|293:295|386:294,1,150,2|0,0:0|0:0,0:0:0:0:
413,281,61460,2,0,B|433:235|433:235|432:170,1,100,2|8,0:0|0:0,0:0:0:0:
426,85,62060,2,0,P|373:73|313:89,1,100,0|8,0:0|0:0,0:0:0:0:
240,128,62660,1,2,0:0:0:0:
140,126,62960,1,8,0:0:0:0:
65,58,63260,6,0,P|41:106|75:204,1,150,6|0,0:0|0:0,0:0:0:0:
109,218,63860,2,0,L|109:324,1,100,2|8,0:0|0:0,0:0:0:0:
207,336,64460,2,0,L|207:230,1,100,0|8,0:0|0:0,0:0:0:0:
277,165,65060,2,0,P|327:156|389:181,1,100,2|8,0:0|0:0,0:0:0:0:
455,226,65660,6,0,P|471:151|429:88,2,150,6|0|8,0:0|0:0|0:0,0:0:0:0:
423,265,66710,2,0,L|312:263,1,100,6|2,0:0|0:0,0:0:0:0:
238,317,67310,2,0,L|127:315,1,100,6|2,0:0|0:0,0:0:0:0:
87,310,67760,1,8,0:0:0:0:
43,219,68060,6,0,P|37:165|97:81,1,150,6|0,0:0|0:0,0:0:0:0:
134,72,68660,2,0,B|184:78|184:78|250:69,1,100,2|8,0:0|0:0,0:0:0:0:
332,60,69260,2,0,L|328:163,2,100,0|8|2,0:0|0:0|0:0,0:0:0:0:
421,12,70160,1,8,0:0:0:0:
495,78,70460,6,0,P|508:152|461:215,1,150,2|0,0:0|0:0,0:0:0:0:
423,234,71060,2,0,L|427:343,1,100,2|8,0:0|0:0,0:0:0:0:
330,362,71660,2,0,L|326:253,1,100,0|8,0:0|0:0,0:0:0:0:
251,195,72260,2,0,P|188:181|138:195,1,100,2|8,0:0|0:0,0:0:0:0:
69,241,72860,6,0,P|55:172|106:100,2,150,6|0|8,0:0|0:0|0:0,0:0:0:0:
139,311,74060,2,0,L|254:306,1,100,0|8,0:0|0:0,0:0:0:0:
285,287,74510,2,0,L|400:282,1,100,0|0,0:0|0:0,0:0:0:0:
432,265,74960,1,8,0:0:0:0:
492,185,75260,6,0,P|490:124|460:77,1,100,10|8,0:0|0:0,0:0:0:0:
376,59,75860,2,0,L|377:-1,2,50,8|0|8,0:0|0:0|0:0,0:0:0:0:
340,94,76310,2,0,B|297:117|297:117|239:117,1,100,6|0,0:0|0:0,0:0:0:0:
145,114,76910,1,4,0:3:0:0:
66,175,77210,2,0,L|67:237,1,50,4|0,0:3|0:0,0:0:0:0:
73,274,77510,6,0,P|131:315|212:308,1,150,6|8,0:0|0:0,0:0:0:0:
284,247,78260,2,0,L|279:182,2,50,8|0|0,0:0|0:0|0:0,0:0:0:0:
309,290,78710,2,0,B|358:291|358:291|401:267|401:267|455:270,1,150,6|8,0:0|0:0,0:0:0:0:
498,180,79460,2,0,P|501:128|481:76,1,100,8|0,0:0|0:0,0:0:0:0:
443,55,79910,6,0,B|394:67|394:67|282:48,1,150,6|8,0:0|0:0,0:0:0:0:
197,32,80660,2,0,P|172:77|178:134,1,100,8|0,0:0|0:0,0:0:0:0:
188,172,81110,2,0,B|236:185|236:185|298:180,1,100,6|0,0:0|0:0,0:0:0:0:
335,174,81560,1,8,0:0:0:0:
422,221,81860,2,0,L|492:214,2,50,8|0|8,0:0|0:0|0:0,0:0:0:0:
386,256,82310,6,0,L|270:267,1,100,6|0,0:0|0:0,0:0:0:0:
250,301,82760,1,8,0:0:0:0:
173,364,83060,2,0,P|128:363|68:324,1,100,8|8,0:0|0:0,0:0:0:0:
25,253,83660,1,8,0:0:0:0:
57,158,83960,1,8,0:0:0:0:
137,98,84260,2,0,L|132:26,2,50,8|0|8,0:0|0:0|0:0,0:0:0:0:
161,141,84710,6,0,P|220:164|268:153,1,100,6|0,0:0|0:0,0:0:0:0:
303,145,85160,1,8,0:0:0:0:
400,169,85460,2,0,B|414:218|414:218|407:282,1,100,8|8,0:0|0:0,0:0:0:0:
353,350,86060,2,0,B|304:364|304:364|240:357,1,100,8|8,0:3|0:0,0:0:0:0:
165,313,86660,2,0,L|97:316,2,50,8|10|8,0:0|0:0|0:0,0:0:0:0:
207,285,87110,6,0,P|224:238|217:173,1,100,6|2,0:0|0:0,0:0:0:0:
209,139,87560,1,8,0:0:0:0:
262,54,87860,2,0,L|368:53,1,100,8|8,0:0|0:0,0:0:0:0:
456,85,88460,1,8,0:0:0:0:
496,114,88610,2,0,P|491:169|460:219,1,100,4|4,0:0|0:0,0:0:0:0:
399,278,89210,2,0,L|405:344,2,50,0|8|8,0:0|0:0|0:0,0:0:0:0:
363,242,89660,6,0,B|314:233|314:233|248:233,1,100,2|8,0:0|0:0,0:0:0:0:
164,242,90260,1,2,0:0:0:0:
97,167,90560,1,8,0:0:0:0:
112,68,90860,2,0,P|43:84|-2:156,2,150,2|0|8,0:0|0:0|0:0,0:0:0:0:
207,97,92060,6,0,B|258:102|258:102|316:92,1,100,2|8,0:0|0:0,0:0:0:0:
401,65,92660,2,0,P|405:103|374:166,1,100,2|8,0:0|0:0,0:0:0:0:
333,246,93260,2,0,L|343:359,2,100,2|8|2,0:0|0:0|0:0,0:0:0:0:
256,181,94160,1,8,0:0:0:0:
177,119,94460,6,0,P|126:114|66:144,1,100,6|8,0:0|0:0,0:0:0:0:
33,219,95060,2,0,P|28:269|58:330,1,100,2|8,0:0|0:0,0:0:0:0:
135,358,95660,2,0,B|185:360|185:360|234:347|234:347|300:349,2,150,2|0|8,0:0|0:0|0:0,0:0:0:0:
120,259,96860,6,0,P|127:211|172:168,1,100,2|8,0:0|0:0,0:0:0:0:
258,153,97460,2,0,P|306:160|349:205,1,100,2|12,0:0|0:0,0:0:0:0:
378,287,98060,2,0,P|419:257|443:202,2,100,8|8|8,0:0|0:0|0:0,0:0:0:0:
279,305,98960,1,6,0:0:0:0:
185,269,99260,6,0,B|165:224|165:224|170:157,1,100,6|8,0:0|0:0,0:0:0:0:
183,74,99860,2,0,B|228:54|228:54|295:59,1,100,2|8,0:0|0:0,0:0:0:0:
376,81,100460,2,0,P|439:87|507:28,2,150,2|0|8,0:0|0:0|0:0,0:0:0:0:
278,57,101660,6,0,P|279:108|312:160,1,100,2|8,0:0|0:0,0:0:0:0:
375,219,102260,2,0,P|330:247|270:244,1,100,2|8,0:0|0:0,0:0:0:0:
186,227,102860,2,0,P|187:277|229:333,2,100,2|8|2,0:0|0:0|0:0,0:0:0:0:
201,128,103760,1,8,0:0:0:0:
125,62,104060,6,0,P|66:68|15:192,1,200,6|8,0:0|0:0,0:0:0:0:
38,280,104960,1,8,0:0:0:0:
124,330,105260,2,8,L|239:326,1,100,14|8,0:0|0:0,0:0:0:0:
294,255,105860,2,0,L|351:253,1,50,8|0,0:0|0:0,0:0:0:0:
379,217,106160,2,0,L|436:215,1,50,8|0,0:0|0:0,0:0:0:0:
464,179,106460,6,0,P|480:109|425:40,1,150,6|0,0:0|0:0,0:0:0:0:
389,39,107060,2,0,B|340:47|340:47|278:40,1,100,2|8,0:0|0:0,0:0:0:0:
190,28,107660,2,0,P|168:71|174:129,1,100,2|8,0:0|0:0,0:0:0:0:
202,216,108260,1,2,0:0:0:0:
292,259,108560,1,8,0:0:0:0:
370,196,108860,6,0,P|392:258|351:342,1,150,2|0,0:0|0:0,0:0:0:0:
316,354,109460,2,0,L|209:349,1,100,2|8,0:0|0:0,0:0:0:0:
121,314,110060,2,0,P|99:269|108:203,2,100,0|8|0,0:0|0:0|0:0,0:0:0:0:
216,349,110960,1,8,0:0:0:0:
260,259,111260,6,0,L|248:89,1,150,6|0,0:0|0:0,0:0:0:0:
228,64,111860,2,0,P|178:45|127:50,1,100,0|8,0:0|0:0,0:0:0:0:
43,94,112460,1,0,0:0:0:0:
18,191,112760,2,0,L|14:247,1,50,8|0,0:0|0:0,0:0:0:0:
11,290,113060,2,0,P|41:313|109:320,1,100,2|8,0:0|0:0,0:0:0:0:
186,269,113660,6,0,B|247:282|247:282|343:267,2,150,6|0|8,0:0|0:0|0:0,0:0:0:0:
146,237,114710,2,0,P|145:181|179:131,1,100,6|0,0:0|0:0,0:0:0:0:
254,96,115310,2,0,L|368:89,1,100,6|4,0:0|0:0,0:0:0:0:
403,88,115760,1,8,0:0:0:0:
481,149,116060,6,0,B|498:197|498:197|490:301,1,150,6|0,0:0|0:0,0:0:0:0:
476,343,116660,2,0,P|422:354|369:339,1,100,2|8,0:0|0:0,0:0:0:0:
297,285,117260,2,0,L|178:295,1,100,0|8,0:0|0:0,0:0:0:0:
184,193,117860,2,0,L|283:184,1,100,2|8,0:0|0:0,0:0:0:0:
383,177,118460,6,0,P|353:113|275:86,1,150,2|0,0:0|0:0,0:0:0:0:
233,96,119060,2,0,B|184:106|184:106|120:97,1,100,2|8,0:0|0:0,0:0:0:0:
52,41,119660,2,0,P|34:94|46:149,1,100,0|8,0:0|0:0,0:0:0:0:
128,184,120260,2,0,P|146:237|134:292,1,100,0|8,0:0|0:0,0:0:0:0:
83,363,120860,6,0,P|44:312|60:218,2,150,6|0|8,0:0|0:0|0:0,0:0:0:0:
182,368,122060,2,0,L|286:359,1,100,0|8,0:0|0:0,0:0:0:0:
316,324,122510,2,0,L|420:315,1,100,0|2,0:0|0:0,0:0:0:0:
450,280,122960,1,8,0:0:0:0:
495,191,123260,6,0,P|501:140|473:84,1,100,6|8,0:0|0:0,0:0:0:0:
390,58,123860,2,0,L|395:6,2,50,8|0|8,0:0|0:0|0:0,0:0:0:0:
365,101,124310,2,0,B|317:115|317:115|257:106,1,100,6|0,0:0|0:0,0:0:0:0:
217,102,124760,1,8,0:0:0:0:
167,94,124910,2,0,P|146:141|174:238,1,150,6|8,0:0|0:0,0:0:0:0:
247,295,125660,6,0,P|170:332|95:299,1,150,2|0,0:0|0:0,0:0:0:0:
74,278,126260,2,0,B|50:233|50:233|51:168,1,100,2|8,0:0|0:0,0:0:0:0:
65,85,126860,1,2,0:0:0:0:
161,58,127160,1,8,0:0:0:0:
247,111,127460,2,0,P|285:132|344:125,1,100,2|8,0:0|0:0,0:0:0:0:
409,55,128060,6,0,P|440:131|403:205,1,150,2|0,0:0|0:0,0:0:0:0:
377,222,128660,2,0,L|386:331,1,100,2|8,0:0|0:0,0:0:0:0:
286,335,129260,2,0,L|277:226,1,100,2|8,0:0|0:0,0:0:0:0:
257,189,129710,1,0,0:0:0:0:
232,145,129860,2,0,P|190:132|122:150,1,100,2|8,0:0|0:0,0:0:0:0:
48,191,130460,6,0,P|35:135|100:49,1,150,6|0,0:0|0:0,0:0:0:0:
126,41,131060,2,0,L|237:37,1,100,2|8,0:0|0:0,0:0:0:0:
324,53,131660,1,2,0:0:0:0:
384,132,131960,1,8,0:0:0:0:
388,231,132260,2,0,P|374:282|321:326,1,100,2|8,0:0|0:0,0:0:0:0:
296,335,132710,1,0,0:0:0:0:
246,340,132860,6,0,L|138:335,1,100,6|8,0:0|0:0,0:0:0:0:
60,283,133460,1,8,0:0:0:0:
31,187,133760,1,8,0:0:0:0:
81,100,134060,2,0,B|131:86|131:86|174:109|174:109|220:91|220:91|292:142|373:110,1,300,14|8,0:0|0:0,0:0:0:0:
429,40,135260,6,0,P|459:91|436:182,1,150,6|0,0:0|0:0,0:0:0:0:
403,210,135860,2,0,L|409:316,1,100,2|8,0:0|0:0,0:0:0:0:
308,320,136460,2,0,L|302:214,1,100,2|8,0:0|0:0,0:0:0:0:
244,138,137060,1,2,0:0:0:0:
152,97,137360,1,8,0:0:0:0:
74,159,137660,6,0,P|60:206|67:270,1,100,6|8,0:0|0:0,0:0:0:0:
156,293,138260,2,0,P|170:246|163:182,1,100,2|8,0:0|0:0,0:0:0:0:
152,97,138860,1,2,0:0:0:0:
227,31,139160,1,12,0:0:0:0:
317,73,139460,2,0,L|372:67,1,50,2|0,0:0|0:0,0:0:0:0:
416,60,139760,1,12,0:0:0:0:
480,136,140060,6,0,B|502:183|502:183|490:290,1,150,6|0,0:0|0:0,0:0:0:0:
474,327,140660,2,0,P|426:339|374:320,1,100,2|8,0:0|0:0,0:0:0:0:
293,271,141260,2,0,P|245:259|193:278,1,100,2|8,0:0|0:0,0:0:0:0:
98,269,141860,2,0,L|91:214,1,50,2|0,0:0|0:0,0:0:0:0:
118,177,142160,2,0,L|111:122,1,50,8|0,0:0|0:0,0:0:0:0:
131,81,142460,6,0,P|182:55|230:58,1,100,6|8,0:0|0:0,0:0:0:0:
317,90,143060,1,8,0:0:0:0:
373,172,143360,1,8,0:0:0:0:
339,266,143660,2,0,B|292:278|292:278|221:275,1,100,6|0,0:0|0:0,0:0:0:0:
191,269,144110,2,0,P|141:275|95:314,1,100,6|0,0:0|0:0,0:0:0:0:
78,348,144560,1,2,0:0:0:0:
176,364,144860,5,6,0:0:0:0:
256,192,145010,12,6,149660,0:0:0:0:
253,57,154460,6,0,B|322:55|322:55|377:75|377:75|470:70,2,200,6|8|2,0:0|0:0|0:0,0:0:0:0:
153,64,155960,1,0,0:0:0:0:
87,139,156260,2,0,P|76:188|101:251,1,100,8|0,0:0|0:0,0:0:0:0:
185,262,156860,6,0,P|132:324|17:302,2,200,2|8|0,0:0|0:0|0:0,0:0:0:0:
220,168,158360,1,2,0:0:0:0:
278,87,158660,2,0,P|321:64|392:73,1,100,8|0,0:0|0:0,0:0:0:0:
459,112,159260,6,0,B|483:209|483:209|443:323,1,200,6|8,0:0|0:0,0:0:0:0:
367,362,160160,1,0,0:0:0:0:
278,314,160460,2,0,B|200:280|162:355|77:318,1,200,0|8,0:0|0:0,0:0:0:0:
24,240,161360,1,0,0:0:0:0:
46,142,161660,6,0,L|39:38,2,100,2|2|8,0:0|0:0|0:0,0:0:0:0:
122,206,162560,1,0,0:0:0:0:
192,135,162860,2,0,P|238:121|308:133,1,100,0|2,0:0|0:0,0:0:0:0:
370,183,163460,2,0,L|370:242,1,50,8|2,0:0|0:0,0:0:0:0:
342,274,163760,2,0,L|342:333,1,50,8|8,0:3|0:3,0:0:0:0:
311,363,164060,6,0,P|230:368|154:272,2,200,2|8|0,0:0|0:0|0:0,0:0:0:0:
396,311,165560,1,2,0:0:0:0:
457,232,165860,2,0,L|446:123,1,100,8|0,0:0|0:0,0:0:0:0:
383,55,166460,6,0,P|304:37|223:131,2,200,2|8|0,0:0|0:0|0:0,0:0:0:0:
323,135,167960,1,2,0:0:0:0:
248,201,168260,2,0,P|192:198|147:157,1,100,8|0,0:0|0:0,0:0:0:0:
100,90,168860,5,8,0:0:0:0:
256,192,169010,12,8,172460,0:0:0:0:
85,96,173660,6,0,P|161:86|247:73,1,150,6|0,0:0|0:0,0:0:0:0:
283,73,174260,2,0,P|310:113|309:177,1,100,2|8,0:0|0:0,0:0:0:0:
269,254,174860,2,0,L|159:252,1,100,0|8,0:0|0:0,0:0:0:0:
156,351,175460,2,0,L|266:353,1,100,2|8,0:0|0:0,0:0:0:0:
355,350,176060,6,0,P|418:319|448:235,1,150,2|0,0:0|0:0,0:0:0:0:
438,199,176660,2,0,B|428:151|428:151|432:97,1,100,2|8,0:0|0:0,0:0:0:0:
359,30,177260,2,0,P|308:24|242:44,1,100,2|8,0:0|0:0,0:0:0:0:
190,106,177860,1,2,0:0:0:0:
170,204,178160,1,8,0:0:0:0:
230,283,178460,6,0,P|167:303|90:261,1,150,6|0,0:0|0:0,0:0:0:0:
72,222,179060,2,0,L|76:108,1,100,2|8,0:0|0:0,0:0:0:0:
133,40,179660,2,0,P|179:28|239:42,1,100,2|8,0:0|0:0,0:0:0:0:
297,111,180260,2,0,L|405:111,1,100,0|8,0:0|0:0,0:0:0:0:
489,148,180860,6,0,P|493:86|433:19,2,150,6|0|8,0:0|0:0|0:0,0:0:0:0:
464,191,181910,2,0,L|468:297,1,100,6|0,0:0|0:0,0:0:0:0:
372,321,182510,2,0,L|368:215,1,100,6|0,0:0|0:0,0:0:0:0:
332,185,182960,1,12,0:0:0:0:
255,120,183260,6,0,P|181:91|107:122,1,150,6|0,0:0|0:0,0:0:0:0:
84,150,183860,2,0,L|94:256,1,100,2|8,0:0|0:0,0:0:0:0:
101,349,184460,2,0,P|50:338|7:298,2,100,0|8|2,0:0|0:0|0:0,0:0:0:0:
196,318,185360,1,8,0:0:0:0:
284,271,185660,6,0,B|343:253|343:253|450:265,1,150,6|0,0:0|0:0,0:0:0:0:
480,263,186260,2,0,P|501:218|491:157,1,100,2|8,0:0|0:0,0:0:0:0:
439,86,186860,1,0,0:0:0:0:
340,70,187160,1,8,0:0:0:0:
276,147,187460,2,0,L|172:152,1,100,2|8,0:0|0:0,0:0:0:0:
76,152,188060,6,0,P|92:97|175:52,2,150,6|0|8,0:0|0:0|0:0,0:0:0:0:
94,250,189260,2,0,B|143:263|143:263|210:248,1,100,0|8,0:0|0:0,0:0:0:0:
238,236,189710,2,0,P|302:234|346:259,1,100,0|2,0:0|0:0,0:0:0:0:
365,287,190160,1,8,0:0:0:0:
433,360,190460,6,0,P|457:325|457:253,1,100,6|8,0:0|0:0,0:0:0:0:
455,168,191060,2,0,L|510:173,2,50,2|2|8,0:0|0:0|0:0,0:0:0:0:
419,132,191510,2,0,L|300:123,1,100,6|2,0:0|0:0,0:0:0:0:
238,65,192110,2,0,L|119:56,1,100,6|0,0:0|0:0,0:0:0:0:
88,54,192560,1,8,0:0:0:0:
21,128,192860,6,0,P|6:204|54:273,1,150,6|0,0:0|0:0,0:0:0:0:
88,278,193460,2,0,L|190:273,1,100,2|8,0:0|0:0,0:0:0:0:
287,262,194060,2,0,P|279:311|248:352,2,100,2|8|2,0:0|0:0|0:0,0:0:0:0:
248,169,194960,1,8,0:0:0:0:
278,73,195260,6,0,B|328:63|328:63|430:69,1,150,2|0,0:0|0:0,0:0:0:0:
476,77,195860,2,0,P|494:125|479:191,1,100,2|8,0:0|0:0,0:0:0:0:
441,260,196460,1,2,0:0:0:0:
346,292,196760,1,8,0:0:0:0:
253,253,197060,2,0,L|192:254,1,50,2|0,0:0|0:0,0:0:0:0:
158,231,197360,2,0,L|97:232,1,50,8|0,0:0|0:0,0:0:0:0:
62,210,197660,6,0,P|49:168|91:70,1,150,6|0,0:0|0:0,0:0:0:0:
133,55,198260,2,0,B|185:62|185:62|234:56,1,100,2|8,0:0|0:0,0:0:0:0:
331,42,198860,1,2,0:0:0:0:
406,108,199160,1,8,0:0:0:0:
431,204,199460,2,0,P|423:253|377:296,1,100,2|8,0:0|0:0,0:0:0:0:
344,311,199910,1,0,0:0:0:0:
295,322,200060,6,0,B|245:325|245:325|187:309,1,100,6|8,0:0|0:0,0:0:0:0:
111,259,200660,2,0,L|107:208,1,50,8|0,0:0|0:0,0:0:0:0:
129,164,200960,2,0,L|125:113,1,50,8|0,0:0|0:0,0:0:0:0:
147,69,201260,2,0,P|197:47|252:56,1,100,6|2,0:0|0:0,0:0:0:0:
325,105,201860,6,0,L|385:101,1,50,6|2,0:0|0:0,0:0:0:0:
410,137,202160,2,0,L|470:133,1,50,12|12,0:3|0:3,0:0:0:0:
