osu file format v14

[General]
AudioFilename: fge.mp3
AudioLeadIn: 1500
PreviewTime: 172460
Countdown: 0
SampleSet: Soft
StackLeniency: 0.7
Mode: 0
LetterboxInBreaks: 0
WidescreenStoryboard: 0

[Editor]
DistanceSpacing: 2.1
BeatDivisor: 4
GridSize: 4
TimelineZoom: 1.5

[Metadata]
Title:From Under Cover (Caught Up In A Love Song)
TitleUnicode:From Under Cover (Caught Up In A Love Song)
Artist:Foreground Eclipse
ArtistUnicode:Foreground Eclipse
Creator:Seni
Version:Akitoshi's Extreme
Source:
Tags:めらみぽっぷ touhou doujin meramipop teto stories that last through the sleepless nights c85 HB24 Akitoshi Linada
BeatmapID:991733
BeatmapSetID:462386

[Difficulty]
HPDrainRate:6.1
CircleSize:4.1
OverallDifficulty:9.1
ApproachRate:9.3
SliderMultiplier:1.8
SliderTickRate:2

[Events]
//Background and Video events
0,0,"bg_unrelated_dq_pls.png",0,0
//Break Periods
//Storyboard Layer 0 (Background)
//Storyboard Layer 1 (Fail)
//Storyboard Layer 2 (Pass)
//Storyboard Layer 3 (Foreground)
//Storyboard Sound Samples

[TimingPoints]
860,300,4,2,0,20,1,0
860,-133.333333333333,4,2,0,20,0,0
4460,-133.333333333333,4,2,0,30,0,0
6860,-133.333333333333,4,2,0,40,0,0
9260,-111.111111111111,4,2,3,50,0,0
10160,-133.333333333333,4,2,3,50,0,0
10460,-100,4,2,3,80,0,0
27560,-125,4,2,3,80,0,0
28460,-100,4,2,3,80,0,0
29660,-133.333333333333,4,2,3,60,0,0
39260,-100,4,2,3,80,0,0
56060,-133.333333333333,4,2,3,60,0,0
58160,-100,4,2,3,70,0,0
58460,-83.3333333333333,4,2,3,90,0,1
65660,-83.3333333333333,4,2,3,90,0,0
66710,-100,4,2,3,90,0,0
68060,-83.3333333333333,4,2,3,90,0,1
77435,-83.3333333333333,4,2,3,90,0,0
77510,-142.857142857143,4,2,3,90,0,1
82235,-142.857142857143,4,2,3,90,0,0
82310,-100,4,2,3,90,0,1
84710,-90.9090909090909,4,2,3,90,0,1
87110,-117.647058823529,4,2,3,70,0,0
89660,-100,4,2,3,70,0,0
99260,-100,4,2,3,80,0,0
106460,-83.3333333333333,4,2,3,90,0,1
113660,-83.3333333333333,4,2,3,90,0,0
114710,-100,4,2,3,90,0,0
116060,-83.3333333333333,4,2,3,90,0,1
125660,-100,4,2,3,80,0,0
144860,-133.333333333333,4,2,3,80,0,0
154460,-125,4,2,3,80,0,0
168860,-111.111111111111,4,2,3,80,0,0
170060,-100,4,2,3,80,0,0
171260,-90.9090909090909,4,2,3,80,0,0
172460,-83.3333333333333,4,2,3,80,0,0
173060,-133.333333333333,4,2,3,80,0,0
173510,-133.333333333333,4,2,3,5,0,0
173660,-76.9230769230769,4,2,3,80,0,1
180860,-76.9230769230769,4,2,3,80,0,0
181910,-90.9090909090909,4,2,3,80,0,0
183260,-76.9230769230769,4,2,3,80,0,1
192860,-83.3333333333333,4,2,3,80,0,0
197660,-90.9090909090909,4,2,3,80,0,0
201860,-66.6666666666667,4,2,3,80,0,0

[Colours]
Combo1 : 255,192,0
Combo2 : 255,128,128
Combo3 : 255,128,64
Combo4 : 0,128,255

[HitObjects]
99,196,860,6,0,L|86:113,2,67.5000025749208,2|0|0,0:0|0:0|0:0,0:0:0:0:
192,215,1310,2,0,L|179:132,2,67.5000025749208,2|0|0,0:0|0:0|0:0,0:0:0:0:
212,307,1760,2,0,P|266:311|298:296,1,67.5000025749208,2|0,0:0|0:0,0:0:0:0:
355,252,2060,6,0,B|363:220|363:220|354:179,1,67.5000025749208,2|0,0:0|0:0,0:0:0:0:
442,148,2360,2,0,B|434:180|434:180|443:221,1,67.5000025749208,0|2,0:0|0:0,0:0:0:0:
485,297,2660,1,0,0:0:0:0:
420,366,2810,1,0,0:0:0:0:
325,364,2960,2,0,L|247:370,1,67.5000025749208,2|0,0:0|0:0,0:0:0:0:
144,312,3260,6,0,L|222:306,2,67.5000025749208,2|0|0,0:0|0:0|0:0,0:0:0:0:
63,261,3710,2,0,P|57:225|72:184,2,67.5000025749208,2|0|0,0:0|0:0|0:0,0:0:0:0:
150,224,4160,2,0,P|156:188|141:147,1,67.5000025749208,2|0,0:0|0:0,0:0:0:0:
152,64,4460,6,0,L|225:62,1,67.5000025749208,2|0,0:0|0:0,0:0:0:0:
265,144,4760,2,0,L|338:142,1,67.5000025749208,0|2,0:0|0:0,0:0:0:0:
426,149,5060,1,0,0:0:0:0:
494,214,5210,1,0,0:0:0:0:
424,278,5360,2,0,B|419:306|419:306|428:358,1,67.5000025749208,2|0,0:0|0:0,0:0:0:0:
283,305,5660,6,0,B|288:277|288:277|279:225,1,67.5000025749208,2|0,0:0|0:0,0:0:0:0:
265,144,5960,1,0,0:0:0:0:
175,114,6110,2,0,P|169:147|176:182,1,67.5000025749208,2|0,0:0|0:0,0:0:0:0:
199,271,6410,1,0,0:0:0:0:
143,347,6560,2,0,B|109:352|109:352|62:347,1,67.5000025749208,2|0,0:0|0:0,0:0:0:0:
9,281,6860,6,0,L|3:209,1,67.5000025749208,2|0,0:0|0:0,0:0:0:0:
70,146,7160,2,0,L|64:74,1,67.5000025749208,0|2,0:0|0:0,0:0:0:0:
131,11,7460,1,0,0:0:0:0:
224,22,7610,1,0,0:0:0:0:
299,79,7760,2,0,L|305:151,1,67.5000025749208,2|0,0:0|0:0,0:0:0:0:
317,239,8060,6,0,P|354:248|397:240,2,67.5000025749208,2|0|0,0:0|0:0|0:0,0:0:0:0:
229,200,8510,2,0,P|192:191|149:199,2,67.5000025749208,2|0|0,0:0|0:0|0:0,0:0:0:0:
317,239,8960,1,2,0:0:0:0:
238,292,9110,1,0,0:0:0:0:
305,146,9260,5,6,0:0:0:0:
305,146,9560,1,6,0:0:0:0:
305,146,9860,1,6,0:0:0:0:
277,137,9935,1,2,0:0:0:0:
249,129,10010,1,2,0:0:0:0:
222,120,10085,1,2,0:0:0:0:
198,111,10160,2,2,L|195:78,5,22.5000008583069
151,58,10460,6,0,B|158:161,1,90,6|0,0:0|0:0,0:0:0:0:
172,310,10760,1,8,0:0:0:0:
326,236,10910,1,0,0:0:0:0:
326,236,10985,1,0,0:0:0:0:
326,236,11060,2,0,P|370:227|425:240,1,90,2|0,0:0|0:0,0:0:0:0:
246,270,11360,1,8,0:0:0:0:
355,138,11510,1,0,0:0:0:0:
245,355,11660,6,0,P|202:342|168:301,1,90,2|0,0:0|0:0,0:0:0:0:
160,139,11960,1,8,0:0:0:0:
246,270,12110,1,0,0:0:0:0:
246,270,12185,1,0,0:0:0:0:
246,270,12260,2,0,L|348:259,1,90,2|0,0:0|0:0,0:0:0:0:
445,128,12560,2,0,L|343:139,1,90,8|0,0:0|0:0,0:0:0:0:
82,166,12860,5,6,0:0:0:0:
251,190,13010,1,0,0:0:0:0:
187,31,13160,1,8,0:0:0:0:
82,166,13310,1,0,0:0:0:0:
82,166,13385,1,0,0:0:0:0:
82,166,13460,2,0,B|75:206|75:206|85:282,1,90,2|0,0:0|0:0,0:0:0:0:
245,355,13760,1,8,0:0:0:0:
166,179,13910,1,0,0:0:0:0:
135,344,14060,5,2,0:0:0:0:
251,190,14210,1,0,0:0:0:0:
338,344,14360,1,8,0:0:0:0:
454,190,14510,1,0,0:0:0:0:
454,190,14585,1,0,0:0:0:0:
454,190,14660,2,0,L|441:68,1,90,2|0,0:0|0:0,0:0:0:0:
242,101,14960,2,0,L|255:223,1,90,12|0,0:0|0:0,0:0:0:0:
135,344,15260,5,2,0:0:0:0:
293,271,15410,1,0,0:0:0:0:
84,174,15560,1,8,0:0:0:0:
242,101,15710,1,0,0:0:0:0:
242,101,15785,1,0,0:0:0:0:
242,101,15860,2,0,B|251:64|251:64|245:-4,1,90,2|0,0:0|0:0,0:0:0:0:
368,144,16160,2,0,B|359:181|359:181|365:249,1,90,8|0,0:0|0:0,0:0:0:0:
335,53,16460,5,2,0:0:0:0:
262,217,16610,1,0,0:0:0:0:
156,71,16760,1,8,0:0:0:0:
335,53,16910,1,0,0:0:0:0:
335,53,16985,1,0,0:0:0:0:
335,53,17060,2,0,P|388:48|438:69,1,90,2|0,0:0|0:0,0:0:0:0:
451,239,17360,2,0,P|397:243|347:222,1,90,8|0,0:0|0:0,0:0:0:0:
206,146,17660,5,6,0:0:0:0:
233,357,17810,1,0,0:0:0:0:
336,167,17960,1,8,0:0:0:0:
140,261,18110,1,0,0:0:0:0:
140,261,18185,1,0,0:0:0:0:
140,261,18260,1,8,0:0:0:0:
357,301,18410,1,0,0:0:0:0:
206,146,18560,1,8,0:0:0:0:
233,357,18710,1,0,0:0:0:0:
336,167,18860,5,2,0:0:0:0:
164,80,19010,1,8,0:0:0:0:
128,72,19085,1,8,0:0:0:0:
93,81,19160,1,8,0:0:0:0:
69,108,19235,1,8,0:0:0:0:
57,142,19310,1,8,0:0:0:0:
58,177,19385,1,8,0:0:0:0:
77,207,19460,5,8,0:3:0:0:
102,238,19535,1,8,0:3:0:0:
112,277,19610,1,8,0:3:0:0:
88,309,19685,1,8,0:3:0:0:
49,322,19760,1,10,0:0:0:0:
19,293,19835,1,8,0:0:0:0:
24,252,19910,1,8,0:0:0:0:
59,233,19985,1,8,0:0:0:0:
102,238,20060,6,0,B|152:240|152:240|212:222,1,90,6|0,0:0|0:0,0:0:0:0:
336,167,20360,1,8,0:0:0:0:
217,63,20510,1,0,0:0:0:0:
217,63,20585,1,0,0:0:0:0:
217,63,20660,2,0,B|167:61|167:61|107:79,1,90,2|0,0:0|0:0,0:0:0:0:
190,229,20960,1,8,0:0:0:0:
275,117,21110,1,0,0:0:0:0:
366,250,21260,6,0,P|402:226|423:166,1,90,2|0,0:0|0:0,0:0:0:0:
367,30,21560,1,8,0:0:0:0:
269,206,21710,1,0,0:0:0:0:
269,206,21785,1,0,0:0:0:0:
269,206,21860,2,0,B|260:241|260:241|268:318,1,90,2|0,0:0|0:0,0:0:0:0:
99,327,22160,2,0,B|108:292|108:292|100:215,1,90,8|0,0:0|0:0,0:0:0:0:
81,59,22460,5,6,0:0:0:0:
177,189,22610,1,0,0:0:0:0:
246,42,22760,1,8,0:0:0:0:
342,172,22910,1,0,0:0:0:0:
342,172,22985,1,0,0:0:0:0:
342,172,23060,2,0,L|452:164,1,90,2|0,0:0|0:0,0:0:0:0:
462,325,23360,2,0,L|352:333,1,90,8|0,0:0|0:0,0:0:0:0:
192,348,23660,5,2,0:0:0:0:
328,260,23810,1,0,0:0:0:0:
100,238,23960,1,8,0:0:0:0:
238,150,24110,1,0,0:0:0:0:
238,150,24185,1,0,0:0:0:0:
238,150,24260,2,0,P|247:106|233:57,1,90,2|0,0:0|0:0,0:0:0:0:
432,166,24560,2,0,P|423:210|437:259,1,90,8|0,0:0|0:0,0:0:0:0:
325,59,24860,6,0,B|289:55|289:55|219:65,1,90,6|0,0:0|0:0,0:0:0:0:
56,87,25160,1,8,0:0:0:0:
174,222,25310,1,0,0:0:0:0:
174,222,25385,1,0,0:0:0:0:
174,222,25460,2,0,L|180:337,1,90,2|0,0:0|0:0,0:0:0:0:
333,350,25760,2,0,L|327:235,1,90,8|0,0:0|0:0,0:0:0:0:
298,81,26060,5,2,0:0:0:0:
421,210,26210,1,0,0:0:0:0:
415,21,26360,1,8,0:0:0:0:
319,172,26510,1,0,0:0:0:0:
319,172,26585,1,0,0:0:0:0:
319,172,26660,2,0,B|272:185|272:185|210:177,1,90,8|0,0:0|0:0,0:0:0:0:
76,274,26960,2,0,B|123:261|123:261|185:269,1,90,10|0,0:0|0:0,0:0:0:0:
377,309,27260,6,0,B|408:311|408:311|438:304|438:304|488:307,1,90,6|0,0:0|0:0,0:0:0:0:
503,166,27560,2,0,P|496:131|503:91,1,72,8|0,0:0|0:0,0:0:0:0:
407,27,27860,2,0,P|414:62|407:102,1,72,8|0,0:0|0:0,0:0:0:0:
319,172,28160,2,0,P|312:137|319:97,1,72,8|0,0:0|0:0,0:0:0:0:
273,38,28385,1,0,0:0:0:0:
273,38,28460,6,0,L|166:48,1,90,6|8,0:0|0:0,0:0:0:0:
1,73,28760,1,0,0:0:0:0:
126,214,28910,1,12,0:0:0:0:
126,214,28985,1,2,0:0:0:0:
126,214,29060,2,0,L|121:278,1,45,12|8,0:0|3:0,0:0:0:0:
239,347,29210,2,0,L|244:283,1,45,8|8,3:0|3:0,0:0:0:0:
251,143,29360,1,8,0:0:0:0:
279,113,29435,1,8,0:3:0:0:
317,101,29510,1,8,0:3:0:0:
356,111,29585,1,8,0:3:0:0:
394,127,29660,6,0,P|404:94|399:43,1,67.5000025749208,6|0,0:0|0:0,0:0:0:0:
486,149,29960,2,0,P|476:182|481:233,1,67.5000025749208,2|0,0:0|0:0,0:0:0:0:
472,336,30260,2,0,L|390:341,1,67.5000025749208,2|0,0:0|0:0,0:0:0:0:
316,255,30560,2,0,L|398:250,1,67.5000025749208,2|0,0:0|0:0,0:0:0:0:
283,181,30860,6,0,P|252:204|237:237,1,67.5000025749208,2|0,0:0|0:0,0:0:0:0:
193,115,31160,2,0,P|224:92|239:59,1,67.5000025749208,2|0,0:0|0:0,0:0:0:0:
117,85,31460,2,0,P|111:123|125:162,1,67.5000025749208,2|0,0:0|0:0,0:0:0:0:
27,232,31760,2,0,P|33:194|19:155,1,67.5000025749208,2|0,0:0|0:0,0:0:0:0:
8,23,32060,6,0,L|98:15,1,67.5000025749208,6|0,0:0|0:0,0:0:0:0:
185,79,32360,2,0,L|95:87,1,67.5000025749208,2|0,0:0|0:0,0:0:0:0:
25,166,32660,2,0,B|23:202|23:202|27:235,1,67.5000025749208,2|0,0:0|0:0,0:0:0:0:
130,298,32960,2,0,B|132:262|132:262|128:229,1,67.5000025749208,2|0,0:0|0:0,0:0:0:0:
226,158,33260,6,0,P|261:151|302:160,1,67.5000025749208,2|0,0:0|0:0,0:0:0:0:
291,278,33560,2,0,P|256:285|215:276,1,67.5000025749208,2|0,0:0|0:0,0:0:0:0:
358,186,33860,2,0,P|365:221|356:262,1,67.5000025749208,2|0,0:0|0:0,0:0:0:0:
227,346,34160,2,0,P|220:311|229:270,1,67.5000025749208,2|0,0:0|0:0,0:0:0:0:
267,79,34460,6,0,B|273:47|273:47|264:-4,1,67.5000025749208,6|0,0:0|0:0,0:0:0:0:
382,12,34760,2,0,B|376:44|376:44|385:95,1,67.5000025749208,2|0,0:0|0:0,0:0:0:0:
437,178,35060,2,0,L|508:173,1,67.5000025749208,2|0,0:0|0:0,0:0:0:0:
495,287,35360,2,0,L|424:292,1,67.5000025749208,2|0,0:0|0:0,0:0:0:0:
315,317,35660,6,0,L|315:387,1,67.5000025749208,2|0,0:0|0:0,0:0:0:0:
211,313,35960,2,0,L|211:243,1,67.5000025749208,2|0,0:0|0:0,0:0:0:0:
153,150,36260,2,0,P|122:149|81:165,1,67.5000025749208,2|0,0:0|0:0,0:0:0:0:
97,45,36560,2,0,P|128:46|169:30,1,67.5000025749208,2|0,0:0|0:0,0:0:0:0:
296,20,36860,6,0,B|363:36|363:36|419:93,1,135.000005149842,6|2,0:0|0:0,0:0:0:0:
488,175,37310,1,0,0:0:0:0:
387,242,37460,2,0,P|375:281|385:326,1,67.5000025749208,2|0,0:0|0:0,0:0:0:0:
256,305,37760,2,0,P|268:266|258:221,1,67.5000025749208,2|0,0:0|0:0,0:0:0:0:
198,121,38060,6,0,B|179:91|179:91|160:121,1,67.5000025749208,6|0,0:0|0:0,0:0:0:0:
90,233,38360,2,0,B|109:263|109:263|128:233,1,67.5000025749208,6|0,0:0|0:0,0:0:0:0:
234,118,38660,2,0,B|217:91|217:91|198:121,1,67.5000025749208,6|0,0:0|0:0,0:0:0:0:
266,240,38960,1,8,0:0:0:0:
301,251,39035,1,8,0:0:0:0:
336,261,39110,1,8,0:0:0:0:
371,272,39185,1,8,0:0:0:0:
405,286,39260,6,0,L|509:282,1,90,6|0,0:0|0:0,0:0:0:0:
446,128,39560,1,8,0:0:0:0:
301,251,39710,1,0,0:0:0:0:
301,251,39785,1,0,0:0:0:0:
301,251,39860,2,0,P|290:300|306:346,1,90,2|0,0:0|0:0,0:0:0:0:
357,166,40160,2,0,P|368:117|352:71,1,90,8|0,0:0|0:0,0:0:0:0:
135,252,40460,6,0,P|184:263|230:247,1,90,2|0,0:0|0:0,0:0:0:0:
357,166,40760,1,8,0:0:0:0:
229,65,40910,1,0,0:0:0:0:
229,65,40985,1,0,0:0:0:0:
229,65,41060,2,0,L|112:61,1,90,2|0,0:0|0:0,0:0:0:0:
12,162,41360,2,0,L|129:166,1,90,8|0,0:0|0:0,0:0:0:0:
357,166,41660,5,2,0:0:0:0:
293,315,41810,1,0,0:0:0:0:
174,138,41960,1,8,0:0:0:0:
322,241,42110,1,0,0:0:0:0:
322,241,42185,1,0,0:0:0:0:
322,241,42260,2,0,P|368:248|419:222,1,90,2|0,0:0|0:0,0:0:0:0:
457,86,42560,1,8,0:0:0:0:
507,230,42710,1,0,0:0:0:0:
368,101,42860,6,0,P|372:52|408:9,1,90,2|0,0:0|0:0,0:0:0:0:
481,161,43160,1,8,0:0:0:0:
268,169,43310,1,0,0:0:0:0:
268,169,43385,1,0,0:0:0:0:
268,169,43460,2,0,B|230:176|230:176|150:165,1,90,2|0,0:0|0:0,0:0:0:0:
55,275,43760,2,0,B|93:268|93:268|173:279,1,90,8|0,0:0|0:0,0:0:0:0:
330,309,44060,5,6,0:0:0:0:
180,372,44210,1,0,0:0:0:0:
226,176,44360,1,8,0:0:0:0:
404,262,44510,1,0,0:0:0:0:
404,262,44585,1,0,0:0:0:0:
404,262,44660,2,0,P|418:311|402:358,1,90,2|0,0:0|0:0,0:0:0:0:
231,262,44960,2,0,P|217:213|233:166,1,90,8|0,0:0|0:0,0:0:0:0:
409,348,45260,6,0,P|360:362|313:346,1,90,2|0,0:0|0:0,0:0:0:0:
146,316,45560,1,8,0:0:0:0:
297,216,45710,1,0,0:0:0:0:
297,216,45785,1,0,0:0:0:0:
297,216,45860,1,2,0:0:0:0:
238,334,46010,1,0,0:0:0:0:
133,187,46160,1,8,0:0:0:0:
58,350,46310,1,0,0:0:0:0:
214,200,46460,6,0,P|208:153|167:111,1,90,2|0,0:0|0:0,0:0:0:0:
56,16,46760,1,8,0:0:0:0:
16,173,46910,1,0,0:0:0:0:
16,173,46985,1,0,0:0:0:0:
16,173,47060,2,0,B|10:211|10:211|17:274,1,90,2|0,0:0|0:0,0:0:0:0:
144,367,47360,2,0,B|150:329|150:329|143:266,1,90,8|0,0:0|0:0,0:0:0:0:
96,104,47660,5,6,0:0:0:0:
15,262,47810,1,0,0:0:0:0:
214,200,47960,1,8,0:0:0:0:
23,77,48110,1,0,0:0:0:0:
39,44,48185,1,0,0:0:0:0:
70,26,48260,1,2,0:0:0:0:
106,26,48335,1,0,0:0:0:0:
140,35,48410,1,2,0:0:0:0:
171,53,48485,1,2,0:0:0:0:
206,58,48560,2,0,P|231:62|279:56,1,45,4|0,0:0|0:0,0:0:0:0:
401,46,48710,1,0,0:0:0:0:
430,66,48785,1,0,0:0:0:0:
448,96,48860,6,0,L|439:219,1,90,6|0,0:0|0:0,0:0:0:0:
431,356,49160,1,8,0:0:0:0:
322,223,49310,1,0,0:0:0:0:
322,223,49385,1,0,0:0:0:0:
322,223,49460,1,2,0:0:0:0:
227,365,49610,1,0,0:0:0:0:
118,232,49760,1,8,0:0:0:0:
213,90,49910,1,0,0:0:0:0:
322,223,50060,6,0,B|341:183|341:183|332:123,1,90,2|0,0:0|0:0,0:0:0:0:
235,0,50360,1,8,0:0:0:0:
155,160,50510,1,0,0:0:0:0:
155,160,50585,1,0,0:0:0:0:
155,160,50660,2,0,L|47:153,1,90,2|0,0:0|0:0,0:0:0:0:
178,271,50960,2,0,L|286:278,1,90,8|0,0:0|0:0,0:0:0:0:
465,285,51260,5,2,0:0:0:0:
324,366,51410,1,0,0:0:0:0:
408,196,51560,1,8,0:0:0:0:
267,277,51710,1,0,0:0:0:0:
267,277,51785,1,0,0:0:0:0:
267,277,51860,2,0,P|243:237|238:184,1,90,2|0,0:0|0:0,0:0:0:0:
378,114,52160,2,0,P|402:154|407:207,1,90,8|0,0:0|0:0,0:0:0:0:
247,76,52460,6,0,B|213:70|213:70|126:82,1,90,2|0,0:0|0:0,0:0:0:0:
12,147,52760,1,8,0:0:0:0:
155,255,52910,1,0,0:0:0:0:
155,255,52985,1,0,0:0:0:0:
155,255,53060,2,0,L|148:358,1,90,2|0,0:0|0:0,0:0:0:0:
322,367,53360,2,0,L|329:264,1,90,8|0,0:0|0:0,0:0:0:0:
349,44,53660,5,6,0:0:0:0:
483,164,53810,1,0,0:0:0:0:
480,17,53960,1,8,0:0:0:0:
360,151,54110,1,0,0:0:0:0:
360,151,54185,1,0,0:0:0:0:
360,151,54260,2,0,B|324:160|324:160|232:148,1,90,2|0,0:0|0:0,0:0:0:0:
94,120,54560,1,8,0:0:0:0:
232,234,54710,1,0,0:0:0:0:
351,67,54860,6,0,P|403:77|433:111,1,90,2|0,0:0|0:0,0:0:0:0:
497,275,55160,1,8,0:0:0:0:
360,151,55310,1,0,0:0:0:0:
360,151,55385,1,0,0:0:0:0:
360,151,55460,1,2,0:0:0:0:
369,358,55610,1,0,0:0:0:0:
232,234,55760,1,8,0:0:0:0:
433,211,55910,1,0,0:0:0:0:
226,361,56060,6,0,B|177:356|177:356|134:365|134:365|87:332,1,135.000005149842,6|0,0:0|0:0,0:0:0:0:
30,257,56660,1,0,0:0:0:0:
49,150,56960,1,0,0:0:0:0:
294,274,57260,6,0,B|287:224|287:224|293:187|293:187|287:134,1,135.000005149842,6|0,0:0|0:0,0:0:0:0:
377,83,57860,2,0,P|407:112|413:191,1,101.250003862381
426,204,58160,2,8,L|460:198,5,30
499,230,58460,6,0,L|363:247,1,107.999996704102,6|0,0:0|0:0,0:0:0:0:
177,270,58760,1,8,0:0:0:0:
364,377,58910,1,0,0:0:0:0:
271,183,59060,2,0,B|284:56,1,107.999996704102,2|2,0:0|0:0,0:0:0:0:
78,236,59360,1,8,0:0:0:0:
246,332,59510,1,2,0:0:0:0:
158,110,59660,6,0,L|9:123,1,107.999996704102,0|2,0:0|0:0,0:0:0:0:
274,188,59960,1,8,0:0:0:0:
152,2,60110,1,0,0:0:0:0:
172,227,60260,1,2,0:0:0:0:
259,29,60410,1,0,0:0:0:0:
37,226,60560,2,0,P|44:171|52:103,1,107.999996704102,8|0,0:0|0:0,0:0:0:0:
277,233,60860,6,0,P|218:240|155:217,1,107.999996704102,2|0,0:0|0:0,0:0:0:0:
214,4,61160,2,0,P|222:57|230:111,1,107.999996704102,8|0,0:0|0:0,0:0:0:0:
295,264,61460,1,2,0:0:0:0:
382,90,61610,1,2,0:0:0:0:
136,128,61760,1,8,0:0:0:0:
313,289,61910,1,0,0:0:0:0:
257,120,62060,5,0,0:0:0:0:
414,208,62210,1,2,0:0:0:0:
156,272,62360,2,0,L|35:263,1,107.999996704102,8|0,0:0|0:0,0:0:0:0:
257,120,62660,1,2,0:0:0:0:
244,336,62810,1,2,0:0:0:0:
364,108,62960,2,0,L|247:121,1,107.999996704102,8|0,0:0|0:0,0:0:0:0:
441,184,63260,6,0,P|469:90|386:2,1,215.999993408203,6|8,0:0|0:0,0:0:0:0:
257,120,63710,1,0,0:0:0:0:
370,261,63860,2,0,P|418:287|486:277,1,107.999996704102,2|2,0:0|0:0,0:0:0:0:
171,264,64160,2,0,P|123:238|55:248,1,107.999996704102,8|2,0:0|0:0,0:0:0:0:
258,331,64460,6,0,B|264:251|264:251|245:203|245:203|260:94,1,215.999993408203,0|8,0:0|0:0,0:0:0:0:
359,187,64910,1,0,0:0:0:0:
155,355,65060,2,0,B|35:366,1,107.999996704102,2|2,0:0|0:0,0:0:0:0:
353,337,65360,2,0,B|473:348,1,107.999996704102,8|0,0:0|0:0,0:0:0:0:
419,117,65660,6,0,B|367:90|318:124|318:124|271:73|189:97,1,215.999993408203,6|8,0:0|0:0,0:0:0:0:
374,195,66110,2,0,P|439:207|479:56,1,215.999993408203,0|2,0:0|0:0,0:0:0:0:
328,32,66560,1,8,0:0:0:0:
200,235,66710,6,0,B|169:272|169:272|86:279|57:194,1,180,6|2,0:0|0:0,0:0:0:0:
84,56,67160,1,8,0:0:0:0:
280,260,67310,2,0,B|343:266|343:266|391:255|391:255|464:259,1,180,6|2,0:0|0:0,0:0:0:0:
220,319,67760,2,0,P|200:284|207:217,1,90,8|0,0:0|0:0,0:0:0:0:
269,53,68060,6,0,B|224:45|224:45|120:53,1,107.999996704102,6|0,0:0|0:0,0:0:0:0:
380,183,68360,2,0,B|425:191|425:191|529:183,1,107.999996704102,8|0,0:0|0:0,0:0:0:0:
269,53,68660,1,2,0:0:0:0:
280,260,68810,1,2,0:0:0:0:
431,76,68960,1,8,0:0:0:0:
252,152,69110,1,2,0:0:0:0:
405,271,69260,6,0,L|391:395,1,107.999996704102,0|2,0:0|0:0,0:0:0:0:
252,152,69560,2,0,L|238:28,1,107.999996704102,8|0,0:0|0:0,0:0:0:0:
153,238,69860,1,2,0:0:0:0:
369,147,70010,1,2,0:0:0:0:
112,102,70160,2,0,L|-13:111,1,107.999996704102,8|0,0:0|0:0,0:0:0:0:
236,225,70460,6,0,L|361:234,1,107.999996704102,2|0,0:0|0:0,0:0:0:0:
145,346,70760,2,0,L|20:355,1,107.999996704102,8|0,0:0|0:0,0:0:0:0:
166,165,71060,1,2,0:0:0:0:
245,330,71210,1,2,0:0:0:0:
57,202,71360,2,0,P|52:154|84:83,1,107.999996704102,8|2,0:0|0:0,0:0:0:0:
330,76,71660,6,0,P|354:122|338:200,1,107.999996704102,0|2,0:0|0:0,0:0:0:0:
219,351,71960,1,8,0:0:0:0:
259,142,72110,1,0,0:0:0:0:
315,348,72260,1,2,0:0:0:0:
350,176,72410,1,2,0:0:0:0:
197,230,72560,2,0,L|76:223,1,107.999996704102,8|0,0:0|0:0,0:0:0:0:
350,176,72860,6,0,P|338:89|216:54,1,215.999993408203,6|8,0:0|0:0,0:0:0:0:
89,223,73310,2,0,P|69:129|57:6,1,215.999993408203,0|2,0:0|0:0,0:0:0:0:
291,273,73760,2,0,P|282:329|269:385,1,107.999996704102,8|0,0:0|0:0,0:0:0:0:
176,121,74060,6,0,B|287:85|268:163|392:127,1,215.999993408203,0|8,0:0|0:0,0:0:0:0:
491,261,74510,1,0,0:0:0:0:
491,261,74585,1,0,0:0:0:0:
491,261,74660,2,0,B|500:298|500:298|488:368,1,107.999996704102,8|0,0:0|0:0,0:0:0:0:
315,380,74960,1,8,0:0:0:0:
271,379,75035,1,8,0:0:0:0:
230,365,75110,1,8,0:0:0:0:
199,334,75185,1,8,0:0:0:0:
183,293,75260,6,0,P|130:282|60:311,1,107.999996704102,10|8,0:0|0:0,0:0:0:0:
294,204,75560,1,8,0:0:0:0:
95,138,75710,1,0,0:0:0:0:
95,138,75785,1,0,0:0:0:0:
95,138,75860,2,0,B|83:92|83:92|96:15,1,107.999996704102,8|0,0:0|0:0,0:0:0:0:
183,293,76160,1,8,0:0:0:0:
367,77,76310,6,0,P|417:80|470:128,1,107.999996704102,6|0,0:0|0:0,0:0:0:0:
491,261,76610,1,8,0:0:0:0:
457,296,76685,1,8,0:0:0:0:
412,315,76760,1,8,0:0:0:0:
363,317,76835,1,8,0:0:0:0:
317,300,76910,2,0,B|202:306,1,107.999996704102,4|4,0:3|0:3,0:3:0:0:
6,334,77210,1,4,0:3:0:0:
95,149,77360,1,4,3:0:0:0:
209,305,77510,6,0,P|253:273|277:183,1,125.999996154785,6|0,0:0|0:0,0:0:0:0:
278,48,77960,2,0,L|353:50,1,62.9999980773926,8|0,0:0|0:0,0:0:0:0:
420,55,78185,1,0,0:0:0:0:
420,55,78260,2,0,B|430:82|430:82|425:143,1,62.9999980773926,8|0,0:0|0:0,0:0:0:0:
410,272,78560,1,0,0:0:0:0:
277,128,78710,6,0,B|214:119|214:157|142:143,1,125.999996154785,6|0,0:0|0:0,0:0:0:0:
1,100,79160,1,8,0:0:0:0:
58,246,79310,1,0,0:0:0:0:
58,246,79385,1,0,0:0:0:0:
58,246,79460,2,0,P|113:275|130:355,1,125.999996154785,8|0,0:0|0:0,0:0:0:0:
292,332,79910,6,0,P|321:277|401:260,1,125.999996154785,6|0,0:0|0:0,0:0:0:0:
485,140,80360,2,0,P|490:108|475:53,1,62.9999980773926,8|0,0:0|0:0,0:0:0:0:
410,50,80585,1,0,0:0:0:0:
410,50,80660,2,0,P|378:55|323:40,1,62.9999980773926,8|0,0:0|0:0,0:0:0:0:
192,19,80960,1,0,0:0:0:0:
291,140,81110,6,0,B|298:181|298:181|290:224|290:224|301:279,1,125.999996154785,6|0,0:0|0:0,0:0:0:0:
411,372,81560,1,8,0:0:0:0:
488,234,81710,1,2,0:0:0:0:
488,234,81785,1,2,0:0:0:0:
488,234,81860,1,8,0:0:0:0:
354,318,82010,1,8,0:0:0:0:
511,322,82160,1,8,0:0:0:0:
374,143,82310,6,0,P|347:70|222:44,1,180,6|0,0:0|0:0,0:0:0:0:
70,71,82760,1,8,0:0:0:0:
44,96,82835,1,0,0:0:0:0:
30,129,82910,1,0,0:0:0:0:
27,164,82985,1,0,0:0:0:0:
37,198,83060,5,8,0:0:0:0:
53,230,83135,1,0,0:0:0:0:
78,254,83210,1,0,0:0:0:0:
110,270,83285,1,0,0:0:0:0:
144,280,83360,2,0,L|161:331,3,45,8|0|0|0,0:0|0:0|0:0|0:0,0:0:0:0:
216,380,83660,5,8,0:0:0:0:
256,380,83735,1,0,0:0:0:0:
293,365,83810,1,0,0:0:0:0:
323,338,83885,1,0,0:0:0:0:
338,300,83960,1,8,0:0:0:0:
331,260,84035,1,0,0:0:0:0:
307,227,84110,1,0,0:0:0:0:
290,189,84185,1,0,0:0:0:0:
279,149,84260,6,0,P|276:121|278:89,1,45,8|0,0:0|0:0,0:0:0:0:
382,157,84410,2,0,P|384:184|383:217,1,45
236,295,84560,1,8,0:0:0:0:
236,295,84635,1,0,0:0:0:0:
236,295,84710,6,0,P|146:286|92:180,1,198.000006042481,6|0,0:0|0:0,0:0:0:0:
160,36,85160,1,8,0:0:0:0:
200,17,85235,1,0,0:0:0:0:
244,16,85310,1,0,0:0:0:0:
286,29,85385,1,0,0:0:0:0:
321,55,85460,5,8,0:0:0:0:
347,90,85535,1,0,0:0:0:0:
387,108,85610,1,0,0:0:0:0:
430,96,85685,1,0,0:0:0:0:
430,51,85760,1,8,0:0:0:0:
393,25,85835,1,0,0:0:0:0:
354,46,85910,1,8,0:3:0:0:
347,90,85985,1,8,0:3:0:0:
359,137,86060,5,8,0:3:0:0:
384,179,86135,1,0,0:0:0:0:
392,227,86210,1,2,0:0:0:0:
371,271,86285,1,0,0:0:0:0:
334,304,86360,2,0,L|250:310,1,49.5000015106202,8|0,0:0|0:0,0:0:0:0:
220,243,86510,2,0,L|136:249,1,49.5000015106202,8|0,0:0|0:0,0:0:0:0:
106,182,86660,5,8,0:0:0:0:
81,225,86735,1,0,0:0:0:0:
82,274,86810,1,10,0:0:0:0:
108,315,86885,1,0,0:0:0:0:
151,338,86960,2,0,P|175:343|214:344,1,49.5000015106202,8|8,0:0|0:0,0:0:0:0:
334,304,87110,6,0,B|359:238|305:225|336:149,1,153.000002918243,6|2,0:0|0:0,0:0:0:0:
361,82,87485,1,2,0:0:0:0:
361,82,87560,2,0,B|397:78|397:78|457:83,1,76.5000014591217,8|0,0:0|0:0,0:0:0:0:
276,97,87860,2,0,B|240:101|240:101|180:96,1,76.5000014591217,8|0,0:0|0:0,0:0:0:0:
43,56,88160,1,8,0:0:0:0:
98,206,88310,1,0,0:0:0:0:
105,223,88385,1,0,0:0:0:0:
112,240,88460,1,8,0:0:0:0:
200,98,88610,6,0,L|204:15,1,76.5000014591217,4|0,0:0|0:0,0:0:0:0:
411,193,88910,2,0,B|409:244|409:244|420:292|420:292|412:376,1,153.000002918243,4|0,0:0|0:0,0:0:0:0:
272,370,89360,1,8,0:0:0:0:
237,374,89435,1,8,0:0:0:0:
203,367,89510,1,8,0:0:0:0:
172,351,89585,1,8,0:0:0:0:
147,326,89660,6,0,B|135:292|135:292|141:214,1,90,2|0,0:0|0:0,0:0:0:0:
165,77,89960,1,8,0:0:0:0:
57,198,90110,1,0,0:0:0:0:
57,198,90185,1,0,0:0:0:0:
57,198,90260,1,2,0:0:0:0:
214,162,90410,1,0,0:0:0:0:
95,51,90560,2,0,P|123:15|180:3,1,90,8|0,0:0|0:0,0:0:0:0:
264,231,90860,6,0,P|228:203|216:146,1,90,2|0,0:0|0:0,0:0:0:0:
314,10,91160,1,8,0:0:0:0:
434,143,91310,1,0,0:0:0:0:
434,143,91385,1,0,0:0:0:0:
434,143,91460,2,0,B|442:180|442:180|436:261,1,90,2|0,0:0|0:0,0:0:0:0:
325,374,91760,1,8,0:0:0:0:
455,338,91910,1,0,0:0:0:0:
264,231,92060,6,0,B|217:226|217:226|162:232,1,90,2|0,0:0|0:0,0:0:0:0:
3,285,92360,1,8,0:0:0:0:
83,123,92510,1,0,0:0:0:0:
83,123,92585,1,0,0:0:0:0:
83,123,92660,2,0,P|93:77|71:19,1,90,2|0,0:0|0:0,0:0:0:0:
189,182,92960,2,0,P|179:228|201:286,1,90,8|0,0:0|0:0,0:0:0:0:
333,378,93260,5,2,0:0:0:0:
273,224,93410,1,0,0:0:0:0:
333,378,93560,2,0,P|381:362|418:318,1,90,8|0,0:0|0:0,0:0:0:0:
445,158,93860,1,2,0:0:0:0:
507,326,94010,1,0,0:0:0:0:
353,232,94160,1,8,0:0:0:0:
333,378,94310,1,0,0:0:0:0:
445,158,94460,6,0,B|452:125|452:125|441:64,1,90,6|0,0:0|0:0,0:0:0:0:
267,21,94760,1,8,0:0:0:0:
189,182,94910,1,0,0:0:0:0:
189,182,94985,1,0,0:0:0:0:
189,182,95060,2,0,B|182:215|182:215|193:276,1,90,2|0,0:0|0:0,0:0:0:0:
222,101,95360,1,8,0:0:0:0:
98,219,95510,1,0,0:0:0:0:
315,152,95660,5,2,0:0:0:0:
191,270,95810,1,0,0:0:0:0:
116,76,95960,1,8,0:0:0:0:
253,213,96110,1,0,0:0:0:0:
266,231,96185,1,0,0:0:0:0:
281,247,96260,2,0,B|323:253|323:253|401:244,1,90,2|0,0:0|0:0,0:0:0:0:
324,73,96560,1,8,0:0:0:0:
470,176,96710,1,0,0:0:0:0:
265,141,96860,6,0,P|240:102|241:44,1,90,2|0,0:0|0:0,0:0:0:0:
326,216,97160,1,8,0:0:0:0:
154,160,97310,1,0,0:0:0:0:
154,160,97385,1,0,0:0:0:0:
154,160,97460,2,0,L|35:157,1,90,2|0,0:0|0:0,0:0:0:0:
147,317,97760,2,0,L|266:320,1,90,12|0,0:0|0:0,0:0:0:0:
417,311,98060,5,8,0:0:0:0:
435,297,98135,1,2,0:0:0:0:
452,282,98210,2,2,L|450:219,1,45
326,216,98360,5,8,0:0:0:0:
308,202,98435,1,2,0:0:0:0:
291,187,98510,2,2,L|293:124,1,45
377,48,98660,5,8,0:0:0:0:
395,62,98735,1,2,0:0:0:0:
412,77,98810,2,2,L|410:140,1,45
335,295,98960,6,0,B|269:287|269:287|209:237,1,135,6|0,0:0|0:0,0:0:0:0:
156,178,99260,6,0,B|123:169|123:169|48:175,1,90,6|0,0:0|0:0,0:0:0:0:
109,311,99560,1,8,0:0:0:0:
246,156,99710,1,0,0:0:0:0:
246,156,99785,1,0,0:0:0:0:
246,156,99860,2,0,P|255:111|246:65,1,90,2|0,0:0|0:0,0:0:0:0:
69,85,100160,2,0,P|60:130|69:176,1,90,8|0,0:0|0:0,0:0:0:0:
183,312,100460,5,2,0:0:0:0:
156,178,100610,1,0,0:0:0:0:
313,216,100760,1,8,0:0:0:0:
167,322,100910,1,0,0:0:0:0:
148,334,100985,1,0,0:0:0:0:
129,346,101060,2,0,B|81:353|81:353|22:346,1,90,2|0,0:0|0:0,0:0:0:0:
156,178,101360,2,0,B|204:171|204:171|263:178,1,90,8|0,0:0|0:0,0:0:0:0:
420,225,101660,5,2,0:0:0:0:
308,82,101810,1,0,0:0:0:0:
314,264,101960,1,8,0:0:0:0:
416,113,102110,1,0,0:0:0:0:
416,113,102185,1,0,0:0:0:0:
416,113,102260,1,2,0:0:0:0:
245,175,102410,1,0,0:0:0:0:
420,225,102560,2,0,B|430:261|430:261|423:340,1,90,8|0,0:0|0:0,0:0:0:0:
232,363,102860,6,0,B|222:327|222:327|229:248,1,90,2|0,0:0|0:0,0:0:0:0:
256,95,103160,1,8,0:0:0:0:
111,202,103310,1,0,0:0:0:0:
111,202,103385,1,0,0:0:0:0:
111,202,103460,2,0,L|3:198,1,90,2|0,0:0|0:0,0:0:0:0:
166,91,103760,2,0,L|274:95,1,90,8|0,0:0|0:0,0:0:0:0:
463,107,104060,5,6,0:0:0:0:
402,276,104210,1,0,0:0:0:0:
361,102,104360,1,8,0:0:0:0:
493,223,104510,1,0,0:0:0:0:
314,201,104660,5,8,0:0:0:0:
284,228,104735,1,8,0:3:0:0:
273,267,104810,1,8,0:3:0:0:
275,307,104885,1,8,0:3:0:0:
255,342,104960,1,8,0:0:0:0:
221,364,105035,1,0,0:3:0:0:
180,363,105110,1,0,0:3:0:0:
140,352,105185,1,0,0:3:0:0:
112,322,105260,6,8,P|108:297|111:266,1,45,14|0,0:0|0:0,0:0:0:0:
145,124,105410,1,8,0:3:0:0:
181,98,105485,1,8,0:3:0:0:
225,99,105560,1,8,0:0:0:0:
266,116,105635,1,8,0:3:0:0:
310,116,105710,1,8,0:3:0:0:
349,94,105785,1,8,0:3:0:0:
360,50,105860,6,0,B|405:44|405:44|466:55,1,90,8|0,0:0|0:0,0:0:0:0:
502,270,106160,2,0,B|457:276|457:276|396:265,1,90,8|0,0:0|0:0,0:0:0:0:
149,208,106460,6,0,P|91:205|21:230,1,107.999996704102,6|0,0:0|0:0,0:0:0:0:
275,332,106760,1,8,0:0:0:0:
245,117,106910,1,0,0:0:0:0:
149,346,107060,2,0,P|91:349|21:324,1,107.999996704102,2|2,0:0|0:0,0:0:0:0:
290,217,107360,1,8,0:0:0:0:
176,369,107510,1,0,0:0:0:0:
98,205,107660,6,0,L|111:96,1,107.999996704102
275,332,107960,1,8,0:0:0:0:
43,335,108110,1,0,0:0:0:0:
290,217,108260,1,2,0:0:0:0:
176,369,108410,1,2,0:0:0:0:
110,97,108560,2,0,P|161:99|245:106,1,107.999996704102,8|0,0:0|0:0,0:0:0:0:
293,333,108860,6,0,P|286:289|276:226,1,107.999996704102,2|0,0:0|0:0,0:0:0:0:
442,52,109160,2,0,P|435:106|428:160,1,107.999996704102,8|0,0:0|0:0,0:0:0:0:
217,103,109460,1,2,0:0:0:0:
378,271,109610,1,2,0:0:0:0:
448,32,109760,2,0,L|334:40,1,107.999996704102,8|2,0:0|0:0,0:0:0:0:
88,89,110060,5,0,0:0:0:0:
179,248,110210,1,2,0:0:0:0:
335,60,110360,2,0,L|345:193,1,107.999996704102,8|0,0:0|0:0,0:0:0:0:
437,9,110660,1,2,0:0:0:0:
222,81,110810,1,2,0:0:0:0:
462,143,110960,2,0,P|461:196|428:259,1,107.999996704102,8|0,0:0|0:0,0:0:0:0:
132,162,111260,6,0,B|196:153|196:153|270:177|270:177|366:164,1,215.999993408203,6|8,0:0|0:0,0:0:0:0:
283,66,111710,1,0,0:0:0:0:
186,256,111860,1,2,0:0:0:0:
142,55,112010,1,2,0:0:0:0:
301,212,112160,2,0,L|429:193,1,107.999996704102,8|2,0:0|0:0,0:0:0:0:
132,162,112460,6,0,P|140:262|154:394,1,215.999993408203,2|8,0:0|0:0,0:0:0:0:
36,284,112910,1,0,0:0:0:0:
231,221,113060,1,2,0:0:0:0:
28,145,113210,1,0,0:0:0:0:
152,377,113360,2,0,P|215:365|284:357,1,107.999996704102,8|0,0:0|0:0,0:0:0:0:
416,102,113660,6,0,B|364:89|364:89|312:99|312:99|273:77|273:77|185:89,1,215.999993408203,6|8,0:0|0:0,0:0:0:0:
2,224,114110,2,0,B|31:370|31:370|60:291,1,215.999993408203,0|2,0:0|0:0,0:0:0:0:
132,162,114560,1,8,0:0:0:0:
319,348,114710,6,0,B|393:384|462:332|462:332|416:292,1,180,6|0,0:0|0:0,0:0:0:0:
349,117,115160,1,8,0:0:0:0:
203,288,115310,2,0,B|72:296,1,90,6|0,0:0|0:0,0:0:0:0:
1,140,115610,1,4,0:0:0:0:
181,82,115760,1,8,0:0:0:0:
220,91,115835,1,8,0:0:0:0:
251,116,115910,1,8,0:0:0:0:
268,152,115985,1,8,0:0:0:0:
284,197,116060,6,0,B|296:233|296:233|286:339,1,107.999996704102,6|0,0:0|0:0,0:0:0:0:
394,126,116360,2,0,B|382:90|382:90|392:-16,1,107.999996704102,8|0,0:0|0:0,0:0:0:0:
390,236,116660,1,2,0:0:0:0:
276,87,116810,1,2,0:0:0:0:
290,303,116960,1,8,0:0:0:0:
152,152,117110,1,2,0:0:0:0:
390,236,117260,6,0,B|443:244|443:244|514:232,1,107.999996704102,0|2,0:0|0:0,0:0:0:0:
290,303,117560,2,0,B|237:295|237:295|166:307,1,107.999996704102,8|0,0:0|0:0,0:0:0:0:
399,330,117860,1,2,0:0:0:0:
264,160,118010,1,2,0:0:0:0:
239,374,118160,1,8,0:0:0:0:
390,236,118310,1,0,0:0:0:0:
181,181,118460,6,0,P|188:120|232:79,1,107.999996704102,2|0,0:0|0:0,0:0:0:0:
412,16,118760,1,8,0:0:0:0:
264,160,118910,1,0,0:0:0:0:
478,130,119060,2,0,B|497:182|497:182|496:251,1,107.999996704102,2|2,0:0|0:0,0:0:0:0:
305,339,119360,2,0,B|286:287|286:287|287:218,1,107.999996704102,8|2,0:0|0:0,0:0:0:0:
342,24,119660,5,0,0:0:0:0:
390,236,119810,1,2,0:0:0:0:
169,114,119960,2,0,L|56:119,1,107.999996704102,8|0,0:0|0:0,0:0:0:0:
322,141,120260,1,0,0:0:0:0:
130,240,120410,1,2,0:0:0:0:
242,52,120560,2,0,P|293:24|361:30,1,107.999996704102,8|0,0:0|0:0,0:0:0:0:
459,204,120860,6,0,B|406:221|368:260|368:260|327:244|240:244,1,215.999993408203,6|8,0:0|0:0,0:0:0:0:
63,241,121310,2,0,B|17:166|79:78|79:78|116:137,1,215.999993408203,0|2,0:0|0:0,0:0:0:0:
187,307,121760,1,8,0:0:0:0:
339,149,121910,1,2,0:0:0:0:
500,323,122060,6,0,B|434:330|434:330|363:312|363:312|281:322,1,215.999993408203,0|8,0:0|0:0,0:0:0:0:
71,334,122510,2,0,P|29:293|66:133,1,215.999993408203,0|2,0:0|0:0,0:0:0:0:
242,52,122960,2,0,B|286:58|286:58|360:47,1,107.999996704102,8|0,0:0|0:0,0:0:0:0:
134,23,123260,5,6,0:0:0:0:
130,49,123335,1,0,0:0:0:0:
132,75,123410,2,0,P|132:96|140:140,1,53.9999983520508
182,331,123560,1,8,0:0:0:0:
332,146,123710,1,0,0:0:0:0:
326,383,123860,1,8,0:0:0:0:
476,198,124010,1,0,0:0:0:0:
257,239,124160,1,8,0:0:0:0:
134,23,124310,6,0,P|54:29|8:161,1,215.999993408203,6|0,0:0|0:0,0:0:0:0:
49,364,124760,1,8,0:0:0:0:
101,120,124910,2,0,B|175:108|175:108|245:127|245:127|336:114,1,215.999993408203,6|0,0:0|0:0,0:0:0:0:
491,196,125360,1,8,0:0:0:0:
495,244,125435,1,8,0:0:0:0:
479,290,125510,1,8,0:0:0:0:
448,327,125585,1,8,0:0:0:0:
411,345,125660,6,0,L|287:338,1,90,2|0,0:0|0:0,0:0:0:0:
114,327,125960,1,12,0:0:0:0:
198,167,126110,1,0,0:0:0:0:
198,167,126185,1,0,0:0:0:0:
198,167,126260,2,0,P|209:122|197:62,1,90,2|0,0:0|0:0,0:0:0:0:
36,148,126560,2,0,P|25:193|37:253,1,90,8|0,0:0|0:0,0:0:0:0:
106,71,126860,5,2,0:0:0:0:
132,249,127010,1,0,0:0:0:0:
287,47,127160,1,8,0:0:0:0:
313,225,127310,1,0,0:0:0:0:
313,225,127385,1,0,0:0:0:0:
313,225,127460,2,0,B|352:229|352:229|426:215,1,90,2|0,0:0|0:0,0:0:0:0:
249,315,127760,2,0,B|210:311|210:311|136:325,1,90,8|0,0:0|0:0,0:0:0:0:
339,331,128060,5,6,0:0:0:0:
190,228,128210,1,0,0:0:0:0:
354,154,128360,1,8,0:0:0:0:
205,51,128510,1,0,0:0:0:0:
205,51,128585,1,0,0:0:0:0:
205,51,128660,2,0,L|85:53,1,90,2|0,0:0|0:0,0:0:0:0:
264,155,128960,2,0,L|384:153,1,90,8|0,0:0|0:0,0:0:0:0:
172,151,129260,5,2,0:0:0:0:
326,58,129410,1,0,0:0:0:0:
294,253,129560,1,8,0:0:0:0:
448,160,129710,1,0,0:0:0:0:
448,160,129785,1,0,0:0:0:0:
448,160,129860,2,0,B|454:124|454:124|443:60,1,90,2|0,0:0|0:0,0:0:0:0:
294,253,130160,2,0,B|288:289|288:289|299:353,1,90,8|0,0:0|0:0,0:0:0:0:
172,151,130460,6,0,L|63:145,1,90,6|0,0:0|0:0,0:0:0:0:
157,311,130760,1,8,0:0:0:0:
268,170,130910,1,0,0:0:0:0:
268,170,130985,1,0,0:0:0:0:
268,170,131060,2,0,P|266:124|231:73,1,90,2|0,0:0|0:0,0:0:0:0:
76,20,131360,1,8,0:0:0:0:
172,151,131510,1,0,0:0:0:0:
307,33,131660,6,0,B|344:28|344:28|415:35,1,90,2|0,0:0|0:0,0:0:0:0:
498,183,131960,1,8,0:0:0:0:
339,268,132110,1,0,0:0:0:0:
339,268,132185,1,0,0:0:0:0:
339,268,132260,2,0,B|302:273|302:273|231:266,1,90,2|0,0:0|0:0,0:0:0:0:
70,246,132560,1,8,0:0:0:0:
200,369,132710,1,0,0:0:0:0:
224,136,132860,5,6,0:0:0:0:
410,276,133010,1,0,0:0:0:0:
177,272,133160,1,8,0:0:0:0:
369,138,133310,1,0,0:0:0:0:
369,138,133385,1,0,0:0:0:0:
369,138,133460,1,8,0:0:0:0:
293,360,133610,1,0,0:0:0:0:
224,136,133760,1,8,0:0:0:0:
410,276,133910,1,0,0:0:0:0:
410,276,133985,1,0,0:0:0:0:
410,276,134060,5,14,0:0:0:0:
444,266,134135,1,0,0:0:0:0:
473,246,134210,1,4,0:0:0:0:
497,220,134285,1,0,0:0:0:0:
508,184,134360,1,8,0:0:0:0:
508,148,134435,1,0,0:0:0:0:
495,114,134510,1,0,0:0:0:0:
476,83,134585,1,0,0:0:0:0:
447,54,134660,5,8,0:0:0:0:
407,44,134735,1,0,0:0:0:0:
367,54,134810,1,0,0:0:0:0:
334,77,134885,1,0,0:0:0:0:
297,103,134960,1,8,0:0:0:0:
252,108,135035,1,8,0:0:0:0:
209,92,135110,1,8,0:0:0:0:
175,62,135185,1,8,0:0:0:0:
147,26,135260,6,0,L|28:30,1,90,6|0,0:0|0:0,0:0:0:0:
97,204,135560,2,0,L|216:200,1,90,8|0,0:0|0:0,0:0:0:0:
268,196,135785,1,0,0:0:0:0:
291,209,135860,2,0,P|303:253|288:325,1,90,2|0,0:0|0:0,0:0:0:0:
252,108,136160,2,0,P|240:64|255:-8,1,90,8|0,0:0|0:0,0:0:0:0:
350,130,136460,5,2,0:0:0:0:
186,200,136610,1,0,0:0:0:0:
244,21,136760,1,8,0:0:0:0:
80,91,136910,1,0,0:0:0:0:
80,91,136985,1,0,0:0:0:0:
80,91,137060,2,0,B|69:55|69:55|79:0,1,90,2|0,0:0|0:0,0:0:0:0:
186,200,137360,2,0,B|197:236|197:236|187:291,1,90,8|0,0:0|0:0,0:0:0:0:
350,130,137660,6,0,P|395:115|466:126,1,90,6|0,0:0|0:0,0:0:0:0:
418,298,137960,1,8,0:0:0:0:
276,186,138110,1,0,0:0:0:0:
276,186,138185,1,0,0:0:0:0:
276,186,138260,2,0,P|258:144|271:82,1,90,2|0,0:0|0:0,0:0:0:0:
101,20,138560,2,0,P|119:62|106:123,1,90,8|0,0:0|0:0,0:0:0:0:
16,257,138860,5,2,0:0:0:0:
24,77,139010,1,0,0:0:0:0:
145,209,139160,2,0,P|187:200|230:162,1,90,12|0,0:0|0:0,0:0:0:0:
262,100,139385,1,0,0:0:0:0:
281,81,139460,2,0,B|318:75|318:75|391:83,1,90,2|0,0:0|0:0,0:0:0:0:
467,232,139760,2,0,B|430:238|430:238|357:230,1,90,12|0,0:0|0:0,0:0:0:0:
145,209,140060,5,6,0:0:0:0:
269,339,140210,1,0,0:0:0:0:
321,166,140360,1,8,0:0:0:0:
145,209,140510,1,0,0:0:0:0:
145,209,140585,1,0,0:0:0:0:
145,209,140660,2,0,L|35:202,1,90,2|0,0:0|0:0,0:0:0:0:
192,75,140960,2,0,L|302:82,1,90,8|0,0:0|0:0,0:0:0:0:
488,98,141260,5,2,0:0:0:0:
378,232,141410,1,0,0:0:0:0:
282,81,141560,2,0,P|240:112|215:152,1,90,8|0,0:0|0:0,0:0:0:0:
220,223,141785,1,0,0:0:0:0:
215,249,141860,2,0,B|181:279|181:279|116:291,1,90,2|0,0:0|0:0,0:0:0:0:
296,376,142160,2,0,B|330:346|330:346|395:334,1,90,8|0,0:0|0:0,0:0:0:0:
495,185,142460,6,0,P|501:136|481:88,1,90,6|0,0:0|0:0,0:0:0:0:
344,249,142760,2,0,P|393:255|441:235,1,90,8|0,0:0|0:0,0:0:0:0:
269,112,143060,2,0,P|263:161|283:209,1,90,8|0,0:0|0:0,0:0:0:0:
409,38,143360,1,8,0:0:0:0:
202,28,143510,1,0,0:0:0:0:
202,28,143585,1,0,0:0:0:0:
202,28,143660,5,6,0:0:0:0:
132,242,143810,1,6,0:0:0:0:
269,112,143960,1,0,0:0:0:0:
57,192,144110,5,6,0:0:0:0:
271,262,144260,1,6,0:0:0:0:
141,125,144410,1,0,0:0:0:0:
229,364,144560,5,4,3:0:0:0:
273,370,144635,1,8,0:3:0:0:
317,365,144710,1,8,0:3:0:0:
357,345,144785,1,8,0:3:0:0:
385,309,144860,6,0,B|387:264|387:264|372:217|372:217|376:163,1,135.000005149842,6|2,0:0|0:0,0:0:0:0:
287,73,145460,1,8,0:0:0:0:
228,273,145610,1,2,0:0:0:0:
228,273,145910,6,0,B|180:275|180:275|143:264|143:264|88:267,1,135.000005149842,2|2,0:0|0:0,0:0:0:0:
257,197,146360,2,0,P|288:217|305:248,1,67.5000025749208,2|0,0:0|0:0,0:0:0:0:
143,169,146660,1,8,0:0:0:0:
294,323,146810,1,2,0:0:0:0:
417,88,147110,1,8,0:0:0:0:
417,88,147185,1,8,0:0:0:0:
417,88,147260,6,0,B|353:64|350:112|268:80,1,135.000005149842,2|2,0:0|0:0,0:0:0:0:
150,60,147860,1,8,0:0:0:0:
242,240,148010,1,2,0:0:0:0:
242,240,148310,6,0,P|195:283|114:282,1,135.000005149842,2|2,0:0|0:0,0:0:0:0:
242,148,148760,2,0,P|282:157|312:184,1,67.5000025749208,2|0,0:0|0:0,0:0:0:0:
155,191,149060,1,8,0:0:0:0:
366,236,149210,1,2,0:0:0:0:
222,61,149510,1,8,0:0:0:0:
222,61,149585,1,8,0:0:0:0:
222,61,149660,6,0,P|154:57|74:61,1,135.000005149842,6|2,0:0|0:0,0:0:0:0:
317,73,150260,1,8,0:0:0:0:
155,194,150410,1,2,0:0:0:0:
155,194,150710,6,0,P|123:206|105:316,1,135.000005149842,2|2,0:0|0:0,0:0:0:0:
238,202,151160,2,0,P|233:163|213:135,1,67.5000025749208,2|2,0:0|0:0,0:0:0:0:
87,59,151460,1,8,0:0:0:0:
166,270,151610,1,2,0:0:0:0:
297,87,151910,1,8,0:0:0:0:
297,87,151985,1,8,0:0:0:0:
297,87,152060,6,0,B|337:84|337:84|387:107|387:107|446:104,1,135.000005149842,2|2,0:0|0:0,0:0:0:0:
176,27,152660,1,8,0:0:0:0:
155,194,152810,1,2,0:0:0:0:
155,194,153110,6,0,B|88:188|88:188|26:142,1,135.000005149842,2|2,0:0|0:0,0:0:0:0:
213,127,153560,2,0,P|233:152|243:191,1,67.5000025749208,2|2,0:0|0:0,0:0:0:0:
165,359,153860,1,12,0:3:0:0:
348,273,154010,1,12,0:3:0:0:
348,273,154460,6,0,L|353:201,1,72,6|0,0:0|0:0,0:0:0:0:
241,98,154760,2,0,L|236:170,1,72
343,344,155060,2,0,L|348:272,1,72,8|0,0:0|0:0,0:0:0:0:
236,169,155360,2,0,L|231:241,1,72
115,338,155660,5,0,0:0:0:0:
98,352,155810,1,2,0:0:0:0:
13,226,155960,2,0,L|105:215,1,72,2|0,0:0|0:0,0:0:0:0:
236,169,156260,1,8,0:0:0:0:
317,260,156410,2,0,P|356:272|447:222,1,144,0|8,0:0|0:0,0:0:0:0:
452,208,156785,1,8,0:0:0:0:
458,187,156860,6,0,L|439:34,1,144,2|2,0:0|0:0,0:0:0:0:
335,16,157310,1,0,0:0:0:0:
226,99,157460,2,0,L|134:95,1,72,8|0,0:0|0:0,0:0:0:0:
206,229,157760,2,0,L|298:225,1,72
383,364,158060,5,0,0:0:0:0:
397,380,158210,1,2,0:0:0:0:
487,254,158360,2,0,B|492:219|492:219|485:172,1,72,2|0,0:0|0:0,0:0:0:0:
378,75,158660,1,8,0:0:0:0:
271,181,158810,2,0,B|266:216|266:216|273:263,1,72
161,355,159110,1,8,0:0:0:0:
161,355,159185,1,8,0:0:0:0:
161,355,159260,6,0,P|93:337|61:249,1,144,6|0,0:0|0:0,0:0:0:0:
75,139,159710,1,0,0:0:0:0:
201,87,159860,2,0,L|193:8,1,72,8|2,0:0|0:0,0:0:0:0:
326,48,160160,2,0,L|334:127,1,72
350,270,160460,6,0,P|399:284|441:277,1,72,0|2,0:0|0:0,0:0:0:0:
289,203,160760,2,0,P|240:189|198:196,1,72,2|0,0:0|0:0,0:0:0:0:
69,208,161060,1,8,0:0:0:0:
161,88,161210,2,0,B|168:53|168:53|161:8,1,72,2|0,0:0|0:0,0:0:0:0:
72,138,161510,1,8,0:0:0:0:
72,138,161585,1,8,0:0:0:0:
72,138,161660,6,0,B|61:209|61:209|76:286,1,144,2|2,0:0|0:0,0:0:0:0:
196,369,162110,1,0,0:0:0:0:
316,277,162260,2,0,B|352:273|352:273|403:280,1,72,8|0,0:0|0:0,0:0:0:0:
499,176,162560,2,0,B|463:180|463:180|412:173,1,72
287,119,162860,5,0,0:0:0:0:
287,119,163010,1,2,0:0:0:0:
150,184,163160,2,0,P|146:222|169:280,1,72,2|0,0:0|0:0,0:0:0:0:
263,348,163460,1,8,0:0:0:0:
387,277,163610,1,2,0:0:0:0:
393,273,163685,1,2,0:0:0:0:
399,271,163760,1,8,0:3:0:0:
405,268,163835,1,8,0:3:0:0:
411,265,163910,1,8,0:3:0:0:
417,262,163985,1,8,0:3:0:0:
423,259,164060,6,0,B|440:189|440:189|426:109,1,144,2|2,0:0|0:0,0:0:0:0:
317,25,164510,1,0,0:0:0:0:
189,91,164660,2,0,L|91:86,1,72,8|0,0:0|0:0,0:0:0:0:
8,181,164960,2,0,L|106:186,1,72
224,196,165260,5,0,0:0:0:0:
217,175,165410,1,0,0:0:0:0:
148,300,165560,2,0,L|166:381,1,72,2|0,0:0|0:0,0:0:0:0:
273,262,165860,2,0,P|301:229|306:176,1,72,8|0,0:0|0:0,0:0:0:0:
275,60,166160,1,0,0:0:0:0:
413,98,166310,1,8,0:0:0:0:
413,98,166385,1,8,0:0:0:0:
413,98,166460,6,0,L|500:91,1,72,2|0,0:0|0:0,0:0:0:0:
380,197,166760,2,0,L|308:202,1,72,2|0,0:0|0:0,0:0:0:0:
459,194,167060,1,8,0:0:0:0:
337,103,167210,1,0,0:0:0:0:
225,204,167360,2,0,P|232:240|279:276,1,72
211,121,167660,5,0,0:0:0:0:
207,99,167810,1,2,0:0:0:0:
115,228,167960,2,0,L|123:313,1,72,2|0,0:0|0:0,0:0:0:0:
261,337,168260,2,0,L|253:252,1,72,8|0,0:0|0:0,0:0:0:0:
380,197,168560,2,0,L|388:282,1,72
458,123,168860,5,8,0:0:0:0:
440,95,168935,1,8,0:0:0:0:
410,81,169010,1,8,0:0:0:0:
377,78,169085,1,8,0:0:0:0:
348,93,169160,1,8,0:0:0:0:
325,115,169235,1,8,0:0:0:0:
296,130,169310,1,8,0:0:0:0:
263,130,169385,1,8,0:0:0:0:
234,114,169460,6,8,L|221:73,3,40.4999987640381
101,51,169760,2,8,L|114:92,3,40.4999987640381
138,177,170060,5,8,0:0:0:0:
168,210,170135,1,8,0:0:0:0:
212,214,170210,1,8,0:0:0:0:
255,202,170285,1,8,0:0:0:0:
296,184,170360,1,8,0:0:0:0:
340,188,170435,1,8,0:0:0:0:
382,201,170510,1,8,0:0:0:0:
415,231,170585,1,8,0:0:0:0:
439,268,170660,6,8,L|432:322,3,45
320,330,170960,2,8,L|327:276,3,45
340,188,171260,5,8,0:0:0:0:
321,142,171335,1,8,0:0:0:0:
278,117,171410,1,8,0:0:0:0:
228,123,171485,1,8,0:0:0:0:
192,157,171560,1,8,0:0:0:0:
148,180,171635,1,8,0:0:0:0:
99,190,171710,1,8,0:0:0:0:
52,172,171785,1,8,0:0:0:0:
22,132,171860,5,8,0:0:0:0:
30,83,171935,1,8,0:0:0:0:
60,44,172010,1,8,0:0:0:0:
108,33,172085,1,8,0:0:0:0:
154,50,172160,1,8,0:0:0:0:
181,90,172235,1,8,0:0:0:0:
176,139,172310,1,8,0:0:0:0:
148,180,172385,1,8,0:0:0:0:
110,225,172460,5,8,0:0:0:0:
105,284,172535,1,8,0:0:0:0:
134,335,172610,1,8,0:0:0:0:
183,367,172685,1,8,0:0:0:0:
241,377,172760,1,8,0:3:0:0:
297,359,172835,1,8,0:3:0:0:
332,311,172910,1,8,0:3:0:0:
331,251,172985,1,8,0:3:0:0:
298,201,173060,6,0,B|285:167|302:135|302:135|283:74|283:74|318:61|358:84,1,202.500007724762,12|0,0:3|0:0,0:0:0:0:
372,172,173660,6,0,B|514:166,1,116.999994644165,6|0,0:0|0:0,0:0:0:0:
213,276,173960,2,0,B|71:270,1,116.999994644165,8|0,0:0|0:0,0:0:0:0:
269,157,174260,1,2,0:0:0:0:
246,383,174410,1,2,0:0:0:0:
432,170,174560,1,8,0:0:0:0:
213,276,174710,1,2,0:0:0:0:
394,347,174860,6,0,P|456:342|533:338,1,116.999994644165
246,383,175160,1,8,0:0:0:0:
377,249,175310,1,0,0:0:0:0:
142,174,175460,1,2,0:0:0:0:
293,302,175610,1,0,0:0:0:0:
330,62,175760,2,0,L|198:53,1,116.999994644165,8|0,0:0|0:0,0:0:0:0:
485,185,176060,6,0,B|492:128|492:128|479:57,1,116.999994644165,2|0,0:0|0:0,0:0:0:0:
214,248,176360,2,0,B|207:305|207:305|220:376,1,116.999994644165,8|0,0:0|0:0,0:0:0:0:
485,185,176660,1,2,0:0:0:0:
276,148,176810,1,2,0:0:0:0:
405,375,176960,1,8,0:0:0:0:
383,169,177110,1,2,0:0:0:0:
217,363,177260,5,0,0:0:0:0:
390,271,177410,1,2,0:0:0:0:
139,172,177560,2,0,P|77:180|5:186,1,116.999994644165,8|0,0:0|0:0,0:0:0:0:
255,49,177860,1,2,0:0:0:0:
229,269,178010,1,2,0:0:0:0:
139,27,178160,2,0,P|77:19|5:13,1,116.999994644165,8|0,0:0|0:0,0:0:0:0:
229,269,178460,6,0,B|287:274|287:274|365:252|365:252|427:264|427:264|367:286,1,233.999989288331,6|8,0:0|0:0,0:0:0:0:
280,160,178910,1,0,0:0:0:0:
215,374,179060,1,2,0:0:0:0:
120,204,179210,1,2,0:0:0:0:
397,274,179360,2,0,P|402:220|410:130,1,116.999994644165,8|2,0:0|0:0,0:0:0:0:
120,204,179660,6,0,P|144:264|318:261,1,233.999989288331,2|8,0:0|0:0,0:0:0:0:
407,157,180110,1,0,0:0:0:0:
379,365,180260,1,2,0:0:0:0:
228,196,180410,1,2,0:0:0:0:
491,293,180560,2,0,P|498:235|503:163,1,116.999994644165,8|0,0:0|0:0,0:0:0:0:
208,75,180860,6,0,B|164:119|164:119|190:234|190:234|232:192,1,233.999989288331,6|8,0:0|0:0,0:0:0:0:
93,288,181310,2,0,P|146:333|293:274,1,233.999989288331
358,66,181760,1,8,0:0:0:0:
91,98,181910,6,0,B|63:203|145:179|90:296,1,198.000006042481,6|0,0:0|0:0,0:0:0:0:
227,132,182360,1,8,0:0:0:0:
194,349,182510,2,0,L|-22:309,1,198.000006042481,6|0,0:0|0:0,0:0:0:0:
319,251,182960,2,0,L|427:231,1,99.0000030212403,12|0,0:0|0:0,0:0:0:0:
173,65,183260,6,0,P|181:127|194:214,1,116.999994644165,6|0,0:0|0:0,0:0:0:0:
400,348,183560,2,0,P|408:290|415:232,1,116.999994644165,8|0,0:0|0:0,0:0:0:0:
330,12,183860,1,2,0:0:0:0:
509,63,184010,1,2,0:0:0:0:
297,229,184160,1,8,0:0:0:0:
392,82,184310,1,2,0:0:0:0:
497,316,184460,5,0,0:0:0:0:
342,155,184610,1,2,0:0:0:0:
228,373,184760,2,0,P|213:318|204:248,1,116.999994644165,8|0,0:0|0:0,0:0:0:0:
232,49,185060,1,2,0:0:0:0:
78,193,185210,1,0,0:0:0:0:
326,258,185360,2,0,P|380:246|461:234,1,116.999994644165,8|0,0:0|0:0,0:0:0:0:
232,49,185660,6,0,P|177:37|97:25,1,116.999994644165,6|0,0:0|0:0,0:0:0:0:
191,261,185960,2,0,P|206:208|220:127,1,116.999994644165,8|0,0:0|0:0,0:0:0:0:
16,236,186260,1,2,0:0:0:0:
227,378,186410,1,2,0:0:0:0:
98,128,186560,1,8,0:0:0:0:
75,363,186710,1,2,0:0:0:0:
317,221,186860,6,0,L|461:232,1,116.999994644165,0|2,0:0|0:0,0:0:0:0:
232,34,187160,2,0,L|88:45,1,116.999994644165,8|2,0:0|0:0,0:0:0:0:
214,203,187460,1,2,0:0:0:0:
343,68,187610,1,2,0:0:0:0:
126,157,187760,2,0,P|130:258|203:303,1,175.499991966248,8|0,0:0|0:0,0:0:0:0:
290,309,188060,6,0,L|53:333,1,233.999989288331,6|8,0:0|0:0,0:0:0:0:
9,101,188510,2,0,L|246:125,1,233.999989288331,0|2,0:0|0:0,0:0:0:0:
511,151,188960,1,8,0:0:0:0:
379,17,189110,1,0,0:0:0:0:
224,223,189260,6,0,B|174:219|174:219|116:233|116:233|45:220|45:220|107:198,1,233.999989288331,2|8,0:0|0:0,0:0:0:0:
351,206,189710,2,0,P|332:294|207:351,1,233.999989288331,0|2,0:0|0:0,0:0:0:0:
67,109,190160,1,8,0:0:0:0:
224,223,190310,1,0,0:0:0:0:
24,370,190460,6,0,B|-3:240,1,116.999994644165,6|0,0:0|0:0,0:0:0:0:
247,108,190760,2,0,B|220:238,1,116.999994644165,8|0,0:0|0:0,0:0:0:0:
67,109,191060,1,2,0:0:0:0:
273,3,191210,1,2,0:0:0:0:
114,248,191360,1,8,0:0:0:0:
373,81,191510,6,0,B|408:127|408:127|372:334,1,233.999989288331,6|2,0:0|0:0,0:0:0:0:
265,167,191960,1,8,0:0:0:0:
501,193,192110,2,0,L|480:308,1,116.999994644165,6|0,0:0|0:0,0:0:0:0:
249,355,192410,1,8,0:0:0:0:
203,367,192485,1,8,0:0:0:0:
156,366,192560,1,8,0:0:0:0:
111,350,192635,1,8,0:0:0:0:
77,316,192710,1,8,0:0:0:0:
61,271,192785,1,8,0:0:0:0:
61,227,192860,6,0,B|203:214,1,107.999996704102,6|0,0:0|0:0,0:0:0:0:
406,193,193160,1,8,0:0:0:0:
229,110,193310,1,0,0:0:0:0:
229,110,193385,1,0,0:0:0:0:
229,109,193460,2,0,P|234:56|241:2,1,107.999996704102,2|0,0:0|0:0,0:0:0:0:
403,190,193760,2,0,P|410:243|415:297,1,107.999996704102,8|0,0:0|0:0,0:0:0:0:
219,273,194060,5,2,0:0:0:0:
339,384,194210,1,0,0:0:0:0:
313,168,194360,1,8,0:0:0:0:
148,361,194510,1,2,0:0:0:0:
148,361,194585,1,0,0:0:0:0:
148,361,194660,2,0,B|104:368|104:368|32:361,1,107.999996704102,2|0,0:0|0:0,0:0:0:0:
195,195,194960,2,0,B|239:188|239:188|311:195,1,107.999996704102,8|0,0:0|0:0,0:0:0:0:
121,267,195260,5,2,0:0:0:0:
256,71,195410,1,0,0:0:0:0:
361,284,195560,1,8,0:0:0:0:
128,274,195710,1,0,0:0:0:0:
128,274,195785,1,0,0:0:0:0:
128,274,195860,2,0,L|2:279,1,107.999996704102,2|0,0:0|0:0,0:0:0:0:
148,75,196160,2,0,L|274:70,1,107.999996704102,8|0,0:0|0:0,0:0:0:0:
492,86,196460,5,2,0:0:0:0:
361,284,196610,1,0,0:0:0:0:
256,71,196760,1,8,0:0:0:0:
128,274,196910,1,0,0:0:0:0:
128,274,196985,1,0,0:0:0:0:
128,274,197060,2,0,B|68:278|68:278|12:265,1,107.999996704102,2|0,0:0|0:0,0:0:0:0:
238,175,197360,2,0,B|298:171|298:171|354:184,1,107.999996704102,8|0,0:0|0:0,0:0:0:0:
127,155,197660,5,6,0:0:0:0:
211,355,197810,1,0,0:0:0:0:
345,182,197960,1,8,0:0:0:0:
134,162,198110,1,0,0:0:0:0:
134,162,198185,1,0,0:0:0:0:
134,162,198260,2,0,L|12:167,1,99.0000030212403,2|0,0:0|0:0,0:0:0:0:
256,71,198560,2,0,L|378:66,1,99.0000030212403,8|0,0:0|0:0,0:0:0:0:
273,270,198860,5,2,0:0:0:0:
167,79,199010,1,0,0:0:0:0:
59,268,199160,1,8,0:0:0:0:
280,277,199310,1,0,0:0:0:0:
280,277,199385,1,0,0:0:0:0:
280,277,199460,2,0,B|329:279|329:279|392:266,1,99.0000030212403,2|0,0:0|0:0,0:0:0:0:
452,58,199760,2,0,B|403:56|403:56|340:69,1,99.0000030212403,8|0,0:0|0:0,0:0:0:0:
175,230,200060,5,6,0:0:0:0:
369,370,200210,1,0,0:0:0:0:
296,143,200360,1,8,0:0:0:0:
223,371,200510,1,0,0:0:0:0:
223,371,200585,1,0,0:0:0:0:
223,371,200660,1,8,0:0:0:0:
415,230,200810,1,0,0:0:0:0:
175,230,200960,1,8,0:0:0:0:
369,370,201110,1,0,0:0:0:0:
286,120,201260,6,0,L|218:122,1,49.5000015106202,6|0,0:0|0:0,0:0:0:0:
54,158,201410,1,2,0:0:0:0:
30,201,201485,1,2,0:0:0:0:
26,250,201560,1,2,0:0:0:0:
41,297,201635,1,8,0:3:0:0:
68,337,201710,1,8,0:3:0:0:
115,350,201785,1,8,0:3:0:0:
164,352,201860,6,0,L|245:347,1,67.5000025749208,6|2,0:0|0:0,0:0:0:0:
371,238,202010,2,0,L|446:242,1,67.5000025749208,2|2,0:0|0:0,0:0:0:0:
340,384,202160,1,12,0:3:0:0:
249,119,202310,1,12,0:3:0:0:
