osu file format v14

[General]
AudioFilename: fge.mp3
AudioLeadIn: 1500
PreviewTime: 172460
Countdown: 0
SampleSet: Soft
StackLeniency: 0.3
Mode: 0
LetterboxInBreaks: 0
WidescreenStoryboard: 1

[Editor]
Bookmarks: 154460
DistanceSpacing: 1.3
BeatDivisor: 2
GridSize: 4
TimelineZoom: 2.4

[Metadata]
Title:From Under Cover (Caught Up In A Love Song)
TitleUnicode:From Under Cover (Caught Up In A Love Song)
Artist:Foreground Eclipse
ArtistUnicode:Foreground Eclipse
Creator:Seni
Version:HB's Easy
Source:
Tags:めらみぽっぷ touhou doujin meramipop teto stories that last through the sleepless nights c85 HB24 Akitoshi Linada
BeatmapID:1001979
BeatmapSetID:462386

[Difficulty]
HPDrainRate:2
CircleSize:2.5
OverallDifficulty:2
ApproachRate:3
SliderMultiplier:0.7
SliderTickRate:1

[Events]
//Background and Video events
0,0,"bg_unrelated_dq_pls.png",0,0
//Break Periods
2,147460,153020
//Storyboard Layer 0 (Background)
//Storyboard Layer 1 (Fail)
//Storyboard Layer 2 (Pass)
//Storyboard Layer 3 (Foreground)
//Storyboard Sound Samples

[TimingPoints]
860,300,4,2,1,80,1,0
58460,-100,4,2,1,90,0,1
65660,-100,4,2,1,90,0,0
68060,-100,4,2,1,90,0,1
87110,-100,4,2,1,70,0,0
106460,-100,4,2,1,90,0,1
113660,-100,4,2,1,90,0,0
116060,-100,4,2,1,90,0,1
125660,-100,4,2,1,80,0,0
173660,-100,4,2,1,80,0,1
180860,-100,4,2,1,80,0,0
183260,-100,4,2,1,80,0,1
192860,-100,4,2,1,80,0,0

[Colours]
Combo1 : 128,174,202
Combo2 : 255,255,255
Combo3 : 202,9,9

[HitObjects]
107,142,9260,6,0,P|148:122|256:123,1,140,6|6,0:0|0:0,0:0:0:0:
323,157,10160,1,2,0:0:0:0:
398,105,10460,6,0,B|427:144|427:144|420:248,1,140,6|2,0:0|0:0,0:0:0:0:
358,302,11360,2,0,L|217:297,1,140,8|8,0:0|0:0,0:0:0:0:
137,339,12260,2,0,L|63:339,1,70,2|8,0:0|0:0,0:0:0:0:
11,266,12860,6,0,P|-3:206|8:120,1,140,6|2,0:0|0:0,0:0:0:0:
83,82,13760,2,0,B|132:82|132:82|177:69|177:69|235:69,1,140,8|8,0:0|0:0,0:0:0:0:
300,114,14660,2,0,P|357:120|384:117,1,70,2|12,0:0|0:0,0:0:0:0:
454,86,15260,6,0,L|453:238,1,140,2|2,0:0|0:0,0:0:0:0:
391,293,16160,2,0,B|350:275|350:275|302:293|243:281,1,140,8|8,0:0|0:0,0:0:0:0:
174,242,17060,2,0,P|118:236|92:239,1,70,2|8,0:0|0:0,0:0:0:0:
17,265,17660,5,6,0:0:0:0:
31,175,17960,2,0,L|28:92,1,70,8|8,0:0|0:0,0:0:0:0:
75,27,18560,1,8,0:0:0:0:
159,61,18860,2,0,B|220:87|294:55|294:55|343:105|336:136,1,210,2|10,0:0|0:0,0:0:0:0:
353,201,20060,6,0,P|291:240|230:293,1,140,6|2,0:0|0:0,0:0:0:0:
162,331,20960,2,0,L|142:192,1,140,8|8,0:0|0:0,0:0:0:0:
126,102,21860,2,0,L|225:87,1,70,2|8,0:0|0:0,0:0:0:0:
267,33,22460,6,0,P|337:41|419:42,1,140,6|2,0:0|0:0,0:0:0:0:
497,42,23360,2,0,B|505:91|505:91|496:130|496:130|504:187,1,140,8|8,0:0|0:0,0:0:0:0:
434,241,24260,2,0,P|385:237|354:242,1,70,2|8,0:0|0:0,0:0:0:0:
291,293,24860,6,0,P|228:305|141:288,1,140,6|2,0:0|0:0,0:0:0:0:
70,256,25760,2,0,L|71:103,1,140,8|8,0:0|0:0,0:0:0:0:
125,43,26660,1,8,0:0:0:0:
207,81,26960,1,10,0:0:0:0:
292,51,27260,6,0,L|373:51,1,70,6|8,0:0|0:0,0:0:0:0:
434,106,27860,2,0,P|439:150|435:191,1,70,8|8,0:0|0:0,0:0:0:0:
374,241,28460,2,0,P|420:263|480:256,2,105,6|12|8,0:0|0:0|0:0,0:0:0:0:
309,176,29660,6,0,P|260:170|169:180,1,140,6|2,0:0|0:0,0:0:0:0:
29,63,30860,2,0,P|98:56|167:66,1,140,2|2,0:0|0:0,0:0:0:0:
92,232,32060,6,0,P|111:274|112:343,2,105,6|0|2,0:0|0:0|0:0,0:0:0:0:
143,157,33260,2,0,L|293:149,1,140,2|2,0:0|0:0,0:0:0:0:
464,141,34460,6,0,B|458:109|458:109|463:67|463:67|456:28,2,105,6|0|2,0:0|0:0|0:0,0:0:0:0:
460,231,35660,2,0,L|319:235,1,140,2|2,0:0|0:0,0:0:0:0:
275,314,36560,1,2,0:0:0:0:
184,319,36860,6,0,L|43:323,1,140,6|2,0:0|0:0,0:0:0:0:
84,145,38060,2,0,L|223:141,1,140,6|6,0:0|0:0,0:0:0:0:
306,182,38960,2,0,L|379:183,1,70,8|6,0:0|0:0,0:0:0:0:
465,164,39560,6,0,P|482:263|465:329,1,140,8|8,0:0|0:0,0:0:0:0:
397,348,40460,1,2,0:0:0:0:
321,296,40760,2,0,B|283:279|283:279|179:283,1,140,8|8,0:0|0:0,0:0:0:0:
103,241,41660,5,2,0:0:0:0:
153,165,41960,2,0,P|93:150|19:204,2,140,8|8|8,0:0|0:0|0:0,0:0:0:0:
240,190,43460,2,0,L|334:182,1,70,2|8,0:0|0:0,0:0:0:0:
400,178,44060,5,6,0:0:0:0:
484,211,44360,2,0,P|493:142|476:74,1,140,8|8,0:0|0:0,0:0:0:0:
387,58,45260,2,0,B|345:70|345:70|246:60,1,140,2|2,0:0|0:0,0:0:0:0:
161,83,46160,1,8,0:0:0:0:
214,156,46460,6,0,L|293:166,2,70,2|8|2,0:0|0:0|0:0,0:0:0:0:
143,213,47360,1,8,0:0:0:0:
76,274,47660,2,0,L|-3:284,2,70,6|8|2,0:0|0:0|0:0,0:0:0:0:
150,326,48560,1,4,0:0:0:0:
227,278,48860,5,6,0:0:0:0:
308,318,49160,2,0,B|329:278|329:278|321:175,1,140,8|8,0:0|0:0,0:0:0:0:
315,92,50060,1,2,0:0:0:0:
232,131,50360,2,0,P|164:151|86:138,1,140,8|8,0:0|0:0,0:0:0:0:
17,96,51260,5,2,0:0:0:0:
5,186,51560,2,0,B|9:236|9:236|27:277|27:277|31:331,2,140,8|8|8,0:0|0:0|0:0,0:0:0:0:
17,96,53060,2,0,L|98:93,1,70,2|8,0:0|0:0,0:0:0:0:
172,124,53660,5,6,0:0:0:0:
257,93,53960,2,0,L|409:98,1,140,8|8,0:0|0:0,0:0:0:0:
473,146,54860,1,2,0:0:0:0:
413,214,55160,2,0,B|403:265|420:306|420:306|384:342,1,140,8|8,0:0|0:0,0:0:0:0:
306,295,56060,6,0,P|257:288|232:291,1,70,6|0,0:0|0:0,0:0:0:0:
164,345,56660,2,0,P|115:352|90:349,1,70,0|0,0:0|0:0,0:0:0:0:
20,297,57260,1,6,0:0:0:0:
186,80,58160,1,8,0:0:0:0:
267,120,58460,6,0,P|317:136|407:121,1,140,6|2,0:0|0:0,0:0:0:0:
480,76,59360,1,8,0:0:0:0:
490,166,59660,2,0,L|488:244,1,70,0|8,0:0|0:0,0:0:0:0:
409,281,60260,2,0,L|411:359,1,70,2|8,0:0|0:0,0:0:0:0:
323,325,60860,6,0,P|271:310|181:328,1,140,2|2,0:0|0:0,0:0:0:0:
106,366,61760,1,8,0:0:0:0:
69,282,62060,2,0,P|62:232|67:204,1,70,0|8,0:0|0:0,0:0:0:0:
130,150,62660,2,0,L|199:146,1,70,2|8,0:0|0:0,0:0:0:0:
273,199,63260,6,0,B|320:201|320:201|359:215|359:215|415:217,1,140,6|2,0:0|0:0,0:0:0:0:
491,174,64160,1,8,0:0:0:0:
456,89,64460,2,0,L|373:90,1,70,0|8,0:0|0:0,0:0:0:0:
301,54,65060,2,0,L|219:53,1,70,2|8,0:0|0:0,0:0:0:0:
140,55,65660,6,0,P|117:109|119:201,1,140,6|0,0:0|0:0,0:0:0:0:
203,294,66710,2,0,P|264:275|342:279,1,140,6|6,0:0|0:0,0:0:0:0:
459,342,67760,1,8,0:0:0:0:
497,259,68060,6,0,L|492:112,1,140,6|2,0:0|0:0,0:0:0:0:
446,40,68960,1,8,0:0:0:0:
367,85,69260,2,0,P|314:95|283:92,1,70,0|8,0:0|0:0,0:0:0:0:
209,73,69860,2,0,L|209:149,1,70,2|8,0:0|0:0,0:0:0:0:
172,226,70460,6,0,P|110:201|38:231,1,140,2|2,0:0|0:0,0:0:0:0:
108,289,71360,1,8,0:0:0:0:
193,319,71660,2,0,L|265:313,1,70,0|8,0:0|0:0,0:0:0:0:
332,254,72260,2,0,L|401:259,1,70,2|8,0:0|0:0,0:0:0:0:
491,275,72860,6,0,P|499:217|491:130,1,140,6|0,0:0|0:0,0:0:0:0:
453,53,73760,1,8,0:0:0:0:
380,107,74060,2,0,B|340:129|340:129|235:131,1,140,0|8,0:0|0:0,0:0:0:0:
154,128,74960,1,8,0:0:0:0:
72,87,75260,6,0,B|49:134|77:183|77:183|37:267|103:325,1,245,10|6,0:0|0:0,0:0:0:0:
274,292,76910,2,0,B|323:286|323:286|370:304|419:285,1,140,4|6,0:3|0:0,0:0:0:0:
368,157,77960,1,8,0:0:0:0:
313,84,78260,6,0,P|347:69|420:80,2,105,8|6|8,0:0|0:0|0:0,0:0:0:0:
278,168,79460,2,0,L|158:166,2,105,8|6|8,0:0|0:0|0:0,0:0:0:0:
368,157,80660,2,0,B|392:222|392:222|389:261,2,105,8|6|8,0:0|0:0|0:0,0:0:0:0:
331,73,81860,1,8,0:0:0:0:
240,71,82160,6,0,L|95:68,1,140,8|8,0:0|0:0,0:0:0:0:
12,93,83060,1,8,0:0:0:0:
75,158,83360,2,0,P|83:208|84:236,1,70,8|8,0:0|0:0,0:0:0:0:
157,281,83960,2,0,P|149:331|148:359,2,70,8|8|8,0:0|0:0|0:0,0:0:0:0:
212,208,84860,6,0,P|277:225|356:201,1,140,8|8,0:0|0:0,0:0:0:0:
399,133,85760,2,0,B|448:170|435:241|435:241|455:283|455:283|451:346|398:369|343:359,1,315,8|6,0:0|0:0,0:0:0:0:
217,324,87560,2,0,L|70:329,1,140,8|8,0:0|0:0,0:0:0:0:
25,253,88460,2,0,P|27:196|66:152,2,105,8|4|8,0:0|0:0|0:0,0:0:0:0:
113,230,89660,5,2,0:0:0:0:
201,210,89960,2,0,L|349:211,1,140,8|8,0:0|0:0,0:0:0:0:
425,244,90860,1,2,0:0:0:0:
467,163,91160,2,0,P|469:110|415:32,1,140,8|8,0:0|0:0,0:0:0:0:
333,30,92060,5,2,0:0:0:0:
255,76,92360,2,0,B|214:93|214:93|113:83,2,140,8|8|8,0:0|0:0|0:0,0:0:0:0:
333,30,93860,1,2,0:0:0:0:
347,119,94160,2,0,L|345:201,1,70,8|6,0:0|0:0,0:0:0:0:
306,271,94760,6,0,P|256:246|166:243,1,140,8|8,0:0|0:0,0:0:0:0:
91,281,95660,1,2,0:0:0:0:
26,216,95960,2,0,L|29:72,1,140,8|8,0:0|0:0,0:0:0:0:
116,50,96860,6,0,L|190:62,1,70,2|8,0:0|0:0,0:0:0:0:
276,61,97460,2,0,L|345:49,1,70,2|12,0:0|0:0,0:0:0:0:
421,99,98060,2,0,P|410:150|412:187,1,70,8|8,0:0|0:0,0:0:0:0:
346,232,98660,2,0,P|357:283|355:320,1,70,8|6,0:0|0:0,0:0:0:0:
305,375,99260,5,6,0:0:0:0:
218,346,99560,2,0,B|168:338|168:338|124:345|124:345|80:338,1,140,8|8,0:0|0:0,0:0:0:0:
32,260,100460,1,2,0:0:0:0:
119,233,100760,2,0,P|176:189|167:96,1,140,8|8,0:0|0:0,0:0:0:0:
167,34,101660,5,2,0:0:0:0:
251,67,101960,2,0,L|402:62,2,140,8|8|8,0:0|0:0|0:0,0:0:0:0:
182,125,103460,1,2,0:0:0:0:
238,196,103760,2,0,P|247:228|254:269,1,70,8|6,0:0|0:0,0:0:0:0:
246,355,104360,6,0,P|332:350|403:324,1,140,8|8,0:0|0:0,0:0:0:0:
434,259,105260,2,0,P|423:209|420:114,1,140,14|8,0:0|0:0,0:0:0:0:
429,30,106160,1,8,0:0:0:0:
343,60,106460,6,0,B|270:83|268:37|191:67,1,140,6|2,0:0|0:0,0:0:0:0:
124,103,107360,2,0,P|120:151|121:188,1,70,8|0,0:0|0:0,0:0:0:0:
131,263,107960,2,0,L|39:257,2,70,8|2|8,0:0|0:0|0:0,0:0:0:0:
217,234,108860,6,0,L|376:232,1,140,2|2,0:0|0:0,0:0:0:0:
427,174,109760,1,8,0:0:0:0:
391,90,110060,2,0,P|322:80|302:74,1,70,0|8,0:0|0:0,0:0:0:0:
237,44,110660,2,0,P|202:47|167:54,1,70,2|8,0:0|0:0,0:0:0:0:
92,105,111260,6,0,P|104:170|106:258,1,140,6|2,0:0|0:0,0:0:0:0:
93,333,112160,1,8,0:0:0:0:
180,308,112460,2,0,B|224:294|224:294|337:302,1,140,2|2,0:0|0:0,0:0:0:0:
406,280,113360,1,8,0:0:0:0:
432,192,113660,6,0,P|418:140|349:82,1,140,6|0,0:0|0:0,0:0:0:0:
255,177,114710,2,0,P|183:193|103:191,1,140,6|6,0:0|0:0,0:0:0:0:
7,110,115760,1,8,0:0:0:0:
70,44,116060,6,0,L|218:50,1,140,6|2,0:0|0:0,0:0:0:0:
300,55,116960,1,8,0:0:0:0:
390,50,117260,2,0,P|385:88|386:131,1,70,0|8,0:0|0:0,0:0:0:0:
449,184,117860,2,0,P|454:222|453:265,1,70,2|8,0:0|0:0,0:0:0:0:
396,324,118460,6,0,P|346:337|255:312,1,140,2|2,0:0|0:0,0:0:0:0:
205,244,119360,1,8,0:0:0:0:
124,286,119660,2,0,L|47:283,2,70,0|8|0,0:0|0:0|0:0,0:0:0:0:
299,236,120860,6,0,P|308:172|303:78,1,140,6|0,0:0|0:0,0:0:0:0:
222,60,121760,1,8,0:0:0:0:
135,86,122060,2,0,P|126:150|131:244,1,140,0|0,0:0|0:0,0:0:0:0:
150,313,122960,1,8,0:0:0:0:
219,371,123260,6,0,B|388:362,1,140,6|8,0:0|0:0,0:0:0:0:
410,237,124310,2,0,P|418:167|408:98,1,140,6|6,0:0|0:0,0:0:0:0:
282,47,125360,1,8,0:0:0:0:
213,108,125660,6,0,L|54:105,1,140,2|2,0:0|0:0,0:0:0:0:
11,172,126560,2,0,P|48:225|123:279,1,140,8|8,0:0|0:0,0:0:0:0:
195,249,127460,2,0,P|249:243|283:243,1,70,2|8,0:0|0:0,0:0:0:0:
334,304,128060,6,0,P|416:316|490:312,1,140,2|2,0:0|0:0,0:0:0:0:
498,226,128960,2,0,L|494:75,1,140,8|8,0:0|0:0,0:0:0:0:
416,39,129860,2,0,P|375:45|330:42,1,70,2|8,0:0|0:0,0:0:0:0:
255,35,130460,6,0,B|233:117|291:116|259:194,1,140,6|2,0:0|0:0,0:0:0:0:
271,262,131360,2,0,P|194:269|128:267,1,140,8|8,0:0|0:0,0:0:0:0:
61,208,132260,2,0,P|79:165|96:143,1,70,2|8,0:0|0:0,0:0:0:0:
165,90,132860,6,0,P|218:101|255:101,1,70,6|8,0:0|0:0,0:0:0:0:
321,77,133460,1,8,0:0:0:0:
408,102,133760,1,8,0:0:0:0:
490,63,134060,6,0,B|522:159|422:196|422:196|393:244|420:313,1,280,14|6,0:0|0:0,0:0:0:0:
330,332,135560,2,0,P|314:275|313:241,1,70,8|2,0:0|0:0,0:0:0:0:
297,174,136160,2,0,B|228:186|228:186|154:171,1,140,8|8,0:0|0:0,0:0:0:0:
70,151,137060,2,0,L|76:236,1,70,2|8,0:0|0:0,0:0:0:0:
80,312,137660,6,0,P|146:296|244:318,1,140,6|2,0:0|0:0,0:0:0:0:
288,361,138560,2,0,P|356:371|424:354,1,140,8|12,0:0|0:0,0:0:0:0:
463,272,139460,2,0,L|457:182,1,70,2|12,0:0|0:0,0:0:0:0:
450,111,140060,6,0,L|306:125,1,140,6|2,0:0|0:0,0:0:0:0:
219,122,140960,2,0,L|79:108,1,140,8|8,0:0|0:0,0:0:0:0:
73,199,141860,2,0,L|68:268,1,70,2|8,0:0|0:0,0:0:0:0:
118,344,142460,5,6,0:0:0:0:
207,327,142760,2,0,P|268:330|308:340,2,70,8|8|8,0:0|0:0|0:0,0:0:0:0:
168,244,143660,2,0,P|272:243|380:280,1,210,6|4,0:0|3:0,0:0:0:0:
256,192,144860,12,2,147260,0:0:0:0:
197,171,154460,6,0,P|117:181|38:172,2,140,6|8|0,0:0|0:0|0:0,0:0:0:0:
273,121,155960,1,2,0:0:0:0:
347,172,156260,2,0,P|355:214|355:257,1,70,8|0,0:0|0:0,0:0:0:0:
355,332,156860,6,0,P|424:327|493:337,2,140,2|8|0,0:0|0:0|0:0,0:0:0:0:
265,350,158360,1,2,0:0:0:0:
187,301,158660,2,0,L|188:213,1,70,8|0,0:0|0:0,0:0:0:0:
189,139,159260,6,0,B|238:146|238:146|338:133,1,140,6|8,0:0|0:0,0:0:0:0:
418,118,160160,1,0,0:0:0:0:
373,42,160460,2,0,L|210:64,1,140,0|8,0:0|0:0,0:0:0:0:
189,139,161360,1,0,0:0:0:0:
254,202,161660,6,0,P|268:269|227:328,2,140,2|8|0,0:0|0:0|0:0,0:0:0:0:
177,251,163160,1,2,0:0:0:0:
91,283,163460,2,0,L|13:276,1,70,8|8,0:0|0:3,0:0:0:0:
56,192,164060,6,0,P|65:131|57:38,2,140,2|8|0,0:0|0:0|0:0,0:0:0:0:
21,276,165560,2,0,L|26:364,1,70,2|8,0:0|0:0,0:0:0:0:
113,369,166160,1,0,0:0:0:0:
195,331,166460,6,0,B|242:324|242:324|289:336|289:336|348:328,2,140,2|8|0,0:0|0:0|0:0,0:0:0:0:
119,279,167960,1,2,0:0:0:0:
200,237,168260,2,0,P|223:200|234:165,1,70,8|0,0:0|0:0,0:0:0:0:
256,192,168860,12,8,172460,0:0:0:0:
347,106,173660,6,0,P|363:165|368:274,1,140,6|2,0:0|0:0,0:0:0:0:
355,333,174560,1,8,0:0:0:0:
278,284,174860,2,0,L|201:290,1,70,0|8,0:0|0:0,0:0:0:0:
136,345,175460,2,0,L|66:339,1,70,2|8,0:0|0:0,0:0:0:0:
24,258,176060,6,0,B|45:215|45:215|37:95,1,140,2|2,0:0|0:0,0:0:0:0:
81,42,176960,1,8,0:0:0:0:
130,118,177260,2,0,L|136:197,1,70,0|8,0:0|0:0,0:0:0:0:
143,278,177860,2,0,P|195:266|228:265,1,70,2|8,0:0|0:0,0:0:0:0:
283,319,178460,6,0,P|358:339|447:341,1,140,6|2,0:0|0:0,0:0:0:0:
506,315,179360,1,8,0:0:0:0:
481,227,179660,2,0,P|426:170|353:146,1,140,2|2,0:0|0:0,0:0:0:0:
279,148,180560,1,8,0:0:0:0:
199,192,180860,6,0,B|157:207|157:207|47:190,1,140,6|0,0:0|0:0,0:0:0:0:
21,62,181910,2,0,L|169:81,1,140,6|6,0:0|0:0,0:0:0:0:
279,148,182960,1,12,0:0:0:0:
366,122,183260,6,0,P|376:210|368:287,1,140,6|2,0:0|0:0,0:0:0:0:
353,350,184160,1,8,0:0:0:0:
267,317,184460,2,0,B|175:312,1,70,0|8,0:0|0:0,0:0:0:0:
175,224,185060,2,0,B|267:219,1,70,2|8,0:0|0:0,0:0:0:0:
273,133,185660,6,0,P|207:116|132:109,1,140,6|2,0:0|0:0,0:0:0:0:
49,138,186560,1,8,0:0:0:0:
97,214,186860,2,0,P|111:267|115:316,1,70,0|8,0:0|0:0,0:0:0:0:
96,372,187460,2,0,L|171:371,1,70,2|8,0:0|0:0,0:0:0:0:
239,317,188060,6,0,L|386:323,1,140,6|0,0:0|0:0,0:0:0:0:
464,353,188960,1,8,0:0:0:0:
453,262,189260,2,0,P|441:189|441:113,1,140,2|0,0:0|0:0,0:0:0:0:
474,38,190160,1,8,0:0:0:0:
384,53,190460,6,0,B|336:57|336:57|286:49|286:49|227:56,1,140,6|2,0:0|0:0,0:0:0:0:
111,80,191510,2,0,L|106:219,1,140,6|6,0:0|0:0,0:0:0:0:
209,309,192560,1,8,0:0:0:0:
279,250,192860,6,0,L|274:110,1,140,6|2,0:0|0:0,0:0:0:0:
330,38,193760,2,0,P|396:44|478:95,1,140,8|8,0:0|0:0,0:0:0:0:
482,166,194660,2,0,L|480:243,1,70,2|8,0:0|0:0,0:0:0:0:
414,299,195260,6,0,B|374:280|374:280|260:287,1,140,2|2,0:0|0:0,0:0:0:0:
207,343,196160,2,0,B|111:348|111:348|71:329,1,140,8|8,0:0|0:0,0:0:0:0:
122,254,197060,2,0,P|131:213|130:167,1,70,2|8,0:0|0:0,0:0:0:0:
103,98,197660,6,0,P|147:77|246:85,1,140,6|2,0:0|0:0,0:0:0:0:
268,166,198560,2,0,P|332:191|401:183,1,140,8|8,0:0|0:0,0:0:0:0:
487,154,199460,2,0,L|485:230,1,70,2|8,0:0|0:0,0:0:0:0:
487,315,200060,6,0,L|344:324,1,140,6|8,0:0|0:0,0:0:0:0:
256,326,200960,2,0,L|116:317,1,140,8|2,0:0|0:0,0:0:0:0:
36,273,201860,2,0,P|58:226|74:159,1,105,6|12,0:0|0:3,0:0:0:0:
