osu file format v14

[General]
AudioFilename: audio.mp3
AudioLeadIn: 0
PreviewTime: 222421
Countdown: 0
SampleSet: Soft
StackLeniency: 0.3
Mode: 0
LetterboxInBreaks: 0
WidescreenStoryboard: 1

[Editor]
DistanceSpacing: 2.1
BeatDivisor: 4
GridSize: 32
TimelineZoom: 1.2

[Metadata]
Title:Fall of Tears
TitleUnicode:Fall of Tears
Artist:Foreground Eclipse
ArtistUnicode:Foreground Eclipse
Creator:Zelq
Version:Autumnal Waterfall
Source:東方風神録 ~ Mountain of Faith.
Tags:-Sylvari Tears Will Become Melodies Tonight Touhou Momiji Meriamipop Merami Suzuori Teto フォールオブフォール ~ 秋めく滝 Fall of Fall ~ Autumnal Waterfall
BeatmapID:2153282
BeatmapSetID:914729

[Difficulty]
HPDrainRate:6
CircleSize:5
OverallDifficulty:8
ApproachRate:8
SliderMultiplier:1.7
SliderTickRate:1

[Events]
//Background and Video events
0,0,"cropped-1920-1080-789461.jpg",0,0
//Break Periods
//Storyboard Layer 0 (Background)
//Storyboard Layer 1 (Fail)
//Storyboard Layer 2 (Pass)
//Storyboard Layer 3 (Foreground)
//Storyboard Layer 4 (Overlay)
//Storyboard Sound Samples

[TimingPoints]
7544,368.098159509202,4,2,0,70,1,0
7544,-125,4,2,0,70,0,0
31102,-142.857142857143,4,2,0,60,0,0
39936,-142.857142857143,4,2,0,70,0,0
42881,-142.857142857143,4,2,0,60,0,0
51715,-142.857142857143,4,2,0,80,0,0
54660,-142.857142857143,4,2,0,60,0,0
66439,-100,4,2,0,90,0,1
89997,-125,4,2,0,70,0,0
113556,-142.857142857143,4,2,0,60,0,0
122390,-142.857142857143,4,2,0,70,0,0
125335,-142.857142857143,4,2,0,60,0,0
134169,-142.857142857143,4,2,0,80,0,0
137114,-142.857142857143,4,2,0,60,0,0
147421,-142.857142857143,4,2,0,75,0,0
148893,-100,4,2,0,90,0,1
172451,-125,4,2,0,80,0,0
210734,-500,4,2,0,50,0,0
221040,-250.000000000001,4,2,0,65,0,0
222513,-100,4,2,0,90,0,1
246071,-125,4,2,0,70,0,0
269629,-1000,4,2,0,50,0,0
271102,-1000,4,2,0,40,0,0
272574,-1000,4,2,0,30,0,0
274047,-1000,4,2,0,20,0,0
275519,-1000,4,2,0,10,0,0
275887,-1000,4,2,0,5,0,0

[Colours]
Combo1 : 186,186,118
Combo2 : 210,210,210
Combo3 : 255,140,140
Combo4 : 214,214,173
Combo5 : 176,176,176
Combo6 : 255,100,100

[HitObjects]
107,305,7544,6,0,L|5:300,2,102,4|2|0,3:2|0:0|0:0,0:0:0:0:
188,256,8280,1,8,3:3:0:0:
247,315,8464,1,2,0:0:0:0:
323,279,8648,1,2,3:1:0:0:
389,322,8832,1,0,0:0:0:0:
460,295,9016,6,0,P|490:336|484:390,2,102,4|2|0,3:2|0:0|0:0,0:0:0:0:
393,225,9752,2,0,L|401:144,1,68,8|2,3:3|0:0,0:0:0:0:
460,74,10120,1,2,3:1:0:0:
480,153,10304,1,2,0:0:0:0:
387,74,10488,6,0,L|273:65,1,102,4|2,3:2|0:0,0:0:0:0:
248,119,10856,2,0,L|336:147,1,68,2|0,3:1|0:0,0:0:0:0:
276,41,11224,1,8,3:3:0:0:
188,74,11409,1,2,0:0:0:0:
135,27,11593,2,0,P|103:45|74:80,1,68,2|2,3:1|0:0,0:0:0:0:
0,0,11961,6,0,P|8:32|8:69,1,68,4|0,3:2|0:0,0:0:0:0:
43,122,12237,2,0,P|32:161|33:231,1,102,2|0,0:0|0:0,0:0:0:0:
133,270,12697,1,8,3:3:0:0:
198,170,12881,1,2,0:0:0:0:
106,130,13065,1,8,3:3:0:0:
66,292,13249,1,8,3:3:0:0:
222,339,13433,6,0,L|209:234,2,102,4|2|0,3:2|0:0|0:0,0:0:0:0:
323,279,14169,2,0,L|316:346,2,68,8|2|2,3:3|0:0|3:1,0:0:0:0:
406,384,14721,1,2,0:0:0:0:
474,298,14905,6,0,P|474:259|459:215,1,68,4|0,3:2|0:0,0:0:0:0:
415,185,15182,2,0,P|427:131|461:78,1,102,2|0,0:0|0:0,0:0:0:0:
512,11,15642,1,8,3:3:0:0:
408,42,15826,2,0,P|377:49|338:46,1,68,0|2,0:0|3:1,0:0:0:0:
255,0,16194,1,0,0:0:0:0:
204,118,16378,6,0,P|201:67|181:20,1,102,4|2,3:2|0:0,0:0:0:0:
123,61,16746,2,0,P|124:102|114:140,1,68,2|2,3:1|0:0,0:0:0:0:
32,32,17114,2,0,P|43:63|47:97,1,68,8|0,3:3|0:0,0:0:0:0:
6,187,17482,1,2,3:1:0:0:
64,265,17666,1,2,0:0:0:0:
6,359,17850,6,0,L|95:348,1,68,4|0,3:2|0:0,0:0:0:0:
134,374,18126,2,0,L|236:383,1,102,2|0,0:0|0:0,0:0:0:0:
420,342,18678,1,0,3:0:0:0:
379,337,18770,1,2,3:3:0:0:
338,331,18863,1,0,3:0:0:0:
297,323,18955,1,2,3:3:0:0:
336,313,19047,1,0,3:0:0:0:
377,308,19139,1,2,3:3:0:0:
418,302,19232,1,0,3:0:0:0:
459,294,19323,6,0,P|488:337|503:387,2,102,4|2|0,3:2|0:0|0:0,0:0:0:0:
402,200,20059,2,0,P|401:166|405:132,2,68,8|0|2,3:3|0:0|3:1,0:0:0:0:
377,308,20611,1,0,0:0:0:0:
268,247,20795,6,0,P|245:292|245:332,1,68,4|0,3:2|0:0,0:0:0:0:
203,366,21071,2,0,P|180:341|171:251,1,102,2|0,0:0|0:0,0:0:0:0:
64,365,21531,1,8,3:3:0:0:
85,272,21715,1,2,0:0:0:0:
29,192,21899,2,0,P|25:158|28:124,1,68,2|2,3:1|0:0,0:0:0:0:
89,3,22267,6,0,L|92:81,1,68,4|0,3:2|0:0,0:0:0:0:
117,128,22543,2,0,P|165:104|212:93,1,102,2|0,0:0|0:0,0:0:0:0:
287,139,23004,1,8,3:3:0:0:
354,96,23188,1,0,0:0:0:0:
424,146,23372,1,2,3:1:0:0:
484,50,23556,1,0,0:0:0:0:
344,22,23740,6,0,L|234:30,2,102,4|2|0,3:2|0:0|0:0,0:0:0:0:
398,157,24476,1,8,3:3:0:0:
262,134,24660,1,2,0:0:0:0:
214,268,24844,1,8,3:3:0:0:
350,245,25028,1,8,3:3:0:0:
410,361,25212,6,0,P|384:339|347:321,1,68,4|0,3:2|0:0,0:0:0:0:
306,371,25488,2,0,P|249:363|192:371,1,102,2|0,0:0|0:0,0:0:0:0:
105,301,25948,1,8,3:3:0:0:
0,364,26132,2,0,P|32:372|66:371,1,68,0|2,0:0|3:1,0:0:0:0:
132,296,26501,1,0,0:0:0:0:
80,190,26685,6,0,L|72:122,1,68,4|0,3:2|0:0,0:0:0:0:
11,87,26961,2,0,L|2:199,1,102,2|0,0:0|0:0,0:0:0:0:
144,150,27421,2,0,L|151:70,1,68,8|0,3:3|0:0,0:0:0:0:
233,127,27789,1,2,3:1:0:0:
310,82,27973,1,0,0:0:0:0:
402,159,28157,6,0,P|416:92|441:54,1,102,4|2,3:2|0:0,0:0:0:0:
493,99,28525,2,0,P|495:137|489:180,1,68,2|0,3:1|0:0,0:0:0:0:
433,258,28893,2,0,P|449:306|463:327,2,68,8|0|2,3:3|0:0|3:1,0:0:0:0:
333,175,29445,1,0,0:0:0:0:
245,238,29629,5,4,3:2:0:0:
299,92,29813,2,0,L|310:158,1,68,8|0,3:3|0:0,0:0:0:0:
337,261,30182,1,0,0:0:0:0:
228,162,30366,1,10,3:3:0:0:
189,108,30458,2,0,L|139:107,1,34,0|2,3:3|3:3,0:0:0:0:
103,252,30734,1,10,3:3:0:0:
73,224,30826,1,0,3:0:0:0:
86,185,30918,1,2,3:3:0:0:
74,145,31010,1,0,3:0:0:0:
82,104,31102,6,0,P|86:61|68:20,2,89.2499972763062,4|2|0,3:2|0:0|0:0,0:0:0:0:
11,186,31838,1,8,3:3:0:0:
11,186,32206,2,0,P|3:222|7:259,1,59.4999981842042,2|0,3:2|0:0,0:0:0:0:
116,301,32574,2,0,P|82:291|48:297,1,59.4999981842042,4|0,3:2|0:0,0:0:0:0:
20,360,32850,2,0,P|63:362|95:345,1,59.4999981842042,2|0,0:0|0:0,0:0:0:0:
116,301,33126,1,2,0:0:0:0:
217,384,33310,1,8,3:3:0:0:
217,384,33678,2,0,P|239:364|266:353,1,59.4999981842042,2|0,3:2|0:0,0:0:0:0:
356,384,34047,6,0,P|342:357|337:328,1,59.4999981842042,4|0,3:2|0:0,0:0:0:0:
404,333,34323,2,0,P|405:266|419:235,1,89.2499972763062,2|2,0:0|0:0,0:0:0:0:
512,267,34783,1,8,3:3:0:0:
512,267,35151,2,0,P|482:227|478:202,1,59.4999981842042,2|0,3:2|0:0,0:0:0:0:
479,88,35519,2,0,L|462:173,1,59.4999981842042,4|0,3:2|0:0,0:0:0:0:
397,179,35795,2,0,L|385:120,1,59.4999981842042,2|0,0:0|0:0,0:0:0:0:
456,88,36071,1,2,0:0:0:0:
356,0,36255,1,8,3:3:0:0:
356,0,36623,2,0,L|374:79,1,59.4999981842042,2|0,3:2|0:0,0:0:0:0:
290,142,36991,6,0,P|286:101|305:45,2,89.2499972763062,4|2|0,3:2|0:0|0:0,0:0:0:0:
205,38,37728,1,8,3:3:0:0:
205,38,38096,2,0,P|175:41|145:40,1,59.4999981842042,2|0,3:2|0:0,0:0:0:0:
48,1,38464,2,0,L|57:106,1,89.2499972763062,4|2,3:2|0:0,0:0:0:0:
109,126,38832,2,0,L|105:185,1,59.4999981842042,2|0,3:1|0:0,0:0:0:0:
149,300,39200,1,8,3:3:0:0:
149,300,39568,1,2,3:2:0:0:
185,211,39752,1,2,0:0:0:0:
347,171,39936,5,4,3:2:0:0:
359,279,40120,1,0,3:0:0:0:
266,320,40304,1,8,3:3:0:0:
274,161,40488,5,0,3:0:0:0:
377,176,40672,1,0,3:0:0:0:
380,300,40856,1,0,3:0:0:0:
254,346,41040,5,8,3:3:0:0:
185,238,41224,1,0,3:0:0:0:
299,167,41409,6,0,L|310:92,1,59.4999981842042,4|0,3:2|3:0,3:0:0:0:
266,15,41777,2,0,P|241:31|224:56,1,59.4999981842042,8|0,3:3|3:0,3:0:0:0:
365,31,42145,2,0,P|390:46|407:70,1,59.4999981842042,8|0,3:3|3:0,3:0:0:0:
391,165,42513,1,8,3:3:0:0:
276,184,42697,1,0,3:0:0:0:
173,113,42881,5,4,3:2:0:0:
82,183,43065,1,0,0:0:0:0:
82,183,43157,1,2,0:0:0:0:
82,183,43249,2,0,L|75:257,1,59.4999981842042,2|0,3:1|0:0,0:0:0:0:
170,343,43617,1,8,3:3:0:0:
170,343,43985,2,0,P|177:299|193:277,1,59.4999981842042,2|0,3:2|0:0,0:0:0:0:
269,343,44353,1,4,3:2:0:0:
355,291,44537,1,0,0:0:0:0:
355,291,44629,1,2,0:0:0:0:
355,291,44721,1,2,3:1:0:0:
433,345,44905,1,0,0:0:0:0:
512,285,45090,1,8,3:3:0:0:
512,285,45458,2,0,P|507:313|508:344,1,59.4999981842042,2|0,3:2|0:0,0:0:0:0:
423,268,45826,5,4,3:2:0:0:
486,196,46010,1,0,0:0:0:0:
486,196,46102,1,2,0:0:0:0:
486,196,46194,2,0,P|486:165|481:123,1,59.4999981842042,0|0,3:1|0:0,0:0:0:0:
428,40,46562,1,8,3:3:0:0:
428,40,46930,1,2,3:2:0:0:
368,124,47114,1,2,0:0:0:0:
323,24,47298,2,0,P|276:15|213:22,2,89.2499972763062,4|2|2,3:2|0:0|0:0,0:0:0:0:
345,141,48034,1,8,3:3:0:0:
345,141,48402,1,8,3:3:0:0:
309,145,48494,1,0,3:0:0:0:
282,168,48586,1,0,3:0:0:0:
246,172,48678,1,0,3:0:0:0:
217,193,48770,6,0,P|209:131|219:105,2,89.2499972763062,4|2|0,3:2|0:0|0:0,0:0:0:0:
141,301,49507,1,8,3:3:0:0:
141,301,49875,1,2,3:2:0:0:
97,231,50059,1,0,0:0:0:0:
129,152,50243,1,4,3:2:0:0:
70,96,50427,1,0,0:0:0:0:
70,96,50519,1,2,0:0:0:0:
70,96,50611,2,0,B|57:65|65:37|65:33,1,59.4999981842042,2|0,3:1|0:0,0:0:0:0:
163,0,50979,2,0,P|172:35|172:65,1,59.4999981842042,8|0,3:3|0:0,0:0:0:0:
240,126,51347,1,2,3:2:0:0:
317,48,51531,2,0,L|284:44,1,29.7499990921021,2|0,0:0|0:0,0:0:0:0:
382,100,51715,6,0,P|434:118|470:188,1,118.999996368408,4|2,3:2|3:1,3:0:0:0:
437,243,52267,1,0,3:0:0:0:
346,271,52451,1,8,3:3:0:0:
247,219,52636,1,2,3:1:0:0:
117,273,52820,1,8,3:3:0:0:
0,196,53004,1,2,3:1:0:0:
70,52,53188,5,4,3:2:0:0:
149,158,53372,1,2,3:1:0:0:
48,271,53556,1,8,3:3:0:0:
189,374,53740,1,2,3:1:0:0:
222,211,53924,5,8,3:3:0:0:
27,179,54108,1,0,3:0:0:0:
0,384,54292,1,8,3:3:0:0:
0,384,54660,6,0,P|6:336|-17:278,1,89.2499972763062,4|2,3:2|0:0,0:0:0:0:
41,253,55028,2,0,L|109:255,1,59.4999981842042,2|2,3:1|0:0,0:0:0:0:
177,304,55396,2,0,L|236:302,1,59.4999981842042,8|0,3:3|0:0,0:0:0:0:
327,245,55764,1,8,3:3:0:0:
427,310,55948,1,2,0:0:0:0:
487,215,56132,6,0,P|497:171|518:132,2,89.2499972763062,4|2|0,3:2|0:0|0:0,0:0:0:0:
384,228,56869,2,0,P|356:217|326:216,1,59.4999981842042,8|0,3:3|0:0,0:0:0:0:
202,258,57237,1,8,3:3:0:0:
115,219,57421,1,0,0:0:0:0:
17,254,57605,6,0,L|109:246,2,89.2499972763062,4|2|0,3:2|0:0|0:0,0:0:0:0:
78,144,58341,1,8,3:3:0:0:
175,181,58525,1,0,0:0:0:0:
259,117,58709,2,0,L|331:125,1,59.4999981842042,8|0,3:3|0:0,0:0:0:0:
417,207,59077,6,0,L|473:200,2,44.6249986381531,4|2|2,3:2|0:0|0:0,0:0:0:0:
395,142,59445,2,0,P|391:112|394:82,1,59.4999981842042,2|0,3:1|0:0,0:0:0:0:
310,19,59813,1,8,3:3:0:0:
214,61,59997,1,2,0:0:0:0:
121,16,60182,2,0,P|91:11|62:13,1,59.4999981842042,4|0,3:2|0:0,0:0:0:0:
21,84,60550,6,0,L|24:158,1,59.4999981842042,4|0,3:2|0:0,0:0:0:0:
91,161,60826,2,0,L|88:231,1,59.4999981842042,2|0,0:0|0:0,0:0:0:0:
36,267,61102,1,2,0:0:0:0:
109,365,61286,2,0,P|113:335|109:306,1,59.4999981842042,8|0,3:3|0:0,0:0:0:0:
177,204,61654,2,0,P|173:233|177:262,1,59.4999981842042,8|2,3:3|0:0,0:0:0:0:
281,214,62022,6,0,P|284:175|272:144,1,59.4999981842042,4|0,3:2|0:0,0:0:0:0:
217,126,62298,2,0,P|226:93|248:67,1,59.4999981842042,2|0,0:0|0:0,0:0:0:0:
304,95,62574,1,2,0:0:0:0:
384,0,62758,2,0,P|377:28|377:58,1,59.4999981842042,8|0,3:3|0:0,0:0:0:0:
438,119,63126,2,0,P|445:147|445:177,1,59.4999981842042,8|0,3:3|0:0,0:0:0:0:
365,240,63494,5,4,3:2:0:0:
369,321,63678,1,0,0:0:0:0:
471,365,63863,1,8,3:3:0:0:
464,276,64047,1,0,0:0:0:0:
342,313,64231,2,0,L|331:394,1,59.4999981842042,2|0,3:1|0:0,0:0:0:0:
440,265,64599,2,0,L|431:206,1,59.4999981842042,8|0,3:3|0:0,0:0:0:0:
315,79,64967,5,4,3:2:0:0:
278,266,65151,1,0,3:0:0:0:
88,301,65335,1,8,3:3:0:0:
132,115,65519,1,0,3:0:0:0:
10,11,65703,1,8,3:3:0:0:
44,19,65795,1,0,3:0:0:0:
78,27,65887,1,0,3:0:0:0:
112,37,65979,1,0,3:0:0:0:
145,48,66071,1,8,3:3:0:0:
174,28,66163,1,0,3:0:0:0:
204,9,66255,1,0,3:0:0:0:
214,43,66347,1,0,3:0:0:0:
221,74,66439,6,0,P|224:116|216:157,2,85,4|0|0,3:2|0:0|0:0,0:0:0:0:
118,144,66991,1,2,0:0:0:0:
206,248,67175,2,0,P|202:205|189:165,1,85,8|0,3:3|0:0,0:0:0:0:
98,64,67543,1,0,0:0:0:0:
40,172,67728,2,0,P|31:214|34:256,2,85,0|0|0,0:0|0:0|0:0,0:0:0:0:
194,273,68280,2,0,P|153:285|111:281,1,85,2|0,0:0|0:0,0:0:0:0:
215,157,68648,1,8,3:3:0:0:
330,246,68832,1,10,3:3:0:0:
431,147,69016,2,0,P|389:139|347:142,1,85,2|0,0:0|0:0,0:0:0:0:
471,279,69384,6,0,L|480:190,2,85,4|0|0,3:2|0:0|0:0,0:0:0:0:
384,339,69936,1,2,0:0:0:0:
323,222,70120,1,8,3:3:0:0:
404,133,70304,2,0,P|387:69|365:48,1,85,0|0,0:0|0:0,0:0:0:0:
282,131,70672,1,0,0:0:0:0:
210,27,70856,2,0,L|116:31,1,85,4|0,3:2|0:0,0:0:0:0:
83,81,71132,2,0,P|60:36|69:-3,1,85,2|0,0:0|0:0,0:0:0:0:
125,30,71409,1,2,0:0:0:0:
67,149,71593,1,8,3:3:0:0:
157,223,71777,1,0,0:0:0:0:
52,327,71961,2,0,P|99:313|147:316,1,85,8|0,3:3|0:0,0:0:0:0:
260,379,72329,6,0,P|328:375|391:389,2,127.5,4|2|2,3:2|0:0|0:0,0:0:0:0:
406,294,73065,2,0,P|364:305|322:301,1,85,8|0,3:3|0:0,0:0:0:0:
258,239,73433,1,0,0:0:0:0:
312,150,73617,1,0,0:0:0:0:
416,199,73801,2,0,L|430:282,1,85,4|0,3:2|0:0,0:0:0:0:
492,318,74077,1,2,0:0:0:0:
492,318,74169,2,0,L|506:234,1,85,2|0,0:0|0:0,0:0:0:0:
491,69,74537,1,8,3:3:0:0:
399,129,74721,1,0,0:0:0:0:
280,63,74905,2,0,P|237:64|197:77,1,85,8|0,3:3|0:0,0:0:0:0:
136,225,75274,5,4,3:2:0:0:
40,115,75458,1,2,3:1:0:0:
114,9,75642,1,0,3:0:0:0:
202,157,75826,5,8,3:3:0:0:
202,157,76194,1,8,3:3:0:0:
202,157,76562,1,0,3:0:0:0:
195,223,76654,1,0,3:0:0:0:
242,274,76746,5,4,3:2:0:0:
388,274,76930,1,2,3:1:0:0:
436,134,77114,1,0,3:0:0:0:
302,43,77298,5,8,3:3:0:0:
302,43,77666,2,0,P|240:36|199:37,2,85,8|0|0,3:3|3:0|3:0,3:0:0:0:
453,38,78218,6,0,P|459:80|460:122,1,85,4|0,3:2|0:0,0:0:0:0:
353,195,78586,1,8,3:3:0:0:
484,257,78770,2,0,P|444:240|402:238,1,85,2|0,0:0|0:0,0:0:0:0:
298,328,79139,2,0,P|367:332|396:322,1,85,2|8,0:0|3:3,0:0:0:0:
275,229,79507,2,0,P|206:225|177:235,2,85,0|2|0,0:0|0:0|0:0,0:0:0:0:
190,334,80059,2,0,P|125:332|95:318,1,85,8|0,3:3|0:0,0:0:0:0:
25,256,80427,1,2,3:1:0:0:
124,198,80611,1,0,0:0:0:0:
22,89,80795,1,10,3:3:0:0:
148,10,80979,1,0,0:0:0:0:
206,170,81163,6,0,P|211:212|192:256,2,85,4|0|8,3:2|0:0|3:3,0:0:0:0:
95,63,81715,2,0,P|135:79|198:66,1,85,2|0,0:0|0:0,0:0:0:0:
272,7,82083,1,0,0:0:0:0:
388,78,82267,1,8,3:3:0:0:
465,5,82451,2,0,P|482:62|478:89,2,85,0|6|0,0:0|3:2|0:0,0:0:0:0:
332,35,83004,2,0,P|318:82|329:117,1,85,8|0,3:3|0:0,0:0:0:0:
420,170,83372,1,2,3:1:0:0:
335,243,83556,1,0,0:0:0:0:
502,314,83740,1,8,3:3:0:0:
404,365,83924,1,2,3:2:0:0:
336,360,84016,1,2,3:2:0:0:
268,357,84108,6,0,P|262:295|310:246,2,127.5,4|2|2,3:2|0:0|0:0,0:0:0:0:
174,280,84844,2,0,P|128:269|71:286,1,85,0|2,0:0|0:0,0:0:0:0:
0,336,85212,1,8,3:3:0:0:
36,230,85396,2,0,P|31:183|10:130,2,85,0|0|0,0:0|0:0|0:0,0:0:0:0:
114,137,85948,1,8,3:3:0:0:
191,193,86132,1,0,0:0:0:0:
264,118,86317,2,0,P|306:114|354:129,1,85,0|0,3:1|0:0,0:0:0:0:
402,225,86685,2,0,P|443:229|491:214,1,85,10|0,3:3|0:0,0:0:0:0:
482,77,87053,5,4,3:2:0:0:
364,39,87237,1,0,0:0:0:0:
264,118,87421,1,8,3:3:0:0:
149,73,87605,1,0,0:0:0:0:
58,156,87789,2,0,P|37:118|27:77,1,85,2|0,3:1|0:0,0:0:0:0:
152,148,88157,2,0,P|141:189|121:226,1,85,8|0,3:3|0:0,0:0:0:0:
6,332,88525,5,4,3:2:0:0:
146,282,88709,1,0,0:0:0:0:
250,373,88893,1,8,3:3:0:0:
347,254,89077,1,0,0:0:0:0:
424,377,89261,1,2,3:3:0:0:
435,316,89353,2,0,L|441:271,1,42.5,0|2,3:0|3:3,3:0:0:0:
476,141,89629,1,14,3:3:0:0:
468,119,89721,1,0,3:0:0:0:
459,94,89813,1,0,3:0:0:0:
481,81,89905,1,0,3:0:0:0:
504,71,89997,6,0,P|448:72|388:54,2,102,4|2|0,3:2|0:0|0:0,0:0:0:0:
404,136,90734,2,0,P|365:127|333:130,1,68,8|0,3:3|0:0,0:0:0:0:
236,166,91102,1,2,3:1:0:0:
146,110,91286,1,0,0:0:0:0:
41,167,91470,6,0,P|33:113|41:46,2,102,4|2|0,3:2|0:0|0:0,0:0:0:0:
91,219,92114,1,2,0:0:0:0:
91,219,92206,2,0,P|106:268|105:292,1,68,10|0,3:3|0:0,0:0:0:0:
54,362,92574,1,2,3:1:0:0:
15,275,92758,1,0,0:0:0:0:
149,336,92942,6,0,P|186:345|219:338,1,68,4|0,3:2|0:0,0:0:0:0:
266,378,93218,2,0,P|299:365|374:380,1,102,2|2,0:0|0:0,0:0:0:0:
460,315,93678,2,0,P|458:351|480:396,2,68,8|2|2,3:3|0:0|3:1,0:0:0:0:
512,193,94231,1,0,0:0:0:0:
389,237,94415,6,0,P|356:244|322:245,1,68,4|0,3:2|0:0,0:0:0:0:
281,193,94691,2,0,P|230:188|180:197,1,102,2|2,0:0|0:0,0:0:0:0:
17,252,95151,1,8,3:3:0:0:
136,292,95335,1,2,0:0:0:0:
212,96,95519,1,8,3:3:0:0:
103,127,95703,1,8,3:3:0:0:
281,165,95887,6,0,P|309:146|326:117,1,68,4|0,3:2|0:0,0:0:0:0:
388,71,96163,2,0,P|394:121|416:167,1,102,2|2,0:0|0:0,0:0:0:0:
509,258,96623,2,0,P|484:242|429:234,2,68,8|2|0,3:3|0:0|0:0,0:0:0:0:
445,338,97175,1,0,0:0:0:0:
359,260,97359,6,0,P|358:209|384:166,2,102,4|2|2,3:2|0:0|0:0,0:0:0:0:
267,163,98096,1,8,3:3:0:0:
187,228,98280,1,0,0:0:0:0:
207,317,98464,2,0,P|175:328|141:330,1,68,2|0,3:1|0:0,0:0:0:0:
21,384,98832,6,2,P|40:336|38:286,1,102,6|0,3:2|0:0,0:0:0:0:
9,227,99200,2,0,P|9:193|22:162,1,68,2|2,3:1|0:0,0:0:0:0:
126,93,99568,2,0,L|135:167,2,68,8|0|0,3:3|0:0|0:0,0:0:0:0:
51,13,100120,1,2,0:0:0:0:
169,30,100304,6,0,L|236:27,1,68,4|0,3:2|0:0,0:0:0:0:
274,81,100580,2,0,L|406:91,1,102,2|2,0:0|0:0,0:0:0:0:
461,14,101040,2,0,L|427:11,2,34,10|0|0,3:3|3:0|3:0,3:0:0:0:
504,105,101409,1,10,3:3:0:0:
469,205,101593,1,2,3:3:0:0:
476,273,101685,1,0,3:0:0:0:
481,337,101777,6,0,P|481:285|501:241,2,102,4|2|0,3:2|0:0|0:0,0:0:0:0:
390,290,102513,2,0,P|358:282|324:280,1,68,8|0,3:3|0:0,0:0:0:0:
242,322,102881,1,2,3:1:0:0:
123,271,103065,1,2,0:0:0:0:
28,346,103249,6,0,P|79:355|128:345,2,102,4|2|2,3:2|0:0|0:0,0:0:0:0:
14,229,103985,2,0,P|8:195|11:161,1,68,8|0,3:3|0:0,0:0:0:0:
112,99,104353,2,0,P|91:125|80:158,1,68,2|0,3:1|0:0,0:0:0:0:
252,149,104721,6,0,P|227:101|201:84,1,68,4|0,3:2|0:0,0:0:0:0:
182,30,104997,2,0,P|244:27|284:51,1,102,2|2,0:0|0:0,0:0:0:0:
350,139,105458,1,8,3:3:0:0:
383,51,105642,1,2,0:0:0:0:
452,99,105826,1,2,3:1:0:0:
512,0,106010,1,0,0:0:0:0:
478,97,106194,6,0,P|472:150|482:186,1,68,4|0,3:2|0:0,0:0:0:0:
504,218,106470,2,0,P|519:267|511:317,1,102,2|0,0:0|0:0,0:0:0:0:
389,354,106930,1,8,3:3:0:0:
355,238,107114,1,2,0:0:0:0:
199,198,107298,1,8,3:3:0:0:
161,306,107482,1,0,0:0:0:0:
306,366,107666,6,0,P|305:332|293:300,1,68,4|0,3:2|0:0,0:0:0:0:
327,245,107942,2,0,P|319:194|326:144,1,102,2|2,0:0|0:0,0:0:0:0:
427,70,108402,2,0,P|450:94|465:125,2,68,8|2|2,3:3|0:0|3:1,0:0:0:0:
274,19,108955,1,0,0:0:0:0:
153,70,109139,6,0,P|102:73|55:55,2,102,4|2|2,3:2|0:0|0:0,0:0:0:0:
301,17,109875,2,0,L|298:84,1,68,8|0,3:3|0:0,0:0:0:0:
221,175,110243,2,0,L|223:242,1,68,2|0,3:1|0:0,0:0:0:0:
299,349,110611,6,0,P|274:325|242:316,1,68,4|0,3:2|0:0,0:0:0:0:
187,358,110887,2,0,P|123:354|76:372,1,102,2|2,0:0|0:0,0:0:0:0:
102,252,111347,2,0,L|118:166,2,68,8|2|2,3:3|0:0|0:0,0:0:0:0:
37,142,111899,1,0,0:0:0:0:
84,29,112083,6,0,P|138:51|197:36,1,102,4|2,3:2|0:0,0:0:0:0:
245,20,112451,2,0,L|317:28,1,68,0|2,0:0|0:0,0:0:0:0:
436,0,112820,1,10,3:3:0:0:
501,107,113004,1,0,3:3:0:0:
432,191,113188,1,10,3:3:0:0:
489,266,113372,1,0,3:3:0:0:
424,335,113556,6,0,L|529:345,2,89.2499972763062,4|2|0,3:2|0:0|0:0,0:0:0:0:
311,351,114292,2,0,L|235:359,1,59.4999981842042,8|2,3:3|0:0,0:0:0:0:
150,316,114660,1,2,3:2:0:0:
87,366,114844,1,0,0:0:0:0:
20,322,115028,1,4,3:2:0:0:
69,241,115212,2,0,P|79:273|82:300,1,59.4999981842042,2|2,0:0|3:1,0:0:0:0:
118,124,115672,1,0,3:0:0:0:
112,56,115764,2,0,L|109:16,1,29.7499990921021,8|0,3:3|3:0,3:0:0:0:
219,93,116040,1,0,3:0:0:0:
213,161,116132,2,0,L|210:201,1,29.7499990921021,2|0,3:3|3:0,3:0:0:0:
288,132,116317,1,0,3:0:0:0:
294,66,116409,1,0,3:0:0:0:
300,0,116501,5,4,3:2:0:0:
383,85,116685,2,0,P|388:114|387:143,2,59.4999981842042,0|2|0,0:0|3:1|0:0,0:0:0:0:
449,13,117237,1,10,3:3:0:0:
449,13,117605,1,2,3:2:0:0:
509,114,117789,1,0,0:0:0:0:
466,183,117973,1,4,3:2:0:0:
508,253,118157,2,0,L|501:325,1,59.4999981842042,0|2,0:0|3:1,0:0:0:0:
386,362,118525,1,2,3:3:0:0:
378,296,118617,2,0,L|374:266,1,29.7499990921021,0|0,3:0|3:0,3:0:0:0:
287,384,118893,1,2,3:3:0:0:
295,318,118985,2,0,L|298:288,1,29.7499990921021,0|2,3:0|3:2,3:0:0:0:
197,369,119261,1,0,3:0:0:0:
126,365,119353,1,0,3:0:0:0:
54,361,119445,6,0,P|10:365|-28:386,2,89.2499972763062,4|2|2,3:2|0:0|0:0,0:0:0:0:
102,261,120182,1,8,3:3:0:0:
102,261,120550,1,2,3:2:0:0:
50,186,120734,1,2,0:0:0:0:
105,107,120918,1,4,3:2:0:0:
24,33,121102,2,0,P|22:62|30:91,1,59.4999981842042,0|2,0:0|3:1,0:0:0:0:
192,14,121562,1,0,3:0:0:0:
260,6,121654,2,0,L|305:1,2,29.7499990921021,8|0|0,3:3|3:0|3:0,3:0:0:0:
218,137,122022,1,2,3:2:0:0:
220,172,122114,1,0,3:0:0:0:
223,207,122206,1,2,3:3:0:0:
253,224,122298,1,0,3:0:0:0:
284,241,122390,5,4,3:2:0:0:
378,154,122574,1,0,3:0:0:0:
324,56,122758,1,8,3:3:0:0:
198,158,122942,5,0,3:0:0:0:
315,247,123126,1,0,3:0:0:0:
410,155,123310,1,0,3:0:0:0:
301,40,123494,5,8,3:3:0:0:
265,175,123678,1,2,3:3:0:0:
246,238,123770,1,0,3:0:0:0:
226,301,123863,5,4,3:2:0:0:
176,177,124047,2,0,L|173:148,2,29.7499990921021,2|0|8,3:3|3:0|3:3,3:0:0:0:
117,304,124415,2,0,L|111:337,2,29.7499990921021,2|0|8,3:3|3:0|3:3,3:0:0:0:
80,171,124783,1,2,3:3:0:0:
177,248,124967,1,8,3:3:0:0:
265,175,125151,1,0,3:0:0:0:
346,251,125335,6,0,P|411:255|443:243,2,89.2499972763062,4|2|2,3:2|0:0|0:0,0:0:0:0:
391,170,126071,2,0,P|399:139|394:92,1,59.4999981842042,8|0,3:3|0:0,0:0:0:0:
361,58,126347,1,2,0:0:0:0:
361,58,126439,2,0,P|338:84|334:110,1,59.4999981842042,2|0,3:2|0:0,0:0:0:0:
388,198,126807,1,4,3:2:0:0:
324,279,126991,2,0,P|318:308|322:337,2,59.4999981842042,0|2|0,0:0|3:1|3:0,0:0:0:0:
301,214,127451,2,0,L|299:168,2,29.7499990921021,0|8|0,3:0|3:3|3:0,3:0:0:0:
206,277,127820,1,0,3:0:0:0:
142,260,127912,2,0,L|102:251,1,29.7499990921021,2|0,3:2|3:0,3:0:0:0:
50,290,128096,1,0,3:0:0:0:
46,254,128188,1,0,3:0:0:0:
41,218,128280,6,0,P|29:175|0:142,2,89.2499972763062,4|2|2,3:2|0:0|0:0,0:0:0:0:
101,137,129016,2,0,P|102:92|123:53,1,89.2499972763062,8|2,3:3|0:0,0:0:0:0:
189,65,129384,1,2,3:2:0:0:
283,2,129568,1,0,0:0:0:0:
346,62,129752,1,4,3:2:0:0:
205,45,129936,1,0,0:0:0:0:
326,78,130120,2,0,L|333:156,1,59.4999981842042,2|0,3:1|3:0,0:0:0:0:
336,203,130396,1,0,0:0:0:0:
342,268,130488,2,0,P|356:219|374:198,1,59.4999981842042,8|0,3:3|3:0,3:0:0:0:
432,180,130764,1,0,3:0:0:0:
432,180,130856,2,0,P|464:188|474:194,2,29.7499990921021,8|0|0,3:3|3:0|3:0,3:0:0:0:
472,294,131224,6,0,P|433:307|402:347,1,89.2499972763062,4|2,3:2|0:0,0:0:0:0:
354,293,131593,2,0,P|321:286|290:291,1,59.4999981842042,2|2,3:1|0:0,0:0:0:0:
210,365,131961,2,0,P|151:378|98:367,2,89.2499972763062,8|2|2,3:3|0:0|0:0,0:0:0:0:
226,264,132697,1,4,3:2:0:0:
150,180,132881,2,0,L|145:255,2,59.4999981842042,0|2|0,0:0|3:1|0:0,0:0:0:0:
96,101,133433,2,0,L|88:37,1,59.4999981842042,8|2,3:3|3:2,0:0:0:0:
159,46,133709,1,0,0:0:0:0:
227,51,133801,2,0,L|268:53,1,29.7499990921021,2|0,3:2|3:0,3:0:0:0:
304,107,133985,1,0,3:0:0:0:
369,97,134077,1,0,3:0:0:0:
434,88,134169,5,4,3:2:0:0:
331,27,134353,1,0,3:0:0:0:
230,126,134537,1,2,3:1:0:0:
91,29,134721,5,0,3:0:0:0:
27,173,134905,1,8,3:3:0:0:
185,216,135090,1,2,3:1:0:0:
172,10,135274,5,8,3:3:0:0:
22,60,135458,1,0,3:1:0:0:
201,133,135642,5,4,3:2:0:0:
32,201,135826,1,2,3:1:0:0:
209,296,136010,1,8,3:3:0:0:
34,384,136194,1,2,3:1:0:0:
97,198,136378,5,8,3:3:0:0:
113,134,136470,1,0,3:0:0:0:
129,67,136562,1,0,3:0:0:0:
209,296,136746,5,8,3:3:0:0:
209,296,137114,6,0,P|269:282|345:315,1,118.999996368408,4|2,3:2|3:1,0:0:0:0:
396,352,137666,1,0,0:0:0:0:
474,270,137850,2,0,L|485:366,2,89.2499972763062,8|2|0,3:3|0:0|0:0,0:0:0:0:
419,171,138586,5,4,3:2:0:0:
334,231,138770,1,0,0:0:0:0:
260,164,138955,2,0,P|230:158|201:161,1,59.4999981842042,2|2,3:1|0:0,0:0:0:0:
130,256,139323,2,0,P|159:261|188:258,1,59.4999981842042,8|0,3:3|0:0,0:0:0:0:
105,164,139691,1,10,3:3:0:0:
28,235,139875,1,2,0:0:0:0:
11,122,140059,6,0,L|-2:54,1,59.4999981842042,4|2,3:2|0:0,0:0:0:0:
103,82,140427,2,0,L|91:140,1,59.4999981842042,2|2,3:1|0:0,0:0:0:0:
188,85,140795,2,0,P|218:81|248:84,1,59.4999981842042,8|0,3:3|0:0,0:0:0:0:
309,132,141163,1,8,3:3:0:0:
380,80,141347,1,2,0:0:0:0:
454,129,141531,6,0,L|458:179,2,44.6249986381531,4|2|2,3:2|0:0|0:0,0:0:0:0:
484,67,141899,2,0,L|489:8,1,59.4999981842042,2|2,3:1|0:0,0:0:0:0:
380,80,142267,1,8,3:3:0:0:
292,23,142451,1,0,0:0:0:0:
209,77,142636,2,0,P|179:81|149:79,1,59.4999981842042,4|2,3:2|0:0,0:0:0:0:
37,16,143004,5,4,3:2:0:0:
89,115,143188,1,2,0:0:0:0:
22,210,143372,2,0,L|21:150,1,59.4999981842042,2|0,3:1|0:0,0:0:0:0:
131,204,143740,2,0,L|130:263,1,59.4999981842042,8|0,3:3|0:0,0:0:0:0:
8,334,144108,1,8,3:3:0:0:
63,267,144292,1,2,0:0:0:0:
144,336,144476,6,0,P|186:351|217:381,1,89.2499972763062,4|2,3:2|0:0,0:0:0:0:
264,331,144844,2,0,L|256:271,1,59.4999981842042,2|2,3:1|0:0,0:0:0:0:
198,164,145212,2,0,L|195:243,2,59.4999981842042,8|2|10,3:3|0:0|3:3,0:0:0:0:
262,94,145764,1,2,0:0:0:0:
331,161,145948,6,0,P|342:209|340:268,1,89.2499972763062,4|2,3:2|0:0,0:0:0:0:
379,303,146317,2,0,P|376:342|383:367,1,59.4999981842042,8|0,3:3|0:0,0:0:0:0:
455,285,146685,2,0,P|458:246|451:221,1,59.4999981842042,8|0,3:3|0:0,0:0:0:0:
359,157,147053,1,8,3:3:0:0:
441,68,147237,1,2,3:0:0:0:
454,132,147329,1,2,3:0:0:0:
468,199,147421,6,0,L|477:242,1,29.7499990921021,4|0,3:2|3:0,3:0:0:0:
379,303,147605,2,0,L|388:260,1,29.7499990921021,0|0,3:0|3:0,3:0:0:0:
267,228,147789,2,0,L|276:271,1,29.7499990921021,8|0,3:3|3:0,3:0:0:0:
173,337,147973,2,0,L|179:307,1,29.7499990921021,0|0,3:0|3:0,3:0:0:0:
36,263,148157,5,8,3:3:0:0:
36,263,148525,2,0,L|48:187,1,59.4999981842042,8|0,3:3|3:0,3:0:0:0:
144,146,148893,6,0,P|159:185|159:227,2,85,4|2|0,3:2|0:0|0:0,0:0:0:0:
33,94,149445,1,2,0:0:0:0:
143,28,149629,2,0,P|184:22|225:31,1,85,10|0,3:3|0:0,0:0:0:0:
275,138,149997,1,0,0:0:0:0:
310,38,150182,2,0,L|299:125,2,85,0|2|0,0:0|0:0|0:0,0:0:0:0:
424,115,150734,2,0,P|436:156|433:199,1,85,0|0,0:0|0:0,0:0:0:0:
387,248,151010,1,2,0:0:0:0:
387,248,151102,2,0,P|374:289|377:332,1,85,10|8,3:3|3:3,0:0:0:0:
462,254,151470,1,0,0:0:0:0:
356,187,151654,1,2,0:0:0:0:
279,276,151838,6,0,P|238:289|184:282,1,85,4|0,3:2|0:0,0:0:0:0:
150,230,152114,2,0,P|213:204|273:209,1,127.5,2|0,0:0|0:0,0:0:0:0:
390,282,152574,1,8,3:3:0:0:
444,183,152758,2,0,P|481:163|523:163,1,85,0|2,0:0|0:0,0:0:0:0:
489,250,153126,1,0,0:0:0:0:
375,166,153310,2,0,L|282:163,1,85,4|0,3:2|0:0,0:0:0:0:
250,217,153586,2,0,L|120:223,1,127.5,2|0,0:0|0:0,0:0:0:0:
42,139,154047,1,8,3:3:0:0:
126,31,154231,1,0,3:0:0:0:
193,42,154323,1,0,3:0:0:0:
259,52,154415,1,8,3:3:0:0:
259,52,154783,6,0,P|277:112|264:195,2,127.5,4|2|0,3:2|0:0|0:0,0:0:0:0:
183,142,155519,2,0,P|176:186|183:225,2,85,8|0|0,3:3|0:0|0:0,0:0:0:0:
298,181,156071,1,0,0:0:0:0:
389,102,156255,2,0,L|398:14,1,85,4|0,3:2|0:0,0:0:0:0:
466,46,156531,1,2,0:0:0:0:
466,46,156623,2,0,L|474:130,1,85,2|0,0:0|0:0,0:0:0:0:
389,244,156991,1,8,3:3:0:0:
512,294,157175,1,0,0:0:0:0:
394,345,157359,1,8,3:3:0:0:
490,382,157543,1,0,0:0:0:0:
498,269,157728,5,4,3:2:0:0:
351,182,157912,1,2,3:1:0:0:
267,319,158096,1,0,0:0:0:0:
89,227,158280,5,8,3:3:0:0:
89,227,158648,1,8,3:3:0:0:
89,227,159016,1,0,0:0:0:0:
77,157,159108,1,0,0:0:0:0:
104,92,159200,5,4,3:2:0:0:
228,36,159384,1,2,3:1:0:0:
321,158,159568,1,0,0:0:0:0:
206,248,159752,5,8,3:3:0:0:
206,248,160120,1,8,3:3:0:0:
238,162,160304,1,0,0:0:0:0:
321,158,160488,1,0,0:0:0:0:
378,244,160672,6,0,L|398:337,1,85,4|0,3:2|0:0,0:0:0:0:
458,362,160948,1,2,0:0:0:0:
458,362,161040,2,0,L|475:278,1,85,8|2,3:3|0:0,0:0:0:0:
400,179,161409,2,0,P|441:187|482:177,1,85,0|0,0:0|0:0,0:0:0:0:
494,57,161777,1,10,3:3:0:0:
397,23,161961,2,0,L|313:40,2,85,0|2|0,0:0|0:0|0:0,0:0:0:0:
315,69,162513,1,8,3:3:0:0:
196,20,162697,1,0,0:0:0:0:
109,102,162881,2,0,P|66:106|25:96,1,85,2|0,3:1|0:0,0:0:0:0:
124,15,163249,1,10,3:3:0:0:
190,118,163433,1,2,0:0:0:0:
73,196,163617,6,0,P|115:189|153:207,1,85,4|0,3:2|0:0,0:0:0:0:
173,270,163893,1,2,0:0:0:0:
173,270,163985,1,10,3:3:0:0:
271,232,164169,1,0,0:0:0:0:
325,319,164353,2,0,L|238:334,1,85,0|0,0:0|0:0,0:0:0:0:
156,295,164721,1,10,3:3:0:0:
80,369,164905,1,2,0:0:0:0:
16,283,165090,2,0,L|5:188,1,85,4|0,3:2|0:0,0:0:0:0:
111,127,165458,2,0,L|120:42,1,85,8|0,3:3|0:0,0:0:0:0:
43,96,165826,1,2,3:1:0:0:
126,152,166010,1,2,0:0:0:0:
237,71,166194,1,8,3:3:0:0:
321,116,166378,1,2,0:0:0:0:
307,232,166562,6,0,P|299:294|324:373,1,127.5,4|2,3:2|0:0,0:0:0:0:
386,384,166930,2,0,P|389:342|358:296,1,85,8|2,3:3|0:0,0:0:0:0:
227,346,167298,2,0,P|185:346|150:322,1,85,0|0,0:0|0:0,0:0:0:0:
133,226,167666,1,8,3:3:0:0:
228,164,167850,1,0,0:0:0:0:
307,232,168034,2,0,L|402:237,1,85,4|0,3:2|0:0,0:0:0:0:
453,278,168310,1,2,0:0:0:0:
453,278,168402,2,0,P|464:225|441:176,1,85,10|0,3:3|0:0,0:0:0:0:
356,146,168770,1,2,3:1:0:0:
387,35,168955,1,2,0:0:0:0:
504,61,169139,1,8,3:3:0:0:
438,133,169323,1,2,0:0:0:0:
314,61,169507,6,0,P|272:52|230:57,1,85,4|0,3:2|0:0,0:0:0:0:
192,110,169783,1,2,0:0:0:0:
192,110,169875,2,0,P|149:114|108:106,1,85,10|0,3:3|0:0,0:0:0:0:
35,54,170243,2,0,L|42:138,1,85,2|0,3:1|0:0,0:0:0:0:
98,245,170611,1,8,3:3:0:0:
42,327,170795,1,0,0:0:0:0:
121,260,170979,2,0,P|182:256|226:273,1,85,4|0,3:2|0:0,0:0:0:0:
270,307,171255,1,2,0:0:0:0:
270,307,171347,2,0,L|273:216,1,85,10|0,3:3|0:0,0:0:0:0:
279,91,171715,1,2,3:3:0:0:
357,175,171899,2,0,L|417:179,2,42.5,2|0|14,3:3|3:0|3:3,3:0:0:0:
196,164,172267,1,0,3:0:0:0:
123,156,172359,1,0,3:0:0:0:
52,149,172451,5,4,3:2:0:0:
97,368,173924,5,4,3:2:0:0:
325,310,174476,5,0,3:0:0:0:
325,310,174568,1,0,3:0:0:0:
325,310,174660,2,0,L|331:388,1,68,8|0,3:3|3:0,3:0:0:0:
446,322,175028,2,0,L|451:254,1,68,0|0,3:0|3:0,3:0:0:0:
386,163,175396,5,4,3:2:0:0:
379,94,175488,1,0,3:0:0:0:
372,24,175580,1,0,3:0:0:0:
366,144,175948,5,8,3:3:0:0:
359,75,176040,1,0,3:0:0:0:
352,5,176132,1,0,3:0:0:0:
249,227,176501,5,4,3:2:0:0:
242,297,176593,1,0,3:0:0:0:
235,366,176685,1,0,3:0:0:0:
232,202,177053,5,8,3:3:0:0:
225,272,177145,1,0,3:0:0:0:
218,341,177237,1,0,3:0:0:0:
41,189,177605,6,0,L|27:140,2,34,4|0|0,3:2|3:0|3:0,3:0:0:0:
79,293,177973,2,0,L|63:343,2,34,8|0|0,3:3|3:0|3:0,3:0:0:0:
123,196,178341,5,4,3:2:0:0:
145,129,178433,1,0,3:0:0:0:
167,63,178525,1,0,3:0:0:0:
149,189,178893,5,8,3:3:0:0:
171,123,178985,1,0,3:0:0:0:
193,57,179077,1,0,3:0:0:0:
301,227,179445,5,4,3:2:0:0:
323,293,179537,1,0,3:0:0:0:
345,359,179629,1,0,3:0:0:0:
327,233,179997,5,8,3:3:0:0:
349,299,180089,1,0,3:0:0:0:
371,366,180181,1,0,3:0:0:0:
438,183,180550,6,0,L|492:191,2,34,4|0|0,3:2|3:0|3:0,3:0:0:0:
307,157,180918,1,8,3:3:0:0:
267,145,181010,1,0,3:0:0:0:
228,131,181102,1,0,3:0:0:0:
223,90,181194,1,0,3:0:0:0:
222,49,181286,6,0,L|219:4,2,34,4|0|0,3:2|3:0|3:0,3:0:0:0:
196,39,181838,2,0,L|193:5,2,34,8|0|0,3:3|3:0|3:0,3:0:0:0:
112,191,182390,6,0,L|109:224,2,34,4|0|0,3:2|3:0|3:0,3:0:0:0:
86,201,182942,2,0,L|83:234,2,34,8|0|0,3:3|3:0|3:0,3:0:0:0:
265,137,183494,6,0,L|326:144,2,34,4|0|0,3:2|3:0|3:0,3:0:0:0:
167,94,183863,2,0,L|106:101,2,34,8|0|0,3:3|3:0|3:0,3:0:0:0:
290,42,184231,5,4,3:2:0:0:
359,47,184323,1,0,3:0:0:0:
428,53,184415,1,0,3:0:0:0:
306,68,184783,5,8,3:3:0:0:
375,73,184875,1,0,3:0:0:0:
444,79,184967,1,0,3:0:0:0:
317,94,185335,6,0,P|313:155|336:218,1,102,4|0,3:2|3:0,3:0:0:0:
387,231,185703,5,4,3:2:0:0:
363,264,185795,1,0,3:0:0:0:
322,271,185887,1,0,3:0:0:0:
282,259,185979,1,0,3:0:0:0:
231,300,186071,1,0,3:0:0:0:
192,285,186163,1,0,3:0:0:0:
151,287,186255,1,0,3:0:0:0:
114,305,186347,1,0,3:0:0:0:
53,276,186439,6,0,L|51:243,3,34,8|0|0|0,3:3|3:0|3:0|3:0,3:0:0:0:
114,209,186807,2,0,L|116:161,3,34,0|0|0|0,3:0|3:0|3:0|3:0,3:0:0:0:
41,131,187175,6,0,P|35:97|37:63,1,68,4|0,3:2|0:0,0:0:0:0:
152,32,187543,1,10,3:3:0:0:
213,107,187728,2,0,L|305:113,2,68
189,191,188280,2,0,P|188:224|196:257,1,68,10|0,3:3|0:0,0:0:0:0:
146,341,188648,2,0,P|176:356|209:362,1,68,6|0,3:2|0:0,0:0:0:0:
321,295,189016,2,0,P|288:284|255:289,1,68,10|0,3:3|0:0,0:0:0:0:
146,341,189384,1,2,0:0:0:0:
58,286,189568,1,2,0:0:0:0:
93,193,189752,2,0,P|125:184|159:188,1,68,8|2,3:3|0:0,0:0:0:0:
249,256,190120,5,4,3:2:0:0:
304,167,190304,1,0,0:0:0:0:
394,286,190488,1,10,3:3:0:0:
454,182,190672,1,0,0:0:0:0:
370,272,190856,2,0,P|363:312|372:362,1,68,2|2,0:0|0:0,0:0:0:0:
471,292,191224,1,10,3:3:0:0:
426,189,191409,1,2,0:0:0:0:
499,98,191593,2,0,P|466:88|432:88,1,68,4|0,3:2|0:0,0:0:0:0:
340,153,191961,2,0,P|307:162|273:162,1,68,8|0,3:3|0:0,0:0:0:0:
191,99,192329,1,8,0:3:0:0:
106,188,192513,1,2,0:0:0:0:
192,290,192697,1,8,3:3:0:0:
296,229,192881,1,2,0:0:0:0:
392,356,193065,6,0,P|381:314|386:275,1,68,4|2,3:2|0:0,0:0:0:0:
495,218,193433,2,0,P|490:251|475:282,1,68,10|2,3:3|0:0,0:0:0:0:
357,175,193801,2,0,P|388:161|426:162,1,68,2|0,0:0|0:0,0:0:0:0:
382,289,194169,1,8,3:3:0:0:
279,248,194353,1,2,0:0:0:0:
193,317,194537,2,0,L|125:314,1,68,4|0,3:2|0:0,0:0:0:0:
19,214,194905,1,10,3:3:0:0:
117,242,195090,2,0,L|184:239,2,68,0|2|2,0:0|0:0|0:0,0:0:0:0:
23,345,195642,1,10,3:3:0:0:
125,314,195826,1,2,0:0:0:0:
112,215,196010,6,0,P|102:176|110:139,1,68,6|0,3:2|0:0,0:0:0:0:
175,78,196378,2,0,P|145:62|101:58,1,68,10|0,3:3|0:0,0:0:0:0:
183,178,196746,2,0,P|247:197|313:183,1,136,2|10,0:0|3:3,0:0:0:0:
371,101,197298,1,0,0:0:0:0:
423,182,197482,2,0,L|412:275,1,68,4|0,3:2|0:0,0:0:0:0:
500,295,197850,2,0,L|492:227,1,68,8|0,3:3|0:0,0:0:0:0:
427,332,198218,1,2,0:0:0:0:
327,280,198402,1,0,3:0:0:0:
261,291,198494,2,0,L|224:295,1,34,0|8,3:0|3:3,3:0:0:0:
148,375,198770,1,0,3:0:0:0:
76,366,198863,1,0,3:0:0:0:
4,353,198955,6,0,P|0:286|22:223,1,136,4|8,3:2|3:3,0:0:0:0:
102,181,199507,1,2,0:0:0:0:
22,119,199691,1,2,0:0:0:0:
114,68,199875,1,0,0:0:0:0:
0,0,200059,1,8,3:3:0:0:
47,116,200243,1,0,0:0:0:0:
127,45,200427,2,0,P|159:36|193:40,1,68,6|0,3:2|0:0,0:0:0:0:
269,136,200795,2,0,P|236:144|202:140,1,68,10|0,3:3|0:0,0:0:0:0:
331,75,201163,2,0,L|341:210,1,136,2|10,0:0|3:3,0:0:0:0:
349,318,201715,1,2,0:0:0:0:
462,254,201899,6,0,P|429:244|396:248,1,68,4|0,3:2|0:0,0:0:0:0:
319,326,202267,2,0,P|286:335|253:331,1,68,8|0,3:3|0:0,0:0:0:0:
173,270,202636,1,2,0:0:0:0:
104,331,202820,1,0,0:0:0:0:
38,253,203004,1,10,3:3:0:0:
12,359,203188,1,0,0:0:0:0:
63,263,203372,2,0,P|68:230|66:196,1,68,4|0,3:2|0:0,0:0:0:0:
10,100,203740,2,0,L|173:112,1,136,10|0,3:3|0:0,0:0:0:0:
223,174,204292,1,2,0:0:0:0:
333,72,204476,1,8,3:3:0:0:
398,138,204660,1,2,0:0:0:0:
481,44,204844,6,0,P|470:77|466:111,1,68,6|0,3:2|0:0,0:0:0:0:
506,212,205212,2,0,P|473:201|439:197,1,68,10|0,3:3|0:0,0:0:0:0:
326,243,205580,2,0,P|291:247|253:236,2,68,2|2|8,0:0|0:0|3:3,0:0:0:0:
377,152,206132,1,0,0:0:0:0:
396,276,206317,2,0,L|405:366,2,68,4|2|10,3:2|0:0|3:3,0:0:0:0:
297,178,206869,1,0,0:0:0:0:
194,241,207053,2,0,P|147:252|105:239,1,68,2|2,0:0|0:0,0:0:0:0:
58,173,207421,1,8,3:3:0:0:
15,273,207605,1,2,0:0:0:0:
84,172,207789,6,0,P|113:155|147:153,1,68,6|0,3:2|0:0,0:0:0:0:
237,107,208157,2,0,P|266:123|285:151,1,68,10|0,3:3|0:0,0:0:0:0:
267,248,208525,1,2,0:0:0:0:
166,173,208709,1,2,0:0:0:0:
119,315,208893,1,8,3:3:0:0:
245,269,209077,1,0,0:0:0:0:
364,346,209261,1,4,3:2:0:0:
449,294,209445,1,2,0:0:0:0:
395,210,209629,2,0,P|388:176|390:142,1,68,10|0,3:3|0:0,0:0:0:0:
473,44,209997,5,0,3:0:0:0:
405,34,210090,1,0,3:0:0:0:
338,19,210182,1,0,3:0:0:0:
271,4,210274,1,0,3:0:0:0:
209,48,210366,2,0,L|211:91,3,34,8|0|0|0,3:3|3:0|3:0|3:0,3:0:0:0:
275,141,210734,6,0,L|292:347,1,204,4|0,3:2|0:0,0:0:0:0:
107,347,213310,1,2,0:0:0:0:
48,299,213494,1,2,0:0:0:0:
187,324,213678,6,0,P|284:345|367:290,1,204,4|0,3:2|0:0,0:0:0:0:
340,105,216255,1,2,0:0:0:0:
336,174,216439,1,2,0:0:0:0:
454,202,216623,6,0,P|448:119|395:54,1,170,4|0,3:2|0:0,0:0:0:0:
292,108,218832,1,0,0:0:0:0:
292,108,219200,1,0,0:0:0:0:
202,56,219384,1,0,0:0:0:0:
128,164,219568,5,6,3:2:0:0:
53,34,219752,1,2,0:0:0:0:
53,34,220120,1,2,0:0:0:0:
53,34,220488,1,2,0:0:0:0:
53,34,220856,1,2,2:0:0:0:
0,144,221040,5,6,3:2:0:0:
163,174,221224,1,2,0:0:0:0:
2,294,221409,1,2,0:0:0:0:
184,331,221593,2,0,L|260:345,2,68,0|2|2,0:0|0:0|0:0,0:0:0:0:
308,243,222513,5,4,3:2:0:0:
358,322,222697,2,0,P|400:323|441:314,1,85,2|0,0:0|0:0,0:0:0:0:
500,219,223065,1,0,0:0:0:0:
387,146,223249,2,0,L|394:230,1,85,8|0,3:3|0:0,0:0:0:0:
453,302,223617,1,0,0:0:0:0:
483,147,223801,2,0,L|490:62,2,85,2|6|0,0:0|3:2|0:0,0:0:0:0:
327,90,224353,2,0,P|366:72|408:70,1,85,0|0,0:0|0:0,0:0:0:0:
272,3,224721,1,8,3:3:0:0:
199,95,224905,1,10,3:3:0:0:
345,179,225090,1,0,0:0:0:0:
307,91,225274,1,2,0:0:0:0:
184,111,225458,5,4,3:2:0:0:
131,183,225642,2,0,L|138:296,2,85,0|2|0,0:0|0:0|0:0,0:0:0:0:
36,46,226194,2,0,P|79:44|119:56,1,85,8|0,3:3|0:0,0:0:0:0:
193,126,226562,1,0,0:0:0:0:
62,204,226746,1,2,0:0:0:0:
259,285,226930,1,4,3:2:0:0:
209,215,227114,1,2,0:0:0:0:
136,267,227298,2,0,B|122:308|128:362,1,85
232,289,227666,1,8,3:3:0:0:
364,361,227850,1,0,3:0:0:0:
402,365,227942,1,0,3:0:0:0:
439,369,228034,1,8,3:3:0:0:
477,372,228126,1,0,3:0:0:0:
448,346,228218,1,0,3:0:0:0:
418,321,228310,1,0,3:0:0:0:
386,298,228402,6,0,P|374:237|417:194,1,127.5,4|2,3:2|0:0,0:0:0:0:
482,212,228770,2,0,L|491:127,1,85,2|2,0:0|0:0,0:0:0:0:
376,26,229139,2,0,L|385:111,1,85,8|0,3:3|0:0,0:0:0:0:
469,49,229507,1,0,0:0:0:0:
303,24,229691,2,0,L|214:9,2,85,2|2|0,0:0|0:0|0:0,0:0:0:0:
157,149,230243,2,0,P|152:106|161:65,1,85,0|0,0:0|0:0,0:0:0:0:
317,151,230611,2,0,P|326:192|321:234,1,85,8|2,3:3|0:0,0:0:0:0:
264,299,230979,1,10,3:3:0:0:
168,284,231163,1,2,0:0:0:0:
138,145,231347,5,4,3:2:0:0:
267,87,231531,1,2,3:1:0:0:
398,172,231715,1,0,3:0:0:0:
351,344,231899,5,8,3:3:0:0:
351,344,232267,1,8,3:3:0:0:
351,344,232636,1,0,3:0:0:0:
282,332,232728,1,0,3:0:0:0:
216,319,232820,5,4,3:2:0:0:
321,234,233004,1,2,3:1:0:0:
249,105,233188,1,0,3:0:0:0:
76,164,233372,2,0,L|63:99,2,42.5,8|0|0,3:3|3:0|3:0,3:0:0:0:
122,218,233648,1,0,3:0:0:0:
147,221,233740,2,0,L|154:167,1,42.5,8|0,3:3|3:0,3:0:0:0:
16,266,233924,1,0,3:0:0:0:
43,292,234016,1,0,3:0:0:0:
25,325,234108,1,0,3:0:0:0:
6,358,234200,1,0,3:0:0:0:
33,384,234292,6,0,L|117:374,1,85,4|0,3:2|0:0,0:0:0:0:
223,250,234660,2,0,P|205:288|199:330,1,85,8|2,3:3|0:0,0:0:0:0:
337,381,235028,2,0,P|335:338|323:298,1,85,0|0,0:0|0:0,0:0:0:0:
300,229,235304,1,2,0:0:0:0:
299,229,235396,2,0,P|341:226|378:247,1,85,10|0,3:3|0:0,0:0:0:0:
432,326,235764,1,4,3:2:0:0:
512,257,235948,1,2,0:0:0:0:
466,145,236132,2,0,P|455:185|448:227,1,85,8|0,3:3|0:0,0:0:0:0:
370,144,236501,2,0,P|363:102|352:62,1,85,2|0,3:1|0:0,0:0:0:0:
440,0,236869,1,8,3:3:0:0:
497,72,237053,1,2,0:0:0:0:
338,46,237237,6,0,L|209:33,1,127.5,4|2,3:2|0:0,0:0:0:0:
177,96,237605,2,0,L|265:105,1,85,8|2,3:3|0:0,0:0:0:0:
364,162,237973,1,0,0:0:0:0:
270,192,238157,1,0,0:0:0:0:
377,253,238341,2,0,P|393:292|399:333,1,85,8|2,3:3|0:0,0:0:0:0:
339,363,238617,1,2,0:0:0:0:
339,363,238709,2,0,L|228:354,1,85,6|0,3:2|0:0,0:0:0:0:
116,263,239077,2,0,L|200:256,1,85,8|0,3:3|0:0,0:0:0:0:
296,184,239445,1,2,3:1:0:0:
207,123,239629,1,0,0:0:0:0:
329,52,239813,2,0,P|346:90|352:132,1,85,8|2,3:3|0:0,0:0:0:0:
420,153,240090,1,2,0:0:0:0:
419,153,240182,6,0,P|431:112|455:77,1,85,6|0,3:2|0:0,0:0:0:0:
313,31,240550,2,0,L|228:27,1,85,8|2,3:3|0:0,0:0:0:0:
153,84,240918,1,2,0:0:0:0:
79,23,241102,1,0,0:0:0:0:
11,111,241286,1,8,3:3:0:0:
129,167,241470,2,0,P|142:208|148:250,2,85,2|2|0,0:0|0:0|0:0,0:0:0:0:
27,236,242022,2,0,P|14:276|8:318,1,85,8|0,3:3|0:0,0:0:0:0:
104,381,242390,1,2,3:1:0:0:
203,323,242574,1,2,0:0:0:0:
91,296,242758,1,8,3:3:0:0:
178,243,242942,1,2,0:0:0:0:
294,281,243126,6,0,P|335:287|378:284,1,85,4|0,3:2|0:0,0:0:0:0:
331,135,243494,2,0,P|288:131|246:138,1,85,8|2,3:3|0:0,0:0:0:0:
363,214,243863,1,2,3:1:0:0:
445,141,244047,1,0,0:0:0:0:
341,31,244231,2,0,L|333:115,1,85,8|0,3:3|0:0,0:0:0:0:
165,11,244599,2,0,L|172:95,1,85,4|2,3:2|0:0,0:0:0:0:
4,175,244967,2,0,L|11:90,1,85,8|2,3:3|0:0,0:0:0:0:
176,179,245335,5,2,3:3:0:0:
178,246,245427,1,0,3:0:0:0:
116,216,245519,2,0,L|103:153,2,42.5,2|0|14,3:3|3:0|3:3,3:0:0:0:
6,270,245887,1,0,3:0:0:0:
8,303,245979,1,0,3:0:0:0:
9,329,246071,6,0,P|57:341|105:325,1,102,4|2,3:2|0:0,0:0:0:0:
165,355,246439,2,0,P|203:350|256:355,1,68,8|2,3:3|0:0,0:0:0:0:
364,384,246807,1,8,3:3:0:0:
315,314,246991,1,2,0:0:0:0:
372,244,247175,1,8,3:3:0:0:
318,177,247359,1,0,0:0:0:0:
374,99,247543,2,0,L|384:-6,2,102,6|2|2,3:2|0:0|0:0,0:0:0:0:
480,138,248280,2,0,P|477:104|483:70,1,68,8|0,3:3|0:0,0:0:0:0:
399,188,248648,2,0,P|401:221|395:255,1,68,2|2,3:1|0:0,0:0:0:0:
333,302,248924,1,2,0:0:0:0:
333,302,249016,6,0,L|252:296,1,68,6|0,3:2|0:0,0:0:0:0:
218,347,249292,2,2,P|197:301|212:253,1,102
320,146,249752,1,8,3:3:0:0:
265,73,249936,1,0,0:0:0:0:
199,124,250120,1,2,3:1:0:0:
121,81,250304,1,0,0:0:0:0:
35,129,250488,2,0,P|41:80|76:23,1,102,4|2,3:2|0:0,0:0:0:0:
121,81,250856,2,0,P|132:130|131:170,1,68,2|2,3:1|0:0,0:0:0:0:
31,208,251224,2,0,L|91:214,1,34,8|0,3:3|3:0,3:0:0:0:
145,286,251409,2,0,L|111:282,1,34,0|0,3:0|3:0,3:0:0:0:
0,384,251593,1,8,3:3:0:0:
0,384,251961,6,0,P|19:339|41:312,1,68,4|0,3:2|0:0,0:0:0:0:
94,348,252237,2,0,P|144:364|195:346,1,102,2|2,0:0|0:0,0:0:0:0:
244,277,252697,1,8,3:3:0:0:
296,353,252881,1,0,0:0:0:0:
356,293,253065,1,2,3:1:0:0:
418,349,253249,1,0,0:0:0:0:
486,303,253433,2,0,L|495:220,1,68,4|0,3:2|0:0,0:0:0:0:
429,206,253709,2,0,L|420:123,1,68,2|0,0:0|0:0,0:0:0:0:
472,85,253985,1,2,0:0:0:0:
338,16,254169,2,0,P|357:67|351:132,1,102,10|2,3:3|0:0,0:0:0:0:
328,179,254537,2,0,P|300:159|286:128,1,68,2|0,3:1|0:0,0:0:0:0:
180,39,254905,6,0,L|60:30,2,102,4|2|2,3:2|0:0|0:0,0:0:0:0:
263,122,255642,1,8,3:3:0:0:
159,163,255826,1,2,0:0:0:0:
254,217,256010,1,2,3:1:0:0:
170,262,256194,1,0,0:0:0:0:
233,330,256378,2,0,P|267:336|344:322,2,102,4|2|2,3:2|0:0|0:0,0:0:0:0:
118,305,257114,1,8,3:3:0:0:
29,355,257298,1,0,3:0:0:0:
7,219,257482,1,10,3:3:0:0:
28,202,257574,1,0,3:0:0:0:
49,185,257666,1,2,3:3:0:0:
42,158,257758,1,0,3:0:0:0:
35,131,257850,6,0,L|51:56,1,68,4|0,3:2|0:0,0:0:0:0:
6,6,258126,2,0,P|65:-7|116:33,1,102,2|2,0:0|0:0,0:0:0:0:
170,123,258586,1,8,3:3:0:0:
213,39,258770,1,2,0:0:0:0:
333,17,258955,1,2,3:1:0:0:
360,100,259139,1,0,0:0:0:0:
484,138,259323,2,0,P|481:80|490:30,2,102,6|2|2,3:2|0:0|0:0,0:0:0:0:
398,232,260059,2,0,L|312:219,1,68,8|0,3:3|0:0,0:0:0:0:
401,369,260427,2,0,L|468:358,1,68,2|2,3:1|0:0,0:0:0:0:
335,303,260795,6,0,P|284:294|243:313,1,68,4|0,3:2|0:0,0:0:0:0:
228,357,261071,2,0,P|179:366|127:346,1,102,2|2,0:0|0:0,0:0:0:0:
141,186,261531,1,8,3:3:0:0:
186,288,261715,1,0,0:0:0:0:
37,321,261899,1,2,3:1:0:0:
63,215,262083,1,0,0:0:0:0:
7,112,262267,2,0,P|56:120|107:114,2,102,4|2|2,3:2|0:0|0:0,0:0:0:0:
56,7,263004,1,8,3:3:0:0:
150,54,263188,1,2,0:0:0:0:
381,169,263372,1,8,3:3:0:0:
163,200,263556,1,8,3:3:0:0:
288,15,263740,6,0,P|311:77|316:105,1,68,4|0,3:2|0:0,0:0:0:0:
299,145,264016,2,0,L|197:133,1,102,2|2,0:0|0:0,0:0:0:0:
29,230,264476,1,8,3:3:0:0:
156,222,264660,1,2,0:0:0:0:
232,302,264844,2,0,P|248:338|254:378,1,68,2|2,3:1|0:0,0:0:0:0:
398,256,265212,2,0,L|330:266,1,68,4|0,3:2|0:0,0:0:0:0:
288,212,265488,2,0,L|298:144,1,68,2|0,0:0|0:0,0:0:0:0:
311,78,265764,1,2,0:0:0:0:
174,10,265948,2,0,P|123:3|75:17,2,102,8|2|2,3:3|0:0|0:0,0:0:0:0:
149,183,266685,6,0,L|132:82,1,102,4|2,3:2|0:0,0:0:0:0:
61,88,267053,2,0,L|50:155,1,68,2|2,3:1|0:0,0:0:0:0:
7,268,267421,1,8,3:3:0:0:
93,228,267605,1,0,0:0:0:0:
176,265,267789,1,2,3:1:0:0:
254,220,267973,1,0,0:0:0:0:
394,318,268157,5,4,3:2:0:0:
337,123,268341,1,8,3:3:0:0:
325,193,268433,1,0,3:0:0:0:
313,263,268525,1,8,3:3:0:0:
313,263,268893,5,8,3:3:0:0:
155,216,269077,1,8,3:3:0:0:
5,172,269261,1,10,3:3:0:0:
481,103,269629,6,0,L|521:389,1,289,4|0,3:1|0:0,0:0:0:0:
