osu file format v14

[General]
AudioFilename: audio.mp3
AudioLeadIn: 0
PreviewTime: -1
Countdown: 1
SampleSet: None
StackLeniency: 0.7
Mode: 0
LetterboxInBreaks: 0
WidescreenStoryboard: 1

[Editor]
DistanceSpacing: 2.7
BeatDivisor: 4
GridSize: 16
TimelineZoom: 1

[Metadata]
Title:Dear, Are You Getting Sober
TitleUnicode:Dear, Are You Getting Sober
Artist:Foreground Eclipse
ArtistUnicode:Foreground Eclipse
Creator:Listle
Version:Wnksby's Extreme
Source:
Tags:
BeatmapID:1977992
BeatmapSetID:945199

[Difficulty]
HPDrainRate:5
CircleSize:4.3
OverallDifficulty:9.1
ApproachRate:9.4
SliderMultiplier:1.8
SliderTickRate:1

[Events]
//Background and Video events
0,0,"39037865_p0.jpg",0,0
//Break Periods
//Storyboard Layer 0 (Background)
//Storyboard Layer 1 (Fail)
//Storyboard Layer 2 (Pass)
//Storyboard Layer 3 (Foreground)
//Storyboard Sound Samples

[TimingPoints]
1737,329.67032967033,4,1,0,100,1,0
18797,-66.6666666666667,4,1,0,80,0,0
27698,-100,4,1,0,80,0,0
46407,-66.6666666666667,4,1,0,80,0,0
69566,-100,4,1,0,80,0,0
90006,-66.6666666666667,4,1,0,80,0,0
90665,-50,4,1,0,80,0,0
91324,-66.6666666666667,4,1,0,80,0,0

[HitObjects]
98,70,1737,5,0,0:0:0:0:
38,136,1901,1,0,0:0:0:0:
110,189,2066,1,0,0:0:0:0:
71,270,2231,5,0,0:0:0:0:
71,270,2313,1,0,0:0:0:0:
71,270,2396,2,0,P|109:311|177:305,1,90
231,311,2726,1,0,0:0:0:0:
333,238,2890,1,0,0:0:0:0:
421,148,3055,5,0,0:0:0:0:
481,82,3219,1,0,0:0:0:0:
409,30,3384,1,0,0:0:0:0:
282,17,3550,5,0,0:0:0:0:
282,17,3632,1,0,0:0:0:0:
282,17,3715,2,0,P|224:57|218:93,1,90
245,167,4044,2,0,P|303:127|309:91,1,90
407,116,4374,5,0,0:0:0:0:
479,168,4539,1,0,0:0:0:0:
419,234,4703,1,0,0:0:0:0:
342,297,4868,5,0,0:0:0:0:
342,297,4951,1,0,0:0:0:0:
342,297,5033,2,0,P|258:324|233:328,1,90
158,344,5363,1,0,0:0:0:0:
222,235,5528,1,0,0:0:0:0:
393,136,5693,5,0,0:0:0:0:
202,86,5857,1,0,0:0:0:0:
389,58,6022,5,0,0:0:0:0:
228,173,6187,1,0,0:0:0:0:
397,275,6352,5,0,0:0:0:0:
262,129,6517,1,0,0:0:0:0:
451,187,6682,5,0,0:0:0:0:
266,256,6846,1,0,0:0:0:0:
46,147,7011,6,0,P|81:54|163:38,1,180
260,31,7506,1,0,0:0:0:0:
429,53,7671,1,0,0:0:0:0:
319,182,7835,2,0,P|265:243|165:258,1,180
22,172,8330,5,0,0:0:0:0:
212,90,8495,1,0,0:0:0:0:
6,60,8660,5,0,0:0:0:0:
183,163,8824,1,0,0:0:0:0:
10,278,8989,1,0,0:0:0:0:
200,332,9154,2,0,P|265:348|378:336,1,180
450,257,9649,5,0,0:0:0:0:
354,74,9813,1,0,0:0:0:0:
354,257,9978,5,0,0:0:0:0:
450,74,10142,1,0,0:0:0:0:
276,190,10308,1,0,0:0:0:0:
101,302,10473,2,0,P|48:243|66:126,1,180
114,58,10967,5,0,0:0:0:0:
313,114,11132,1,0,0:0:0:0:
112,166,11297,5,0,0:0:0:0:
311,222,11462,1,0,0:0:0:0:
107,263,11627,1,0,0:0:0:0:
297,341,11791,2,0,P|385:323|422:223,1,180
390,144,12286,5,0,0:0:0:0:
182,141,12451,1,0,0:0:0:0:
360,54,12616,1,0,0:0:0:0:
265,226,12780,1,0,0:0:0:0:
341,335,12945,5,0,0:0:0:0:
185,198,13110,1,0,0:0:0:0:
11,311,13275,5,0,0:0:0:0:
212,263,13440,1,0,0:0:0:0:
51,146,13605,5,0,0:0:0:0:
224,53,13769,1,0,0:0:0:0:
128,226,13934,1,0,0:0:0:0:
73,35,14099,1,0,0:0:0:0:
243,135,14264,1,0,0:0:0:0:
109,281,14429,1,0,0:0:0:0:
138,84,14594,1,0,0:0:0:0:
262,236,14758,1,0,0:0:0:0:
42,170,14923,6,0,P|49:220|81:273,1,90
215,333,15253,1,0,0:0:0:0:
434,208,15418,1,0,0:0:0:0:
181,218,15583,1,0,0:0:0:0:
415,306,15747,1,0,0:0:0:0:
282,91,15912,1,0,0:0:0:0:
189,325,16077,1,0,0:0:0:0:
30,192,16242,6,0,P|59:136|91:98,1,90
259,17,16572,1,0,0:0:0:0:
398,169,16737,1,0,0:0:0:0:
275,334,16901,5,0,0:0:0:0:
230,336,16984,1,0,0:0:0:0:
185,328,17065,1,0,0:0:0:0:
143,314,17148,1,0,0:0:0:0:
106,289,17230,1,0,0:0:0:0:
79,253,17313,1,0,0:0:0:0:
93,213,17395,1,0,0:0:0:0:
127,185,17477,1,0,0:0:0:0:
169,170,17560,5,0,0:0:0:0:
368,109,17726,1,0,0:0:0:0:
148,229,17890,1,0,0:0:0:0:
388,303,18055,1,0,0:0:0:0:
269,80,18220,1,0,0:0:0:0:
149,302,18385,1,0,0:0:0:0:
387,220,18550,1,0,0:0:0:0:
214,35,18715,1,0,0:0:0:0:
28,203,18879,6,0,P|70:243|157:257,1,135.000005149842
279,253,19209,1,0,0:0:0:0:
180,141,19374,1,0,0:0:0:0:
376,51,19539,5,0,0:0:0:0:
59,122,19704,1,0,0:0:0:0:
375,185,19868,5,0,0:0:0:0:
58,256,20033,1,0,0:0:0:0:
173,350,20198,6,0,P|266:348|311:312,1,135.000005149842
425,247,20528,1,0,0:0:0:0:
286,193,20693,1,0,0:0:0:0:
152,257,20857,6,0,P|84:209|81:144,1,135.000005149842
150,32,21187,1,0,0:0:0:0:
272,116,21352,1,0,0:0:0:0:
403,185,21517,6,0,P|386:255|325:288,1,135.000005149842
200,349,21846,1,0,0:0:0:0:
98,240,22011,1,0,0:0:0:0:
246,231,22176,6,0,P|191:161|147:140,1,135.000005149842
2,123,22506,1,0,0:0:0:0:
126,41,22671,1,0,0:0:0:0:
273,32,22835,6,0,P|351:47|403:105,1,135.000005149842
499,185,23165,1,0,0:0:0:0:
372,262,23330,1,0,0:0:0:0:
487,355,23495,6,0,P|401:348|343:330,1,135.000005149842
210,297,23824,1,0,0:0:0:0:
325,203,23989,1,0,0:0:0:0:
73,105,24154,5,0,0:0:0:0:
337,48,24319,1,0,0:0:0:0:
105,203,24484,5,0,0:0:0:0:
369,146,24649,1,0,0:0:0:0:
138,284,24813,5,0,0:0:0:0:
261,43,24978,1,0,0:0:0:0:
272,313,25143,5,0,0:0:0:0:
149,72,25308,1,0,0:0:0:0:
363,236,25473,6,0,P|397:160|355:107,1,135.000005149842
238,31,25802,1,0,0:0:0:0:
98,113,25967,1,0,0:0:0:0:
13,251,26132,6,0,P|62:302|141:324,1,135.000005149842
282,350,26462,1,0,0:0:0:0:
184,220,26627,1,0,0:0:0:0:
341,94,26791,5,0,0:0:0:0:
147,153,26956,1,0,0:0:0:0:
333,232,27121,5,0,0:0:0:0:
203,75,27286,1,0,0:0:0:0:
159,272,27451,5,0,0:0:0:0:
336,174,27616,1,0,0:0:0:0:
160,207,27780,6,0,B|41:171|65:147|135:92,1,180
281,43,28440,1,0,0:0:0:0:
399,177,28605,5,0,0:0:0:0:
279,82,28769,1,0,0:0:0:0:
432,84,28934,1,0,0:0:0:0:
301,164,29099,1,0,0:0:0:0:
445,215,29264,1,0,0:0:0:0:
350,94,29429,1,0,0:0:0:0:
322,244,29594,1,0,0:0:0:0:
462,302,29758,2,0,P|416:337|266:352,1,180
231,219,30418,5,0,0:0:0:0:
129,333,30583,1,0,0:0:0:0:
31,215,30748,2,0,P|28:134|115:47,1,180
221,131,31242,1,0,0:0:0:0:
357,62,31407,2,0,P|401:90|443:232,1,180
419,355,31901,1,0,0:0:0:0:
269,323,32066,5,0,0:0:0:0:
390,229,32231,1,0,0:0:0:0:
246,176,32396,1,0,0:0:0:0:
134,280,32561,1,0,0:0:0:0:
37,161,32726,2,0,P|42:87|74:69,1,90
146,32,33055,2,0,B|219:47|219:47|224:88|224:88|285:111,1,180
489,293,33879,5,0,0:0:0:0:
420,209,34044,1,0,0:0:0:0:
334,275,34209,1,0,0:0:0:0:
281,180,34374,1,0,0:0:0:0:
212,263,34539,5,0,0:0:0:0:
86,213,34704,1,0,0:0:0:0:
156,347,34868,1,0,0:0:0:0:
198,181,35033,1,0,0:0:0:0:
47,294,35198,1,0,0:0:0:0:
248,246,35363,1,0,0:0:0:0:
62,118,35528,1,0,0:0:0:0:
185,38,35858,5,0,0:0:0:0:
319,33,36022,2,0,P|382:49|457:172,1,180
414,266,36517,1,0,0:0:0:0:
294,329,36682,2,0,B|234:335|203:306|203:306|187:332|187:332|159:335|132:309,1,180
37,225,37176,1,0,0:0:0:0:
132,82,37341,1,0,0:0:0:0:
224,225,37506,1,0,0:0:0:0:
319,82,37671,2,0,B|359:103|395:103|395:103|416:134|426:206,1,180
58,349,38330,6,0,B|52:279|52:279|2:283|46:175,1,180
164,55,39154,5,0,0:0:0:0:
283,117,39319,1,0,0:0:0:0:
142,178,39484,1,0,0:0:0:0:
238,36,39649,1,0,0:0:0:0:
280,219,39813,1,0,0:0:0:0:
188,33,39978,1,0,0:0:0:0:
402,103,40143,1,0,0:0:0:0:
352,253,40308,2,0,P|314:300|200:328,1,180
60,232,40967,5,0,0:0:0:0:
216,161,41132,1,0,0:0:0:0:
53,108,41297,2,0,P|135:54|230:52,1,180
383,74,41791,5,0,0:0:0:0:
481,214,41956,2,0,B|427:205|403:219|403:219|417:248|417:248|385:263|335:259,1,180
194,331,42451,1,0,0:0:0:0:
103,242,42616,1,0,0:0:0:0:
31,355,42780,1,0,0:0:0:0:
165,284,42945,1,0,0:0:0:0:
35,171,43110,1,0,0:0:0:0:
132,332,43275,1,0,0:0:0:0:
188,104,43440,1,0,0:0:0:0:
429,338,43934,5,0,0:0:0:0:
318,260,44099,1,0,0:0:0:0:
458,198,44264,1,0,0:0:0:0:
343,324,44429,1,0,0:0:0:0:
289,142,44594,1,0,0:0:0:0:
456,262,44758,1,0,0:0:0:0:
243,187,44923,1,0,0:0:0:0:
457,71,45088,1,0,0:0:0:0:
216,36,45253,5,0,0:0:0:0:
95,115,45418,1,0,0:0:0:0:
261,154,45583,1,0,0:0:0:0:
104,34,45747,1,0,0:0:0:0:
206,224,45912,1,0,0:0:0:0:
343,34,46077,1,0,0:0:0:0:
272,285,46242,1,0,0:0:0:0:
424,347,46572,6,0,P|464:266|407:146,1,202.500007724762
373,256,46901,2,0,P|319:179|319:92,1,135.000005149842
202,42,47231,6,0,P|109:124|146:232,1,202.500007724762
200,134,47560,2,0,P|211:224|158:273,1,135.000005149842
72,328,47890,6,0,P|209:356|303:329,1,202.500007724762
268,344,48220,2,0,P|180:333|80:273,1,202.500007724762
83,276,48550,2,0,B|171:283|231:236|231:236|179:231|154:206|154:206|185:172|146:159|146:159|208:103|280:128,1,405.000015449525
367,84,49209,6,0,B|431:85|455:134|455:134|397:192|458:243|458:243|352:334|260:299,1,405.000015449525
174,340,49868,5,0,0:0:0:0:
81,129,50033,1,0,0:0:0:0:
93,358,50198,5,0,0:0:0:0:
221,167,50363,1,0,0:0:0:0:
19,276,50528,5,0,0:0:0:0:
243,227,50693,1,0,0:0:0:0:
21,171,50857,5,0,0:0:0:0:
245,122,51022,1,0,0:0:0:0:
22,63,51187,5,0,0:0:0:0:
164,243,51352,1,0,0:0:0:0:
109,19,51517,5,0,0:0:0:0:
251,199,51682,1,0,0:0:0:0:
408,33,51846,2,0,B|456:47|475:105|475:105|428:101|410:127|410:127|343:21|292:172|418:268,1,405.000015449525
465,190,52506,5,0,0:0:0:0:
295,344,52671,1,0,0:0:0:0:
327,117,52835,5,0,0:0:0:0:
401,334,53000,1,0,0:0:0:0:
443,108,53165,5,0,0:0:0:0:
249,229,53330,1,0,0:0:0:0:
319,9,53495,5,0,0:0:0:0:
299,237,53660,1,0,0:0:0:0:
170,49,53824,5,0,0:0:0:0:
390,115,53989,1,0,0:0:0:0:
163,148,54154,5,0,0:0:0:0:
383,214,54319,1,0,0:0:0:0:
185,331,54484,2,0,B|40:253|25:175|25:175|31:140|69:151|69:151|78:101|148:56,1,405.000015449525
353,88,55473,6,0,B|412:79|442:29|442:29|477:131|434:226,1,270.000010299683
407,342,56132,2,0,B|334:324|313:276|313:276|271:268|226:309|226:309|187:285|185:248,1,270.000010299683
77,153,56791,2,0,B|14:104|14:104|102:32|161:42,1,202.500007724762
200,34,57121,1,0,0:0:0:0:
442,50,57451,5,0,0:0:0:0:
437,83,57533,1,0,0:0:0:0:
429,116,57616,1,0,0:0:0:0:
421,148,57698,1,0,0:0:0:0:
411,180,57780,1,0,0:0:0:0:
400,212,57863,1,0,0:0:0:0:
335,260,57945,5,0,0:0:0:0:
305,277,58028,1,0,0:0:0:0:
273,288,58110,1,0,0:0:0:0:
240,299,58193,1,0,0:0:0:0:
207,306,58275,1,0,0:0:0:0:
173,303,58357,1,0,0:0:0:0:
100,265,58440,5,0,0:0:0:0:
93,252,58522,1,0,0:0:0:0:
87,239,58605,1,0,0:0:0:0:
83,225,58687,1,0,0:0:0:0:
79,211,58769,1,0,0:0:0:0:
79,197,58852,1,0,0:0:0:0:
82,177,58934,1,0,0:0:0:0:
94,153,59017,1,0,0:0:0:0:
120,132,59099,1,0,0:0:0:0:
161,108,59182,1,0,0:0:0:0:
214,101,59264,1,0,0:0:0:0:
266,125,59346,1,0,0:0:0:0:
313,149,59429,1,0,0:0:0:0:
350,182,59511,1,0,0:0:0:0:
376,223,59594,1,0,0:0:0:0:
415,322,59758,6,0,P|323:360|272:354,1,135.000005149842
141,337,60088,1,0,0:0:0:0:
267,259,60253,1,0,0:0:0:0:
131,197,60418,6,0,P|229:135|272:128,1,135.000005149842
382,190,60747,1,0,0:0:0:0:
291,72,60912,1,0,0:0:0:0:
146,37,61077,5,0,0:0:0:0:
81,229,61242,1,0,0:0:0:0:
227,89,61407,1,0,0:0:0:0:
42,173,61572,1,0,0:0:0:0:
240,214,61737,1,0,0:0:0:0:
118,53,61901,1,0,0:0:0:0:
44,241,62066,1,0,0:0:0:0:
231,163,62231,1,0,0:0:0:0:
377,190,62396,6,0,P|361:264|260:277,1,135.000005149842
175,250,62726,1,0,0:0:0:0:
288,155,62890,1,0,0:0:0:0:
407,66,63055,6,0,P|334:18|267:40,1,135.000005149842
170,113,63385,1,0,0:0:0:0:
50,24,63550,1,0,0:0:0:0:
38,172,63715,5,0,0:0:0:0:
164,328,63879,1,0,0:0:0:0:
239,139,64044,5,0,0:0:0:0:
111,296,64209,1,0,0:0:0:0:
155,165,64374,5,0,0:0:0:0:
281,321,64538,1,0,0:0:0:0:
356,132,64703,5,0,0:0:0:0:
228,289,64868,1,0,0:0:0:0:
332,345,65033,6,0,P|416:299|435:258,1,135.000005149842
301,194,65363,1,0,0:0:0:0:
446,161,65528,1,0,0:0:0:0:
480,16,65693,6,0,P|405:11|321:32,1,135.000005149842
201,53,66022,1,0,0:0:0:0:
314,148,66187,1,0,0:0:0:0:
268,289,66352,5,0,0:0:0:0:
457,361,66517,1,0,0:0:0:0:
376,174,66682,1,0,0:0:0:0:
242,324,66846,1,0,0:0:0:0:
443,298,67011,1,0,0:0:0:0:
328,131,67176,1,0,0:0:0:0:
299,331,67341,1,0,0:0:0:0:
443,188,67506,1,0,0:0:0:0:
318,31,67671,6,0,P|195:38|165:67,1,135.000005149842
56,106,68000,1,0,0:0:0:0:
157,214,68165,1,0,0:0:0:0:
9,197,68330,6,0,P|65:293|126:303,1,135.000005149842
225,339,68660,1,0,0:0:0:0:
328,233,68824,1,0,0:0:0:0:
504,333,68989,5,0,0:0:0:0:
434,142,69154,1,0,0:0:0:0:
335,319,69319,1,0,0:0:0:0:
293,120,69484,1,0,0:0:0:0:
161,50,69649,5,0,0:0:0:0:
136,73,69731,1,0,0:0:0:0:
126,105,69813,1,0,0:0:0:0:
137,137,69896,1,0,0:0:0:0:
153,169,69978,2,0,B|208:211|183:273|183:273|245:274|245:235,1,180
302,123,70638,1,0,0:0:0:0:
452,59,70802,5,0,0:0:0:0:
394,150,70967,1,0,0:0:0:0:
319,71,71132,1,0,0:0:0:0:
277,170,71297,1,0,0:0:0:0:
183,114,71462,1,0,0:0:0:0:
168,221,71627,1,0,0:0:0:0:
104,307,71791,1,0,0:0:0:0:
8,357,71956,2,0,P|-13:291|19:179,1,180
34,43,72616,5,0,0:0:0:0:
19,149,72780,1,0,0:0:0:0:
235,239,72945,1,0,0:0:0:0:
213,133,73110,1,0,0:0:0:0:
481,64,73440,5,0,0:0:0:0:
479,175,73605,2,0,B|431:191|420:218|420:218|429:248|404:287|404:287|352:299,1,180
239,312,74099,1,0,0:0:0:0:
110,269,74264,5,0,0:0:0:0:
266,226,74429,1,0,0:0:0:0:
111,175,74594,5,0,0:0:0:0:
267,132,74759,1,0,0:0:0:0:
178,287,74923,5,0,0:0:0:0:
210,100,75088,1,0,0:0:0:0:
54,208,75253,5,0,0:0:0:0:
167,56,75418,1,0,0:0:0:0:
346,176,75583,1,0,0:0:0:0:
502,326,76077,5,0,0:0:0:0:
366,326,76242,1,0,0:0:0:0:
427,205,76407,1,0,0:0:0:0:
291,205,76572,1,0,0:0:0:0:
203,102,76737,1,0,0:0:0:0:
86,35,76901,5,0,0:0:0:0:
86,170,77066,1,0,0:0:0:0:
203,102,77231,1,0,0:0:0:0:
203,237,77396,1,0,0:0:0:0:
315,341,77561,5,0,0:0:0:0:
257,29,77726,1,0,0:0:0:0:
160,298,77890,2,0,B|191:322|233:298|233:298|280:347|336:248,1,180
486,143,78715,5,0,0:0:0:0:
440,262,78879,1,0,0:0:0:0:
352,136,79044,1,0,0:0:0:0:
483,245,79209,1,0,0:0:0:0:
305,180,79374,1,0,0:0:0:0:
485,78,79539,1,0,0:0:0:0:
265,26,79704,1,0,0:0:0:0:
55,105,79868,2,0,P|19:148|72:252,1,180
273,336,80528,6,0,B|340:293|340:293|326:272|326:272|389:203,1,180
416,141,81352,5,0,0:0:0:0:
278,24,81517,1,0,0:0:0:0:
458,32,81682,1,0,0:0:0:0:
341,167,81846,1,0,0:0:0:0:
313,345,82011,1,0,0:0:0:0:
489,309,82176,1,0,0:0:0:0:
327,228,82341,1,0,0:0:0:0:
170,316,82506,2,0,P|102:304|81:268,1,90
25,204,82835,5,0,0:0:0:0:
145,23,83000,1,0,0:0:0:0:
261,204,83165,1,0,0:0:0:0:
261,204,83660,5,0,0:0:0:0:
198,333,83824,1,0,0:0:0:0:
89,212,83989,1,0,0:0:0:0:
261,161,84154,1,0,0:0:0:0:
231,356,84319,1,0,0:0:0:0:
21,302,84484,1,0,0:0:0:0:
133,117,84649,2,0,P|177:73|321:74,1,180
464,104,85143,5,0,0:0:0:0:
437,282,85308,1,0,0:0:0:0:
293,172,85473,1,0,0:0:0:0:
472,161,85638,1,0,0:0:0:0:
237,293,85802,1,0,0:0:0:0:
46,316,86132,5,0,0:0:0:0:
193,183,86297,1,0,0:0:0:0:
19,87,86462,5,0,0:0:0:0:
210,34,86627,1,0,0:0:0:0:
62,166,86792,5,0,0:0:0:0:
253,113,86957,1,0,0:0:0:0:
136,272,87121,1,0,0:0:0:0:
136,272,87286,1,0,0:0:0:0:
174,77,87451,5,0,0:0:0:0:
239,264,87616,1,0,0:0:0:0:
276,70,87780,5,0,0:0:0:0:
174,240,87945,1,0,0:0:0:0:
117,50,88110,5,0,0:0:0:0:
331,316,88275,1,0,0:0:0:0:
474,305,88769,5,0,0:0:0:0:
402,224,88934,5,0,0:0:0:0:
481,150,89099,1,0,0:0:0:0:
394,85,89264,1,0,0:0:0:0:
303,26,89429,5,0,0:0:0:0:
236,111,89594,1,0,0:0:0:0:
167,28,89758,1,0,0:0:0:0:
80,92,89923,5,0,0:0:0:0:
91,253,90088,2,0,P|162:321|294:309,1,202.500007724762
260,328,90418,2,0,P|181:292|151:170,1,202.500007724762
147,187,90747,2,0,B|200:211|279:249|279:249|352:220|334:174|318:127|259:141|216:156|245:234|245:234|334:279|406:266,1,540.000020599366
483,119,91407,2,0,B|432:42|380:42|380:42|380:85|380:85|297:31|244:44|244:44|230:123|170:98|173:142,1,405.000015449525
50,333,92231,5,0,0:0:0:0:
180,208,92396,1,0,0:0:0:0:
50,82,92561,1,0,0:0:0:0:
101,254,92726,5,0,0:0:0:0:
183,95,92890,1,0,0:0:0:0:
33,194,93055,5,0,0:0:0:0:
213,194,93220,1,0,0:0:0:0:
132,32,93385,5,0,0:0:0:0:
190,202,93550,1,0,0:0:0:0:
232,26,93715,5,0,0:0:0:0:
130,173,93879,1,0,0:0:0:0:
25,319,94044,2,0,B|117:363|204:329|204:329|76:269|110:234|110:234|132:199|203:157,1,405.000015449525
420,16,94868,5,0,0:0:0:0:
487,183,95033,1,0,0:0:0:0:
405,254,95198,1,0,0:0:0:0:
348,161,95363,5,0,0:0:0:0:
446,353,95528,1,0,0:0:0:0:
421,138,95693,5,0,0:0:0:0:
364,345,95857,1,0,0:0:0:0:
499,176,96022,5,0,0:0:0:0:
287,221,96187,1,0,0:0:0:0:
493,285,96352,5,0,0:0:0:0:
321,153,96517,1,0,0:0:0:0:
64,303,96682,2,0,P|21:230|106:128,1,202.500007724762
209,46,97176,1,0,0:0:0:0:
266,137,97341,5,0,0:0:0:0:
483,244,97506,1,0,0:0:0:0:
240,231,97671,5,0,0:0:0:0:
457,338,97836,1,0,0:0:0:0:
242,351,98000,2,0,B|226:295|161:331|161:331|142:258|77:218,1,202.500007724762
21,118,98495,1,0,0:0:0:0:
136,24,98660,5,0,0:0:0:0:
328,272,98824,1,0,0:0:0:0:
268,4,98989,5,0,0:0:0:0:
154,203,99154,1,0,0:0:0:0:
324,356,99319,1,0,0:0:0:0:
423,265,99649,5,0,0:0:0:0:
436,233,99732,1,0,0:0:0:0:
438,199,99814,1,0,0:0:0:0:
426,167,99896,1,0,0:0:0:0:
408,138,99979,1,0,0:0:0:0:
384,114,100061,1,0,0:0:0:0:
309,57,100143,5,0,0:0:0:0:
285,82,100226,1,0,0:0:0:0:
269,112,100308,1,0,0:0:0:0:
260,144,100390,1,0,0:0:0:0:
252,177,100473,1,0,0:0:0:0:
251,210,100555,1,0,0:0:0:0:
227,295,100638,5,0,0:0:0:0:
217,304,100720,1,0,0:0:0:0:
206,311,100802,1,0,0:0:0:0:
192,313,100885,1,0,0:0:0:0:
178,310,100967,1,0,0:0:0:0:
165,304,101050,1,0,0:0:0:0:
137,274,101132,5,0,0:0:0:0:
117,230,101215,1,0,0:0:0:0:
116,176,101297,1,0,0:0:0:0:
148,125,101379,1,0,0:0:0:0:
209,95,101462,1,0,0:0:0:0:
282,98,101544,1,0,0:0:0:0:
355,134,101627,2,0,B|436:149|447:210|447:210|400:213|319:311,1,270.000010299683
218,345,102451,5,0,0:0:0:0:
54,341,102780,2,0,P|5:243|109:110,1,270.000010299683
186,32,103275,5,0,0:0:0:0:
239,269,103440,1,0,0:0:0:0:
241,25,103605,5,0,0:0:0:0:
295,260,103769,1,0,0:0:0:0:
121,89,103934,5,0,0:0:0:0:
335,204,104099,1,0,0:0:0:0:
94,241,104264,5,0,0:0:0:0:
295,104,104429,1,0,0:0:0:0:
511,215,104594,2,0,P|490:293|321:357,1,270.000010299683
276,226,105418,5,0,0:0:0:0:
390,185,105583,2,0,B|435:173|450:144|450:144|442:109|386:86|372:102,1,135.000005149842
302,44,105912,5,0,0:0:0:0:
74,76,106077,1,0,0:0:0:0:
296,133,106242,5,0,0:0:0:0:
68,165,106407,1,0,0:0:0:0:
282,83,106572,5,0,0:0:0:0:
99,222,106737,1,0,0:0:0:0:
327,224,106901,5,0,0:0:0:0:
133,100,107066,1,0,0:0:0:0:
32,306,107231,1,0,0:0:0:0:
32,306,107478,1,0,0:0:0:0:
32,306,107726,1,0,0:0:0:0:
32,306,107890,6,0,P|129:338|186:308,1,135.000005149842
106,247,108220,2,0,P|164:215|230:223,1,135.000005149842
303,337,108550,5,0,0:0:0:0:
303,337,108797,1,0,0:0:0:0:
303,337,109044,1,0,0:0:0:0:
303,337,109209,2,0,P|367:278|364:197,1,135.000005149842
279,242,109539,2,0,P|296:178|349:138,1,135.000005149842
471,79,109868,5,0,0:0:0:0:
341,40,110198,1,0,0:0:0:0:
295,52,110280,1,0,0:0:0:0:
250,67,110363,1,0,0:0:0:0:
207,86,110445,1,0,0:0:0:0:
166,111,110528,1,0,0:0:0:0:
61,176,110693,5,0,0:0:0:0:
44,219,110775,1,0,0:0:0:0:
49,265,110857,1,0,0:0:0:0:
77,302,110940,1,0,0:0:0:0:
113,331,111022,1,0,0:0:0:0:
253,350,111187,5,0,0:0:0:0:
306,34,111352,1,0,0:0:0:0:
48,144,111517,1,0,0:0:0:0:
436,227,111682,1,0,0:0:0:0:
403,20,112011,5,0,0:0:0:0:
403,20,112176,2,0,P|326:25|231:68,1,135.000005149842
183,79,112506,2,0,B|97:75|59:120|59:120|106:146|113:184|113:184|153:157|153:157|193:210|124:278|124:278|171:335|286:324,1,540.000020599366
453,340,113330,5,0,0:0:0:0:
458,244,113495,2,0,B|415:202|428:163|428:163|394:102,1,135.000005149842
361,26,113824,2,0,P|243:12|114:53,1,202.500007724762
162,29,114154,2,0,P|258:54|297:86,1,135.000005149842
477,178,114484,1,0,0:0:0:0:
475,333,114813,5,0,0:0:0:0:
389,293,114978,1,0,0:0:0:0:
313,235,115143,2,0,B|242:275|208:340|208:340|161:246|41:337|41:337|-4:194|56:142,1,540.000020599366
88,39,115967,1,0,0:0:0:0:
209,33,116132,2,0,B|285:80|285:80|232:124,1,135.000005149842
142,167,116462,6,0,P|107:253|148:355,1,202.500007724762
144,351,116791,2,0,P|144:271|215:198,1,135.000005149842
261,143,117121,1,0,0:0:0:0:
81,187,117451,5,0,0:0:0:0:
14,55,117780,2,0,B|83:28|154:26|154:26|151:54|151:54|271:28|390:111,1,405.000015449525
507,166,118440,2,0,B|484:241|487:332|487:332|432:240|402:202|402:202|401:262|345:298,1,405.000015449525
257,370,119099,1,0,0:0:0:0:
112,333,119346,2,0,B|81:284|10:294|10:294|52:224|97:192,1,202.500007724762
151,108,119758,1,0,0:0:0:0:
399,22,120088,5,0,0:0:0:0:
482,128,120418,2,0,B|423:138|402:182|402:182|303:179|280:88|280:88|210:20|148:110,1,405.000015449525
92,150,121077,2,0,B|65:212|18:224|18:224|103:267|20:316|20:316|72:367|207:353,1,405.000015449525
285,351,121737,5,0,0:0:0:0:
318,348,121819,1,0,0:0:0:0:
348,335,121901,1,0,0:0:0:0:
375,314,121984,1,0,0:0:0:0:
389,282,122066,1,0,0:0:0:0:
375,240,122149,1,0,0:0:0:0:
354,213,122231,1,0,0:0:0:0:
329,189,122313,1,0,0:0:0:0:
291,159,122396,6,0,L|246:96,3,67.5000025749208
142,159,122726,2,0,L|94:85,3,67.5000025749208
158,296,123055,5,0,0:0:0:0:
338,204,123220,1,0,0:0:0:0:
448,353,123385,1,0,0:0:0:0:
448,353,123467,1,0,0:0:0:0:
448,353,123550,1,0,0:0:0:0:
483,153,123715,5,0,0:0:0:0:
323,30,123879,1,0,0:0:0:0:
190,182,124044,1,0,0:0:0:0:
190,182,124127,1,0,0:0:0:0:
190,182,124209,1,0,0:0:0:0:
22,295,124374,5,0,0:0:0:0:
61,96,124539,1,0,0:0:0:0:
253,159,124704,1,0,0:0:0:0:
253,159,124786,1,0,0:0:0:0:
253,159,124868,1,0,0:0:0:0:
410,31,125033,5,0,0:0:0:0:
507,208,125198,1,0,0:0:0:0:
372,359,125363,1,0,0:0:0:0:
372,359,125445,1,0,0:0:0:0:
372,359,125528,1,0,0:0:0:0:
288,174,125693,5,0,0:0:0:0:
204,357,125857,1,0,0:0:0:0:
50,224,126022,1,0,0:0:0:0:
50,224,126105,1,0,0:0:0:0:
50,224,126187,1,0,0:0:0:0:
251,248,126352,5,0,0:0:0:0:
92,122,126517,1,0,0:0:0:0:
271,28,126682,1,0,0:0:0:0:
271,28,126764,1,0,0:0:0:0:
271,28,126846,1,0,0:0:0:0:
478,126,127011,5,0,0:0:0:0:
250,92,127258,1,0,0:0:0:0:
475,351,127506,1,0,0:0:0:0:
349,48,127671,1,0,0:0:0:0:
66,28,128000,5,0,0:0:0:0:
29,129,128330,2,0,B|49:204|-15:253|-15:253|56:302|169:303,1,270.000010299683
212,312,128989,1,0,0:0:0:0:
212,312,129154,1,0,0:0:0:0:
319,321,129484,2,0,B|376:248|422:352|422:352|431:276|440:204|440:204|465:214|465:214|491:187|471:103,1,405.000015449525
473,32,130143,5,0,0:0:0:0:
152,83,130308,5,0,0:0:0:0:
441,257,130473,1,0,0:0:0:0:
151,300,130802,5,0,0:0:0:0:
35,353,130967,2,0,P|10:283|76:89,1,270.000010299683
204,21,131462,5,0,0:0:0:0:
366,24,131627,2,0,B|428:40|491:27|491:27|419:217,1,270.000010299683
393,316,132121,5,0,0:0:0:0:
352,158,132286,2,0,B|322:113|313:60|313:60|269:43|172:150,1,270.000010299683
66,258,132780,5,0,0:0:0:0:
201,346,132945,2,0,B|239:348|270:363|270:363|335:356|361:300,1,135.000005149842
452,234,133275,1,0,0:0:0:0:
468,190,133357,1,0,0:0:0:0:
469,142,133440,1,0,0:0:0:0:
449,99,133522,1,0,0:0:0:0:
419,61,133605,5,0,0:0:0:0:
259,242,133769,1,0,0:0:0:0:
206,4,133934,5,0,0:0:0:0:
366,185,134098,1,0,0:0:0:0:
300,271,134264,1,0,0:0:0:0:
89,178,134429,1,0,0:0:0:0:
89,178,134594,1,0,0:0:0:0:
31,284,134758,5,0,0:0:0:0:
294,345,134923,1,0,0:0:0:0:
294,345,135088,1,0,0:0:0:0:
319,212,135253,5,0,0:0:0:0:
477,46,135418,1,0,0:0:0:0:
477,46,135583,5,0,0:0:0:0:
255,100,135747,1,0,0:0:0:0:
482,130,135912,5,0,0:0:0:0:
260,184,136076,1,0,0:0:0:0:
178,75,136242,5,0,0:0:0:0:
23,206,136407,1,0,0:0:0:0:
168,347,136572,1,0,0:0:0:0:
187,85,136737,5,0,0:0:0:0:
32,216,136902,1,0,0:0:0:0:
177,357,137067,1,0,0:0:0:0:
199,98,137231,5,0,0:0:0:0:
44,229,137396,1,0,0:0:0:0:
189,370,137561,1,0,0:0:0:0:
164,250,137726,5,0,0:0:0:0:
164,250,137890,1,0,0:0:0:0:
368,145,138055,1,0,0:0:0:0:
488,340,138220,5,0,0:0:0:0:
293,216,138385,1,0,0:0:0:0:
508,220,138550,5,0,0:0:0:0:
316,347,138715,1,0,0:0:0:0:
212,143,138879,5,0,0:0:0:0:
351,325,139044,1,0,0:0:0:0:
377,96,139209,5,0,0:0:0:0:
253,289,139374,1,0,0:0:0:0:
36,212,139539,5,0,0:0:0:0:
181,34,139704,1,0,0:0:0:0:
263,246,139868,1,0,0:0:0:0:
50,231,140033,5,0,0:0:0:0:
195,53,140198,1,0,0:0:0:0:
277,265,140362,1,0,0:0:0:0:
66,252,140528,5,0,0:0:0:0:
211,74,140693,1,0,0:0:0:0:
386,220,140857,5,0,0:0:0:0:
498,19,141022,1,0,0:0:0:0:
507,248,141187,5,0,0:0:0:0:
400,44,141352,1,0,0:0:0:0:
269,80,141517,5,0,0:0:0:0:
91,177,141682,1,0,0:0:0:0:
269,271,141846,1,0,0:0:0:0:
91,80,142011,5,0,0:0:0:0:
269,177,142176,1,0,0:0:0:0:
91,271,142340,1,0,0:0:0:0:
269,80,142506,5,0,0:0:0:0:
91,177,142671,1,0,0:0:0:0:
269,271,142835,1,0,0:0:0:0:
444,169,143000,2,0,P|399:95|318:60,1,135.000005149842
315,154,143330,2,0,P|360:228|441:263,1,135.000005149842
425,182,143660,2,0,P|380:108|299:73,1,135.000005149842
159,26,144154,5,0,0:0:0:0:
159,46,144237,1,0,0:0:0:0:
159,66,144319,1,0,0:0:0:0:
159,86,144401,1,0,0:0:0:0:
144,100,144484,5,0,0:0:0:0:
144,120,144566,1,0,0:0:0:0:
144,140,144649,1,0,0:0:0:0:
144,160,144731,1,0,0:0:0:0:
121,201,144813,5,0,0:0:0:0:
88,235,144896,1,0,0:0:0:0:
70,278,144978,1,0,0:0:0:0:
88,321,145061,1,0,0:0:0:0:
127,346,145143,1,0,0:0:0:0:
174,349,145226,1,0,0:0:0:0:
220,345,145308,1,0,0:0:0:0:
263,327,145390,1,0,0:0:0:0:
288,318,145473,5,0,0:0:0:0:
300,312,145555,1,0,0:0:0:0:
312,306,145638,1,0,0:0:0:0:
324,300,145720,1,0,0:0:0:0:
360,283,145802,5,0,0:0:0:0:
360,269,145885,1,0,0:0:0:0:
360,255,145967,1,0,0:0:0:0:
360,241,146050,1,0,0:0:0:0:
359,227,146132,2,0,L|359:155,3,67.5000025749208
440,172,146462,2,0,L|475:104,3,67.5000025749208
425,30,146791,5,0,0:0:0:0:
411,30,146874,1,0,0:0:0:0:
397,30,146956,1,0,0:0:0:0:
383,30,147039,1,0,0:0:0:0:
357,51,147121,5,0,0:0:0:0:
343,51,147204,1,0,0:0:0:0:
329,51,147286,1,0,0:0:0:0:
315,51,147368,1,0,0:0:0:0:
270,68,147451,5,0,0:0:0:0:
236,101,147533,1,0,0:0:0:0:
243,147,147616,1,0,0:0:0:0:
272,183,147698,1,0,0:0:0:0:
290,226,147780,1,0,0:0:0:0:
260,263,147863,1,0,0:0:0:0:
224,293,147945,1,0,0:0:0:0:
177,300,148028,1,0,0:0:0:0:
164,294,148110,5,0,0:0:0:0:
151,287,148193,1,0,0:0:0:0:
139,279,148275,1,0,0:0:0:0:
127,272,148357,1,0,0:0:0:0:
127,231,148440,5,0,0:0:0:0:
138,224,148522,1,0,0:0:0:0:
150,217,148605,1,0,0:0:0:0:
161,210,148687,1,0,0:0:0:0:
172,203,148769,2,0,L|233:164,3,67.5000025749208
231,91,149099,2,0,L|174:54,3,67.5000025749208
27,21,149429,5,0,0:0:0:0:
37,52,149511,1,0,0:0:0:0:
59,77,149594,1,0,0:0:0:0:
83,100,149676,1,0,0:0:0:0:
105,124,149758,1,0,0:0:0:0:
115,156,149841,1,0,0:0:0:0:
114,189,149923,1,0,0:0:0:0:
103,221,150006,1,0,0:0:0:0:
91,252,150088,2,0,L|55:328,3,67.5000025749208
182,287,150418,2,0,L|212:357,3,67.5000025749208
273,259,150747,5,0,0:0:0:0:
279,292,150830,1,0,0:0:0:0:
298,319,150912,1,0,0:0:0:0:
327,335,150995,1,0,0:0:0:0:
359,344,151077,1,0,0:0:0:0:
391,333,151160,1,0,0:0:0:0:
416,311,151242,1,0,0:0:0:0:
430,280,151324,1,0,0:0:0:0:
433,246,151407,2,0,L|510:220,3,67.5000025749208
433,156,151737,2,0,L|349:130,3,67.5000025749208
493,47,152066,5,0,0:0:0:0:
459,40,152148,1,0,0:0:0:0:
426,36,152230,1,0,0:0:0:0:
392,34,152313,1,0,0:0:0:0:
359,34,152395,1,0,0:0:0:0:
325,37,152478,1,0,0:0:0:0:
292,42,152560,1,0,0:0:0:0:
259,50,152642,1,0,0:0:0:0:
226,60,152726,5,0,0:0:0:0:
195,72,152807,1,0,0:0:0:0:
174,97,152890,1,0,0:0:0:0:
172,130,152972,1,0,0:0:0:0:
193,156,153055,1,0,0:0:0:0:
222,173,153137,1,0,0:0:0:0:
250,192,153219,1,0,0:0:0:0:
274,216,153302,1,0,0:0:0:0:
317,236,153385,5,0,0:0:0:0:
361,265,153467,1,0,0:0:0:0:
374,317,153550,1,0,0:0:0:0:
334,353,153632,1,0,0:0:0:0:
279,349,153715,1,0,0:0:0:0:
229,329,153797,1,0,0:0:0:0:
189,292,153879,1,0,0:0:0:0:
155,249,153962,1,0,0:0:0:0:
133,199,154044,5,0,0:0:0:0:
157,147,154127,1,0,0:0:0:0:
197,111,154209,1,0,0:0:0:0:
242,83,154291,1,0,0:0:0:0:
295,72,154374,1,0,0:0:0:0:
347,85,154456,1,0,0:0:0:0:
388,119,154539,1,0,0:0:0:0:
405,169,154621,5,0,0:0:0:0:
50,60,155033,1,0,0:0:0:0:
324,358,155363,1,0,0:0:0:0:
40,313,155693,5,0,0:0:0:0:
460,132,156022,1,0,0:0:0:0:
40,75,156352,1,0,0:0:0:0:
477,18,156682,5,0,0:0:0:0:
347,344,157011,1,0,0:0:0:0:
21,45,157341,5,0,0:0:0:0:
490,108,157670,1,0,0:0:0:0:
172,328,158000,1,0,0:0:0:0:
500,333,158330,5,0,0:0:0:0:
6,177,158660,1,0,0:0:0:0:
483,53,158989,1,0,0:0:0:0:
32,24,159319,5,0,0:0:0:0:
395,270,159649,1,0,0:0:0:0:
226,95,159978,5,0,0:0:0:0:
100,143,160143,1,0,0:0:0:0:
226,190,160308,1,0,0:0:0:0:
100,240,160473,1,0,0:0:0:0:
208,320,160638,1,0,0:0:0:0:
250,341,160720,1,0,0:0:0:0:
296,348,160802,1,0,0:0:0:0:
343,342,160885,1,0,0:0:0:0:
457,258,161132,5,0,0:0:0:0:
484,153,161297,5,0,0:0:0:0:
484,17,161462,1,0,0:0:0:0:
373,94,161627,1,0,0:0:0:0:
262,17,161791,1,0,0:0:0:0:
262,152,161956,1,0,0:0:0:0:
295,186,162039,1,0,0:0:0:0:
336,207,162121,1,0,0:0:0:0:
382,215,162204,1,0,0:0:0:0:
463,284,162451,5,0,0:0:0:0:
348,355,162616,5,0,0:0:0:0:
262,251,162780,1,0,0:0:0:0:
176,355,162945,1,0,0:0:0:0:
89,251,163110,1,0,0:0:0:0:
29,129,163275,1,0,0:0:0:0:
64,98,163357,1,0,0:0:0:0:
102,70,163440,1,0,0:0:0:0:
145,51,163522,1,0,0:0:0:0:
285,34,163769,5,0,0:0:0:0:
376,133,163934,5,0,0:0:0:0:
195,333,164099,1,0,0:0:0:0:
222,64,164264,5,0,0:0:0:0:
403,264,164429,1,0,0:0:0:0:
133,278,164594,5,0,0:0:0:0:
320,85,164758,1,0,0:0:0:0:
152,31,164923,5,0,0:0:0:0:
248,340,165088,1,0,0:0:0:0:
348,31,165253,1,0,0:0:0:0:
216,131,165912,5,0,0:0:0:0:
216,131,165995,1,0,0:0:0:0:
216,131,166077,1,0,0:0:0:0:
30,26,166242,5,0,0:0:0:0:
30,26,166324,1,0,0:0:0:0:
30,26,166407,1,0,0:0:0:0:
97,202,166572,5,0,0:0:0:0:
433,175,166737,1,0,0:0:0:0:
128,32,166901,1,0,0:0:0:0:
320,341,167066,1,0,0:0:0:0:
446,177,167396,6,0,B|461:139|500:110|500:110|444:32|318:92,1,270.000010299683
220,157,167890,2,0,B|204:233|108:218|108:218|83:136|169:87,1,270.000010299683
255,30,168549,1,0,0:0:0:0:
255,30,168714,1,0,0:0:0:0:
431,129,168879,1,0,0:0:0:0:
324,347,169209,5,0,0:0:0:0:
83,20,169456,1,0,0:0:0:0:
442,206,169704,1,0,0:0:0:0:
37,180,169868,1,0,0:0:0:0:
478,38,170198,6,0,B|397:26|397:26|337:60,1,135.000005149842
231,118,170528,2,0,B|146:190|70:203|70:203|56:246|116:298,1,270.000010299683
199,368,171187,1,0,0:0:0:0:
199,368,171352,1,0,0:0:0:0:
428,356,171517,1,0,0:0:0:0:
498,181,171846,5,0,0:0:0:0:
129,12,172094,1,0,0:0:0:0:
337,359,172341,1,0,0:0:0:0:
4,127,172506,1,0,0:0:0:0:
24,337,172835,5,0,0:0:0:0:
157,355,173165,2,0,B|234:318|292:318|292:318|285:344|285:344|352:336|391:296,1,270.000010299683
473,210,173824,2,0,B|474:162|496:130|496:130|459:83|428:59|428:59|363:114|326:102,1,270.000010299683
229,158,174484,5,0,0:0:0:0:
411,357,174732,1,0,0:0:0:0:
34,213,174978,1,0,0:0:0:0:
396,32,175143,1,0,0:0:0:0:
32,64,175473,5,0,0:0:0:0:
164,39,175802,2,0,P|246:14|407:154,1,270.000010299683
457,224,176462,2,0,B|414:286|413:365|413:365|333:370|253:344,1,270.000010299683
59,324,177121,5,0,0:0:0:0:
32,292,177204,1,0,0:0:0:0:
23,252,177286,1,0,0:0:0:0:
20,211,177368,1,0,0:0:0:0:
33,172,177451,1,0,0:0:0:0:
51,135,177533,1,0,0:0:0:0:
79,105,177616,1,0,0:0:0:0:
117,93,177698,1,0,0:0:0:0:
167,111,177780,5,0,0:0:0:0:
198,155,177863,1,0,0:0:0:0:
233,195,177945,1,0,0:0:0:0:
278,225,178028,1,0,0:0:0:0:
329,239,178110,1,0,0:0:0:0:
381,226,178193,1,0,0:0:0:0:
417,186,178275,1,0,0:0:0:0:
434,135,178357,1,0,0:0:0:0:
436,80,178440,5,0,0:0:0:0:
297,228,178605,1,0,0:0:0:0:
361,37,178769,5,0,0:0:0:0:
222,185,178934,1,0,0:0:0:0:
423,160,179099,5,0,0:0:0:0:
222,130,179264,1,0,0:0:0:0:
392,239,179429,5,0,0:0:0:0:
191,209,179594,1,0,0:0:0:0:
347,336,179758,5,0,0:0:0:0:
270,119,179923,1,0,0:0:0:0:
240,346,180088,5,0,0:0:0:0:
163,129,180253,1,0,0:0:0:0:
85,345,180418,5,0,0:0:0:0:
295,253,180583,1,0,0:0:0:0:
66,260,180747,5,0,0:0:0:0:
276,168,180912,1,0,0:0:0:0:
76,54,181077,5,0,0:0:0:0:
298,206,181242,1,0,0:0:0:0:
29,172,181407,5,0,0:0:0:0:
288,95,181572,1,0,0:0:0:0:
489,274,181737,5,0,0:0:0:0:
360,38,181901,1,0,0:0:0:0:
337,307,182066,5,0,0:0:0:0:
488,83,182231,1,0,0:0:0:0:
478,353,182396,2,0,P|361:373|283:348,1,202.500007724762
283,348,182726,2,0,P|412:310|436:289,1,135.000005149842
410,312,183055,1,0,0:0:0:0:
462,188,183385,5,0,0:0:0:0:
462,188,183550,1,0,0:0:0:0:
498,58,183715,2,0,P|386:23|196:51,1,270.000010299683
108,80,184374,2,0,P|59:152|66:205,1,135.000005149842
187,142,184704,2,0,P|185:208|141:258,1,135.000005149842
16,206,185033,5,0,0:0:0:0:
80,325,185198,1,0,0:0:0:0:
209,287,185363,1,0,0:0:0:0:
209,287,185528,1,0,0:0:0:0:
326,353,185693,5,0,0:0:0:0:
481,133,185857,1,0,0:0:0:0:
468,289,186187,5,0,0:0:0:0:
339,329,186352,2,0,B|276:362|208:363|208:363|192:341|195:330|195:330|143:330|85:280,1,270.000010299683
11,214,186846,1,0,0:0:0:0:
58,87,187011,2,0,B|52:45|94:16|94:16|156:120|146:251,1,270.000010299683
155,327,187506,1,0,0:0:0:0:
288,348,187671,2,0,P|407:343|449:183,1,270.000010299683
440,67,188165,1,0,0:0:0:0:
309,33,188330,2,0,B|252:80|216:55|216:55|162:112,1,135.000005149842
108,183,188660,5,0,0:0:0:0:
147,208,188742,1,0,0:0:0:0:
181,240,188824,1,0,0:0:0:0:
210,277,188907,1,0,0:0:0:0:
228,320,188989,5,0,0:0:0:0:
417,248,189154,1,0,0:0:0:0:
216,221,189319,5,0,0:0:0:0:
387,329,189484,1,0,0:0:0:0:
265,167,189649,5,0,0:0:0:0:
334,355,189813,1,0,0:0:0:0:
190,211,189978,5,0,0:0:0:0:
382,273,190143,1,0,0:0:0:0:
221,55,190308,5,0,0:0:0:0:
282,318,190473,1,0,0:0:0:0:
76,142,190638,5,0,0:0:0:0:
330,54,190802,1,0,0:0:0:0:
175,275,190967,5,0,0:0:0:0:
53,33,191132,1,0,0:0:0:0:
45,208,191297,5,0,0:0:0:0:
91,281,191379,1,0,0:0:0:0:
162,332,191461,1,0,0:0:0:0:
247,353,191544,1,0,0:0:0:0:
333,342,191626,1,0,0:0:0:0:
24,48,192286,5,0,0:0:0:0:
494,337,192945,5,0,0:0:0:0:
256,192,193605,5,0,0:0:0:0:
176,167,194264,5,0,0:0:0:0:
71,25,194429,1,0,0:0:0:0:
17,192,194594,1,0,0:0:0:0:
83,353,194758,1,0,0:0:0:0:
224,248,194923,1,0,0:0:0:0:
363,354,195088,2,0,B|411:298|411:298|469:333|469:333|493:263|455:147,1,270.000010299683
478,29,195583,5,0,0:0:0:0:
341,138,195747,1,0,0:0:0:0:
507,195,195912,1,0,0:0:0:0:
380,36,196077,1,0,0:0:0:0:
244,221,196242,1,0,0:0:0:0:
483,128,196407,1,0,0:0:0:0:
246,26,196572,1,0,0:0:0:0:
439,233,196737,1,0,0:0:0:0:
307,348,196901,5,0,0:0:0:0:
211,200,197066,1,0,0:0:0:0:
174,371,197231,5,0,0:0:0:0:
281,231,197396,1,0,0:0:0:0:
73,328,197561,5,0,0:0:0:0:
289,251,197726,1,0,0:0:0:0:
40,193,197890,5,0,0:0:0:0:
278,347,198055,1,0,0:0:0:0:
182,199,198220,5,0,0:0:0:0:
28,113,198385,1,0,0:0:0:0:
181,28,198550,1,0,0:0:0:0:
55,186,198715,1,0,0:0:0:0:
269,107,198879,1,0,0:0:0:0:
28,17,199044,1,0,0:0:0:0:
186,252,199209,1,0,0:0:0:0:
328,6,199374,1,0,0:0:0:0:
184,20,199539,6,0,P|92:84|79:126,1,135.000005149842
216,132,199868,1,0,0:0:0:0:
117,224,200033,1,0,0:0:0:0:
20,319,200198,6,0,P|87:358|179:365,1,135.000005149842
277,345,200528,1,0,0:0:0:0:
210,227,200693,1,0,0:0:0:0:
355,365,200857,5,0,0:0:0:0:
485,209,201022,1,0,0:0:0:0:
282,200,201187,1,0,0:0:0:0:
454,351,201352,1,0,0:0:0:0:
354,114,201517,1,0,0:0:0:0:
227,352,201682,1,0,0:0:0:0:
460,193,201846,1,0,0:0:0:0:
240,13,202011,1,0,0:0:0:0:
73,128,202176,6,0,P|21:193|123:333,1,270.000010299683
181,217,202671,1,0,0:0:0:0:
216,346,202835,2,0,B|248:299|326:295|326:295|331:337|331:337|394:311|417:262,1,270.000010299683
467,152,203330,1,0,0:0:0:0:
389,41,203495,5,0,0:0:0:0:
379,87,203577,1,0,0:0:0:0:
372,134,203660,1,0,0:0:0:0:
364,180,203742,1,0,0:0:0:0:
351,225,203824,1,0,0:0:0:0:
337,270,203907,1,0,0:0:0:0:
305,304,203989,1,0,0:0:0:0:
271,338,204072,1,0,0:0:0:0:
226,351,204154,5,0,0:0:0:0:
178,351,204237,1,0,0:0:0:0:
133,334,204319,1,0,0:0:0:0:
94,306,204401,1,0,0:0:0:0:
65,267,204484,1,0,0:0:0:0:
59,220,204566,1,0,0:0:0:0:
78,176,204649,1,0,0:0:0:0:
181,52,204813,5,0,0:0:0:0:
162,213,204978,1,0,0:0:0:0:
286,264,205143,2,0,P|378:217|436:155,1,135.000005149842
185,303,205473,5,0,0:0:0:0:
288,161,205638,1,0,0:0:0:0:
211,50,205802,2,0,P|126:60|78:102,1,135.000005149842
264,98,206132,5,0,0:0:0:0:
111,185,206297,1,0,0:0:0:0:
161,310,206462,2,0,P|241:347|287:335,1,135.000005149842
340,223,206791,5,0,0:0:0:0:
193,126,206956,1,0,0:0:0:0:
123,10,207121,2,0,P|43:89|39:138,1,135.000005149842
141,313,207451,5,0,0:0:0:0:
242,33,207616,1,0,0:0:0:0:
314,319,207780,5,0,0:0:0:0:
328,22,207945,1,0,0:0:0:0:
404,309,208110,5,0,0:0:0:0:
138,100,208275,1,0,0:0:0:0:
428,176,208440,5,0,0:0:0:0:
98,239,208605,1,0,0:0:0:0:
352,20,208769,5,0,0:0:0:0:
231,335,208934,1,0,0:0:0:0:
150,6,209099,5,0,0:0:0:0:
419,209,209264,1,0,0:0:0:0:
90,129,209429,5,0,0:0:0:0:
359,332,209594,1,0,0:0:0:0:
374,36,209758,5,0,0:0:0:0:
143,224,209923,1,0,0:0:0:0:
312,268,210088,5,0,0:0:0:0:
455,166,210253,1,0,0:0:0:0:
352,77,210418,2,0,P|251:46|201:93,1,135.000005149842
262,228,210747,5,0,0:0:0:0:
102,155,210912,1,0,0:0:0:0:
42,260,211077,2,0,P|112:315|204:338,1,135.000005149842
275,346,211407,5,0,0:0:0:0:
365,195,211572,1,0,0:0:0:0:
275,93,211737,2,0,P|210:73|140:111,1,135.000005149842
269,33,212066,5,0,0:0:0:0:
192,191,212231,1,0,0:0:0:0:
240,317,212396,2,0,P|345:325|376:271,1,135.000005149842
455,215,212726,5,0,0:0:0:0:
196,71,212890,1,0,0:0:0:0:
331,335,213055,5,0,0:0:0:0:
265,45,213220,1,0,0:0:0:0:
99,339,213385,5,0,0:0:0:0:
412,213,213550,1,0,0:0:0:0:
107,66,213715,5,0,0:0:0:0:
339,308,213879,1,0,0:0:0:0:
49,133,214044,5,0,0:0:0:0:
379,65,214209,1,0,0:0:0:0:
101,257,214374,5,0,0:0:0:0:
431,189,214539,1,0,0:0:0:0:
63,18,214704,5,0,0:0:0:0:
305,339,214868,1,0,0:0:0:0:
368,12,215033,5,0,0:0:0:0:
159,359,215198,1,0,0:0:0:0:
181,184,215363,1,0,0:0:0:0:
256,192,215528,12,0,216682,0:0:0:0:
