osu file format v14

[General]
AudioFilename: audio.mp3
AudioLeadIn: 0
PreviewTime: 19705
Countdown: 1
SampleSet: Normal
StackLeniency: 0.7
Mode: 1
LetterboxInBreaks: 0
WidescreenStoryboard: 1

[Editor]
DistanceSpacing: 0.1
BeatDivisor: 4
GridSize: 32
TimelineZoom: 2.7

[Metadata]
Title:Rainbow Dash And Fluttershy Go For A Leisurely Glide
TitleUnicode:Rainbow Dash And Fluttershy Go For A Leisurely Glide
Artist:Foozogz
ArtistUnicode:Foozogz
Creator:Firmatorenio
Version:Poni
Source:
Tags:pony mlp
BeatmapID:4477360
BeatmapSetID:827362

[Difficulty]
HPDrainRate:5.5
CircleSize:2
OverallDifficulty:5.5
ApproachRate:8
SliderMultiplier:1.39999996870756
SliderTickRate:2

[Events]
//Background and Video events
0,0,"rdnfsgflg.png",0,0
//Break Periods
//Storyboard Layer 0 (Background)
//Storyboard Layer 1 (Fail)
//Storyboard Layer 2 (Pass)
//Storyboard Layer 3 (Foreground)
//Storyboard Layer 4 (Overlay)
//Storyboard Sound Samples

[TimingPoints]
1255,300,4,1,0,84,1,0
20455,-100,4,1,0,84,0,1
39655,-100,4,1,0,84,0,0
58855,-100,4,1,0,84,0,1
97255,-100,4,1,0,84,0,0
134455,-96.1538461538461,4,1,0,84,0,0
134755,-92.5925925925926,4,1,0,84,0,0
135055,-89.2857142857143,4,1,0,84,0,0
135355,-86.2068965517241,4,1,0,84,0,0
135655,-83.3333333333333,4,1,0,84,0,1
154255,-86.2068965517241,4,1,0,84,0,1
154555,-92.5925925925926,4,1,0,84,0,1
154705,-96.1538461538461,4,1,0,84,0,1
154780,-97.0873786407767,4,1,0,84,0,1
154855,-100,4,1,0,84,0,0
172705,-98.0392156862745,4,1,0,84,0,0
172855,-95.2380952380952,4,1,0,84,0,0
173155,-90.9090909090909,4,1,0,84,0,0
173455,-86.9565217391304,4,1,0,84,0,0
173755,-83.3333333333333,4,1,0,84,0,0
173905,-81.9672131147541,4,1,0,84,0,0
173980,-81.3008130081301,4,1,0,84,0,0
174055,-80,4,1,0,84,0,1
193255,-80,4,1,0,84,0,0

[Colours]
Combo1 : 255,192,0
Combo2 : 0,202,0
Combo3 : 18,124,255
Combo4 : 242,24,57

[HitObjects]
256,192,655,5,2,1:1:0:0:
256,192,955,1,0,1:0:0:0:
256,192,1255,1,2,1:1:0:0:
256,192,1555,1,0,1:0:0:0:
256,192,1855,1,2,1:1:0:0:
256,192,2005,1,0,1:0:0:0:
256,192,2155,1,2,1:1:0:0:
256,192,2305,1,2,1:1:0:0:
256,192,3055,1,2,1:1:0:0:
256,192,3205,1,0,1:0:0:0:
256,192,3355,1,2,1:1:0:0:
256,192,3505,1,2,1:1:0:0:
256,192,3955,1,0,1:0:0:0:
256,192,4255,1,2,1:1:0:0:
256,192,4555,1,2,1:1:0:0:
256,192,4705,1,2,1:1:0:0:
256,192,4855,1,0,1:0:0:0:
256,192,5155,1,0,1:0:0:0:
256,192,5455,1,2,1:1:0:0:
256,192,5755,1,0,1:0:0:0:
256,192,6055,1,2,1:1:0:0:
256,192,6205,1,2,1:1:0:0:
256,192,6355,1,0,1:0:0:0:
256,192,6505,1,2,1:1:0:0:
256,192,6805,1,2,1:1:0:0:
256,192,6955,1,0,1:0:0:0:
256,192,7255,1,2,1:1:0:0:
256,192,7405,1,0,1:0:0:0:
256,192,7555,1,2,1:1:0:0:
256,192,7705,1,0,1:0:0:0:
256,192,8005,1,2,1:1:0:0:
256,192,8155,1,0,1:0:0:0:
256,192,8455,1,2,1:1:0:0:
256,192,8605,1,2,1:1:0:0:
256,192,8755,1,0,1:0:0:0:
256,192,9055,1,2,1:1:0:0:
256,192,9205,1,0,1:0:0:0:
256,192,9355,1,2,1:1:0:0:
256,192,9505,1,0,1:0:0:0:
256,192,9805,1,0,1:0:0:0:
256,192,9955,1,0,1:0:0:0:
256,192,10255,1,2,1:1:0:0:
256,192,10555,1,0,1:0:0:0:
256,192,10855,1,2,1:1:0:0:
256,192,11155,1,0,1:0:0:0:
256,192,11455,1,2,1:1:0:0:
256,192,11605,1,0,1:0:0:0:
256,192,11755,1,2,1:1:0:0:
256,192,11905,1,2,1:1:0:0:
256,192,12655,1,2,1:1:0:0:
256,192,12805,1,2,1:1:0:0:
256,192,12955,1,2,1:1:0:0:
256,192,13105,1,0,1:0:0:0:
256,192,13555,1,0,1:0:0:0:
256,192,13855,1,2,1:1:0:0:
256,192,14155,1,2,1:1:0:0:
256,192,14305,1,2,1:1:0:0:
256,192,14455,1,0,1:0:0:0:
256,192,14755,1,2,1:1:0:0:
256,192,14905,1,0,1:0:0:0:
256,192,15055,1,2,1:1:0:0:
256,192,15355,1,0,1:0:0:0:
256,192,15655,1,2,1:1:0:0:
256,192,15805,1,2,1:1:0:0:
256,192,15955,1,0,1:0:0:0:
256,192,16105,1,2,1:1:0:0:
256,192,16405,1,2,1:1:0:0:
256,192,16555,1,2,1:1:0:0:
256,192,16855,1,2,1:1:0:0:
256,192,17005,1,0,1:0:0:0:
256,192,17155,1,2,1:1:0:0:
256,192,17305,1,0,1:0:0:0:
256,192,17605,1,0,1:0:0:0:
256,192,17755,1,2,1:1:0:0:
256,192,18055,1,2,1:1:0:0:
256,192,18205,1,0,1:0:0:0:
256,192,18355,1,2,1:1:0:0:
256,192,18505,1,2,1:1:0:0:
256,192,18655,1,0,1:0:0:0:
256,192,18955,1,2,1:1:0:0:
256,192,19105,1,0,1:0:0:0:
256,192,19255,1,2,1:1:0:0:
256,192,19405,1,2,1:1:0:0:
256,192,19555,1,2,1:1:0:0:
256,192,19705,1,2,1:1:0:0:
256,192,19855,1,0,1:0:0:0:
256,192,19930,1,0,1:0:0:0:
256,192,20005,1,2,1:1:0:0:
256,192,20155,1,0,1:0:0:0:
256,192,20230,1,0,1:0:0:0:
256,192,20305,1,2,1:1:0:0:
256,192,20380,1,2,1:1:0:0:
256,192,20455,1,0,1:0:0:0:
256,192,20605,1,0,1:0:0:0:
256,192,20755,1,2,1:1:0:0:
256,192,20905,1,0,1:0:0:0:
256,192,20980,1,2,1:1:0:0:
256,192,21055,1,0,1:0:0:0:
256,192,21205,1,0,1:0:0:0:
256,192,21355,1,2,1:1:0:0:
256,192,21505,1,2,1:1:0:0:
256,192,21805,1,0,1:0:0:0:
256,192,21955,1,2,1:1:0:0:
256,192,22105,1,0,1:0:0:0:
256,192,22180,1,0,1:0:0:0:
256,192,22255,1,2,1:1:0:0:
256,192,22405,1,0,1:0:0:0:
256,192,22555,1,2,1:1:0:0:
256,192,22705,1,0,1:0:0:0:
256,192,23005,1,0,1:0:0:0:
256,192,23155,1,2,1:1:0:0:
256,192,23305,1,2,1:1:0:0:
256,192,23455,1,2,1:1:0:0:
256,192,23530,1,0,1:0:0:0:
256,192,23605,1,2,1:1:0:0:
256,192,23755,1,2,1:1:0:0:
256,192,23830,1,0,1:0:0:0:
256,192,23905,1,2,1:1:0:0:
256,192,24055,1,2,1:1:0:0:
256,192,24130,1,2,1:1:0:0:
256,192,24205,1,0,1:0:0:0:
256,192,24280,1,0,1:0:0:0:
256,192,24355,1,2,1:1:0:0:
256,192,24505,1,0,1:0:0:0:
256,192,24655,1,0,1:0:0:0:
256,192,24730,1,0,1:0:0:0:
256,192,24805,1,2,1:1:0:0:
256,192,24955,1,2,1:1:0:0:
256,192,25030,1,2,1:1:0:0:
256,192,25105,1,0,1:0:0:0:
256,192,25255,1,2,1:1:0:0:
256,192,25405,1,2,1:1:0:0:
256,192,25555,1,0,1:0:0:0:
256,192,25705,1,2,1:1:0:0:
256,192,26005,1,0,1:0:0:0:
256,192,26080,1,0,1:0:0:0:
256,192,26155,1,2,1:1:0:0:
256,192,26305,1,0,1:0:0:0:
256,192,26455,1,2,1:1:0:0:
256,192,26605,1,0,1:0:0:0:
256,192,26755,1,2,1:1:0:0:
256,192,26905,1,0,1:0:0:0:
256,192,27205,1,2,1:1:0:0:
256,192,27280,1,0,1:0:0:0:
256,192,27355,1,2,1:1:0:0:
256,192,27505,1,0,1:0:0:0:
256,192,27655,1,2,1:1:0:0:
256,192,27730,1,0,1:0:0:0:
256,192,27805,1,0,1:0:0:0:
256,192,27955,1,2,1:1:0:0:
256,192,28105,1,0,1:0:0:0:
256,192,28255,1,2,1:1:0:0:
256,192,28330,1,2,1:1:0:0:
256,192,28405,1,0,1:0:0:0:
256,192,28555,1,2,1:1:0:0:
256,192,28705,1,0,1:0:0:0:
256,192,29005,1,0,1:0:0:0:
256,192,29155,1,2,1:1:0:0:
256,192,29455,1,0,1:0:0:0:
256,192,29605,1,0,1:0:0:0:
256,192,29755,1,2,1:1:0:0:
256,192,30055,1,2,1:1:0:0:
256,192,30355,1,0,1:0:0:0:
256,192,30505,1,0,1:0:0:0:
256,192,30655,1,2,1:1:0:0:
256,192,30730,1,2,1:1:0:0:
256,192,30805,1,0,1:0:0:0:
256,192,30955,1,2,1:1:0:0:
256,192,31105,1,2,1:1:0:0:
256,192,31405,1,0,1:0:0:0:
256,192,31555,1,2,1:1:0:0:
256,192,31705,1,0,1:0:0:0:
256,192,31780,1,0,1:0:0:0:
256,192,31855,1,2,1:1:0:0:
256,192,31930,1,2,1:1:0:0:
256,192,32005,1,0,1:0:0:0:
256,192,32155,1,2,1:1:0:0:
256,192,32305,1,2,1:1:0:0:
256,192,32605,1,0,1:0:0:0:
256,192,32755,1,2,1:1:0:0:
256,192,32905,1,2,1:1:0:0:
256,192,33055,1,2,1:1:0:0:
256,192,33130,1,0,1:0:0:0:
256,192,33205,1,2,1:1:0:0:
256,192,33355,1,2,1:1:0:0:
256,192,33430,1,0,1:0:0:0:
256,192,33505,1,2,1:1:0:0:
256,192,33655,1,2,1:1:0:0:
256,192,33730,1,2,1:1:0:0:
256,192,33805,1,0,1:0:0:0:
256,192,33880,1,0,1:0:0:0:
256,192,33955,1,2,1:1:0:0:
256,192,34105,1,2,1:1:0:0:
256,192,34255,1,0,1:0:0:0:
256,192,34330,1,0,1:0:0:0:
256,192,34405,1,2,1:1:0:0:
256,192,34555,1,2,1:1:0:0:
256,192,34630,1,2,1:1:0:0:
256,192,34705,1,0,1:0:0:0:
256,192,34855,1,2,1:1:0:0:
256,192,35005,1,0,1:0:0:0:
256,192,35155,1,0,1:0:0:0:
256,192,35305,1,2,1:1:0:0:
256,192,35605,1,2,1:1:0:0:
256,192,35680,1,0,1:0:0:0:
256,192,35755,1,2,1:1:0:0:
256,192,35905,1,2,1:1:0:0:
256,192,36055,1,2,1:1:0:0:
256,192,36130,1,2,1:1:0:0:
256,192,36205,1,0,1:0:0:0:
256,192,36355,1,2,1:1:0:0:
256,192,36505,1,0,1:0:0:0:
256,192,36805,1,2,1:1:0:0:
256,192,36955,1,0,1:0:0:0:
256,192,37105,1,0,1:0:0:0:
256,192,37255,1,2,1:1:0:0:
256,192,37330,1,2,1:1:0:0:
256,192,37405,1,0,1:0:0:0:
256,192,37555,1,2,1:1:0:0:
256,192,37705,1,2,1:1:0:0:
256,192,37855,1,0,1:0:0:0:
256,192,38005,1,0,1:0:0:0:
256,192,38155,1,2,1:1:0:0:
256,192,38305,1,0,1:0:0:0:
256,192,38605,1,0,1:0:0:0:
256,192,38755,1,2,1:1:0:0:
256,192,38905,1,2,1:1:0:0:
256,192,39055,1,0,1:0:0:0:
256,192,39355,1,2,1:1:0:0:
256,192,39655,1,0,1:0:0:0:
256,192,39805,1,0,1:0:0:0:
256,192,39880,1,0,1:0:0:0:
256,192,39955,1,2,1:1:0:0:
256,192,40105,1,0,1:0:0:0:
256,192,40255,1,0,1:0:0:0:
256,192,40405,1,2,1:1:0:0:
256,192,40555,1,0,1:0:0:0:
256,192,40705,1,2,1:1:0:0:
256,192,40855,1,0,1:0:0:0:
256,192,41005,1,0,1:0:0:0:
256,192,41080,1,0,1:0:0:0:
256,192,41155,1,2,1:1:0:0:
256,192,41305,1,0,1:0:0:0:
256,192,41455,1,0,1:0:0:0:
256,192,41605,1,2,1:1:0:0:
256,192,41755,1,0,1:0:0:0:
256,192,41905,1,2,1:1:0:0:
256,192,42055,1,0,1:0:0:0:
256,192,42205,1,2,1:1:0:0:
256,192,42280,1,0,1:0:0:0:
256,192,42355,1,2,1:1:0:0:
256,192,42505,1,2,1:1:0:0:
256,192,42655,1,0,1:0:0:0:
256,192,42805,1,2,1:1:0:0:
256,192,42955,1,0,1:0:0:0:
256,192,43105,1,2,1:1:0:0:
256,192,43255,1,2,1:1:0:0:
256,192,43405,1,0,1:0:0:0:
256,192,43480,1,0,1:0:0:0:
256,192,43555,1,2,1:1:0:0:
256,192,43705,1,0,1:0:0:0:
256,192,43855,1,2,1:1:0:0:
256,192,43930,1,2,1:1:0:0:
256,192,44005,1,0,1:0:0:0:
256,192,44155,1,2,1:1:0:0:
256,192,44230,1,2,1:1:0:0:
256,192,44305,1,0,1:0:0:0:
256,192,44455,1,0,1:0:0:0:
256,192,44605,1,0,1:0:0:0:
256,192,44680,1,0,1:0:0:0:
256,192,44755,1,2,1:1:0:0:
256,192,44905,1,0,1:0:0:0:
256,192,45055,1,0,1:0:0:0:
256,192,45205,1,2,1:1:0:0:
256,192,45355,1,0,1:0:0:0:
256,192,45505,1,2,1:1:0:0:
256,192,45655,1,0,1:0:0:0:
256,192,45805,1,0,1:0:0:0:
256,192,45880,1,0,1:0:0:0:
256,192,45955,1,2,1:1:0:0:
256,192,46105,1,0,1:0:0:0:
256,192,46255,1,0,1:0:0:0:
256,192,46405,1,2,1:1:0:0:
256,192,46555,1,0,1:0:0:0:
256,192,46705,1,2,1:1:0:0:
256,192,46855,1,0,1:0:0:0:
256,192,47005,1,0,1:0:0:0:
256,192,47080,1,0,1:0:0:0:
256,192,47155,1,2,1:1:0:0:
256,192,47305,1,0,1:0:0:0:
256,192,47455,1,0,1:0:0:0:
256,192,47530,1,0,1:0:0:0:
256,192,47605,1,2,1:1:0:0:
256,192,47755,1,0,1:0:0:0:
256,192,47905,1,2,1:1:0:0:
256,192,48055,1,2,1:1:0:0:
256,192,48205,1,0,1:0:0:0:
256,192,48280,1,0,1:0:0:0:
256,192,48355,1,2,1:1:0:0:
256,192,48505,1,0,1:0:0:0:
256,192,48655,1,2,1:1:0:0:
256,192,48730,1,0,1:0:0:0:
256,192,48805,1,2,1:1:0:0:
256,192,48955,1,2,1:1:0:0:
256,192,49030,1,2,1:1:0:0:
256,192,49105,1,0,1:0:0:0:
256,192,49255,1,0,1:0:0:0:
256,192,49405,1,0,1:0:0:0:
256,192,49480,1,0,1:0:0:0:
256,192,49555,1,2,1:1:0:0:
256,192,49705,1,0,1:0:0:0:
256,192,49855,1,2,1:1:0:0:
256,192,50005,1,2,1:1:0:0:
256,192,50155,1,0,1:0:0:0:
256,192,50305,1,2,1:1:0:0:
256,192,50455,1,0,1:0:0:0:
256,192,50605,1,0,1:0:0:0:
256,192,50680,1,0,1:0:0:0:
256,192,50755,1,2,1:1:0:0:
256,192,50905,1,0,1:0:0:0:
256,192,51055,1,0,1:0:0:0:
256,192,51205,1,2,1:1:0:0:
256,192,51355,1,0,1:0:0:0:
256,192,51505,1,2,1:1:0:0:
256,192,51655,1,0,1:0:0:0:
256,192,51805,1,0,1:0:0:0:
256,192,51880,1,0,1:0:0:0:
256,192,51955,1,2,1:1:0:0:
256,192,52030,1,0,1:0:0:0:
256,192,52105,1,2,1:1:0:0:
256,192,52255,1,0,1:0:0:0:
256,192,52405,1,2,1:1:0:0:
256,192,52555,1,0,1:0:0:0:
256,192,52705,1,2,1:1:0:0:
256,192,52855,1,0,1:0:0:0:
256,192,53005,1,0,1:0:0:0:
256,192,53080,1,0,1:0:0:0:
256,192,53155,1,2,1:1:0:0:
256,192,53305,1,0,1:0:0:0:
256,192,53455,1,2,1:1:0:0:
256,192,53530,1,2,1:1:0:0:
256,192,53605,1,0,1:0:0:0:
256,192,53755,1,2,1:1:0:0:
256,192,53830,1,0,1:0:0:0:
256,192,53905,1,0,1:0:0:0:
256,192,54055,1,0,1:0:0:0:
256,192,54205,1,0,1:0:0:0:
256,192,54280,1,0,1:0:0:0:
256,192,54355,1,2,1:1:0:0:
256,192,54505,1,0,1:0:0:0:
256,192,54655,1,0,1:0:0:0:
256,192,54805,1,2,1:1:0:0:
256,192,54955,1,0,1:0:0:0:
256,192,55105,1,2,1:1:0:0:
256,192,55255,1,0,1:0:0:0:
256,192,55405,1,2,1:1:0:0:
256,192,55480,1,0,1:0:0:0:
256,192,55555,1,2,1:1:0:0:
256,192,55705,1,0,1:0:0:0:
256,192,55855,1,0,1:0:0:0:
256,192,56005,1,2,1:1:0:0:
256,192,56155,1,0,1:0:0:0:
256,192,56305,1,2,1:1:0:0:
256,192,56455,1,0,1:0:0:0:
256,192,56605,1,0,1:0:0:0:
256,192,56680,1,2,1:1:0:0:
256,192,56755,1,2,1:1:0:0:
256,192,56905,1,2,1:1:0:0:
256,192,57055,1,0,1:0:0:0:
256,192,57130,1,2,1:1:0:0:
256,192,57205,1,2,1:1:0:0:
256,192,57355,1,0,1:0:0:0:
256,192,57505,1,2,1:1:0:0:
256,192,57655,1,2,1:1:0:0:
256,192,57705,1,2,1:1:0:0:
256,192,57955,1,2,1:1:0:0:
256,192,58005,1,2,1:1:0:0:
256,192,58255,1,2,1:1:0:0:
256,192,58305,1,2,1:1:0:0:
256,192,58555,1,2,1:1:0:0:
256,192,58855,1,2,1:1:0:0:
256,192,59005,1,0,1:0:0:0:
256,192,59155,1,2,1:1:0:0:
256,192,59305,1,0,1:0:0:0:
256,192,59380,1,0,1:0:0:0:
256,192,59455,1,2,1:1:0:0:
256,192,59605,1,0,1:0:0:0:
256,192,59755,1,2,1:1:0:0:
256,192,59905,1,2,1:1:0:0:
256,192,60205,1,0,1:0:0:0:
256,192,60355,1,2,1:1:0:0:
256,192,60505,1,0,1:0:0:0:
256,192,60655,1,2,1:1:0:0:
256,192,60730,1,0,1:0:0:0:
256,192,60805,1,0,1:0:0:0:
256,192,60955,1,2,1:1:0:0:
256,192,61105,1,0,1:0:0:0:
256,192,61405,1,0,1:0:0:0:
256,192,61480,1,0,1:0:0:0:
256,192,61555,1,2,1:1:0:0:
256,192,61630,1,2,1:1:0:0:
256,192,61705,1,0,1:0:0:0:
256,192,61855,1,2,1:1:0:0:
256,192,61930,1,2,1:1:0:0:
256,192,62005,1,0,1:0:0:0:
256,192,62080,1,0,1:0:0:0:
256,192,62155,1,2,1:1:0:0:
256,192,62305,1,2,1:1:0:0:
256,192,62455,1,2,1:1:0:0:
256,192,62530,1,0,1:0:0:0:
256,192,62605,1,0,1:0:0:0:
256,192,62680,1,0,1:0:0:0:
256,192,62755,1,2,1:1:0:0:
256,192,62905,1,0,1:0:0:0:
256,192,62980,1,0,1:0:0:0:
256,192,63055,1,2,1:1:0:0:
256,192,63130,1,0,1:0:0:0:
256,192,63205,1,0,1:0:0:0:
256,192,63280,1,0,1:0:0:0:
256,192,63355,1,2,1:1:0:0:
256,192,63655,1,2,1:1:0:0:
256,192,63730,1,2,1:1:0:0:
256,192,63805,1,0,1:0:0:0:
256,192,63955,1,0,1:0:0:0:
256,192,64105,1,2,1:1:0:0:
256,192,64405,1,0,1:0:0:0:
256,192,64555,1,2,1:1:0:0:
256,192,64705,1,0,1:0:0:0:
256,192,64855,1,2,1:1:0:0:
256,192,64930,1,2,1:1:0:0:
256,192,65005,1,0,1:0:0:0:
256,192,65155,1,2,1:1:0:0:
256,192,65305,1,0,1:0:0:0:
256,192,65605,1,2,1:1:0:0:
256,192,65755,1,2,1:1:0:0:
256,192,65905,1,0,1:0:0:0:
256,192,66055,1,2,1:1:0:0:
256,192,66130,1,2,1:1:0:0:
256,192,66205,1,0,1:0:0:0:
256,192,66355,1,2,1:1:0:0:
256,192,66505,1,2,1:1:0:0:
256,192,66655,1,0,1:0:0:0:
256,192,66805,1,0,1:0:0:0:
256,192,66955,1,2,1:1:0:0:
256,192,67105,1,0,1:0:0:0:
256,192,67405,1,0,1:0:0:0:
256,192,67555,1,2,1:1:0:0:
256,192,67855,1,0,1:0:0:0:
256,192,68005,1,0,1:0:0:0:
256,192,68155,1,2,1:1:0:0:
256,192,68305,1,0,1:0:0:0:
256,192,68455,1,2,1:1:0:0:
256,192,68755,1,2,1:1:0:0:
256,192,68905,1,0,1:0:0:0:
256,192,69055,1,2,1:1:0:0:
256,192,69130,1,2,1:1:0:0:
256,192,69205,1,0,1:0:0:0:
256,192,69355,1,2,1:1:0:0:
256,192,69505,1,2,1:1:0:0:
256,192,69805,1,0,1:0:0:0:
256,192,69955,1,2,1:1:0:0:
256,192,70105,1,0,1:0:0:0:
256,192,70255,1,2,1:1:0:0:
256,192,70330,1,2,1:1:0:0:
256,192,70405,1,0,1:0:0:0:
256,192,70555,1,2,1:1:0:0:
256,192,70705,1,0,1:0:0:0:
256,192,71005,1,0,1:0:0:0:
256,192,71080,1,0,1:0:0:0:
256,192,71155,1,2,1:1:0:0:
256,192,71230,1,2,1:1:0:0:
256,192,71305,1,0,1:0:0:0:
256,192,71455,1,2,1:1:0:0:
256,192,71530,1,0,1:0:0:0:
256,192,71605,1,0,1:0:0:0:
256,192,71680,1,0,1:0:0:0:
256,192,71755,1,2,1:1:0:0:
256,192,71905,1,2,1:1:0:0:
256,192,72055,1,2,1:1:0:0:
256,192,72130,1,2,1:1:0:0:
256,192,72205,1,0,1:0:0:0:
256,192,72280,1,0,1:0:0:0:
256,192,72355,1,2,1:1:0:0:
256,192,72505,1,0,1:0:0:0:
256,192,72580,1,2,1:1:0:0:
256,192,72655,1,0,1:0:0:0:
256,192,72730,1,0,1:0:0:0:
256,192,72805,1,2,1:1:0:0:
256,192,72880,1,0,1:0:0:0:
256,192,72955,1,2,1:1:0:0:
256,192,73255,1,2,1:1:0:0:
256,192,73405,1,2,1:1:0:0:
256,192,73555,1,0,1:0:0:0:
256,192,73705,1,2,1:1:0:0:
256,192,74005,1,0,1:0:0:0:
256,192,74080,1,0,1:0:0:0:
256,192,74155,1,2,1:1:0:0:
256,192,74305,1,0,1:0:0:0:
256,192,74455,1,2,1:1:0:0:
256,192,74605,1,2,1:1:0:0:
256,192,74755,1,2,1:1:0:0:
256,192,74905,1,0,1:0:0:0:
256,192,75205,1,0,1:0:0:0:
256,192,75280,1,0,1:0:0:0:
256,192,75355,1,2,1:1:0:0:
256,192,75505,1,0,1:0:0:0:
256,192,75655,1,2,1:1:0:0:
256,192,75805,1,0,1:0:0:0:
256,192,75880,1,0,1:0:0:0:
256,192,75955,1,2,1:1:0:0:
256,192,76105,1,0,1:0:0:0:
256,192,76255,1,0,1:0:0:0:
256,192,76330,1,2,1:1:0:0:
256,192,76405,1,0,1:0:0:0:
256,192,76555,1,2,1:1:0:0:
256,192,76705,1,0,1:0:0:0:
256,192,77005,1,0,1:0:0:0:
256,192,77155,1,2,1:1:0:0:
256,192,77305,1,2,1:1:0:0:
256,192,77455,1,0,1:0:0:0:
256,192,77605,1,0,1:0:0:0:
256,192,77680,1,0,1:0:0:0:
256,192,77755,1,2,1:1:0:0:
256,192,77905,1,0,1:0:0:0:
256,192,78055,1,2,1:1:0:0:
256,192,78205,1,0,1:0:0:0:
256,192,78355,1,2,1:1:0:0:
256,192,78505,1,0,1:0:0:0:
256,192,78580,1,0,1:0:0:0:
256,192,78655,1,2,1:1:0:0:
256,192,78805,1,0,1:0:0:0:
256,192,78955,1,2,1:1:0:0:
256,192,79105,1,2,1:1:0:0:
256,192,79405,1,0,1:0:0:0:
256,192,79555,1,2,1:1:0:0:
256,192,79705,1,0,1:0:0:0:
256,192,79855,1,2,1:1:0:0:
256,192,79930,1,0,1:0:0:0:
256,192,80005,1,0,1:0:0:0:
256,192,80155,1,2,1:1:0:0:
256,192,80305,1,0,1:0:0:0:
256,192,80605,1,2,1:1:0:0:
256,192,80680,1,2,1:1:0:0:
256,192,80755,1,0,1:0:0:0:
256,192,80830,1,0,1:0:0:0:
256,192,80905,1,2,1:1:0:0:
256,192,80980,1,2,1:1:0:0:
256,192,81055,1,0,1:0:0:0:
256,192,81205,1,0,1:0:0:0:
256,192,81280,1,2,1:1:0:0:
256,192,81355,1,0,1:0:0:0:
256,192,81505,1,2,1:1:0:0:
256,192,81580,1,0,1:0:0:0:
256,192,81655,1,2,1:1:0:0:
256,192,81805,1,0,1:0:0:0:
256,192,81880,1,0,1:0:0:0:
256,192,81955,1,2,1:1:0:0:
256,192,82105,1,2,1:1:0:0:
256,192,82180,1,2,1:1:0:0:
256,192,82255,1,0,1:0:0:0:
256,192,82330,1,2,1:1:0:0:
256,192,82405,1,0,1:0:0:0:
256,192,82480,1,0,1:0:0:0:
256,192,82555,1,2,1:1:0:0:
256,192,82855,1,2,1:1:0:0:
256,192,83005,1,0,1:0:0:0:
256,192,83155,1,0,1:0:0:0:
256,192,83305,1,2,1:1:0:0:
256,192,83605,1,2,1:1:0:0:
256,192,83680,1,2,1:1:0:0:
256,192,83755,1,0,1:0:0:0:
256,192,83905,1,2,1:1:0:0:
256,192,84055,1,2,1:1:0:0:
256,192,84205,1,0,1:0:0:0:
256,192,84355,1,2,1:1:0:0:
256,192,84505,1,0,1:0:0:0:
256,192,84805,1,0,1:0:0:0:
256,192,84880,1,0,1:0:0:0:
256,192,84955,1,2,1:1:0:0:
256,192,85105,1,0,1:0:0:0:
256,192,85255,1,2,1:1:0:0:
256,192,85330,1,0,1:0:0:0:
256,192,85405,1,2,1:1:0:0:
256,192,85555,1,2,1:1:0:0:
256,192,85705,1,0,1:0:0:0:
256,192,85855,1,2,1:1:0:0:
256,192,85930,1,0,1:0:0:0:
256,192,86005,1,0,1:0:0:0:
256,192,86155,1,2,1:1:0:0:
256,192,86305,1,2,1:1:0:0:
256,192,86605,1,2,1:1:0:0:
256,192,86755,1,0,1:0:0:0:
256,192,86905,1,0,1:0:0:0:
256,192,87055,1,2,1:1:0:0:
256,192,87205,1,0,1:0:0:0:
256,192,87280,1,0,1:0:0:0:
256,192,87355,1,2,1:1:0:0:
256,192,87505,1,0,1:0:0:0:
256,192,87655,1,2,1:1:0:0:
256,192,87805,1,0,1:0:0:0:
256,192,87880,1,0,1:0:0:0:
256,192,87955,1,2,1:1:0:0:
256,192,88105,1,0,1:0:0:0:
256,192,88255,1,2,1:1:0:0:
256,192,88330,1,2,1:1:0:0:
256,192,88405,1,0,1:0:0:0:
256,192,88555,1,2,1:1:0:0:
256,192,88705,1,2,1:1:0:0:
256,192,89005,1,0,1:0:0:0:
256,192,89155,1,2,1:1:0:0:
256,192,89305,1,0,1:0:0:0:
256,192,89455,1,2,1:1:0:0:
256,192,89530,1,2,1:1:0:0:
256,192,89605,1,0,1:0:0:0:
256,192,89755,1,0,1:0:0:0:
256,192,89905,1,2,1:1:0:0:
256,192,90205,1,2,1:1:0:0:
256,192,90280,1,2,1:1:0:0:
256,192,90355,1,0,1:0:0:0:
256,192,90430,1,0,1:0:0:0:
256,192,90505,1,2,1:1:0:0:
256,192,90655,1,2,1:1:0:0:
256,192,90730,1,2,1:1:0:0:
256,192,90805,1,0,1:0:0:0:
256,192,90880,1,0,1:0:0:0:
256,192,90955,1,2,1:1:0:0:
256,192,91030,1,0,1:0:0:0:
256,192,91105,1,0,1:0:0:0:
256,192,91180,1,2,1:1:0:0:
256,192,91255,1,0,1:0:0:0:
256,192,91405,1,0,1:0:0:0:
256,192,91555,1,2,1:1:0:0:
256,192,91705,1,0,1:0:0:0:
256,192,91780,1,2,1:1:0:0:
256,192,91855,1,0,1:0:0:0:
256,192,91930,1,0,1:0:0:0:
256,192,92005,1,2,1:1:0:0:
256,192,92155,1,2,1:1:0:0:
256,192,92455,1,2,1:1:0:0:
256,192,92605,1,0,1:0:0:0:
256,192,92755,1,0,1:0:0:0:
256,192,92905,1,2,1:1:0:0:
256,192,93205,1,2,1:1:0:0:
256,192,93280,1,0,1:0:0:0:
256,192,93355,1,2,1:1:0:0:
256,192,93505,1,0,1:0:0:0:
256,192,93655,1,2,1:1:0:0:
256,192,93730,1,2,1:1:0:0:
256,192,93805,1,0,1:0:0:0:
256,192,93955,1,2,1:1:0:0:
256,192,94105,1,0,1:0:0:0:
256,192,94405,1,2,1:1:0:0:
256,192,94480,1,0,1:0:0:0:
256,192,94555,1,2,1:1:0:0:
256,192,94705,1,0,1:0:0:0:
256,192,94855,1,2,1:1:0:0:
256,192,94930,1,0,1:0:0:0:
256,192,95005,1,0,1:0:0:0:
256,192,95155,1,2,1:1:0:0:
256,192,95305,1,0,1:0:0:0:
256,192,95455,1,2,1:1:0:0:
256,192,95530,1,2,1:1:0:0:
256,192,95605,1,0,1:0:0:0:
256,192,95755,1,2,1:1:0:0:
256,192,95905,1,0,1:0:0:0:
256,192,96205,1,0,1:0:0:0:
256,192,96355,1,2,1:1:0:0:
256,192,96505,1,0,1:0:0:0:
256,192,96580,1,0,1:0:0:0:
256,192,96655,1,2,1:1:0:0:
256,192,96805,1,0,1:0:0:0:
256,192,96955,1,2,1:1:0:0:
256,192,97255,1,0,1:0:0:0:
256,192,97405,1,0,1:0:0:0:
256,192,97555,1,2,1:1:0:0:
256,192,97705,1,0,1:0:0:0:
256,192,97855,1,0,1:0:0:0:
256,192,98005,1,2,1:1:0:0:
256,192,98155,1,0,1:0:0:0:
256,192,98305,1,2,1:1:0:0:
256,192,98455,1,0,1:0:0:0:
256,192,98605,1,0,1:0:0:0:
256,192,98755,1,2,1:1:0:0:
256,192,98905,1,0,1:0:0:0:
256,192,99055,1,0,1:0:0:0:
256,192,99205,1,2,1:1:0:0:
256,192,99355,1,0,1:0:0:0:
256,192,99505,1,2,1:1:0:0:
256,192,99655,1,0,1:0:0:0:
256,192,99805,1,2,1:1:0:0:
256,192,99955,1,2,1:1:0:0:
256,192,100105,1,0,1:0:0:0:
256,192,100255,1,0,1:0:0:0:
256,192,100405,1,2,1:1:0:0:
256,192,100555,1,0,1:0:0:0:
256,192,100705,1,2,1:1:0:0:
256,192,100855,1,0,1:0:0:0:
256,192,101005,1,0,1:0:0:0:
256,192,101155,1,2,1:1:0:0:
256,192,101305,1,0,1:0:0:0:
256,192,101455,1,2,1:1:0:0:
256,192,101605,1,2,1:1:0:0:
256,192,101755,1,2,1:1:0:0:
256,192,101905,1,2,1:1:0:0:
256,192,102055,1,0,1:0:0:0:
256,192,102205,1,0,1:0:0:0:
256,192,102355,1,2,1:1:0:0:
256,192,102505,1,0,1:0:0:0:
256,192,102655,1,0,1:0:0:0:
256,192,102805,1,2,1:1:0:0:
256,192,102955,1,0,1:0:0:0:
256,192,103105,1,2,1:1:0:0:
256,192,103255,1,0,1:0:0:0:
256,192,103405,1,0,1:0:0:0:
256,192,103555,1,2,1:1:0:0:
256,192,103705,1,0,1:0:0:0:
256,192,103855,1,0,1:0:0:0:
256,192,104005,1,2,1:1:0:0:
256,192,104155,1,0,1:0:0:0:
256,192,104305,1,2,1:1:0:0:
256,192,104455,1,0,1:0:0:0:
256,192,104605,1,2,1:1:0:0:
256,192,104755,1,2,1:1:0:0:
256,192,104905,1,0,1:0:0:0:
256,192,105055,1,0,1:0:0:0:
256,192,105205,1,2,1:1:0:0:
256,192,105355,1,0,1:0:0:0:
256,192,105505,1,2,1:1:0:0:
256,192,105655,1,0,1:0:0:0:
256,192,105805,1,0,1:0:0:0:
256,192,105955,1,2,1:1:0:0:
256,192,106105,1,0,1:0:0:0:
256,192,106255,1,0,1:0:0:0:
256,192,106405,1,2,1:1:0:0:
256,192,106555,1,2,1:1:0:0:
256,192,106705,1,0,1:0:0:0:
256,192,106855,1,0,1:0:0:0:
256,192,107005,1,2,1:1:0:0:
256,192,107155,1,0,1:0:0:0:
256,192,107305,1,2,1:1:0:0:
256,192,107455,1,0,1:0:0:0:
256,192,107605,1,2,1:1:0:0:
256,192,107755,1,2,1:1:0:0:
256,192,107905,1,2,1:1:0:0:
256,192,108055,1,0,1:0:0:0:
256,192,108205,1,2,1:1:0:0:
256,192,108355,1,2,1:1:0:0:
256,192,108505,1,2,1:1:0:0:
256,192,108655,1,0,1:0:0:0:
256,192,108805,1,2,1:1:0:0:
256,192,108955,1,0,1:0:0:0:
256,192,109105,1,2,1:1:0:0:
256,192,109255,1,2,1:1:0:0:
256,192,109405,1,0,1:0:0:0:
256,192,109555,1,2,1:1:0:0:
256,192,109705,1,2,1:1:0:0:
256,192,109855,1,2,1:1:0:0:
256,192,110005,1,0,1:0:0:0:
256,192,110155,1,0,1:0:0:0:
256,192,110305,1,2,1:1:0:0:
256,192,110455,1,0,1:0:0:0:
256,192,110605,1,0,1:0:0:0:
256,192,110755,1,2,1:1:0:0:
256,192,110905,1,0,1:0:0:0:
256,192,111055,1,2,1:1:0:0:
256,192,111205,1,2,1:1:0:0:
256,192,111355,1,0,1:0:0:0:
256,192,111505,1,2,1:1:0:0:
256,192,111655,1,0,1:0:0:0:
256,192,111805,1,2,1:1:0:0:
256,192,111955,1,0,1:0:0:0:
256,192,112105,1,2,1:1:0:0:
256,192,112255,1,0,1:0:0:0:
256,192,112405,1,2,1:1:0:0:
256,192,112555,1,0,1:0:0:0:
256,192,112705,1,2,1:1:0:0:
256,192,112855,1,0,1:0:0:0:
256,192,113005,1,0,1:0:0:0:
256,192,113155,1,2,1:1:0:0:
256,192,113305,1,2,1:1:0:0:
256,192,113455,1,0,1:0:0:0:
256,192,113605,1,2,1:1:0:0:
256,192,113755,1,0,1:0:0:0:
256,192,113905,1,2,1:1:0:0:
256,192,114055,1,0,1:0:0:0:
256,192,114205,1,2,1:1:0:0:
256,192,114355,1,2,1:1:0:0:
256,192,114505,1,2,1:1:0:0:
256,192,114655,1,0,1:0:0:0:
256,192,114805,1,2,1:1:0:0:
256,192,114955,1,0,1:0:0:0:
256,192,115105,1,2,1:1:0:0:
256,192,115255,1,0,1:0:0:0:
256,192,115405,1,2,1:1:0:0:
256,192,115555,1,2,1:1:0:0:
256,192,115705,1,0,1:0:0:0:
256,192,115855,1,2,1:1:0:0:
256,192,116005,1,2,1:1:0:0:
256,192,116155,1,2,1:1:0:0:
256,192,116305,1,0,1:0:0:0:
256,192,116380,1,2,1:1:0:0:
256,192,116455,1,0,1:0:0:0:
256,192,116605,1,2,1:1:0:0:
256,192,116755,1,0,1:0:0:0:
256,192,116905,1,0,1:0:0:0:
256,192,117055,1,6,1:1:0:0:
256,192,117205,1,2,1:1:0:0:
256,192,117355,1,0,1:0:0:0:
256,192,117505,1,0,1:0:0:0:
256,192,117655,1,0,1:0:0:0:
256,192,117805,1,2,1:1:0:0:
256,192,117955,1,0,1:0:0:0:
256,192,118105,1,0,1:0:0:0:
256,192,118255,1,6,1:1:0:0:
256,192,118405,1,2,1:1:0:0:
256,192,118555,1,0,1:0:0:0:
256,192,118705,1,2,1:1:0:0:
256,192,118855,1,0,1:0:0:0:
256,192,119005,1,2,1:1:0:0:
256,192,119155,1,0,1:0:0:0:
256,192,119305,1,0,1:0:0:0:
256,192,119455,1,6,1:1:0:0:
256,192,119605,1,2,1:1:0:0:
256,192,119755,1,0,1:0:0:0:
256,192,119905,1,0,1:0:0:0:
256,192,120055,1,0,1:0:0:0:
256,192,120205,1,2,1:1:0:0:
256,192,120355,1,6,1:1:0:0:
256,192,120505,1,0,1:0:0:0:
256,192,120655,1,2,1:1:0:0:
256,192,120805,1,0,1:0:0:0:
256,192,120955,1,6,1:1:0:0:
256,192,121105,1,2,1:1:0:0:
256,192,121255,1,0,1:0:0:0:
256,192,121405,1,2,1:1:0:0:
256,192,121555,1,0,1:0:0:0:
256,192,121705,1,0,1:0:0:0:
256,192,121855,1,6,1:1:0:0:
256,192,122005,1,2,1:1:0:0:
256,192,122155,1,0,1:0:0:0:
256,192,122305,1,0,1:0:0:0:
256,192,122455,1,0,1:0:0:0:
256,192,122605,1,2,1:1:0:0:
256,192,122755,1,0,1:0:0:0:
256,192,122905,1,0,1:0:0:0:
256,192,123055,1,6,1:1:0:0:
256,192,123205,1,2,1:1:0:0:
256,192,123355,1,0,1:0:0:0:
256,192,123505,1,2,1:1:0:0:
256,192,123655,1,0,1:0:0:0:
256,192,123805,1,0,1:0:0:0:
256,192,123955,1,0,1:0:0:0:
256,192,124105,1,0,1:0:0:0:
256,192,124255,1,6,1:1:0:0:
256,192,124405,1,2,1:1:0:0:
256,192,124555,1,0,1:0:0:0:
256,192,124705,1,2,1:1:0:0:
256,192,124855,1,0,1:0:0:0:
256,192,125005,1,0,1:0:0:0:
256,192,125155,1,6,1:1:0:0:
256,192,125305,1,0,1:0:0:0:
256,192,125455,1,0,1:0:0:0:
256,192,125605,1,2,1:1:0:0:
256,192,125755,1,6,1:1:0:0:
256,192,125905,1,0,1:0:0:0:
256,192,126055,1,0,1:0:0:0:
256,192,126205,1,2,1:1:0:0:
256,192,126355,1,0,1:0:0:0:
256,192,126505,1,0,1:0:0:0:
256,192,126655,1,6,1:1:0:0:
256,192,126805,1,0,1:0:0:0:
256,192,126955,1,0,1:0:0:0:
256,192,127105,1,2,1:1:0:0:
256,192,127255,1,0,1:0:0:0:
256,192,127405,1,2,1:1:0:0:
256,192,127555,1,0,1:0:0:0:
256,192,127705,1,0,1:0:0:0:
256,192,127855,1,6,1:1:0:0:
256,192,128005,1,2,1:1:0:0:
256,192,128155,1,0,1:0:0:0:
256,192,128305,1,2,1:1:0:0:
256,192,128455,1,0,1:0:0:0:
256,192,128605,1,2,1:1:0:0:
256,192,128755,1,0,1:0:0:0:
256,192,128905,1,2,1:1:0:0:
256,192,129055,1,6,1:1:0:0:
256,192,129205,1,2,1:1:0:0:
256,192,129355,1,0,1:0:0:0:
256,192,129505,1,0,1:0:0:0:
256,192,129655,1,0,1:0:0:0:
256,192,129805,1,0,1:0:0:0:
256,192,129955,1,6,1:1:0:0:
256,192,130105,1,0,1:0:0:0:
256,192,130255,1,0,1:0:0:0:
256,192,130405,1,2,1:1:0:0:
256,192,130555,1,6,1:1:0:0:
256,192,130705,1,2,1:1:0:0:
256,192,130855,1,0,1:0:0:0:
256,192,131005,1,2,1:1:0:0:
256,192,131155,1,0,1:0:0:0:
256,192,131305,1,2,1:1:0:0:
256,192,131455,1,6,1:1:0:0:
256,192,131605,1,2,1:1:0:0:
256,192,131755,1,0,1:0:0:0:
256,192,131905,1,2,1:1:0:0:
256,192,132055,1,0,1:0:0:0:
256,192,132205,1,2,1:1:0:0:
256,192,132355,1,0,1:0:0:0:
256,192,132505,1,0,1:0:0:0:
256,192,132655,1,6,1:1:0:0:
256,192,132805,1,2,1:1:0:0:
256,192,132955,1,0,1:0:0:0:
256,192,133105,1,2,1:1:0:0:
256,192,133255,1,0,1:0:0:0:
256,192,133405,1,0,1:0:0:0:
256,192,133555,1,2,1:1:0:0:
256,192,133705,1,0,1:0:0:0:
256,192,133855,1,6,1:1:0:0:
256,192,134005,1,0,1:0:0:0:
256,192,134155,1,2,1:1:0:0:
256,192,134305,1,2,1:1:0:0:
256,192,134455,1,0,1:0:0:0:
256,192,134505,1,0,1:0:0:0:
256,192,134755,1,0,1:0:0:0:
256,192,134805,1,0,1:0:0:0:
256,192,135055,1,2,1:1:0:0:
256,192,135105,1,2,1:1:0:0:
256,192,135355,1,2,1:1:0:0:
256,192,135655,1,2,1:1:0:0:
256,192,135805,1,0,1:0:0:0:
256,192,135880,1,0,1:0:0:0:
256,192,135955,1,2,1:1:0:0:
256,192,136105,1,0,1:0:0:0:
256,192,136255,1,2,1:1:0:0:
256,192,136330,1,2,1:1:0:0:
256,192,136405,1,0,1:0:0:0:
256,192,136555,1,2,1:1:0:0:
256,192,136705,1,2,1:1:0:0:
256,192,137005,1,0,1:0:0:0:
256,192,137155,1,2,1:1:0:0:
256,192,137305,1,0,1:0:0:0:
256,192,137455,1,2,1:1:0:0:
256,192,137530,1,2,1:1:0:0:
256,192,137605,1,0,1:0:0:0:
256,192,137755,1,2,1:1:0:0:
256,192,137905,1,0,1:0:0:0:
256,192,138205,1,2,1:1:0:0:
256,192,138280,1,2,1:1:0:0:
256,192,138355,1,0,1:0:0:0:
256,192,138430,1,0,1:0:0:0:
256,192,138505,1,2,1:1:0:0:
256,192,138655,1,0,1:0:0:0:
256,192,138730,1,0,1:0:0:0:
256,192,138805,1,2,1:1:0:0:
256,192,138880,1,2,1:1:0:0:
256,192,138955,1,0,1:0:0:0:
256,192,139030,1,0,1:0:0:0:
256,192,139105,1,2,1:1:0:0:
256,192,139255,1,2,1:1:0:0:
256,192,139330,1,2,1:1:0:0:
256,192,139405,1,0,1:0:0:0:
256,192,139480,1,0,1:0:0:0:
256,192,139555,1,2,1:1:0:0:
256,192,139705,1,2,1:1:0:0:
256,192,139855,1,0,1:0:0:0:
256,192,139930,1,2,1:1:0:0:
256,192,140005,1,2,1:1:0:0:
256,192,140080,1,2,1:1:0:0:
256,192,140155,1,0,1:0:0:0:
256,192,140455,1,2,1:1:0:0:
256,192,140530,1,2,1:1:0:0:
256,192,140605,1,0,1:0:0:0:
256,192,140755,1,0,1:0:0:0:
256,192,140905,1,2,1:1:0:0:
256,192,141205,1,2,1:1:0:0:
256,192,141355,1,0,1:0:0:0:
256,192,141505,1,2,1:1:0:0:
256,192,141655,1,2,1:1:0:0:
256,192,141730,1,2,1:1:0:0:
256,192,141805,1,0,1:0:0:0:
256,192,141955,1,2,1:1:0:0:
256,192,142105,1,0,1:0:0:0:
256,192,142405,1,0,1:0:0:0:
256,192,142555,1,2,1:1:0:0:
256,192,142705,1,0,1:0:0:0:
256,192,142855,1,2,1:1:0:0:
256,192,142930,1,2,1:1:0:0:
256,192,143005,1,0,1:0:0:0:
256,192,143155,1,0,1:0:0:0:
256,192,143305,1,2,1:1:0:0:
256,192,143455,1,0,1:0:0:0:
256,192,143530,1,2,1:1:0:0:
256,192,143605,1,0,1:0:0:0:
256,192,143755,1,2,1:1:0:0:
256,192,143905,1,2,1:1:0:0:
256,192,144205,1,2,1:1:0:0:
256,192,144355,1,0,1:0:0:0:
256,192,144655,1,0,1:0:0:0:
256,192,144805,1,2,1:1:0:0:
256,192,144955,1,2,1:1:0:0:
256,192,145255,1,2,1:1:0:0:
256,192,145405,1,0,1:0:0:0:
256,192,145480,1,0,1:0:0:0:
256,192,145555,1,2,1:1:0:0:
256,192,145705,1,0,1:0:0:0:
256,192,145855,1,2,1:1:0:0:
256,192,145930,1,2,1:1:0:0:
256,192,146005,1,0,1:0:0:0:
256,192,146155,1,2,1:1:0:0:
256,192,146305,1,2,1:1:0:0:
256,192,146605,1,0,1:0:0:0:
256,192,146755,1,2,1:1:0:0:
256,192,146905,1,0,1:0:0:0:
256,192,147055,1,2,1:1:0:0:
256,192,147130,1,2,1:1:0:0:
256,192,147205,1,0,1:0:0:0:
256,192,147355,1,2,1:1:0:0:
256,192,147505,1,2,1:1:0:0:
256,192,147805,1,0,1:0:0:0:
256,192,147955,1,2,1:1:0:0:
256,192,148105,1,2,1:1:0:0:
256,192,148255,1,2,1:1:0:0:
256,192,148330,1,0,1:0:0:0:
256,192,148405,1,2,1:1:0:0:
256,192,148555,1,2,1:1:0:0:
256,192,148630,1,0,1:0:0:0:
256,192,148705,1,2,1:1:0:0:
256,192,148855,1,2,1:1:0:0:
256,192,148930,1,2,1:1:0:0:
256,192,149005,1,0,1:0:0:0:
256,192,149080,1,0,1:0:0:0:
256,192,149155,1,2,1:1:0:0:
256,192,149305,1,2,1:1:0:0:
256,192,149455,1,0,1:0:0:0:
256,192,149530,1,0,1:0:0:0:
256,192,149605,1,2,1:1:0:0:
256,192,149755,1,2,1:1:0:0:
256,192,149830,1,2,1:1:0:0:
256,192,149905,1,0,1:0:0:0:
256,192,150055,1,2,1:1:0:0:
256,192,150205,1,0,1:0:0:0:
256,192,150355,1,0,1:0:0:0:
256,192,150505,1,2,1:1:0:0:
256,192,150805,1,2,1:1:0:0:
256,192,150880,1,2,1:1:0:0:
256,192,150955,1,0,1:0:0:0:
256,192,151105,1,0,1:0:0:0:
256,192,151255,1,2,1:1:0:0:
256,192,151330,1,2,1:1:0:0:
256,192,151405,1,0,1:0:0:0:
256,192,151555,1,2,1:1:0:0:
256,192,151705,1,0,1:0:0:0:
256,192,152005,1,0,1:0:0:0:
256,192,152080,1,0,1:0:0:0:
256,192,152155,1,2,1:1:0:0:
256,192,152305,1,0,1:0:0:0:
256,192,152455,1,2,1:1:0:0:
256,192,152530,1,2,1:1:0:0:
256,192,152605,1,0,1:0:0:0:
256,192,152755,1,2,1:1:0:0:
256,192,152905,1,0,1:0:0:0:
256,192,153055,1,2,1:1:0:0:
256,192,153130,1,0,1:0:0:0:
256,192,153205,1,0,1:0:0:0:
256,192,153355,1,2,1:1:0:0:
256,192,153505,1,2,1:1:0:0:
256,192,153805,1,0,1:0:0:0:
256,192,153955,1,2,1:1:0:0:
256,192,154105,1,2,1:1:0:0:
256,192,154255,1,0,1:0:0:0:
256,192,154555,1,2,1:1:0:0:
256,192,154705,1,2,1:1:0:0:
256,192,154780,1,2,1:1:0:0:
256,192,154855,1,0,1:0:0:0:
256,192,155005,1,2,1:1:0:0:
256,192,155155,1,0,1:0:0:0:
256,192,155305,1,0,1:0:0:0:
256,192,155455,1,6,1:1:0:0:
256,192,155605,1,0,1:0:0:0:
256,192,155755,1,2,1:1:0:0:
256,192,155905,1,2,1:1:0:0:
256,192,156055,1,0,1:0:0:0:
256,192,156205,1,2,1:1:0:0:
256,192,156355,1,0,1:0:0:0:
256,192,156505,1,0,1:0:0:0:
256,192,156655,1,6,1:1:0:0:
256,192,156805,1,0,1:0:0:0:
256,192,156955,1,2,1:1:0:0:
256,192,157105,1,2,1:1:0:0:
256,192,157255,1,0,1:0:0:0:
256,192,157405,1,2,1:1:0:0:
256,192,157480,1,2,1:1:0:0:
256,192,157555,1,0,1:0:0:0:
256,192,157705,1,0,1:0:0:0:
256,192,157855,1,6,1:1:0:0:
256,192,158005,1,2,1:1:0:0:
256,192,158155,1,0,1:0:0:0:
256,192,158230,1,0,1:0:0:0:
256,192,158305,1,2,1:1:0:0:
256,192,158380,1,2,1:1:0:0:
256,192,158455,1,0,1:0:0:0:
256,192,158605,1,2,1:1:0:0:
256,192,158755,1,6,1:1:0:0:
256,192,158905,1,2,1:1:0:0:
256,192,159055,1,2,1:1:0:0:
256,192,159130,1,2,1:1:0:0:
256,192,159205,1,0,1:0:0:0:
256,192,159355,1,6,1:1:0:0:
256,192,159505,1,0,1:0:0:0:
256,192,159655,1,2,1:1:0:0:
256,192,159805,1,2,1:1:0:0:
256,192,159955,1,0,1:0:0:0:
256,192,160105,1,2,1:1:0:0:
256,192,160255,1,6,1:1:0:0:
256,192,160405,1,2,1:1:0:0:
256,192,160555,1,0,1:0:0:0:
256,192,160705,1,0,1:0:0:0:
256,192,160855,1,2,1:1:0:0:
256,192,161005,1,0,1:0:0:0:
256,192,161155,1,2,1:1:0:0:
256,192,161305,1,0,1:0:0:0:
256,192,161455,1,6,1:1:0:0:
256,192,161605,1,0,1:0:0:0:
256,192,161755,1,2,1:1:0:0:
256,192,161905,1,0,1:0:0:0:
256,192,162055,1,2,1:1:0:0:
256,192,162205,1,0,1:0:0:0:
256,192,162355,1,0,1:0:0:0:
256,192,162505,1,0,1:0:0:0:
256,192,162655,1,6,1:1:0:0:
256,192,162805,1,0,1:0:0:0:
256,192,162955,1,2,1:1:0:0:
256,192,163105,1,2,1:1:0:0:
256,192,163255,1,0,1:0:0:0:
256,192,163405,1,0,1:0:0:0:
256,192,163555,1,6,1:1:0:0:
256,192,163705,1,0,1:0:0:0:
256,192,163855,1,0,1:0:0:0:
256,192,164005,1,0,1:0:0:0:
256,192,164155,1,6,1:1:0:0:
256,192,164305,1,0,1:0:0:0:
256,192,164455,1,0,1:0:0:0:
256,192,164755,1,0,1:0:0:0:
256,192,165055,1,6,1:1:0:0:
256,192,165355,1,2,1:1:0:0:
256,192,165505,1,2,1:1:0:0:
256,192,165655,1,0,1:0:0:0:
256,192,165955,1,0,1:0:0:0:
256,192,166255,1,6,1:1:0:0:
256,192,166555,1,2,1:1:0:0:
256,192,166705,1,0,1:0:0:0:
256,192,166855,1,0,1:0:0:0:
256,192,167005,1,0,1:0:0:0:
256,192,167155,1,2,1:1:0:0:
256,192,167305,1,2,1:1:0:0:
256,192,167455,1,6,1:1:0:0:
256,192,167605,1,2,1:1:0:0:
256,192,167755,1,0,1:0:0:0:
256,192,167830,1,0,1:0:0:0:
256,192,167905,1,2,1:1:0:0:
256,192,168055,1,2,1:1:0:0:
256,192,168130,1,2,1:1:0:0:
256,192,168205,1,0,1:0:0:0:
256,192,168355,1,6,1:1:0:0:
256,192,168505,1,0,1:0:0:0:
256,192,168655,1,0,1:0:0:0:
256,192,168730,1,0,1:0:0:0:
256,192,168805,1,2,1:1:0:0:
256,192,168955,1,6,1:1:0:0:
256,192,169105,1,0,1:0:0:0:
256,192,169255,1,2,1:1:0:0:
256,192,169555,1,0,1:0:0:0:
256,192,169705,1,2,1:1:0:0:
256,192,169855,1,6,1:1:0:0:
256,192,170155,1,0,1:0:0:0:
256,192,170455,1,2,1:1:0:0:
256,192,170755,1,2,1:1:0:0:
256,192,170905,1,0,1:0:0:0:
256,192,171055,1,6,1:1:0:0:
256,192,171355,1,0,1:0:0:0:
256,192,171655,1,2,1:1:0:0:
256,192,171955,1,2,1:1:0:0:
256,192,172255,1,6,1:1:0:0:
256,192,172555,1,0,1:0:0:0:
256,192,172705,1,2,1:1:0:0:
256,192,172855,1,0,1:0:0:0:
256,192,173155,1,6,1:1:0:0:
256,192,173455,1,0,1:0:0:0:
256,192,173755,1,6,1:1:0:0:
256,192,173905,1,2,1:1:0:0:
256,192,173980,1,2,1:1:0:0:
256,192,174055,1,0,1:0:0:0:
256,192,174205,1,0,1:0:0:0:
256,192,174355,1,2,1:1:0:0:
256,192,174505,1,0,1:0:0:0:
256,192,174580,1,0,1:0:0:0:
256,192,174655,1,2,1:1:0:0:
256,192,174805,1,0,1:0:0:0:
256,192,174955,1,2,1:1:0:0:
256,192,175105,1,2,1:1:0:0:
256,192,175405,1,0,1:0:0:0:
256,192,175480,1,0,1:0:0:0:
256,192,175555,1,2,1:1:0:0:
256,192,175705,1,0,1:0:0:0:
256,192,175855,1,2,1:1:0:0:
256,192,175930,1,0,1:0:0:0:
256,192,176005,1,0,1:0:0:0:
256,192,176155,1,2,1:1:0:0:
256,192,176305,1,2,1:1:0:0:
256,192,176605,1,2,1:1:0:0:
256,192,176680,1,2,1:1:0:0:
256,192,176755,1,0,1:0:0:0:
256,192,176830,1,2,1:1:0:0:
256,192,176905,1,2,1:1:0:0:
256,192,176980,1,2,1:1:0:0:
256,192,177055,1,0,1:0:0:0:
256,192,177205,1,0,1:0:0:0:
256,192,177355,1,2,1:1:0:0:
256,192,177505,1,2,1:1:0:0:
256,192,177580,1,2,1:1:0:0:
256,192,177655,1,0,1:0:0:0:
256,192,177730,1,0,1:0:0:0:
256,192,177805,1,2,1:1:0:0:
256,192,177955,1,0,1:0:0:0:
256,192,178030,1,0,1:0:0:0:
256,192,178105,1,2,1:1:0:0:
256,192,178255,1,2,1:1:0:0:
256,192,178330,1,2,1:1:0:0:
256,192,178405,1,0,1:0:0:0:
256,192,178480,1,0,1:0:0:0:
256,192,178555,1,2,1:1:0:0:
256,192,178855,1,2,1:1:0:0:
256,192,178930,1,2,1:1:0:0:
256,192,179005,1,0,1:0:0:0:
256,192,179155,1,0,1:0:0:0:
256,192,179305,1,2,1:1:0:0:
256,192,179605,1,0,1:0:0:0:
256,192,179680,1,0,1:0:0:0:
256,192,179755,1,2,1:1:0:0:
256,192,179830,1,2,1:1:0:0:
256,192,179905,1,0,1:0:0:0:
256,192,180055,1,2,1:1:0:0:
256,192,180130,1,2,1:1:0:0:
256,192,180205,1,0,1:0:0:0:
256,192,180355,1,2,1:1:0:0:
256,192,180505,1,0,1:0:0:0:
256,192,180805,1,0,1:0:0:0:
256,192,180880,1,0,1:0:0:0:
256,192,180955,1,2,1:1:0:0:
256,192,181105,1,0,1:0:0:0:
256,192,181255,1,2,1:1:0:0:
256,192,181330,1,2,1:1:0:0:
256,192,181405,1,0,1:0:0:0:
256,192,181555,1,2,1:1:0:0:
256,192,181630,1,2,1:1:0:0:
256,192,181705,1,0,1:0:0:0:
256,192,181780,1,0,1:0:0:0:
256,192,181855,1,2,1:1:0:0:
256,192,182005,1,0,1:0:0:0:
256,192,182155,1,2,1:1:0:0:
256,192,182305,1,2,1:1:0:0:
256,192,182605,1,0,1:0:0:0:
256,192,182680,1,0,1:0:0:0:
256,192,182755,1,2,1:1:0:0:
256,192,182905,1,0,1:0:0:0:
256,192,182980,1,0,1:0:0:0:
256,192,183055,1,2,1:1:0:0:
256,192,183205,1,0,1:0:0:0:
256,192,183355,1,2,1:1:0:0:
256,192,183505,1,2,1:1:0:0:
256,192,183655,1,2,1:1:0:0:
256,192,183805,1,0,1:0:0:0:
256,192,183880,1,0,1:0:0:0:
256,192,183955,1,2,1:1:0:0:
256,192,184105,1,0,1:0:0:0:
256,192,184180,1,0,1:0:0:0:
256,192,184255,1,2,1:1:0:0:
256,192,184330,1,2,1:1:0:0:
256,192,184405,1,0,1:0:0:0:
256,192,184555,1,2,1:1:0:0:
256,192,184705,1,2,1:1:0:0:
256,192,185005,1,0,1:0:0:0:
256,192,185080,1,0,1:0:0:0:
256,192,185155,1,2,1:1:0:0:
256,192,185305,1,0,1:0:0:0:
256,192,185455,1,2,1:1:0:0:
256,192,185530,1,2,1:1:0:0:
256,192,185605,1,0,1:0:0:0:
256,192,185755,1,2,1:1:0:0:
256,192,185905,1,0,1:0:0:0:
256,192,186205,1,0,1:0:0:0:
256,192,186280,1,0,1:0:0:0:
256,192,186355,1,2,1:1:0:0:
256,192,186505,1,2,1:1:0:0:
256,192,186655,1,2,1:1:0:0:
256,192,186730,1,0,1:0:0:0:
256,192,186805,1,2,1:1:0:0:
256,192,186955,1,2,1:1:0:0:
256,192,187030,1,0,1:0:0:0:
256,192,187105,1,2,1:1:0:0:
256,192,187255,1,2,1:1:0:0:
256,192,187330,1,2,1:1:0:0:
256,192,187405,1,0,1:0:0:0:
256,192,187480,1,0,1:0:0:0:
256,192,187555,1,2,1:1:0:0:
256,192,187705,1,0,1:0:0:0:
256,192,187855,1,0,1:0:0:0:
256,192,187930,1,0,1:0:0:0:
256,192,188005,1,2,1:1:0:0:
256,192,188155,1,2,1:1:0:0:
256,192,188230,1,2,1:1:0:0:
256,192,188305,1,0,1:0:0:0:
256,192,188455,1,2,1:1:0:0:
256,192,188605,1,0,1:0:0:0:
256,192,188755,1,2,1:1:0:0:
256,192,188905,1,2,1:1:0:0:
256,192,189205,1,2,1:1:0:0:
256,192,189280,1,0,1:0:0:0:
256,192,189355,1,2,1:1:0:0:
256,192,189505,1,0,1:0:0:0:
256,192,189655,1,2,1:1:0:0:
256,192,189730,1,0,1:0:0:0:
256,192,189805,1,0,1:0:0:0:
256,192,189955,1,2,1:1:0:0:
256,192,190105,1,0,1:0:0:0:
256,192,190405,1,0,1:0:0:0:
256,192,190480,1,0,1:0:0:0:
256,192,190555,1,2,1:1:0:0:
256,192,190705,1,2,1:1:0:0:
256,192,190855,1,2,1:1:0:0:
256,192,190930,1,2,1:1:0:0:
256,192,191005,1,0,1:0:0:0:
256,192,191155,1,2,1:1:0:0:
256,192,191230,1,2,1:1:0:0:
256,192,191305,1,0,1:0:0:0:
256,192,191380,1,0,1:0:0:0:
256,192,191455,1,2,1:1:0:0:
256,192,191605,1,2,1:1:0:0:
256,192,191755,1,0,1:0:0:0:
256,192,191905,1,2,1:1:0:0:
256,192,192205,1,0,1:0:0:0:
256,192,192280,1,0,1:0:0:0:
256,192,192355,1,2,1:1:0:0:
256,192,192505,1,0,1:0:0:0:
256,192,192580,1,0,1:0:0:0:
256,192,192655,1,2,1:1:0:0:
256,192,192805,1,0,1:0:0:0:
256,192,192955,1,2,1:1:0:0:
256,192,193255,1,0,1:0:0:0:
