osu file format v14

[General]
AudioFilename: audio.mp3
AudioLeadIn: 0
PreviewTime: 19705
Countdown: 1
SampleSet: Normal
StackLeniency: 0.7
Mode: 1
LetterboxInBreaks: 0
WidescreenStoryboard: 1

[Editor]
DistanceSpacing: 0.1
BeatDivisor: 4
GridSize: 32
TimelineZoom: 2.7

[Metadata]
Title:Rainbow Dash And Fluttershy Go For A Leisurely Glide
TitleUnicode:Rainbow Dash And Fluttershy Go For A Leisurely Glide
Artist:Foozogz
ArtistUnicode:Foozogz
Creator:Firmatorenio
Version:Muzu
Source:
Tags:pony mlp
BeatmapID:4477358
BeatmapSetID:827362

[Difficulty]
HPDrainRate:5.5
CircleSize:2
OverallDifficulty:4.5
ApproachRate:8
SliderMultiplier:1.39999996870756
SliderTickRate:2

[Events]
//Background and Video events
0,0,"rdnfsgflg.png",0,0
//Break Periods
//Storyboard Layer 0 (Background)
//Storyboard Layer 1 (Fail)
//Storyboard Layer 2 (Pass)
//Storyboard Layer 3 (Foreground)
//Storyboard Layer 4 (Overlay)
//Storyboard Sound Samples

[TimingPoints]
1255,300,4,1,0,84,1,0
20455,-100,4,1,0,84,0,1
39655,-100,4,1,0,84,0,0
58855,-100,4,1,0,84,0,1
97255,-100,4,1,0,84,0,0
134455,-97.0873786407767,4,1,0,84,0,0
134755,-94.3396226415094,4,1,0,84,0,0
135055,-91.743119266055,4,1,0,84,0,0
135355,-89.2857142857143,4,1,0,84,0,0
135655,-86.9565217391304,4,1,0,84,0,1
154255,-89.2857142857143,4,1,0,84,0,1
154555,-94.3396226415094,4,1,0,84,0,1
154705,-97.0873786407767,4,1,0,84,0,1
154780,-98.0392156862745,4,1,0,84,0,1
154855,-100,4,1,0,84,0,0
172855,-97.0873786407767,4,1,0,84,0,0
173155,-94.3396226415094,4,1,0,84,0,0
173455,-91.743119266055,4,1,0,84,0,0
173755,-89.2857142857143,4,1,0,84,0,0
174055,-86.9565217391304,4,1,0,84,0,1
193255,-86.9565217391304,4,1,0,84,0,0

[Colours]
Combo1 : 255,192,0
Combo2 : 0,202,0
Combo3 : 18,124,255
Combo4 : 242,24,57

[HitObjects]
256,192,655,5,2,1:1:0:0:
256,192,955,1,0,1:0:0:0:
256,192,1255,1,2,1:1:0:0:
256,192,1855,1,2,1:1:0:0:
256,192,2155,1,2,1:1:0:0:
256,192,2305,1,2,1:1:0:0:
256,192,3055,1,2,1:1:0:0:
256,192,3355,1,2,1:1:0:0:
256,192,3505,1,0,1:0:0:0:
256,192,3955,1,0,1:0:0:0:
256,192,4255,1,2,1:1:0:0:
256,192,4855,1,0,1:0:0:0:
256,192,5155,1,0,1:0:0:0:
256,192,5455,1,2,1:1:0:0:
256,192,6055,1,2,1:1:0:0:
256,192,6355,1,0,1:0:0:0:
256,192,6505,1,2,1:1:0:0:
256,192,6955,1,0,1:0:0:0:
256,192,7255,1,2,1:1:0:0:
256,192,7555,1,2,1:1:0:0:
256,192,7705,1,0,1:0:0:0:
256,192,8155,1,0,1:0:0:0:
256,192,8455,1,2,1:1:0:0:
256,192,8755,1,2,1:1:0:0:
256,192,9055,1,0,1:0:0:0:
256,192,9355,1,2,1:1:0:0:
256,192,9505,1,0,1:0:0:0:
256,192,9955,1,0,1:0:0:0:
256,192,10255,1,2,1:1:0:0:
256,192,10555,1,0,1:0:0:0:
256,192,10855,1,2,1:1:0:0:
256,192,11455,1,2,1:1:0:0:
256,192,11755,1,2,1:1:0:0:
256,192,11905,1,2,1:1:0:0:
256,192,12655,1,2,1:1:0:0:
256,192,12955,1,2,1:1:0:0:
256,192,13105,1,0,1:0:0:0:
256,192,13555,1,0,1:0:0:0:
256,192,13855,1,2,1:1:0:0:
256,192,14455,1,0,1:0:0:0:
256,192,14755,1,0,1:0:0:0:
256,192,15055,1,2,1:1:0:0:
256,192,15655,1,2,1:1:0:0:
256,192,15955,1,0,1:0:0:0:
256,192,16105,1,2,1:1:0:0:
256,192,16555,1,0,1:0:0:0:
256,192,16855,1,2,1:1:0:0:
256,192,17155,1,2,1:1:0:0:
256,192,17305,1,0,1:0:0:0:
256,192,17755,1,0,1:0:0:0:
256,192,18055,1,2,1:1:0:0:
256,192,18355,1,2,1:1:0:0:
256,192,18655,1,0,1:0:0:0:
256,192,18955,1,2,1:1:0:0:
256,192,19105,1,0,1:0:0:0:
256,192,19255,1,2,1:1:0:0:
256,192,19405,1,2,1:1:0:0:
256,192,19555,1,2,1:1:0:0:
256,192,19705,1,2,1:1:0:0:
256,192,19855,1,0,1:0:0:0:
256,192,20155,1,2,1:1:0:0:
256,192,20305,1,2,1:1:0:0:
256,192,20455,1,0,1:0:0:0:
256,192,20755,1,2,1:1:0:0:
256,192,20905,1,0,1:0:0:0:
256,192,21055,1,2,1:1:0:0:
256,192,21355,1,2,1:1:0:0:
256,192,21505,1,2,1:1:0:0:
256,192,21955,1,2,1:1:0:0:
256,192,22105,1,0,1:0:0:0:
256,192,22255,1,2,1:1:0:0:
256,192,22555,1,2,1:1:0:0:
256,192,22705,1,0,1:0:0:0:
256,192,23005,1,0,1:0:0:0:
256,192,23155,1,2,1:1:0:0:
256,192,23455,1,2,1:1:0:0:
256,192,23530,1,2,1:0:0:0:
256,192,23605,1,2,1:1:0:0:
256,192,23755,1,2,1:1:0:0:
256,192,23830,1,2,1:0:0:0:
256,192,23905,1,2,1:1:0:0:
256,192,24055,1,2,1:1:0:0:
256,192,24355,1,2,1:1:0:0:
256,192,24505,1,0,1:0:0:0:
256,192,24655,1,2,1:1:0:0:
256,192,24730,1,0,1:0:0:0:
256,192,24805,1,2,1:1:0:0:
256,192,24955,1,2,1:1:0:0:
256,192,25255,1,2,1:1:0:0:
256,192,25555,1,0,1:0:0:0:
256,192,25705,1,2,1:1:0:0:
256,192,26005,1,2,1:1:0:0:
256,192,26155,1,0,1:0:0:0:
256,192,26455,1,2,1:1:0:0:
256,192,26755,1,2,1:1:0:0:
256,192,26905,1,0,1:0:0:0:
256,192,27205,1,0,1:0:0:0:
256,192,27355,1,2,1:1:0:0:
256,192,27655,1,2,1:1:0:0:
256,192,27805,1,0,1:0:0:0:
256,192,27955,1,2,1:1:0:0:
256,192,28255,1,0,1:0:0:0:
256,192,28555,1,2,1:1:0:0:
256,192,28705,1,0,1:0:0:0:
256,192,29155,1,2,1:1:0:0:
256,192,29455,1,0,1:0:0:0:
256,192,29755,1,2,1:1:0:0:
256,192,29905,1,0,1:0:0:0:
256,192,30055,1,2,1:1:0:0:
256,192,30355,1,0,1:0:0:0:
256,192,30505,1,0,1:0:0:0:
256,192,30655,1,2,1:1:0:0:
256,192,30955,1,2,1:1:0:0:
256,192,31105,1,2,1:1:0:0:
256,192,31555,1,2,1:1:0:0:
256,192,31705,1,0,1:0:0:0:
256,192,31855,1,2,1:1:0:0:
256,192,32155,1,2,1:1:0:0:
256,192,32305,1,2,1:1:0:0:
256,192,32605,1,0,1:0:0:0:
256,192,32755,1,2,1:1:0:0:
256,192,33055,1,2,1:1:0:0:
256,192,33130,1,2,1:0:0:0:
256,192,33205,1,2,1:1:0:0:
256,192,33355,1,2,1:1:0:0:
256,192,33430,1,2,1:0:0:0:
256,192,33505,1,2,1:1:0:0:
256,192,33655,1,2,1:1:0:0:
256,192,33955,1,2,1:1:0:0:
256,192,34105,1,0,1:0:0:0:
256,192,34255,1,2,1:1:0:0:
256,192,34330,1,0,1:0:0:0:
256,192,34405,1,2,1:1:0:0:
256,192,34555,1,2,1:1:0:0:
256,192,34855,1,2,1:1:0:0:
256,192,35155,1,0,1:0:0:0:
256,192,35305,1,2,1:1:0:0:
256,192,35605,1,2,1:1:0:0:
256,192,35755,1,0,1:0:0:0:
256,192,36055,1,2,1:1:0:0:
256,192,36355,1,2,1:1:0:0:
256,192,36505,1,0,1:0:0:0:
256,192,36805,1,2,1:1:0:0:
256,192,36955,1,0,1:0:0:0:
256,192,37255,1,2,1:1:0:0:
256,192,37405,1,0,1:0:0:0:
256,192,37555,1,2,1:1:0:0:
256,192,37855,1,0,1:0:0:0:
256,192,38155,1,2,1:1:0:0:
256,192,38305,1,0,1:0:0:0:
256,192,38605,1,0,1:0:0:0:
256,192,38755,1,2,1:1:0:0:
256,192,39055,1,0,1:0:0:0:
256,192,39355,1,2,1:1:0:0:
256,192,39655,1,0,1:0:0:0:
256,192,39805,1,0,1:0:0:0:
256,192,39955,1,2,1:1:0:0:
256,192,40105,1,0,1:0:0:0:
256,192,40255,1,0,1:0:0:0:
256,192,40405,1,2,1:1:0:0:
256,192,40555,1,0,1:0:0:0:
256,192,40705,1,2,1:1:0:0:
256,192,41005,1,0,1:0:0:0:
256,192,41155,1,2,1:1:0:0:
256,192,41305,1,0,1:0:0:0:
256,192,41455,1,0,1:0:0:0:
256,192,41605,1,2,1:1:0:0:
256,192,41755,1,0,1:0:0:0:
256,192,41905,1,2,1:1:0:0:
256,192,42205,1,2,1:1:0:0:
256,192,42355,1,2,1:1:0:0:
256,192,42505,1,2,1:1:0:0:
256,192,42655,1,0,1:0:0:0:
256,192,42805,1,2,1:1:0:0:
256,192,42955,1,0,1:0:0:0:
256,192,43105,1,2,1:1:0:0:
256,192,43405,1,0,1:0:0:0:
256,192,43555,1,2,1:1:0:0:
256,192,43705,1,0,1:0:0:0:
256,192,43855,1,2,1:1:0:0:
256,192,44005,1,2,1:1:0:0:
256,192,44155,1,2,1:1:0:0:
256,192,44305,1,2,1:1:0:0:
256,192,44455,1,0,1:0:0:0:
256,192,44605,1,0,1:0:0:0:
256,192,44755,1,2,1:1:0:0:
256,192,44905,1,0,1:0:0:0:
256,192,45055,1,0,1:0:0:0:
256,192,45205,1,2,1:1:0:0:
256,192,45355,1,0,1:0:0:0:
256,192,45505,1,2,1:1:0:0:
256,192,45805,1,0,1:0:0:0:
256,192,45955,1,2,1:1:0:0:
256,192,46105,1,0,1:0:0:0:
256,192,46255,1,0,1:0:0:0:
256,192,46405,1,2,1:1:0:0:
256,192,46555,1,0,1:0:0:0:
256,192,46705,1,2,1:1:0:0:
256,192,47005,1,0,1:0:0:0:
256,192,47155,1,2,1:1:0:0:
256,192,47305,1,0,1:0:0:0:
256,192,47455,1,0,1:0:0:0:
256,192,47605,1,2,1:1:0:0:
256,192,47755,1,0,1:0:0:0:
256,192,47905,1,2,1:1:0:0:
256,192,48205,1,0,1:0:0:0:
256,192,48355,1,2,1:1:0:0:
256,192,48505,1,0,1:0:0:0:
256,192,48655,1,2,1:1:0:0:
256,192,48805,1,2,1:1:0:0:
256,192,48955,1,2,1:1:0:0:
256,192,49105,1,0,1:0:0:0:
256,192,49255,1,0,1:0:0:0:
256,192,49405,1,0,1:0:0:0:
256,192,49555,1,2,1:1:0:0:
256,192,49705,1,0,1:0:0:0:
256,192,49855,1,2,1:1:0:0:
256,192,50005,1,2,1:1:0:0:
256,192,50155,1,0,1:0:0:0:
256,192,50305,1,2,1:1:0:0:
256,192,50605,1,0,1:0:0:0:
256,192,50755,1,2,1:1:0:0:
256,192,50905,1,0,1:0:0:0:
256,192,51055,1,0,1:0:0:0:
256,192,51205,1,2,1:1:0:0:
256,192,51355,1,0,1:0:0:0:
256,192,51505,1,2,1:1:0:0:
256,192,51805,1,0,1:0:0:0:
256,192,51955,1,2,1:1:0:0:
256,192,52105,1,2,1:1:0:0:
256,192,52255,1,0,1:0:0:0:
256,192,52405,1,2,1:1:0:0:
256,192,52555,1,0,1:0:0:0:
256,192,52705,1,2,1:1:0:0:
256,192,53005,1,0,1:0:0:0:
256,192,53155,1,2,1:1:0:0:
256,192,53305,1,0,1:0:0:0:
256,192,53455,1,2,1:1:0:0:
256,192,53605,1,0,1:0:0:0:
256,192,53755,1,2,1:1:0:0:
256,192,53905,1,0,1:0:0:0:
256,192,54055,1,0,1:0:0:0:
256,192,54205,1,0,1:0:0:0:
256,192,54355,1,2,1:1:0:0:
256,192,54505,1,0,1:0:0:0:
256,192,54655,1,0,1:0:0:0:
256,192,54805,1,2,1:1:0:0:
256,192,54955,1,0,1:0:0:0:
256,192,55105,1,2,1:1:0:0:
256,192,55405,1,2,1:1:0:0:
256,192,55555,1,2,1:1:0:0:
256,192,55705,1,0,1:0:0:0:
256,192,55855,1,0,1:0:0:0:
256,192,56005,1,2,1:1:0:0:
256,192,56155,1,0,1:0:0:0:
256,192,56305,1,2,1:1:0:0:
256,192,56605,1,0,1:0:0:0:
256,192,56755,1,2,1:1:0:0:
256,192,56905,1,2,1:1:0:0:
256,192,57055,1,0,1:0:0:0:
256,192,57205,1,2,1:1:0:0:
256,192,57355,1,0,1:0:0:0:
256,192,57505,1,2,1:1:0:0:
256,192,57655,1,2,1:1:0:0:
256,192,57955,1,2,1:1:0:0:
256,192,58255,1,2,1:1:0:0:
256,192,58555,1,2,1:1:0:0:
256,192,58855,1,2,1:1:0:0:
256,192,59155,1,2,1:1:0:0:
256,192,59305,1,0,1:0:0:0:
256,192,59455,1,2,1:1:0:0:
256,192,59755,1,2,1:1:0:0:
256,192,59905,1,2,1:1:0:0:
256,192,60205,1,0,1:0:0:0:
256,192,60355,1,2,1:1:0:0:
256,192,60655,1,2,1:1:0:0:
256,192,60955,1,2,1:1:0:0:
256,192,61105,1,0,1:0:0:0:
256,192,61405,1,0,1:0:0:0:
256,192,61480,1,0,1:0:0:0:
256,192,61555,1,2,1:1:0:0:
256,192,61705,1,0,1:0:0:0:
256,192,61855,1,2,1:1:0:0:
256,192,62005,1,0,1:0:0:0:
256,192,62080,1,0,1:0:0:0:
256,192,62155,1,2,1:1:0:0:
256,192,62455,1,2,1:1:0:0:
256,192,62605,1,0,1:0:0:0:
256,192,62680,1,0,1:0:0:0:
256,192,62755,1,2,1:1:0:0:
256,192,62905,1,0,1:0:0:0:
256,192,62980,1,0,1:0:0:0:
256,192,63055,1,2,1:1:0:0:
256,192,63205,1,0,1:0:0:0:
256,192,63355,1,2,1:1:0:0:
256,192,63655,1,2,1:1:0:0:
256,192,63955,1,0,1:0:0:0:
256,192,64105,1,2,1:1:0:0:
256,192,64405,1,0,1:0:0:0:
256,192,64555,1,2,1:1:0:0:
256,192,64705,1,0,1:0:0:0:
256,192,64855,1,2,1:1:0:0:
256,192,65155,1,2,1:1:0:0:
256,192,65305,1,0,1:0:0:0:
256,192,65605,1,0,1:0:0:0:
256,192,65755,1,2,1:1:0:0:
256,192,65905,1,0,1:0:0:0:
256,192,66055,1,2,1:1:0:0:
256,192,66355,1,2,1:1:0:0:
256,192,66655,1,0,1:0:0:0:
256,192,66955,1,2,1:1:0:0:
256,192,67105,1,0,1:0:0:0:
256,192,67405,1,0,1:0:0:0:
256,192,67555,1,2,1:1:0:0:
256,192,67855,1,0,1:0:0:0:
256,192,68155,1,2,1:1:0:0:
256,192,68455,1,2,1:1:0:0:
256,192,68755,1,2,1:1:0:0:
256,192,68905,1,0,1:0:0:0:
256,192,69055,1,2,1:1:0:0:
256,192,69355,1,2,1:1:0:0:
256,192,69505,1,2,1:1:0:0:
256,192,69805,1,0,1:0:0:0:
256,192,69955,1,2,1:1:0:0:
256,192,70255,1,2,1:1:0:0:
256,192,70555,1,2,1:1:0:0:
256,192,70705,1,0,1:0:0:0:
256,192,71005,1,0,1:0:0:0:
256,192,71155,1,2,1:1:0:0:
256,192,71230,1,2,1:1:0:0:
256,192,71305,1,0,1:0:0:0:
256,192,71455,1,2,1:1:0:0:
256,192,71605,1,0,1:0:0:0:
256,192,71755,1,2,1:1:0:0:
256,192,72055,1,2,1:1:0:0:
256,192,72130,1,2,1:1:0:0:
256,192,72205,1,0,1:0:0:0:
256,192,72355,1,2,1:1:0:0:
256,192,72430,1,2,1:1:0:0:
256,192,72505,1,0,1:0:0:0:
256,192,72655,1,2,1:1:0:0:
256,192,72805,1,0,1:0:0:0:
256,192,72955,1,2,1:1:0:0:
256,192,73255,1,2,1:1:0:0:
256,192,73555,1,0,1:0:0:0:
256,192,73705,1,2,1:1:0:0:
256,192,74005,1,2,1:1:0:0:
256,192,74155,1,0,1:0:0:0:
256,192,74455,1,2,1:1:0:0:
256,192,74755,1,2,1:1:0:0:
256,192,74905,1,0,1:0:0:0:
256,192,75205,1,0,1:0:0:0:
256,192,75355,1,2,1:1:0:0:
256,192,75655,1,2,1:1:0:0:
256,192,75805,1,0,1:0:0:0:
256,192,75955,1,2,1:1:0:0:
256,192,76255,1,0,1:0:0:0:
256,192,76405,1,0,1:0:0:0:
256,192,76555,1,2,1:1:0:0:
256,192,76705,1,0,1:0:0:0:
256,192,77005,1,0,1:0:0:0:
256,192,77155,1,2,1:1:0:0:
256,192,77455,1,0,1:0:0:0:
256,192,77755,1,2,1:1:0:0:
256,192,78055,1,2,1:1:0:0:
256,192,78355,1,2,1:1:0:0:
256,192,78505,1,0,1:0:0:0:
256,192,78655,1,2,1:1:0:0:
256,192,78955,1,2,1:1:0:0:
256,192,79105,1,2,1:1:0:0:
256,192,79405,1,0,1:0:0:0:
256,192,79555,1,2,1:1:0:0:
256,192,79855,1,2,1:1:0:0:
256,192,80005,1,0,1:0:0:0:
256,192,80155,1,2,1:1:0:0:
256,192,80305,1,0,1:0:0:0:
256,192,80605,1,2,1:1:0:0:
256,192,80755,1,0,1:0:0:0:
256,192,80830,1,0,1:0:0:0:
256,192,80905,1,2,1:1:0:0:
256,192,81055,1,0,1:0:0:0:
256,192,81205,1,0,1:0:0:0:
256,192,81355,1,2,1:1:0:0:
256,192,81655,1,2,1:1:0:0:
256,192,81805,1,0,1:0:0:0:
256,192,81880,1,0,1:0:0:0:
256,192,81955,1,2,1:1:0:0:
256,192,82105,1,0,1:0:0:0:
256,192,82180,1,0,1:0:0:0:
256,192,82255,1,2,1:1:0:0:
256,192,82405,1,0,1:0:0:0:
256,192,82555,1,2,1:1:0:0:
256,192,82855,1,2,1:1:0:0:
256,192,83155,1,0,1:0:0:0:
256,192,83305,1,2,1:1:0:0:
256,192,83605,1,2,1:1:0:0:
256,192,83755,1,0,1:0:0:0:
256,192,84055,1,2,1:1:0:0:
256,192,84355,1,2,1:1:0:0:
256,192,84505,1,0,1:0:0:0:
256,192,84805,1,0,1:0:0:0:
256,192,84955,1,2,1:1:0:0:
256,192,85255,1,2,1:1:0:0:
256,192,85405,1,0,1:0:0:0:
256,192,85555,1,2,1:1:0:0:
256,192,85855,1,0,1:0:0:0:
256,192,86155,1,2,1:1:0:0:
256,192,86305,1,2,1:1:0:0:
256,192,86605,1,0,1:0:0:0:
256,192,86755,1,2,1:1:0:0:
256,192,87055,1,0,1:0:0:0:
256,192,87355,1,2,1:1:0:0:
256,192,87505,1,0,1:0:0:0:
256,192,87655,1,2,1:1:0:0:
256,192,87955,1,2,1:1:0:0:
256,192,88105,1,0,1:0:0:0:
256,192,88255,1,2,1:1:0:0:
256,192,88555,1,2,1:1:0:0:
256,192,88705,1,2,1:1:0:0:
256,192,89005,1,0,1:0:0:0:
256,192,89155,1,2,1:1:0:0:
256,192,89455,1,2,1:1:0:0:
256,192,89755,1,2,1:1:0:0:
256,192,89905,1,0,1:0:0:0:
256,192,90205,1,2,1:1:0:0:
256,192,90280,1,2,1:1:0:0:
256,192,90355,1,0,1:0:0:0:
256,192,90505,1,0,1:0:0:0:
256,192,90655,1,2,1:1:0:0:
256,192,90805,1,0,1:0:0:0:
256,192,90880,1,0,1:0:0:0:
256,192,90955,1,2,1:1:0:0:
256,192,91255,1,0,1:0:0:0:
256,192,91330,1,0,1:0:0:0:
256,192,91405,1,2,1:1:0:0:
256,192,91555,1,2,1:1:0:0:
256,192,91705,1,0,1:0:0:0:
256,192,91855,1,2,1:1:0:0:
256,192,91930,1,2,1:1:0:0:
256,192,92005,1,0,1:0:0:0:
256,192,92155,1,2,1:1:0:0:
256,192,92455,1,2,1:1:0:0:
256,192,92755,1,0,1:0:0:0:
256,192,92905,1,2,1:1:0:0:
256,192,93205,1,2,1:1:0:0:
256,192,93355,1,0,1:0:0:0:
256,192,93655,1,2,1:1:0:0:
256,192,93955,1,2,1:1:0:0:
256,192,94105,1,0,1:0:0:0:
256,192,94405,1,0,1:0:0:0:
256,192,94555,1,2,1:1:0:0:
256,192,94855,1,2,1:1:0:0:
256,192,95005,1,0,1:0:0:0:
256,192,95155,1,2,1:1:0:0:
256,192,95455,1,0,1:0:0:0:
256,192,95755,1,2,1:1:0:0:
256,192,95905,1,0,1:0:0:0:
256,192,96205,1,0,1:0:0:0:
256,192,96355,1,2,1:1:0:0:
256,192,96505,1,2,1:1:0:0:
256,192,96655,1,0,1:0:0:0:
256,192,96955,1,2,1:1:0:0:
256,192,97255,1,0,1:0:0:0:
256,192,97555,1,0,1:0:0:0:
256,192,97855,1,0,1:0:0:0:
256,192,98155,1,0,1:0:0:0:
256,192,98455,1,0,1:0:0:0:
256,192,98755,1,0,1:0:0:0:
256,192,99055,1,0,1:0:0:0:
256,192,99355,1,0,1:0:0:0:
256,192,99655,1,0,1:0:0:0:
256,192,99955,1,0,1:0:0:0:
256,192,100255,1,0,1:0:0:0:
256,192,100555,1,0,1:0:0:0:
256,192,100855,1,0,1:0:0:0:
256,192,101155,1,0,1:0:0:0:
256,192,101455,1,2,1:1:0:0:
256,192,101605,1,2,1:1:0:0:
256,192,101755,1,2,1:1:0:0:
256,192,101905,1,2,1:1:0:0:
256,192,102055,1,0,1:0:0:0:
256,192,102355,1,0,1:0:0:0:
256,192,102655,1,0,1:0:0:0:
256,192,102955,1,0,1:0:0:0:
256,192,103255,1,0,1:0:0:0:
256,192,103555,1,0,1:0:0:0:
256,192,103855,1,0,1:0:0:0:
256,192,104155,1,0,1:0:0:0:
256,192,104455,1,0,1:0:0:0:
256,192,104755,1,0,1:0:0:0:
256,192,105055,1,0,1:0:0:0:
256,192,105355,1,0,1:0:0:0:
256,192,105655,1,0,1:0:0:0:
256,192,105955,1,0,1:0:0:0:
256,192,106255,1,0,1:0:0:0:
256,192,106405,1,2,1:1:0:0:
256,192,106555,1,2,1:1:0:0:
256,192,106705,1,2,1:0:0:0:
256,192,106855,1,0,1:0:0:0:
256,192,107005,1,2,1:1:0:0:
256,192,107155,1,0,1:0:0:0:
256,192,107305,1,2,1:1:0:0:
256,192,107455,1,0,1:0:0:0:
256,192,107755,1,0,1:0:0:0:
256,192,107905,1,2,1:1:0:0:
256,192,108055,1,0,1:0:0:0:
256,192,108205,1,2,1:1:0:0:
256,192,108355,1,0,1:0:0:0:
256,192,108505,1,2,1:1:0:0:
256,192,108655,1,0,1:0:0:0:
256,192,108955,1,0,1:0:0:0:
256,192,109105,1,2,1:1:0:0:
256,192,109255,1,2,1:1:0:0:
256,192,109405,1,0,1:0:0:0:
256,192,109555,1,2,1:1:0:0:
256,192,109705,1,0,1:0:0:0:
256,192,109855,1,2,1:1:0:0:
256,192,110155,1,2,1:1:0:0:
256,192,110305,1,0,1:0:0:0:
256,192,110455,1,0,1:0:0:0:
256,192,110605,1,2,1:1:0:0:
256,192,110755,1,0,1:0:0:0:
256,192,110905,1,0,1:1:0:0:
256,192,111055,1,2,1:0:0:0:
256,192,111205,1,2,1:1:0:0:
256,192,111355,1,2,1:0:0:0:
256,192,111505,1,2,1:1:0:0:
256,192,111655,1,0,1:0:0:0:
256,192,111805,1,2,1:1:0:0:
256,192,111955,1,0,1:0:0:0:
256,192,112105,1,2,1:1:0:0:
256,192,112255,1,0,1:0:0:0:
256,192,112555,1,0,1:0:0:0:
256,192,112705,1,2,1:1:0:0:
256,192,112855,1,0,1:0:0:0:
256,192,113005,1,2,1:1:0:0:
256,192,113155,1,0,1:0:0:0:
256,192,113305,1,2,1:1:0:0:
256,192,113455,1,0,1:0:0:0:
256,192,113755,1,0,1:0:0:0:
256,192,113905,1,2,1:1:0:0:
256,192,114055,1,0,1:0:0:0:
256,192,114205,1,2,1:1:0:0:
256,192,114355,1,2,1:1:0:0:
256,192,114505,1,2,1:1:0:0:
256,192,114655,1,0,1:0:0:0:
256,192,114955,1,0,1:0:0:0:
256,192,115105,1,2,1:1:0:0:
256,192,115255,1,0,1:0:0:0:
256,192,115405,1,2,1:1:0:0:
256,192,115555,1,2,1:1:0:0:
256,192,115705,1,0,1:0:0:0:
256,192,115855,1,2,1:1:0:0:
256,192,116005,1,2,1:1:0:0:
256,192,116155,1,2,1:0:0:0:
256,192,116305,1,2,1:1:0:0:
256,192,116455,1,0,1:0:0:0:
256,192,116755,1,0,1:0:0:0:
256,192,117055,1,6,1:1:0:0:
256,192,117505,1,0,1:0:0:0:
256,192,117655,1,0,1:0:0:0:
256,192,117955,1,0,1:0:0:0:
256,192,118255,1,6,1:1:0:0:
256,192,118855,1,0,1:0:0:0:
256,192,119155,1,0,1:0:0:0:
256,192,119455,1,6,1:1:0:0:
256,192,119905,1,2,1:1:0:0:
256,192,120055,1,0,1:0:0:0:
256,192,120355,1,6,1:1:0:0:
256,192,120655,1,0,1:0:0:0:
256,192,120955,1,6,1:1:0:0:
256,192,121255,1,0,1:0:0:0:
256,192,121555,1,0,1:0:0:0:
256,192,121855,1,6,1:1:0:0:
256,192,122305,1,0,1:0:0:0:
256,192,122455,1,0,1:0:0:0:
256,192,122755,1,0,1:0:0:0:
256,192,123055,1,6,1:1:0:0:
256,192,123655,1,0,1:0:0:0:
256,192,123955,1,0,1:0:0:0:
256,192,124255,1,6,1:1:0:0:
256,192,124705,1,2,1:1:0:0:
256,192,124855,1,0,1:0:0:0:
256,192,125155,1,6,1:1:0:0:
256,192,125455,1,0,1:0:0:0:
256,192,125755,1,6,1:1:0:0:
256,192,126055,1,0,1:0:0:0:
256,192,126355,1,0,1:0:0:0:
256,192,126655,1,6,1:1:0:0:
256,192,127105,1,0,1:0:0:0:
256,192,127255,1,0,1:0:0:0:
256,192,127555,1,0,1:0:0:0:
256,192,127855,1,6,1:1:0:0:
256,192,128455,1,0,1:0:0:0:
256,192,128755,1,0,1:0:0:0:
256,192,129055,1,6,1:1:0:0:
256,192,129505,1,2,1:1:0:0:
256,192,129655,1,0,1:0:0:0:
256,192,129955,1,6,1:1:0:0:
256,192,130255,1,0,1:0:0:0:
256,192,130555,1,6,1:1:0:0:
256,192,130855,1,0,1:0:0:0:
256,192,131155,1,0,1:0:0:0:
256,192,131455,1,6,1:1:0:0:
256,192,131905,1,0,1:0:0:0:
256,192,132055,1,0,1:0:0:0:
256,192,132355,1,0,1:0:0:0:
256,192,132655,1,6,1:1:0:0:
256,192,133255,1,0,1:0:0:0:
256,192,133555,1,0,1:0:0:0:
256,192,133855,1,6,1:1:0:0:
256,192,134455,1,0,1:0:0:0:
256,192,134755,1,0,1:0:0:0:
256,192,135055,1,0,1:0:0:0:
256,192,135355,1,2,1:1:0:0:
256,192,135655,1,2,1:1:0:0:
256,192,135955,1,2,1:1:0:0:
256,192,136105,1,0,1:0:0:0:
256,192,136255,1,2,1:1:0:0:
256,192,136555,1,2,1:1:0:0:
256,192,136705,1,2,1:1:0:0:
256,192,137005,1,0,1:0:0:0:
256,192,137155,1,2,1:1:0:0:
256,192,137305,1,0,1:0:0:0:
256,192,137455,1,2,1:1:0:0:
256,192,137755,1,2,1:1:0:0:
256,192,137905,1,0,1:0:0:0:
256,192,138205,1,2,1:1:0:0:
256,192,138280,1,2,1:1:0:0:
256,192,138355,1,0,1:0:0:0:
256,192,138505,1,0,1:0:0:0:
256,192,138655,1,0,1:0:0:0:
256,192,138730,1,0,1:0:0:0:
256,192,138805,1,2,1:1:0:0:
256,192,138955,1,0,1:0:0:0:
256,192,139255,1,2,1:1:0:0:
256,192,139330,1,2,1:1:0:0:
256,192,139405,1,0,1:0:0:0:
256,192,139555,1,2,1:1:0:0:
256,192,139705,1,0,1:0:0:0:
256,192,139855,1,0,1:0:0:0:
256,192,139930,1,0,1:0:0:0:
256,192,140005,1,2,1:1:0:0:
256,192,140155,1,0,1:0:0:0:
256,192,140455,1,2,1:1:0:0:
256,192,140605,1,0,1:0:0:0:
256,192,140755,1,0,1:0:0:0:
256,192,140905,1,2,1:1:0:0:
256,192,141205,1,2,1:1:0:0:
256,192,141355,1,0,1:0:0:0:
256,192,141655,1,2,1:1:0:0:
256,192,141805,1,0,1:0:0:0:
256,192,141955,1,2,1:1:0:0:
256,192,142105,1,0,1:0:0:0:
256,192,142405,1,0,1:0:0:0:
256,192,142555,1,2,1:1:0:0:
256,192,142855,1,2,1:1:0:0:
256,192,143005,1,2,1:1:0:0:
256,192,143155,1,0,1:0:0:0:
256,192,143455,1,0,1:0:0:0:
256,192,143605,1,0,1:0:0:0:
256,192,143755,1,2,1:1:0:0:
256,192,143905,1,0,1:0:0:0:
256,192,144205,1,2,1:1:0:0:
256,192,144355,1,0,1:0:0:0:
256,192,144655,1,0,1:0:0:0:
256,192,144955,1,2,1:1:0:0:
256,192,145255,1,2,1:1:0:0:
256,192,145555,1,0,1:0:0:0:
256,192,145705,1,0,1:0:0:0:
256,192,145855,1,2,1:1:0:0:
256,192,146155,1,2,1:1:0:0:
256,192,146305,1,2,1:1:0:0:
256,192,146605,1,0,1:0:0:0:
256,192,146755,1,2,1:1:0:0:
256,192,146905,1,0,1:0:0:0:
256,192,147055,1,2,1:1:0:0:
256,192,147355,1,2,1:1:0:0:
256,192,147505,1,2,1:1:0:0:
256,192,147805,1,0,1:0:0:0:
256,192,147955,1,2,1:1:0:0:
256,192,148255,1,2,1:1:0:0:
256,192,148330,1,2,1:0:0:0:
256,192,148405,1,2,1:1:0:0:
256,192,148555,1,2,1:1:0:0:
256,192,148630,1,2,1:0:0:0:
256,192,148705,1,2,1:1:0:0:
256,192,148855,1,2,1:1:0:0:
256,192,149155,1,2,1:1:0:0:
256,192,149305,1,0,1:0:0:0:
256,192,149455,1,2,1:1:0:0:
256,192,149530,1,0,1:0:0:0:
256,192,149605,1,2,1:1:0:0:
256,192,149755,1,2,1:1:0:0:
256,192,150055,1,2,1:1:0:0:
256,192,150205,1,0,1:0:0:0:
256,192,150355,1,0,1:0:0:0:
256,192,150505,1,2,1:1:0:0:
256,192,150805,1,2,1:1:0:0:
256,192,150955,1,0,1:0:0:0:
256,192,151255,1,2,1:1:0:0:
256,192,151405,1,0,1:0:0:0:
256,192,151555,1,2,1:1:0:0:
256,192,151705,1,0,1:0:0:0:
256,192,152005,1,0,1:0:0:0:
256,192,152155,1,2,1:1:0:0:
256,192,152455,1,2,1:1:0:0:
256,192,152605,1,2,1:1:0:0:
256,192,152755,1,0,1:0:0:0:
256,192,153055,1,2,1:1:0:0:
256,192,153205,1,0,1:0:0:0:
256,192,153355,1,2,1:1:0:0:
256,192,153505,1,2,1:1:0:0:
256,192,153805,1,0,1:0:0:0:
256,192,153955,1,2,1:1:0:0:
256,192,154255,1,0,1:0:0:0:
256,192,154555,1,2,1:1:0:0:
256,192,154705,1,2,1:1:0:0:
256,192,154780,1,2,1:1:0:0:
256,192,154855,1,0,1:0:0:0:
256,192,155155,1,0,1:0:0:0:
256,192,155455,1,6,1:1:0:0:
256,192,155755,1,2,1:1:0:0:
256,192,155905,1,2,1:1:0:0:
256,192,156055,1,0,1:0:0:0:
256,192,156355,1,0,1:0:0:0:
256,192,156655,1,6,1:1:0:0:
256,192,156955,1,2,1:1:0:0:
256,192,157105,1,2,1:1:0:0:
256,192,157255,1,0,1:0:0:0:
256,192,157555,1,0,1:0:0:0:
256,192,157855,1,6,1:1:0:0:
256,192,158155,1,0,1:0:0:0:
256,192,158230,1,0,1:0:0:0:
256,192,158305,1,2,1:1:0:0:
256,192,158455,1,0,1:0:0:0:
256,192,158755,1,6,1:1:0:0:
256,192,159055,1,2,1:1:0:0:
256,192,159130,1,2,1:1:0:0:
256,192,159205,1,0,1:0:0:0:
256,192,159355,1,6,1:1:0:0:
256,192,159655,1,2,1:1:0:0:
256,192,159955,1,0,1:0:0:0:
256,192,160105,1,2,1:1:0:0:
256,192,160255,1,6,1:1:0:0:
256,192,160555,1,0,1:0:0:0:
256,192,160705,1,0,1:0:0:0:
256,192,160855,1,2,1:1:0:0:
256,192,161155,1,0,1:0:0:0:
256,192,161305,1,0,1:0:0:0:
256,192,161455,1,6,1:1:0:0:
256,192,161755,1,0,1:0:0:0:
256,192,162055,1,2,1:1:0:0:
256,192,162355,1,0,1:0:0:0:
256,192,162655,1,6,1:1:0:0:
256,192,162955,1,2,1:1:0:0:
256,192,163105,1,2,1:1:0:0:
256,192,163255,1,0,1:0:0:0:
256,192,163555,1,6,1:1:0:0:
256,192,163855,1,0,1:0:0:0:
256,192,164155,1,6,1:1:0:0:
256,192,164455,1,0,1:0:0:0:
256,192,164755,1,0,1:0:0:0:
256,192,165055,1,6,1:1:0:0:
256,192,165505,1,0,1:0:0:0:
256,192,165655,1,0,1:0:0:0:
256,192,165955,1,0,1:0:0:0:
256,192,166255,1,6,1:1:0:0:
256,192,166855,1,0,1:0:0:0:
256,192,167155,1,0,1:0:0:0:
256,192,167455,1,6,1:1:0:0:
256,192,167755,1,2,1:1:0:0:
256,192,167830,1,2,1:0:0:0:
256,192,167905,1,2,1:1:0:0:
256,192,168055,1,2,1:1:0:0:
256,192,168355,1,6,1:1:0:0:
256,192,168655,1,2,1:1:0:0:
256,192,168955,1,6,1:1:0:0:
256,192,169255,1,2,1:1:0:0:
256,192,169555,1,0,1:0:0:0:
256,192,169855,1,6,1:1:0:0:
256,192,170305,1,0,1:0:0:0:
256,192,170455,1,0,1:0:0:0:
256,192,170755,1,0,1:0:0:0:
256,192,171055,1,6,1:1:0:0:
256,192,171655,1,0,1:0:0:0:
256,192,172255,1,6,1:1:0:0:
256,192,172855,1,0,1:0:0:0:
256,192,173155,1,6,1:1:0:0:
256,192,173455,1,0,1:0:0:0:
256,192,173755,1,6,1:1:0:0:
256,192,174055,1,0,1:0:0:0:
256,192,174355,1,2,1:1:0:0:
256,192,174505,1,0,1:0:0:0:
256,192,174655,1,2,1:1:0:0:
256,192,174955,1,2,1:1:0:0:
256,192,175105,1,2,1:1:0:0:
256,192,175405,1,0,1:0:0:0:
256,192,175555,1,2,1:1:0:0:
256,192,175705,1,0,1:0:0:0:
256,192,175855,1,2,1:1:0:0:
256,192,176155,1,2,1:1:0:0:
256,192,176305,1,2,1:1:0:0:
256,192,176605,1,2,1:1:0:0:
256,192,176680,1,2,1:1:0:0:
256,192,176755,1,0,1:0:0:0:
256,192,176905,1,2,1:1:0:0:
256,192,177055,1,0,1:0:0:0:
256,192,177130,1,0,1:0:0:0:
256,192,177205,1,2,1:1:0:0:
256,192,177355,1,0,1:0:0:0:
256,192,177655,1,2,1:0:0:0:
256,192,177730,1,2,1:0:0:0:
256,192,177805,1,2,1:1:0:0:
256,192,177880,1,2,1:1:0:0:
256,192,177955,1,0,1:0:0:0:
256,192,178255,1,0,1:0:0:0:
256,192,178405,1,2,1:1:0:0:
256,192,178555,1,0,1:0:0:0:
256,192,178855,1,2,1:1:0:0:
256,192,179155,1,0,1:0:0:0:
256,192,179305,1,2,1:1:0:0:
256,192,179605,1,0,1:0:0:0:
256,192,179755,1,2,1:1:0:0:
256,192,179905,1,0,1:0:0:0:
256,192,180055,1,2,1:1:0:0:
256,192,180355,1,2,1:1:0:0:
256,192,180505,1,0,1:0:0:0:
256,192,180805,1,0,1:0:0:0:
256,192,180955,1,2,1:1:0:0:
256,192,181105,1,0,1:0:0:0:
256,192,181255,1,2,1:1:0:0:
256,192,181555,1,0,1:0:0:0:
256,192,181855,1,2,1:1:0:0:
256,192,182005,1,0,1:0:0:0:
256,192,182155,1,2,1:1:0:0:
256,192,182305,1,0,1:0:0:0:
256,192,182605,1,0,1:0:0:0:
256,192,182755,1,2,1:1:0:0:
256,192,183055,1,0,1:0:0:0:
256,192,183355,1,2,1:1:0:0:
256,192,183655,1,2,1:1:0:0:
256,192,183955,1,2,1:1:0:0:
256,192,184105,1,0,1:0:0:0:
256,192,184255,1,2,1:1:0:0:
256,192,184555,1,2,1:1:0:0:
256,192,184705,1,2,1:1:0:0:
256,192,185005,1,0,1:0:0:0:
256,192,185155,1,2,1:1:0:0:
256,192,185305,1,0,1:0:0:0:
256,192,185455,1,2,1:1:0:0:
256,192,185755,1,2,1:1:0:0:
256,192,185905,1,0,1:0:0:0:
256,192,186205,1,0,1:0:0:0:
256,192,186355,1,2,1:1:0:0:
256,192,186655,1,2,1:1:0:0:
256,192,186730,1,2,1:0:0:0:
256,192,186805,1,2,1:1:0:0:
256,192,186955,1,2,1:1:0:0:
256,192,187030,1,2,1:0:0:0:
256,192,187105,1,2,1:1:0:0:
256,192,187255,1,2,1:1:0:0:
256,192,187555,1,2,1:1:0:0:
256,192,187705,1,0,1:0:0:0:
256,192,187855,1,2,1:1:0:0:
256,192,187930,1,0,1:0:0:0:
256,192,188005,1,2,1:1:0:0:
256,192,188155,1,2,1:1:0:0:
256,192,188455,1,2,1:1:0:0:
256,192,188605,1,0,1:0:0:0:
256,192,188755,1,2,1:1:0:0:
256,192,188905,1,2,1:1:0:0:
256,192,189205,1,2,1:1:0:0:
256,192,189355,1,0,1:0:0:0:
256,192,189505,1,0,1:0:0:0:
256,192,189655,1,2,1:1:0:0:
256,192,189955,1,2,1:1:0:0:
256,192,190105,1,0,1:0:0:0:
256,192,190405,1,0,1:0:0:0:
256,192,190555,1,2,1:1:0:0:
256,192,190705,1,0,1:0:0:0:
256,192,190855,1,2,1:1:0:0:
256,192,191005,1,2,1:1:0:0:
256,192,191155,1,0,1:0:0:0:
256,192,191455,1,2,1:1:0:0:
256,192,191605,1,0,1:0:0:0:
256,192,191755,1,2,1:1:0:0:
256,192,191905,1,0,1:0:0:0:
256,192,192205,1,0,1:0:0:0:
256,192,192355,1,2,1:1:0:0:
256,192,192505,1,2,1:1:0:0:
256,192,192655,1,0,1:0:0:0:
256,192,192955,1,2,1:1:0:0:
256,192,193255,1,0,1:0:0:0:
