osu file format v14

[General]
AudioFilename: audio.mp3
AudioLeadIn: 0
PreviewTime: 19705
Countdown: 1
SampleSet: Normal
StackLeniency: 0.7
Mode: 1
LetterboxInBreaks: 0
WidescreenStoryboard: 1

[Editor]
DistanceSpacing: 0.1
BeatDivisor: 4
GridSize: 32
TimelineZoom: 2.7

[Metadata]
Title:Rainbow Dash And Fluttershy Go For A Leisurely Glide
TitleUnicode:Rainbow Dash And Fluttershy Go For A Leisurely Glide
Artist:Foozogz
ArtistUnicode:Foozogz
Creator:Firmatorenio
Version:Kantan
Source:
Tags:pony mlp
BeatmapID:4477357
BeatmapSetID:827362

[Difficulty]
HPDrainRate:7.8
CircleSize:2
OverallDifficulty:2.5
ApproachRate:8
SliderMultiplier:1.39999996870756
SliderTickRate:1

[Events]
//Background and Video events
0,0,"rdnfsgflg.png",0,0
//Break Periods
//Storyboard Layer 0 (Background)
//Storyboard Layer 1 (Fail)
//Storyboard Layer 2 (Pass)
//Storyboard Layer 3 (Foreground)
//Storyboard Layer 4 (Overlay)
//Storyboard Sound Samples

[TimingPoints]
1255,300,4,1,0,84,1,0
1255,-133.333333333333,4,1,0,84,0,0
20455,-133.333333333333,4,1,0,84,0,1
39655,-133.333333333333,4,1,0,84,0,0
58855,-133.333333333333,4,1,0,84,0,1
97255,-133.333333333333,4,1,0,84,0,0
135655,-133.333333333333,4,1,0,84,0,1
154855,-133.333333333333,4,1,0,84,0,0
174055,-133.333333333333,4,1,0,84,0,1
193255,-133.333333333333,4,1,0,84,0,0

[Colours]
Combo1 : 255,192,0
Combo2 : 0,202,0
Combo3 : 18,124,255
Combo4 : 242,24,57

[HitObjects]
256,192,1255,5,0,1:0:0:0:
256,192,1855,1,0,1:0:0:0:
256,192,2305,1,2,1:1:0:0:
256,192,3055,1,2,1:1:0:0:
256,192,3505,1,0,1:0:0:0:
256,192,6055,1,2,1:1:0:0:
256,192,6505,1,2,1:1:0:0:
256,192,7255,1,2,1:1:0:0:
256,192,7705,1,0,1:0:0:0:
256,192,8455,1,2,1:1:0:0:
256,192,9055,1,0,1:0:0:0:
256,192,9505,1,0,1:0:0:0:
256,192,10855,1,0,1:0:0:0:
256,192,11455,1,0,1:0:0:0:
256,192,11905,1,2,1:1:0:0:
256,192,12655,1,2,1:1:0:0:
256,192,13105,1,0,1:0:0:0:
256,192,15655,1,2,1:1:0:0:
256,192,16105,1,2,1:1:0:0:
256,192,16855,1,2,1:1:0:0:
256,192,17305,1,0,1:0:0:0:
256,192,18055,1,2,1:1:0:0:
256,192,18655,1,2,1:1:0:0:
256,192,19105,1,0,1:0:0:0:
256,192,20455,1,0,1:0:0:0:
256,192,21055,1,0,1:0:0:0:
256,192,21505,1,2,1:1:0:0:
256,192,22255,1,2,1:1:0:0:
256,192,22705,1,0,1:0:0:0:
256,192,23455,2,0,P|140:258|257:193,1,420.000006633997
256,192,25255,1,2,1:1:0:0:
256,192,25705,1,2,1:1:0:0:
256,192,26455,1,2,1:1:0:0:
256,192,26905,1,0,1:0:0:0:
256,192,27655,1,2,1:1:0:0:
256,192,28255,1,0,1:0:0:0:
256,192,28705,1,2,1:1:0:0:
256,192,30055,1,0,1:0:0:0:
256,192,30655,1,0,1:0:0:0:
256,192,31105,1,2,1:1:0:0:
256,192,31855,1,2,1:1:0:0:
256,192,32305,1,0,1:0:0:0:
256,192,33055,2,0,P|139:240|257:193,1,420.000006633997
256,192,34855,1,2,1:1:0:0:
256,192,35305,1,2,1:1:0:0:
256,192,35755,1,0,1:0:0:0:
256,192,36055,1,2,1:1:0:0:
256,192,37255,1,2,1:1:0:0:
256,192,37855,1,0,1:0:0:0:
256,192,38305,1,2,1:1:0:0:
256,192,39055,1,0,1:0:0:0:
256,192,39355,1,2,1:1:0:0:
256,192,39655,1,0,1:0:0:0:
256,192,40855,1,0,1:0:0:0:
256,192,42055,1,2,1:1:0:0:
256,192,43255,1,0,1:0:0:0:
256,192,43855,1,2,1:1:0:0:
256,192,44455,1,0,1:0:0:0:
256,192,45655,1,0,1:0:0:0:
256,192,46855,1,0,1:0:0:0:
256,192,48055,1,2,1:1:0:0:
256,192,48655,1,2,1:1:0:0:
256,192,49255,1,0,1:0:0:0:
256,192,50455,1,0,1:0:0:0:
256,192,51055,1,0,1:0:0:0:
256,192,51655,1,2,1:1:0:0:
256,192,52855,1,0,1:0:0:0:
256,192,54055,1,0,1:0:0:0:
256,192,55255,1,0,1:0:0:0:
256,192,55855,1,2,1:1:0:0:
256,192,56455,1,2,1:1:0:0:
256,192,57655,8,0,58255,1:0:0:0:
256,192,58855,5,0,1:0:0:0:
256,192,59455,1,0,1:0:0:0:
256,192,59905,1,2,1:1:0:0:
256,192,60655,1,2,1:1:0:0:
256,192,61105,1,0,1:0:0:0:
256,192,61855,2,0,P|142:252|257:193,1,420.000006633997
256,192,63655,1,2,1:1:0:0:
256,192,64105,1,2,1:1:0:0:
256,192,64855,1,2,1:1:0:0:
256,192,65305,1,0,1:0:0:0:
256,192,66055,1,2,1:1:0:0:
256,192,66655,1,0,1:0:0:0:
256,192,67105,1,2,1:1:0:0:
256,192,68455,1,0,1:0:0:0:
256,192,69055,1,0,1:0:0:0:
256,192,69505,1,2,1:1:0:0:
256,192,70255,1,2,1:1:0:0:
256,192,70705,1,0,1:0:0:0:
256,192,71455,2,0,P|137:244|257:193,1,420.000006633997
256,192,73255,1,2,1:1:0:0:
256,192,73705,1,2,1:1:0:0:
256,192,74155,1,0,1:0:0:0:
256,192,74455,1,2,1:1:0:0:
256,192,75655,1,2,1:1:0:0:
256,192,76255,1,0,1:0:0:0:
256,192,76705,1,2,1:1:0:0:
256,192,78055,1,0,1:0:0:0:
256,192,78655,1,0,1:0:0:0:
256,192,79105,1,2,1:1:0:0:
256,192,79855,1,2,1:1:0:0:
256,192,80305,1,0,1:0:0:0:
256,192,81055,2,0,P|145:269|257:193,1,420.000006633997
256,192,82855,1,2,1:1:0:0:
256,192,83305,1,2,1:1:0:0:
256,192,84055,1,2,1:1:0:0:
256,192,84505,1,0,1:0:0:0:
256,192,85255,1,2,1:1:0:0:
256,192,85855,1,0,1:0:0:0:
256,192,86305,1,2,1:1:0:0:
256,192,87655,1,0,1:0:0:0:
256,192,88255,1,0,1:0:0:0:
256,192,88705,1,2,1:1:0:0:
256,192,89455,1,2,1:1:0:0:
256,192,89905,1,0,1:0:0:0:
256,192,90655,2,0,P|144:268|257:193,1,420.000006633997
256,192,92455,1,2,1:1:0:0:
256,192,92905,1,2,1:1:0:0:
256,192,93355,1,0,1:0:0:0:
256,192,93655,1,2,1:1:0:0:
256,192,94855,1,2,1:1:0:0:
256,192,95455,1,0,1:0:0:0:
256,192,95905,1,2,1:1:0:0:
256,192,96655,1,0,1:0:0:0:
256,192,96955,1,2,1:1:0:0:
256,192,97255,1,0,1:0:0:0:
256,192,102055,1,0,1:0:0:0:
256,192,106855,1,0,1:0:0:0:
256,192,108055,1,0,1:0:0:0:
256,192,109255,1,2,1:1:0:0:
256,192,110455,1,2,1:1:0:0:
256,192,111055,1,2,1:1:0:0:
256,192,111655,1,0,1:0:0:0:
256,192,112855,1,0,1:0:0:0:
256,192,114055,1,2,1:1:0:0:
256,192,115255,1,2,1:1:0:0:
256,192,115855,1,2,1:1:0:0:
256,192,116455,1,0,1:0:0:0:
256,192,117055,1,6,1:1:0:0:
256,192,118255,1,6,1:1:0:0:
256,192,119455,1,6,1:1:0:0:
256,192,120355,1,6,1:1:0:0:
256,192,120955,1,6,1:1:0:0:
256,192,121855,1,6,1:1:0:0:
256,192,123055,1,6,1:1:0:0:
256,192,124255,1,6,1:1:0:0:
256,192,125155,1,6,1:1:0:0:
256,192,125755,1,6,1:1:0:0:
256,192,126655,1,6,1:1:0:0:
256,192,127855,1,6,1:1:0:0:
256,192,129055,1,6,1:1:0:0:
256,192,129955,1,6,1:1:0:0:
256,192,130555,1,6,1:1:0:0:
256,192,131455,1,6,1:1:0:0:
256,192,132655,1,6,1:1:0:0:
256,192,133855,1,6,1:1:0:0:
256,192,134455,8,0,135055,1:0:0:0:
256,192,135655,5,0,1:0:0:0:
256,192,136255,1,0,1:0:0:0:
256,192,136705,1,2,1:1:0:0:
256,192,137455,1,2,1:1:0:0:
256,192,137905,1,0,1:0:0:0:
256,192,138655,2,0,P|153:286|257:193,1,420.000006633997
256,192,140455,1,2,1:1:0:0:
256,192,140905,1,2,1:1:0:0:
256,192,141655,1,2,1:1:0:0:
256,192,142105,1,0,1:0:0:0:
256,192,142855,1,2,1:1:0:0:
256,192,143455,1,0,1:0:0:0:
256,192,143905,1,2,1:1:0:0:
256,192,145255,1,0,1:0:0:0:
256,192,145855,1,0,1:0:0:0:
256,192,146305,1,2,1:1:0:0:
256,192,147055,1,2,1:1:0:0:
256,192,147505,1,0,1:0:0:0:
256,192,148255,2,0,P|142:262|257:193,1,420.000006633997
256,192,150055,1,2,1:1:0:0:
256,192,150505,1,2,1:1:0:0:
256,192,150955,1,0,1:0:0:0:
256,192,151255,1,2,1:1:0:0:
256,192,152455,1,2,1:1:0:0:
256,192,153055,1,0,1:0:0:0:
256,192,153505,1,2,1:1:0:0:
256,192,154855,1,2,1:1:0:0:
256,192,155455,1,6,1:1:0:0:
256,192,156055,1,0,1:0:0:0:
256,192,156655,1,6,1:1:0:0:
256,192,157255,1,0,1:0:0:0:
256,192,157855,1,6,1:1:0:0:
256,192,158755,1,6,1:1:0:0:
256,192,159355,1,6,1:1:0:0:
256,192,159655,1,0,1:0:0:0:
256,192,160255,1,6,1:1:0:0:
256,192,160855,1,0,1:0:0:0:
256,192,161455,1,6,1:1:0:0:
256,192,162055,1,0,1:0:0:0:
256,192,162655,1,6,1:1:0:0:
256,192,163555,1,6,1:1:0:0:
256,192,164155,1,6,1:1:0:0:
256,192,164455,1,0,1:0:0:0:
256,192,165055,1,6,1:1:0:0:
256,192,166255,1,6,1:1:0:0:
256,192,167455,1,6,1:1:0:0:
256,192,168055,1,0,1:0:0:0:
256,192,168355,1,6,1:1:0:0:
256,192,168955,1,6,1:1:0:0:
256,192,169855,1,6,1:1:0:0:
256,192,171055,1,6,1:1:0:0:
256,192,172255,1,6,1:1:0:0:
256,192,173155,1,6,1:1:0:0:
256,192,173755,1,6,1:1:0:0:
256,192,174055,1,0,1:0:0:0:
256,192,174655,1,0,1:0:0:0:
256,192,175105,1,2,1:1:0:0:
256,192,175855,1,2,1:1:0:0:
256,192,176305,1,0,1:0:0:0:
256,192,177055,2,0,P|155:284|257:193,1,420.000006633997
256,192,178855,1,2,1:1:0:0:
256,192,179305,1,2,1:1:0:0:
256,192,180055,1,2,1:1:0:0:
256,192,180505,1,0,1:0:0:0:
256,192,181255,1,2,1:1:0:0:
256,192,181855,1,0,1:0:0:0:
256,192,182305,1,2,1:1:0:0:
256,192,183655,1,0,1:0:0:0:
256,192,184255,1,0,1:0:0:0:
256,192,184705,1,2,1:1:0:0:
256,192,185455,1,2,1:1:0:0:
256,192,185905,1,0,1:0:0:0:
256,192,186655,2,0,P|168:298|257:193,1,420.000006633997,0|0,0:0|0:0,0:0:0:0:
256,192,188455,1,2,1:1:0:0:
256,192,188905,1,2,1:1:0:0:
256,192,189355,1,0,1:0:0:0:
256,192,189655,1,2,1:1:0:0:
256,192,190105,1,0,1:0:0:0:
256,192,190555,1,0,1:0:0:0:
256,192,190855,1,2,1:1:0:0:
256,192,191455,1,0,1:0:0:0:
256,192,191905,1,2,1:1:0:0:
256,192,192655,1,0,1:0:0:0:
256,192,192955,1,2,1:1:0:0:
256,192,193255,1,0,1:0:0:0:
