osu file format v14

[General]
AudioFilename: audio.mp3
AudioLeadIn: 0
PreviewTime: 105137
Countdown: 0
SampleSet: Soft
StackLeniency: 0.7
Mode: 0
LetterboxInBreaks: 0
WidescreenStoryboard: 0

[Editor]
Bookmarks: 3085,32426,35286,45542,52798,93542,94658,186764
DistanceSpacing: 1.7
BeatDivisor: 4
GridSize: 4
TimelineZoom: 5.799996

[Metadata]
Title:New Fluttershy (Monster Mix)
TitleUnicode:New Fluttershy (Monster Mix)
Artist:Foozogz
ArtistUnicode:Foozogz
Creator:Kathex
Version:Mad Flutter
Source:
Tags:
BeatmapID:1071081
BeatmapSetID:503387

[Difficulty]
HPDrainRate:5
CircleSize:4.3
OverallDifficulty:8
ApproachRate:9.8
SliderMultiplier:2
SliderTickRate:1

[Events]
//Background and Video events
0,0,"full.jpg",0,0
//Break Periods
//Storyboard Layer 0 (Background)
//Storyboard Layer 1 (Fail)
//Storyboard Layer 2 (Pass)
//Storyboard Layer 3 (Foreground)
//Storyboard Sound Samples

[TimingPoints]
1285,600,4,2,1,100,1,0
3685,555.555555555556,4,2,1,100,1,0
5351,512.820512820513,4,2,1,100,1,0
7915,480,4,2,1,100,1,0
8875,333.333333333333,4,2,1,100,1,0
10208,472.44094488189,4,2,1,100,1,0
12097,500,4,2,1,100,1,0
14097,512.820512820513,4,2,1,100,1,0
15122,545.454545454546,4,2,1,100,1,0
16212,588.235294117647,4,2,1,100,1,0
17388,821.917808219178,4,2,1,100,1,0
17388,-133.333333333333,4,2,1,100,0,0
18209,-200,4,2,1,100,0,0
19031,279.06976744186,4,2,1,100,1,0
19310,279.06976744186,4,2,1,100,1,0
19310,-100,4,2,1,100,0,1
28240,-133.333333333333,4,2,1,100,0,0
28798,-66.6666666666667,4,2,1,100,0,1
29077,-100,4,2,1,100,0,1
32705,-66.6666666666667,4,2,1,100,0,1
33542,-100,4,2,1,100,0,1
34937,-83.3333333333333,4,2,1,100,0,1
37170,-133.333333333333,4,2,1,100,0,0
45542,-66.6666666666667,4,2,1,100,0,0
46100,-66.6666666666667,4,2,1,100,0,1
48333,-100,4,2,1,100,0,1
62984,-66.6666666666667,4,2,1,100,0,1
63263,-100,4,2,1,100,0,1
63961,-100,4,2,1,30,0,0
81821,-133.333333333333,4,2,1,30,0,0
92984,-200,4,2,1,30,0,0
95216,289.855072463768,4,2,1,100,1,0
95216,-200,4,2,1,100,0,0
96375,315.789473684211,4,2,1,100,1,0
97638,359.281437125748,4,2,1,100,1,0
97638,-200,4,2,1,100,0,0
99075,387.096774193548,4,2,1,100,1,0
99075,-200,4,2,1,100,0,0
99849,408.163265306122,4,2,1,100,1,0
100665,372.670807453416,4,2,1,100,1,0
105137,279.06976744186,4,2,1,100,1,0
111834,-100,4,2,1,100,0,1
114067,-133.333333333333,4,2,1,100,0,0
116299,-66.6666666666667,4,2,1,100,0,1
117136,-100,4,2,1,100,0,1
118532,-83.3333333333333,4,2,1,100,0,1
120764,-133.333333333333,4,2,1,100,0,0
121323,-66.6666666666667,4,2,1,100,0,1
121602,-100,4,2,1,100,0,1
122997,-133.333333333333,4,2,1,100,0,1
123276,-100,4,2,1,100,0,1
125230,-83.3333333333333,4,2,1,100,0,1
127462,-66.6666666666667,4,2,1,100,0,1
129695,-133.333333333333,4,2,1,100,0,0
130253,-66.6666666666667,4,2,1,100,0,1
130532,-100,4,2,1,100,0,1
131927,-133.333333333333,4,2,1,100,0,1
132206,-83.3333333333333,4,2,1,100,0,1
134160,-66.6666666666667,4,2,1,100,0,1
134997,-100,4,2,1,100,0,1
136392,-83.3333333333333,4,2,1,100,0,1
138625,-100,4,2,1,100,0,1
140857,-133.333333333333,4,2,1,100,0,0
143090,-66.6666666666667,4,2,1,100,0,1
143927,-100,4,2,1,100,0,1
145323,-66.6666666666667,4,2,1,100,0,1
147555,-133.333333333333,4,2,1,100,0,0
156485,-100,4,2,1,100,0,1
158718,-100,4,2,1,100,0,1
170997,-66.6666666666667,4,2,1,100,0,1
172113,-100,4,2,1,100,0,1
174346,-83.3333333333333,4,2,1,100,0,1
176578,-100,4,2,1,100,0,1
178811,-66.6666666666667,4,2,1,100,0,1
180625,-133.333333333333,4,2,1,100,0,1
181043,-100,4,2,1,100,0,1
183276,-83.3333333333333,4,2,1,100,0,1
185509,-100,4,2,1,100,0,1
192206,-100,4,2,1,100,0,0
205602,-133.333333333333,4,2,1,100,0,0
210067,281.69014084507,4,2,1,100,1,0
210067,-133.333333333333,4,2,1,100,0,0
212320,300,4,2,1,100,1,0
212320,-133.333333333333,4,2,1,100,0,0
213520,292.682926829268,4,2,1,100,1,0
213520,-133.333333333333,4,2,1,100,0,0
214690,304.568527918782,4,2,1,100,1,0
214690,-133.333333333333,4,2,1,100,0,0
217126,324.324324324324,4,2,1,100,1,0
217126,-133.333333333333,4,2,1,100,0,0
218423,315.789473684211,4,2,1,100,1,0
218423,-133.333333333333,4,2,1,100,0,0
219528,363.636363636364,4,2,1,100,1,0
219528,-200,4,2,1,100,0,0

[Colours]
Combo1 : 102,255,167
Combo2 : 229,255,91
Combo3 : 255,201,149
Combo4 : 255,109,111
Combo5 : 195,149,255
Combo6 : 141,186,255
Combo7 : 141,245,255

[HitObjects]
184,120,1285,5,0,0:0:0:0:
256,52,1585,1,0,0:0:0:0:
356,52,1885,2,0,B|380:96|380:96|368:192,1,100
328,264,2485,1,0,0:0:0:0:
256,332,2785,1,0,0:0:0:0:
156,332,3085,2,0,B|132:288|132:288|144:192,1,100
256,192,3685,5,0,0:0:0:0:
184,120,3962,1,0,0:0:0:0:
328,264,4240,1,0,0:0:0:0:
356,52,4518,1,0,0:0:0:0:
444,264,4796,6,0,P|436:301|411:354,1,75
348,356,5073,2,0,P|355:318|380:265,1,75
388,216,5351,1,0,0:0:0:0:
308,108,5607,1,0,0:0:0:0:
140,192,5863,6,0,P|116:240|120:300,2,100
256,264,6633,1,0,0:0:0:0:
184,120,6889,1,0,0:0:0:0:
348,192,7145,1,0,0:0:0:0:
256,348,7402,2,0,P|200:368|160:364,1,100
32,192,7915,1,0,0:0:0:0:
256,32,8155,1,0,0:0:0:0:
480,192,8395,1,0,0:0:0:0:
256,352,8635,1,0,0:0:0:0:
256,192,8875,5,0,0:0:0:0:
256,192,8958,12,0,10208,0:0:0:0:
184,120,10444,5,0,0:0:0:0:
92,240,10680,1,0,0:0:0:0:
256,192,10916,2,0,P|316:172|344:136,1,100
256,96,11389,1,0,0:0:0:0:
176,224,11625,1,0,0:0:0:0:
256,324,11861,1,0,0:0:0:0:
360,256,12097,6,0,P|399:236|461:223,1,100
336,348,12597,1,0,0:0:0:0:
280,156,12847,1,0,0:0:0:0:
76,260,13097,2,0,P|61:302|67:379,1,100
176,224,13597,1,0,0:0:0:0:
112,36,13847,1,0,0:0:0:0:
256,192,14097,6,0,B|284:216|284:216|354:231,1,100
492,264,14609,1,0,0:0:0:0:
396,116,14866,1,0,0:0:0:0:
256,240,15122,6,0,P|208:264|128:268,1,100
168,140,15667,1,0,0:0:0:0:
312,192,15940,1,0,0:0:0:0:
376,292,16212,6,0,P|364:348|336:384,2,100
432,208,17094,1,0,0:0:0:0:
256,296,17388,6,0,B|238:270|238:270|217:255|212:229|212:229|180:195,1,112.500004291535
180,192,18209,6,0,B|168:160|168:160|168:132|168:132|152:84,1,100
60,192,19310,5,0,0:0:0:0:
148,312,19449,1,0,0:0:0:0:
164,332,19519,1,0,0:0:0:0:
180,352,19589,1,0,0:0:0:0:
136,192,19728,5,0,0:0:0:0:
40,308,19868,1,0,0:0:0:0:
208,244,20007,1,0,0:0:0:0:
232,236,20077,1,0,0:0:0:0:
256,228,20147,1,0,0:0:0:0:
188,96,20286,5,0,0:0:0:0:
364,192,20426,2,0,P|384:224|392:284,1,100
292,112,20705,5,0,0:0:0:0:
256,308,20844,1,0,0:0:0:0:
436,220,20984,1,0,0:0:0:0:
264,120,21123,1,0,0:0:0:0:
452,192,21263,5,0,0:0:0:0:
316,260,21403,1,0,0:0:0:0:
292,272,21472,1,0,0:0:0:0:
268,284,21542,1,0,0:0:0:0:
92,192,21682,1,0,0:0:0:0:
168,64,21821,6,0,P|176:116|160:180,1,100
128,308,22101,1,0,0:0:0:0:
120,332,22170,1,0,0:0:0:0:
112,356,22240,1,0,0:0:0:0:
32,232,22379,5,0,0:0:0:0:
196,348,22519,1,0,0:0:0:0:
92,112,22658,1,0,0:0:0:0:
76,80,22727,1,0,0:0:0:0:
60,48,22797,1,0,0:0:0:0:
264,120,22937,5,0,0:0:0:0:
456,60,23077,1,0,0:0:0:0:
444,92,23146,1,0,0:0:0:0:
432,124,23216,1,0,0:0:0:0:
376,264,23356,6,0,B|380:300|380:300|415:373,2,100,0|0|0,2:0|2:0|2:0,2:0:0:0:
184,204,23775,1,0,0:0:0:0:
152,220,23844,1,0,0:0:0:0:
120,236,23914,1,0,0:0:0:0:
296,192,24054,5,0,0:0:0:0:
256,316,24193,1,0,0:0:0:0:
176,132,24333,1,0,0:0:0:0:
164,100,24402,1,0,0:0:0:0:
152,68,24472,1,0,0:0:0:0:
344,8,24612,5,0,0:0:0:0:
384,36,24681,1,0,0:0:0:0:
408,80,24751,1,0,0:0:0:0:
420,128,24821,1,0,0:0:0:0:
420,180,24891,1,0,0:0:0:0:
300,340,25030,1,0,0:0:0:0:
48,176,25170,5,0,0:0:0:0:
284,260,25309,1,0,0:0:0:0:
256,64,25449,1,0,0:0:0:0:
28,332,25589,1,0,0:0:0:0:
84,140,25728,1,0,0:0:0:0:
116,124,25797,1,0,0:0:0:0:
148,108,25868,6,0,L|180:96,2,25
200,132,26007,2,0,P|248:148|312:136,1,100,0|0,0:0|0:0,2:0:0:0:
488,76,26286,1,0,0:0:0:0:
460,276,26426,2,0,B|429:316|429:316|368:351,1,100
256,268,26705,6,0,L|288:260,2,25
208,248,26844,2,0,P|140:252|112:264,1,100
176,344,27123,1,0,0:0:0:0:
64,176,27263,6,0,P|24:148|-4:92,2,100
104,188,27611,1,0,0:0:0:0:
148,172,27681,1,0,0:0:0:0:
272,372,27821,1,0,0:0:0:0:
211,297,27961,6,0,B|238:268|238:268|252:200|315:189,1,150
372,100,28240,6,0,P|416:216|292:300,1,262.500010013581
307,191,28798,6,0,B|279:151|259:151|231:143|231:143|167:43,1,150.000005722046
116,152,29077,5,0,0:0:0:0:
56,340,29216,1,0,0:0:0:0:
88,172,29356,2,0,B|130:204|130:204|178:274,1,100
256,380,29635,1,0,2:0:0:0:
256,344,29705,1,0,2:0:0:0:
256,308,29775,1,0,2:0:0:0:
200,132,29914,6,0,B|200:80|200:80|220:17,1,100
476,184,30193,2,0,B|441:220|441:220|389:245,1,100
172,328,30472,5,0,0:0:0:0:
104,88,30612,1,0,0:0:0:0:
325,299,30751,1,0,0:0:0:0:
368,104,30891,1,0,0:0:0:0:
336,116,30961,1,0,0:0:0:0:
300,124,31031,1,0,0:0:0:0:
252,316,31170,5,0,0:0:0:0:
148,254,31309,2,0,P|114:218|96:172,1,100
328,316,31589,1,0,0:0:0:0:
456,236,31728,1,0,0:0:0:0:
368,52,31868,5,0,0:0:0:0:
348,220,32007,1,0,0:0:0:0:
344,256,32077,1,0,0:0:0:0:
340,292,32147,1,0,0:0:0:0:
228,356,32286,5,0,0:0:0:0:
256,144,32426,1,0,0:0:0:0:
244,112,32496,1,0,0:0:0:0:
228,80,32566,1,0,0:0:0:0:
256,240,32705,6,0,B|300:288|360:280|360:280|420:304|432:360,1,225.000008583069
336,192,32984,1,0,0:0:0:0:
256,144,33123,6,0,B|212:96|152:104|152:104|92:80|80:24,1,225.000008583069
176,192,33403,1,0,0:0:0:0:
324,76,33542,5,0,0:0:0:0:
356,64,33612,1,0,0:0:0:0:
388,56,33682,1,0,0:0:0:0:
424,52,33751,1,0,0:0:0:0:
460,52,33821,1,0,0:0:0:0:
428,208,33961,6,0,P|392:264|340:292,2,100
232,56,34379,1,0,0:0:0:0:
316,180,34519,5,0,0:0:0:0:
168,192,34658,2,0,L|152:224,6,25
72,264,34937,6,0,P|120:340|256:376,1,179.999994506836
300,380,35216,1,0,0:0:0:0:
440,120,35356,6,0,P|392:44|256:8,1,179.999994506836
212,4,35635,2,0,L|196:36,3,25
256,100,35775,6,0,P|272:160|244:260,1,119.999996337891
92,164,36054,1,0,0:0:0:0:
440,120,36193,1,0,0:0:0:0:
116,80,36333,1,0,0:0:0:0:
416,204,36472,1,0,0:0:0:0:
120,256,36612,1,0,0:0:0:0:
356,288,36751,2,0,L|372:312,20,14.9999995422363
440,336,37170,5,0,0:0:0:0:
428,224,37309,1,0,0:0:0:0:
492,132,37449,1,0,0:0:0:0:
424,40,37589,2,0,P|360:76|280:76,1,150.000005722046
140,40,38007,5,0,0:0:0:0:
256,192,38147,1,0,0:0:0:0:
148,160,38286,1,0,0:0:0:0:
256,264,38426,5,0,0:0:0:0:
104,104,38565,1,0,0:0:0:0:
192,312,38705,1,0,0:0:0:0:
32,104,38844,5,0,0:0:0:0:
100,360,38984,1,0,0:0:0:0:
148,160,39123,1,0,0:0:0:0:
16,296,39263,1,0,0:0:0:0:
68,180,39403,5,0,0:0:0:0:
212,212,39542,1,0,0:0:0:0:
128,244,39682,5,0,0:0:0:0:
224,132,39821,1,0,0:0:0:0:
288,184,39961,5,0,0:0:0:0:
148,160,40100,1,0,0:0:0:0:
304,264,40240,5,0,0:0:0:0:
280,344,40379,1,0,0:0:0:0:
412,288,40519,2,0,P|440:260|460:204,2,75.0000028610231
368,212,40937,1,0,0:0:0:0:
256,64,41077,5,0,0:0:0:0:
112,276,41356,5,0,0:0:0:0:
384,148,41635,5,0,0:0:0:0:
256,64,41775,1,0,0:0:0:0:
132,148,41914,1,0,0:0:0:0:
188,288,42054,2,0,B|192:328|192:328|176:364,1,75.0000028610231
328,192,42333,5,0,0:0:0:0:
364,280,42472,1,0,0:0:0:0:
376,128,42612,1,0,0:0:0:0:
244,196,42751,2,0,P|252:228|296:276,1,75.0000028610231
228,72,43030,5,0,0:0:0:0:
412,204,43170,1,0,0:0:0:0:
320,84,43309,5,0,0:0:0:0:
112,168,43449,1,0,0:0:0:0:
280,24,43589,5,0,0:0:0:0:
172,264,43728,1,0,0:0:0:0:
364,280,43868,5,0,0:0:0:0:
448,96,44007,1,0,0:0:0:0:
468,300,44147,5,0,0:0:0:0:
328,156,44286,1,0,0:0:0:0:
224,240,44426,6,0,P|216:280|236:328,1,75.0000028610231
412,204,44705,5,0,0:0:0:0:
372,332,44844,2,0,P|347:354|292:366,1,75.0000028610231
304,280,45123,5,0,0:0:0:0:
236,168,45263,1,0,0:0:0:0:
12,152,45403,5,0,0:0:0:0:
48,124,45472,1,0,0:0:0:0:
92,108,45542,2,0,B|152:96|160:76|168:56|228:48,1,150.000005722046
236,168,45821,6,0,B|312:148|312:148|368:84,1,150.000005722046
432,224,46100,5,0,0:0:0:0:
416,260,46170,1,0,0:0:0:0:
400,296,46240,1,0,0:0:0:0:
456,108,46379,1,0,0:0:0:0:
256,332,46519,1,0,0:0:0:0:
220,340,46589,1,0,0:0:0:0:
184,348,46658,1,0,0:0:0:0:
32,180,46798,5,0,0:0:0:0:
64,200,46868,1,0,0:0:0:0:
100,208,46937,1,0,0:0:0:0:
136,204,47007,1,0,0:0:0:0:
172,192,47077,1,0,0:0:0:0:
376,68,47216,1,0,0:0:0:0:
320,256,47356,1,0,0:0:0:0:
324,292,47426,1,0,0:0:0:0:
328,328,47496,1,0,0:0:0:0:
196,112,47635,5,0,0:0:0:0:
192,76,47705,1,0,0:0:0:0:
188,40,47775,1,0,0:0:0:0:
420,152,47914,1,0,0:0:0:0:
408,188,47984,1,0,0:0:0:0:
384,220,48054,1,0,0:0:0:0:
356,244,48123,1,0,0:0:0:0:
320,256,48193,1,0,0:0:0:0:
104,316,48333,5,0,0:0:0:0:
291,3,48751,1,0,0:0:0:0:
323,366,49170,1,0,0:0:0:0:
84,91,49589,1,0,0:0:0:0:
439,173,50007,1,0,0:0:0:0:
316,156,50286,6,0,P|272:188|256:268,1,100
252,72,50565,5,0,0:0:0:0:
216,64,50635,1,0,0:0:0:0:
180,56,50705,1,0,0:0:0:0:
352,248,50844,5,0,0:0:0:0:
384,80,50984,1,0,0:0:0:0:
364,52,51054,1,0,0:0:0:0:
344,24,51123,1,0,0:0:0:0:
92,192,51263,5,0,0:0:0:0:
108,224,51333,1,0,0:0:0:0:
132,248,51402,1,0,0:0:0:0:
164,264,51472,1,0,0:0:0:0:
200,264,51542,1,0,0:0:0:0:
432,172,51681,5,0,0:0:0:0:
308,328,51821,1,0,0:0:0:0:
276,340,51891,1,0,0:0:0:0:
240,348,51961,1,0,0:0:0:0:
204,56,52100,5,0,0:0:0:0:
236,44,52170,1,0,0:0:0:0:
272,36,52240,1,0,0:0:0:0:
364,212,52379,1,0,0:0:0:0:
332,200,52449,1,0,0:0:0:0:
300,184,52519,2,0,L|296:156,6,25
439,173,52798,5,0,0:0:0:0:
84,91,53216,1,0,0:0:0:0:
323,366,53635,1,0,0:0:0:0:
291,3,54054,1,0,0:0:0:0:
100,224,54193,5,0,0:0:0:0:
104,260,54263,1,0,0:0:0:0:
124,288,54333,1,0,0:0:0:0:
152,312,54403,1,0,0:0:0:0:
184,320,54472,1,0,0:0:0:0:
444,168,54612,5,0,0:0:0:0:
156,52,54751,1,0,0:0:0:0:
256,356,54891,1,0,0:0:0:0:
152,184,55030,5,0,0:0:0:0:
140,152,55100,1,0,0:0:0:0:
128,120,55170,1,0,0:0:0:0:
256,272,55309,5,0,0:0:0:0:
424,160,55449,1,0,0:0:0:0:
440,128,55519,1,0,0:0:0:0:
456,96,55588,1,0,0:0:0:0:
160,44,55728,5,0,0:0:0:0:
128,52,55798,1,0,0:0:0:0:
100,72,55867,1,0,0:0:0:0:
80,100,55937,1,0,0:0:0:0:
68,132,56007,1,0,0:0:0:0:
256,192,56146,5,0,0:0:0:0:
348,316,56286,1,0,0:0:0:0:
364,284,56356,1,0,0:0:0:0:
380,252,56425,1,0,0:0:0:0:
256,28,56565,1,0,0:0:0:0:
220,30,56635,1,0,0:0:0:0:
184,32,56704,1,0,0:0:0:0:
48,244,56844,5,0,0:0:0:0:
84,252,56914,1,0,0:0:0:0:
124,256,56984,2,0,L|124:224,1,25
156,244,57054,2,0,L|156:220,1,25
188,228,57123,2,0,L|188:188,1,25
224,208,57193,2,0,L|224:176,1,25
280,120,57263,5,0,0:0:0:0:
0,0,57681,1,0,0:0:0:0:
104,376,58100,1,0,0:0:0:0:
396,116,58519,1,0,0:0:0:0:
100,152,58937,1,0,0:0:0:0:
348,324,59216,6,0,P|408:280|408:212,1,100
216,276,59495,5,0,0:0:0:0:
184,292,59565,1,0,0:0:0:0:
152,308,59635,1,0,0:0:0:0:
256,140,59774,5,0,0:0:0:0:
80,44,59914,1,0,0:0:0:0:
84,80,59984,1,0,0:0:0:0:
88,116,60053,1,0,0:0:0:0:
152,308,60193,5,0,0:0:0:0:
184,324,60263,1,0,0:0:0:0:
220,328,60332,1,0,0:0:0:0:
256,328,60402,1,0,0:0:0:0:
288,316,60472,1,0,0:0:0:0:
448,192,60612,6,0,L|468:136,1,50
264,140,60751,2,0,L|228:92,1,50
408,68,60891,2,0,L|424:8,1,50
284,232,61030,6,0,L|224:232,1,50
408,268,61170,2,0,L|448:324,1,50
360,180,61309,2,0,L|360:112,1,50
332,304,61449,6,0,L|328:336,2,25
184,328,61589,2,0,L|180:303,2,25
60,224,61728,6,0,P|32:184|28:128,1,100
100,156,61937,1,0,0:0:0:0:
136,148,62007,1,0,0:0:0:0:
172,128,62077,1,0,0:0:0:0:
204,104,62147,6,0,P|240:128|304:132,1,100
268,64,62356,1,0,0:0:0:0:
308,60,62426,1,0,0:0:0:0:
348,72,62496,1,0,0:0:0:0:
368,104,62565,6,0,P|376:146|418:194,1,100
472,108,62844,5,0,0:0:0:0:
364,320,62984,2,0,L|360:344,8,18.7500007152558
288,292,63193,1,0,0:0:0:0:
288,292,63263,2,0,B|267:261|267:261|202:213,1,100
52,112,63542,5,0,0:0:0:0:
52,284,63682,1,0,0:0:0:0:
92,312,63751,1,0,0:0:0:0:
144,308,63821,1,0,0:0:0:0:
180,272,63891,1,0,0:0:0:0:
120,192,63961,5,0,0:0:0:0:
116,164,64030,1,0,0:0:0:0:
124,136,64100,1,0,0:0:0:0:
140,112,64170,1,0,0:0:0:0:
164,96,64240,1,0,0:0:0:0:
192,88,64309,1,0,0:0:0:0:
224,88,64379,1,0,0:0:0:0:
252,96,64449,1,0,0:0:0:0:
280,124,64519,5,0,0:0:0:0:
272,164,64589,1,0,0:0:0:0:
280,204,64658,1,0,0:0:0:0:
304,236,64728,1,0,0:0:0:0:
340,252,64798,1,0,0:0:0:0:
380,256,64868,1,0,0:0:0:0:
416,244,64937,1,0,0:0:0:0:
444,216,65007,1,0,0:0:0:0:
460,192,65077,5,0,0:0:0:0:
448,164,65147,1,0,0:0:0:0:
420,144,65216,1,0,0:0:0:0:
380,144,65286,1,0,0:0:0:0:
348,168,65356,1,0,0:0:0:0:
316,192,65426,1,0,0:0:0:0:
280,212,65496,1,0,0:0:0:0:
248,232,65565,1,0,0:0:0:0:
208,260,65635,6,0,L|136:260,3,50
100,148,65914,2,0,L|40:120,3,50
188,60,66193,5,0,0:0:0:0:
228,64,66262,1,0,0:0:0:0:
264,80,66332,1,0,0:0:0:0:
292,108,66402,1,0,0:0:0:0:
312,144,66472,1,0,0:0:0:0:
320,184,66541,1,0,0:0:0:0:
316,224,66611,1,0,0:0:0:0:
300,260,66681,1,0,0:0:0:0:
284,232,66751,5,0,0:0:0:0:
284,200,66821,1,0,0:0:0:0:
292,172,66890,1,0,0:0:0:0:
312,144,66960,1,0,0:0:0:0:
340,128,67030,1,0,0:0:0:0:
368,116,67100,1,0,0:0:0:0:
396,116,67169,1,0,0:0:0:0:
424,124,67239,1,0,0:0:0:0:
456,148,67309,5,0,0:0:0:0:
464,188,67379,1,0,0:0:0:0:
452,224,67448,1,0,0:0:0:0:
424,256,67518,1,0,0:0:0:0:
388,272,67588,1,0,0:0:0:0:
348,276,67658,1,0,0:0:0:0:
312,296,67728,1,0,0:0:0:0:
284,324,67797,1,0,0:0:0:0:
256,352,67867,6,0,L|200:316,3,50
256,216,68146,2,0,L|297:188,3,50
356,328,68426,5,0,0:0:0:0:
392,344,68495,1,0,0:0:0:0:
432,344,68565,1,0,0:0:0:0:
468,332,68635,1,0,0:0:0:0:
492,300,68705,1,0,0:0:0:0:
504,264,68774,1,0,0:0:0:0:
496,224,68844,1,0,0:0:0:0:
476,188,68914,1,0,0:0:0:0:
436,160,68984,5,0,0:0:0:0:
396,188,69054,1,0,0:0:0:0:
348,200,69123,1,0,0:0:0:0:
300,192,69193,1,0,0:0:0:0:
260,164,69263,1,0,0:0:0:0:
236,120,69333,1,0,0:0:0:0:
232,72,69402,1,0,0:0:0:0:
252,28,69472,1,0,0:0:0:0:
288,8,69542,5,0,0:0:0:0:
328,16,69612,1,0,0:0:0:0:
352,48,69681,1,0,0:0:0:0:
356,88,69751,1,0,0:0:0:0:
336,132,69821,1,0,0:0:0:0:
296,160,69891,1,0,0:0:0:0:
252,184,69961,1,0,0:0:0:0:
208,208,70030,1,0,0:0:0:0:
160,228,70100,6,0,L|92:200,3,50
176,100,70379,6,0,L|240:72,3,50
72,92,70658,5,0,0:0:0:0:
52,116,70727,1,0,0:0:0:0:
40,144,70797,1,0,0:0:0:0:
32,180,70867,1,0,0:0:0:0:
32,220,70937,1,0,0:0:0:0:
44,256,71006,1,0,0:0:0:0:
72,292,71076,1,0,0:0:0:0:
116,316,71146,1,0,0:0:0:0:
120,268,71216,5,0,0:0:0:0:
136,220,71286,1,0,0:0:0:0:
168,184,71355,1,0,0:0:0:0:
212,168,71425,1,0,0:0:0:0:
256,168,71495,1,0,0:0:0:0:
292,184,71565,1,0,0:0:0:0:
316,208,71634,1,0,0:0:0:0:
324,236,71704,1,0,0:0:0:0:
320,264,71774,5,0,0:0:0:0:
288,252,71844,1,0,0:0:0:0:
280,216,71913,1,0,0:0:0:0:
292,184,71983,1,0,0:0:0:0:
316,160,72053,1,0,0:0:0:0:
344,136,72123,1,0,0:0:0:0:
368,104,72193,1,0,0:0:0:0:
380,60,72262,1,0,0:0:0:0:
368,20,72333,5,0,0:0:0:0:
332,12,72403,1,0,0:0:0:0:
304,16,72472,1,0,0:0:0:0:
280,32,72542,1,0,0:0:0:0:
252,60,72612,1,0,0:0:0:0:
236,96,72682,1,0,0:0:0:0:
228,140,72751,1,0,0:0:0:0:
232,188,72821,1,0,0:0:0:0:
256,232,72891,6,0,L|312:268,3,50
400,264,73170,2,0,L|416:324,3,50
348,176,73449,6,0,L|343:118,3,50
440,192,73728,2,0,L|496:208,3,50
444,88,74007,5,0,0:0:0:0:
428,60,74077,1,0,0:0:0:0:
408,40,74147,1,0,0:0:0:0:
384,24,74216,1,0,0:0:0:0:
356,12,74286,1,0,0:0:0:0:
328,8,74356,1,0,0:0:0:0:
300,12,74426,1,0,0:0:0:0:
272,24,74496,1,0,0:0:0:0:
240,48,74565,6,0,L|180:56,3,50
295,116,74844,2,0,L|359:128,3,50
256,212,75123,5,0,0:0:0:0:
240,240,75193,1,0,0:0:0:0:
220,260,75263,1,0,0:0:0:0:
192,272,75333,1,0,0:0:0:0:
164,276,75403,1,0,0:0:0:0:
136,272,75472,1,0,0:0:0:0:
112,256,75542,5,0,0:0:0:0:
132,232,75611,1,0,0:0:0:0:
140,204,75681,1,0,0:0:0:0:
140,172,75751,1,0,0:0:0:0:
128,144,75821,1,0,0:0:0:0:
108,120,75891,1,0,0:0:0:0:
124,96,75961,5,0,0:0:0:0:
148,80,76030,1,0,0:0:0:0:
176,68,76100,1,0,0:0:0:0:
208,64,76170,1,0,0:0:0:0:
236,68,76240,1,0,0:0:0:0:
264,80,76309,1,0,0:0:0:0:
292,76,76379,5,0,0:0:0:0:
328,68,76449,1,0,0:0:0:0:
368,76,76519,1,0,0:0:0:0:
396,104,76589,1,0,0:0:0:0:
416,144,76659,1,0,0:0:0:0:
408,192,76728,1,0,0:0:0:0:
388,236,76798,6,0,L|444:252,3,50
324,304,77077,2,0,L|268:320,3,50
156,280,77356,6,0,L|100:264,3,50
144,200,77635,2,0,L|95:186,3,50
132,120,77914,2,0,L|83:106,3,50
120,40,78193,2,0,L|71:26,3,50
224,20,78472,5,0,0:0:0:0:
260,24,78542,1,0,0:0:0:0:
292,36,78612,1,0,0:0:0:0:
316,60,78682,1,0,0:0:0:0:
336,88,78752,1,0,0:0:0:0:
348,120,78821,1,0,0:0:0:0:
348,156,78891,1,0,0:0:0:0:
340,188,78961,1,0,0:0:0:0:
344,232,79030,6,0,L|400:248,3,50
444,352,79309,6,0,L|500:368,3,50
340,344,79589,5,0,0:0:0:0:
292,332,79658,1,0,0:0:0:0:
252,300,79728,1,0,0:0:0:0:
228,256,79798,1,0,0:0:0:0:
216,208,79868,1,0,0:0:0:0:
224,160,79937,1,0,0:0:0:0:
208,112,80007,5,0,0:0:0:0:
188,160,80077,1,0,0:0:0:0:
164,204,80147,1,0,0:0:0:0:
136,244,80216,1,0,0:0:0:0:
100,280,80286,1,0,0:0:0:0:
56,304,80356,1,0,0:0:0:0:
96,332,80426,5,0,0:0:0:0:
256,192,80496,12,0,81193,0:0:0:0:
372,136,81263,6,0,P|448:224|290:321,1,350
344,236,81821,5,0,0:0:0:0:
256,64,82100,5,0,0:0:0:0:
256,208,82379,1,0,0:0:0:0:
168,148,82658,1,0,0:0:0:0:
68,36,83216,5,0,0:0:0:0:
24,256,83496,1,0,0:0:0:0:
100,328,83775,1,0,0:0:0:0:
324,128,84054,5,0,0:0:0:0:
344,88,84472,1,0,0:0:0:0:
364,48,84891,1,0,0:0:0:0:
192,192,85728,5,0,0:0:0:0:
256,328,86007,1,0,0:0:0:0:
460,108,86286,5,0,0:0:0:0:
400,244,86565,1,0,0:0:0:0:
320,32,86844,1,0,0:0:0:0:
256,328,87123,1,0,0:0:0:0:
64,208,87961,5,0,0:0:0:0:
176,108,88240,1,0,0:0:0:0:
200,256,88519,5,0,0:0:0:0:
376,24,88937,1,0,0:0:0:0:
472,348,89356,1,0,0:0:0:0:
468,124,90193,5,0,0:0:0:0:
256,192,90472,1,0,0:0:0:0:
92,40,90751,6,0,P|78:94|94:160,1,112.500004291535
84,188,91030,2,0,P|97:242|87:296,1,112.500004291535
112,324,91309,2,0,P|166:310|220:320,1,112.500004291535
256,304,91589,2,0,P|344:300|408:236,2,150.000005722046
296,192,92426,5,0,0:0:0:0:
460,364,92705,1,0,0:0:0:0:
256,304,92984,6,0,P|220:272|184:212,1,100
256,80,93542,2,0,P|292:112|328:172,1,100
368,296,94100,2,0,P|413:311|483:312,1,100,0|0,0:3|0:3,0:3:0:0:
144,87,94658,2,0,P|98:72|28:71,1,100,0|0,0:3|0:3,0:3:0:0:
72,232,95216,6,0,B|120:320|120:320|220:272|308:332|308:332|380:252,1,400
440,152,96690,1,0,0:0:0:0:
344,80,97006,1,0,0:0:0:0:
256,192,97322,1,0,0:0:0:0:
116,140,97638,6,0,P|108:56|184:12,1,175
335,11,98715,1,0,0:0:0:0:
424,192,99075,2,0,P|432:274|336:353,1,200
160,350,100257,1,0,0:0:0:0:
256,192,100665,5,0,0:0:0:0:
256,192,100758,12,0,104019,0:0:0:0:
256,192,104112,12,0,105137,0:0:0:0:
256,192,105206,12,0,105695,0:0:0:0:
256,192,105764,12,0,106253,0:0:0:0:
256,192,106323,12,0,106812,0:0:0:0:
256,192,106881,12,0,107370,0:0:0:0:
200,120,107648,5,0,0:0:0:0:
176,256,107927,1,0,0:0:0:0:
312,284,108206,1,0,0:0:0:0:
408,108,108485,5,0,0:0:0:0:
164,56,108625,1,0,0:0:0:0:
212,320,108764,1,0,0:0:0:0:
348,56,108904,5,0,0:0:0:0:
300,320,109043,1,0,0:0:0:0:
256,24,109183,1,0,0:0:0:0:
384,352,109323,5,0,0:0:0:0:
92,128,109462,1,0,0:0:0:0:
420,128,109602,1,0,0:0:0:0:
128,352,109741,5,0,0:0:0:0:
96,364,109811,1,0,0:0:0:0:
60,360,109881,1,0,0:0:0:0:
256,292,110020,1,0,0:0:0:0:
344,288,110160,6,0,L|355:336,2,50
168,96,110439,2,0,L|168:87,12,9.375
256,196,110718,5,0,0:0:0:0:
400,128,111834,5,0,0:0:0:0:
416,160,111904,1,0,0:0:0:0:
432,192,111974,1,0,0:0:0:0:
256,96,112113,5,0,0:0:0:0:
292,292,112253,1,0,0:0:0:0:
274,321,112323,1,0,0:0:0:0:
256,350,112392,1,0,0:0:0:0:
68,276,112532,5,0,0:0:0:0:
52,244,112602,1,0,0:0:0:0:
44,212,112671,1,0,0:0:0:0:
48,176,112741,1,0,0:0:0:0:
64,144,112811,1,0,0:0:0:0:
256,192,112950,5,0,0:0:0:0:
116,48,113090,2,0,P|72:28|12:20,1,100
256,96,113369,5,0,0:0:0:0:
288,88,113439,1,0,0:0:0:0:
324,80,113509,1,0,0:0:0:0:
256,288,113648,1,0,0:0:0:0:
224,296,113718,1,0,0:0:0:0:
188,304,113788,1,0,0:0:0:0:
24,264,113927,5,0,0:0:0:0:
92,356,114067,2,0,B|128:208|128:208|36:92|36:92|180:136|180:136|256:264|256:264|288:116|288:116|408:28|408:28|360:168|360:168|448:296,1,1200.00004577637
188,304,116439,5,0,0:0:0:0:
220,52,116578,1,0,0:0:0:0:
340,276,116718,1,0,0:0:0:0:
336,304,116788,1,0,0:0:0:0:
332,332,116857,1,0,0:0:0:0:
472,176,116997,5,0,0:0:0:0:
256,192,117136,1,0,0:0:0:0:
220,184,117206,1,0,0:0:0:0:
192,164,117276,1,0,0:0:0:0:
168,136,117346,1,0,0:0:0:0:
156,104,117416,1,0,0:0:0:0:
300,68,117555,6,0,L|256:92,2,50
332,332,117834,1,0,0:0:0:0:
187,232,117974,2,0,P|169:187|181:95,1,100
276,248,118253,5,0,0:0:0:0:
260,280,118323,1,0,0:0:0:0:
236,304,118392,1,0,0:0:0:0:
200,316,118462,1,0,0:0:0:0:
160,308,118532,2,0,B|118:288|109:249|109:249|82:256|82:256|74:221|32:201,1,179.999994506836
187,232,118811,5,0,0:0:0:0:
352,308,118950,2,0,B|393:288|402:249|402:249|429:256|429:256|437:221|479:201,1,179.999994506836
325,232,119230,2,0,L|296:256,3,19.9999993896485
256,192,119369,6,0,B|252:160|252:160|260:124|260:124|252:88|252:88|260:52|260:52|256:16,1,179.999994506836
184,48,119648,2,0,B|171:109|171:109|180:168,1,119.999996337891
256,328,119927,1,0,0:0:0:0:
333,165,120067,1,0,0:0:0:0:
348,140,120136,1,0,0:0:0:0:
364,116,120206,2,0,P|436:120|476:216,1,179.999994506836
428,260,120485,2,0,L|400:276,9,19.9999993896485
396,192,120764,2,0,B|328:192|328:192|272:228|272:228|256:304|184:312,1,262.500010013581
176,220,121323,6,0,P|176:132|232:80,1,150.000005722046
352,24,121602,5,0,0:0:0:0:
152,12,121741,1,0,0:0:0:0:
268,176,121881,1,0,0:0:0:0:
292,184,121950,1,0,0:0:0:0:
316,192,122020,1,0,0:0:0:0:
340,44,122160,5,0,0:0:0:0:
140,32,122299,1,0,0:0:0:0:
256,192,122439,2,0,B|280:240|280:240|272:312,1,100
40,376,122718,2,0,B|16:328|16:328|24:256,1,100
100,112,122997,6,0,L|84:252,1,112.500004291535
104,300,123276,2,0,P|144:280|164:208,1,100
172,196,123485,1,0,0:0:0:0:
176,160,123555,1,0,0:0:0:0:
180,124,123625,1,0,0:0:0:0:
184,88,123695,2,0,P|203:42|246:19,2,100
332,60,124113,6,0,B|380:80|380:80|408:120,1,100
428,148,124323,1,0,0:0:0:0:
448,176,124392,1,0,0:0:0:0:
448,212,124462,1,0,0:0:0:0:
448,248,124532,2,0,B|420:288|420:288|372:308,1,100
256,364,124811,6,0,L|268:344,3,16.6666666666667
300,284,124950,2,0,B|296:236|296:236|270:188,1,100
216,252,125160,1,0,0:0:0:0:
216,252,125230,6,0,P|176:124|204:44,1,179.999994506836
356,20,125509,1,0,0:0:0:0:
356,20,125578,1,0,0:0:0:0:
356,20,125648,6,0,P|396:148|368:228,1,179.999994506836
372,224,125927,1,0,0:0:0:0:
136,176,126067,5,0,0:0:0:0:
116,140,126136,1,0,0:0:0:0:
92,104,126206,1,0,0:0:0:0:
68,68,126276,1,0,0:0:0:0:
44,32,126346,1,0,0:0:0:0:
64,272,126485,5,0,0:0:0:0:
256,40,126625,1,0,0:0:0:0:
448,272,126764,1,0,0:0:0:0:
100,268,126904,5,0,0:0:0:0:
292,36,127044,1,0,0:0:0:0:
256,192,127183,2,0,L|244:216,9,19.9999993896485
316,236,127462,6,0,B|340:260|340:260|376:260|376:260|404:288|404:288|444:288,1,150.000005722046
256,340,127741,1,0,0:0:0:0:
196,148,127881,6,0,B|172:124|172:124|136:124|136:124|108:96|108:96|68:96,1,150.000005722046
256,44,128160,2,0,L|276:12,3,25.0000009536744
316,148,128299,6,0,B|340:124|340:124|376:124|376:124|404:96|404:96|444:96,1,150.000005722046
444,192,128578,1,0,0:0:0:0:
196,236,128718,6,0,B|172:260|172:260|136:260|136:260|108:288|108:288|68:288,1,150.000005722046
68,192,128997,1,0,0:0:0:0:
256,44,129136,6,0,L|268:28,12,18.7500007152558
256,340,129416,2,0,L|244:355,12,18.7500007152558
256,192,129695,6,0,P|384:172|456:300,1,262.500010013581
336,284,130253,2,0,B|260:308|260:308|216:368,1,150.000005722046
72,328,130532,5,0,0:0:0:0:
36,132,130671,1,0,0:0:0:0:
148,232,130811,1,0,0:0:0:0:
256,60,130950,1,0,0:0:0:0:
280,52,131020,1,0,0:0:0:0:
304,44,131090,1,0,0:0:0:0:
104,60,131230,5,0,0:0:0:0:
284,144,131369,2,0,B|336:136|336:136|408:104,1,100
256,336,131648,2,0,B|204:344|204:344|132:376,1,100
276,228,131927,6,0,P|292:268|268:252,1,112.500004291535
208,212,132206,6,0,B|183:182|183:182|152:76,1,119.999996337891
148,64,132416,1,0,0:0:0:0:
116,36,132485,1,0,0:0:0:0:
76,40,132555,1,0,0:0:0:0:
44,64,132625,2,0,P|24:112|40:188,1,119.999996337891
52,216,132834,1,0,0:0:0:0:
76,248,132904,1,0,0:0:0:0:
360,348,133043,6,0,P|380:300|372:232,1,119.999996337891
348,196,133253,1,0,0:0:0:0:
312,176,133323,1,0,0:0:0:0:
272,180,133392,1,0,0:0:0:0:
240,208,133462,2,0,P|372:236|436:160,1,239.999992675781
320,120,133811,5,0,0:0:0:0:
320,120,133881,2,0,P|248:88|144:136,1,179.999994506836
80,184,134160,6,0,P|63:99|130:25,1,150.000005722046
240,208,134439,1,0,0:0:0:0:
80,316,134578,6,0,B|128:336|128:336|252:292,1,150.000005722046
396,220,134857,1,0,0:0:0:0:
240,208,134997,5,0,0:0:0:0:
220,180,135067,1,0,0:0:0:0:
216,144,135136,1,0,0:0:0:0:
228,112,135206,1,0,0:0:0:0:
256,88,135276,1,0,0:0:0:0:
328,276,135416,5,0,0:0:0:0:
452,308,135555,1,0,0:0:0:0:
492,184,135695,1,0,0:0:0:0:
368,148,135834,2,0,B|342:105|342:105|339:46,1,100
256,196,136113,2,0,L|248:224,9,16.6666666666667
184,172,136392,5,0,0:0:0:0:
128,24,136532,1,0,0:0:0:0:
256,112,136671,1,0,0:0:0:0:
100,124,136811,5,0,0:0:0:0:
224,28,136950,1,0,0:0:0:0:
256,196,137090,2,0,L|248:216,4,14.9999995422363
220,280,137230,5,0,0:0:0:0:
400,260,137369,1,0,0:0:0:0:
132,236,137509,1,0,0:0:0:0:
440,200,137648,1,0,0:0:0:0:
60,304,137788,5,0,0:0:0:0:
380,336,137927,1,0,0:0:0:0:
416,340,137997,1,0,0:0:0:0:
456,344,138067,1,0,0:0:0:0:
456,144,138206,5,0,0:0:0:0:
256,368,138346,1,0,0:0:0:0:
56,148,138485,1,0,0:0:0:0:
256,20,138625,5,0,0:0:0:0:
280,12,138695,1,0,0:0:0:0:
304,4,138764,1,0,0:0:0:0:
156,148,138904,5,0,0:0:0:0:
344,212,139043,1,0,0:0:0:0:
376,224,139113,1,0,0:0:0:0:
408,236,139182,1,0,0:0:0:0:
340,80,139323,6,0,L|400:40,2,50
256,260,139602,1,0,0:0:0:0:
408,132,139741,1,0,0:0:0:0:
320,312,139881,1,0,0:0:0:0:
288,328,139950,1,0,0:0:0:0:
256,344,140020,1,0,0:0:0:0:
72,264,140160,6,0,L|40:212,2,50
156,384,140439,1,0,0:0:0:0:
156,348,140509,1,0,0:0:0:0:
156,312,140578,1,0,0:0:0:0:
156,148,140718,1,0,0:0:0:0:
256,260,140857,6,0,B|312:296|336:384|336:384|424:264|424:264|400:116|400:116|324:80|256:120,1,600.000022888185
256,192,142043,12,0,143090,0:0:0:0:
100,64,143230,5,0,0:0:0:0:
256,264,143369,1,0,0:0:0:0:
412,64,143509,1,0,0:0:0:0:
416,212,143648,5,0,0:0:0:0:
256,296,143788,1,0,0:0:0:0:
96,212,143927,1,0,0:0:0:0:
152,172,143997,5,0,0:0:0:0:
220,156,144067,1,0,0:0:0:0:
292,156,144136,1,0,0:0:0:0:
360,172,144206,1,0,0:0:0:0:
256,320,144346,1,0,0:0:0:0:
416,212,144485,5,0,0:0:0:0:
340,104,144625,2,0,P|320:61|328:-14,2,100
404,292,145043,1,0,0:0:0:0:
420,312,145113,1,0,0:0:0:0:
436,328,145183,2,0,L|448:356,3,16.6666666666667
364,360,145323,6,0,P|296:352|232:288,1,150.000005722046
348,232,145602,1,0,0:0:0:0:
348,84,145741,2,0,P|307:138|219:162,1,150.000005722046
232,40,146020,2,0,L|216:16,3,25.0000009536744
168,76,146160,6,0,P|160:143|96:207,1,150.000005722046
48,96,146439,1,0,0:0:0:0:
52,320,146578,2,0,P|105:370|178:381,2,150.000005722046
160,260,146997,6,0,L|173:239,9,25.0000009536744
338,239,147276,2,0,L|352:260,9,25.0000009536744
256,144,147555,5,0,0:0:0:0:
228,292,147695,1,0,0:0:0:0:
106,202,147834,1,0,0:0:0:0:
144,56,147974,2,0,B|180:28|180:28|284:4,1,150.000005722046
376,120,148392,5,0,0:0:0:0:
468,192,148532,1,0,0:0:0:0:
392,88,148671,2,0,L|372:0,1,75.0000028610231
436,264,148950,5,0,0:0:0:0:
284,152,149090,1,0,0:0:0:0:
444,308,149230,2,0,L|464:396,1,75.0000028610231
364,268,149509,5,0,0:0:0:0:
256,192,149648,1,0,0:0:0:0:
148,268,149788,5,0,0:0:0:0:
24,220,149927,1,0,0:0:0:0:
96,336,150067,5,0,0:0:0:0:
232,296,150206,1,0,0:0:0:0:
156,176,150346,5,0,0:0:0:0:
256,76,150485,1,0,0:0:0:0:
140,71,150625,6,0,L|72:107,2,75.0000028610231
256,176,151043,1,0,0:0:0:0:
372,71,151183,2,0,L|438:35,1,75.0000028610231
444,308,151462,5,0,0:0:0:0:
68,308,151741,1,0,0:0:0:0:
156,176,152020,5,0,0:0:0:0:
204,320,152160,1,0,0:0:0:0:
256,104,152299,1,0,0:0:0:0:
312,360,152439,2,0,L|368:260,1,75.0000028610231
452,96,152718,5,0,0:0:0:0:
348,136,152857,1,0,0:0:0:0:
256,68,152997,1,0,0:0:0:0:
164,232,153136,1,0,0:0:0:0:
92,100,153276,1,0,0:0:0:0:
256,192,153416,1,0,0:0:0:0:
76,240,153555,1,0,0:0:0:0:
168,36,153695,5,0,0:0:0:0:
148,260,153834,1,0,0:0:0:0:
332,212,153974,1,0,0:0:0:0:
144,88,154113,1,0,0:0:0:0:
256,284,154253,2,0,L|256:359,1,75.0000028610231
256,192,154532,5,0,0:0:0:0:
368,88,154671,1,0,0:0:0:0:
440,260,154811,6,0,L|476:336,1,75.0000028610231
364,192,155090,1,0,0:0:0:0:
256,108,155230,2,0,L|223:40,1,75.0000028610231
312,192,155509,5,0,0:0:0:0:
440,112,155648,2,0,B|468:56|468:56|476:76|476:76|512:0,2,150.000005722046
113,237,156485,5,0,0:0:0:0:
91,268,156555,1,0,0:0:0:0:
70,296,156625,1,0,0:0:0:0:
36,100,156764,1,0,0:0:0:0:
256,128,156904,5,0,0:0:0:0:
289,140,156974,1,0,0:0:0:0:
322,153,157043,1,0,0:0:0:0:
160,336,157183,1,0,0:0:0:0:
128,348,157253,1,0,0:0:0:0:
96,360,157323,2,0,P|36:356|4:296,1,100
68,32,157602,1,0,0:0:0:0:
289,140,157741,1,0,0:0:0:0:
52,144,157881,6,0,L|8:168,1,50
100,256,158020,2,0,L|60:312,1,50
164,64,158160,2,0,L|190:21,1,50,0|0,0:3|0:3,0:3:0:0:
256,128,158299,2,0,L|318:99,1,50
256,303,158439,2,0,L|256:328,6,25.0000009536744
200,252,158718,5,0,0:0:0:0:
396,28,159136,1,0,0:0:0:0:
432,324,159555,1,0,0:0:0:0:
256,84,159974,1,0,0:0:0:0:
80,324,160392,1,0,0:0:0:0:
416,244,160950,5,0,0:0:0:0:
440,220,161020,1,0,0:0:0:0:
464,192,161090,1,0,0:0:0:0:
256,340,161230,5,0,0:0:0:0:
316,148,161369,1,0,0:0:0:0:
324,115,161439,1,0,0:0:0:0:
331,78,161509,1,0,0:0:0:0:
164,264,161648,5,0,0:0:0:0:
129,275,161718,1,0,0:0:0:0:
93,272,161788,1,0,0:0:0:0:
60,257,161857,1,0,0:0:0:0:
33,232,161927,1,0,0:0:0:0:
280,268,162067,5,0,0:0:0:0:
184,96,162206,1,0,0:0:0:0:
174,63,162276,1,0,0:0:0:0:
161,27,162346,1,0,0:0:0:0:
129,275,162485,5,0,0:0:0:0:
308,368,162625,1,0,0:0:0:0:
440,220,162764,5,0,0:0:0:0:
442,184,162834,1,0,0:0:0:0:
449,150,162904,2,0,L|476:133,1,25
455,113,162974,2,0,L|482:96,1,25
461,76,163043,2,0,L|488:59,1,25
467,38,163113,2,0,L|494:21,1,25
400,16,163183,5,0,0:0:0:0:
84,192,163602,1,0,0:0:0:0:
396,350,164020,2,0,P|459:279|437:177,1,200
156,96,164578,5,0,0:0:0:0:
356,248,164718,1,0,0:0:0:0:
116,316,164857,1,0,0:0:0:0:
256,108,164997,5,0,0:0:0:0:
289,356,165137,1,0,0:0:0:0:
72,235,165276,1,0,0:0:0:0:
224,248,165416,5,0,0:0:0:0:
256,264,165485,1,0,0:0:0:0:
288,280,165555,1,0,0:0:0:0:
156,96,165695,5,0,0:0:0:0:
348,148,165834,1,0,0:0:0:0:
383,145,165903,1,0,0:0:0:0:
419,143,165973,1,0,0:0:0:0:
187,311,166113,5,0,0:0:0:0:
152,314,166182,1,0,0:0:0:0:
116,316,166252,1,0,0:0:0:0:
364,352,166392,5,0,0:0:0:0:
419,143,166532,2,0,P|407:79|351:43,1,100
176,0,166811,1,0,0:0:0:0:
140,4,166881,1,0,0:0:0:0:
108,20,166950,1,0,0:0:0:0:
80,44,167020,1,0,0:0:0:0:
68,76,167090,1,0,0:0:0:0:
104,224,167230,5,0,0:0:0:0:
128,248,167299,1,0,0:0:0:0:
156,272,167369,2,0,L|158:288,9,16.6666666666667
92,324,167648,5,0,0:0:0:0:
356,288,168067,1,0,0:0:0:0:
156,96,168485,1,0,0:0:0:0:
420,60,168904,1,0,0:0:0:0:
256,192,169323,1,0,0:0:0:0:
84,88,169881,5,0,0:0:0:0:
56,68,169950,1,0,0:0:0:0:
28,48,170020,1,0,0:0:0:0:
256,80,170160,5,0,0:0:0:0:
344,260,170299,1,0,0:0:0:0:
332,292,170369,1,0,0:0:0:0:
312,320,170439,1,0,0:0:0:0:
288,344,170509,1,0,0:0:0:0:
256,360,170578,1,0,0:0:0:0:
372,136,170718,5,0,0:0:0:0:
192,224,170857,1,0,0:0:0:0:
164,244,170927,1,0,0:0:0:0:
132,264,170997,2,0,L|92:336,1,75.0000028610231
132,120,171136,2,0,L|95:54,1,75.0000028610231
380,264,171276,2,0,L|420:336,1,75.0000028610231
380,120,171416,2,0,L|416:52,1,75.0000028610231
256,308,171555,2,0,L|256:412,1,75.0000028610231
256,76,171695,2,0,L|256:-24,1,75.0000028610231
256,192,171834,6,0,L|254:229,6,37.5000014305115
176,192,172113,6,0,P|120:196|80:232,1,100
152,268,172323,1,0,0:0:0:0:
172,308,172392,1,0,0:0:0:0:
216,324,172462,1,0,0:0:0:0:
256,308,172532,2,0,P|324:288|364:304,1,100
312,364,172741,1,0,0:0:0:0:
348,384,172811,1,0,0:0:0:0:
388,384,172881,1,0,0:0:0:0:
424,372,172950,2,0,P|452:324|452:268,1,100
349,295,173230,5,0,0:0:0:0:
256,120,173369,2,0,L|256:104,8,12.5
196,68,173578,1,0,0:0:0:0:
196,68,173648,2,0,B|148:48|148:48|88:48,1,100
316,68,173927,5,0,0:0:0:0:
400,216,174067,1,0,0:0:0:0:
380,264,174136,1,0,0:0:0:0:
349,295,174206,1,0,0:0:0:0:
304,312,174276,1,0,0:0:0:0:
256,308,174346,6,0,B|176:296|176:296|116:324,1,119.999996337891
296,216,174625,5,0,0:0:0:0:
120,240,174764,2,0,L|-16:304,1,119.999996337891
368,136,175043,5,0,0:0:0:0:
104,132,175183,1,0,0:0:0:0:
60,132,175253,1,0,0:0:0:0:
16,132,175323,1,0,0:0:0:0:
468,84,175462,5,0,0:0:0:0:
172,32,175602,1,0,0:0:0:0:
132,20,175671,1,0,0:0:0:0:
92,12,175741,1,0,0:0:0:0:
400,216,175881,5,0,0:0:0:0:
440,228,175950,1,0,0:0:0:0:
480,236,176020,1,0,0:0:0:0:
176,296,176160,1,0,0:0:0:0:
140,312,176230,1,0,0:0:0:0:
104,328,176299,2,0,L|80:352,9,19.9999993896485
152,384,176578,5,0,0:0:0:0:
316,68,176997,1,0,0:0:0:0:
256,360,177415,1,0,0:0:0:0:
436,156,177834,1,0,0:0:0:0:
76,156,178253,1,0,0:0:0:0:
76,156,178811,5,0,0:0:0:0:
96,124,178881,1,0,0:0:0:0:
116,92,178950,1,0,0:0:0:0:
256,268,179090,6,0,L|272:356,1,75.0000028610231
256,192,179230,1,0,0:0:0:0:
160,304,179369,5,0,0:0:0:0:
256,116,179509,1,0,0:0:0:0:
262,80,179578,1,0,0:0:0:0:
269,43,179648,1,0,0:0:0:0:
352,304,179788,1,0,0:0:0:0:
96,124,179927,5,0,0:0:0:0:
96,124,179997,1,0,0:0:0:0:
96,124,180067,2,0,L|16:64,1,75.0000028610231
146,182,180206,2,0,L|134:263,1,75.0000028610231
170,106,180346,2,0,L|246:74,1,75.0000028610231
256,192,180485,5,0,0:0:0:0:
256,192,180555,1,0,0:0:0:0:
256,192,180625,2,0,L|287:209,1,18.7500007152558
256,192,180695,2,0,L|226:211,1,18.7500007152558
256,192,180764,2,0,L|256:159,1,18.7500007152558
256,192,180834,2,0,L|231:177,1,18.7500007152558
256,192,180904,2,0,L|285:181,1,18.7500007152558
256,192,180974,2,0,L|256:224,1,18.7500007152558
256,280,181043,5,0,0:0:0:0:
444,48,181462,1,0,0:0:0:0:
392,344,181881,1,0,0:0:0:0:
360,148,182160,5,0,0:0:0:0:
256,40,182299,1,0,0:0:0:0:
140,152,182439,5,0,0:0:0:0:
256,344,182578,1,0,0:0:0:0:
428,240,182718,1,0,0:0:0:0:
340,60,182857,1,0,0:0:0:0:
256,244,182997,1,0,0:0:0:0:
172,60,183136,1,0,0:0:0:0:
72,344,183276,5,0,0:0:0:0:
72,344,183346,1,0,0:0:0:0:
72,344,183416,1,0,0:0:0:0:
72,104,183555,1,0,0:0:0:0:
192,312,183695,5,0,0:0:0:0:
192,312,183764,1,0,0:0:0:0:
192,312,183834,1,0,0:0:0:0:
72,192,183974,1,0,0:0:0:0:
340,60,184113,5,0,0:0:0:0:
340,60,184183,1,0,0:0:0:0:
340,60,184253,1,0,0:0:0:0:
344,300,184392,1,0,0:0:0:0:
260,88,184532,5,0,0:0:0:0:
260,88,184602,1,0,0:0:0:0:
260,88,184671,1,0,0:0:0:0:
440,192,184811,1,0,0:0:0:0:
260,348,184950,5,0,0:0:0:0:
260,348,185020,1,0,0:0:0:0:
260,348,185090,2,0,L|208:308,1,59.9999981689454
72,192,185230,2,0,L|36:192,9,19.9999993896485
31,121,185509,5,0,0:0:0:0:
396,3,185927,1,0,0:0:0:0:
115,380,186346,1,0,0:0:0:0:
480,262,186764,1,0,0:0:0:0:
256,192,187183,1,0,0:0:0:0:
408,256,187741,5,0,0:0:0:0:
423,303,187811,1,0,0:0:0:0:
435,352,187881,1,0,0:0:0:0:
288,92,188020,5,0,0:0:0:0:
207,287,188160,1,0,0:0:0:0:
164,310,188230,1,0,0:0:0:0:
121,336,188300,1,0,0:0:0:0:
408,256,188439,5,0,0:0:0:0:
436,216,188509,1,0,0:0:0:0:
448,168,188578,1,0,0:0:0:0:
448,116,188648,1,0,0:0:0:0:
432,68,188718,1,0,0:0:0:0:
256,196,188857,6,0,L|212:272,1,50
204,88,188997,6,0,L|164:16,1,50
312,288,189136,2,0,L|337:332,1,50
308,88,189276,6,0,L|333:44,1,50
200,288,189416,5,0,0:0:0:0:
200,288,189485,2,0,L|164:352,1,50
372,192,189625,5,0,0:0:0:0:
372,192,189695,2,0,L|444:192,1,50
104,120,189834,1,0,0:0:0:0:
72,84,189904,1,0,0:0:0:0:
40,40,189974,5,0,0:0:0:0:
472,140,190113,1,0,0:0:0:0:
40,248,190253,1,0,0:0:0:0:
384,192,190392,5,0,0:0:0:0:
144,264,190531,1,0,0:0:0:0:
384,340,190671,1,0,0:0:0:0:
108,176,190811,5,0,0:0:0:0:
408,268,190950,1,0,0:0:0:0:
108,344,191090,1,0,0:0:0:0:
256,192,191230,6,0,L|278:180,1,25
256,191,191299,2,0,L|280:195,1,25
256,192,191369,2,0,L|272:210,1,25
128,136,191509,2,0,L|105:147,1,25
128,136,191578,2,0,L|103:131,1,25
128,136,191648,2,0,L|111:117,1,25
148,80,191718,5,0,0:0:0:0:
188,52,191788,1,0,0:0:0:0:
232,36,191857,1,0,0:0:0:0:
280,36,191927,6,0,L|324:36,1,25
316,72,191997,2,0,L|360:72,1,25
352,108,192067,2,0,L|388:120,1,25
372,152,192136,2,0,L|408:164,1,25
376,228,192206,6,0,P|348:280|288:312,1,100
132,380,192485,1,0,0:0:0:0:
256,192,192625,1,0,0:0:0:0:
108,56,192904,5,0,0:0:0:0:
72,252,193043,5,0,0:0:0:0:
168,136,193183,1,0,0:0:0:0:
216,328,193323,2,0,L|256:236,1,100
420,72,193602,5,0,0:0:0:0:
484,228,193741,1,0,0:0:0:0:
340,24,193881,5,0,0:0:0:0:
344,272,194020,1,0,0:0:0:0:
268,84,194160,5,0,0:0:0:0:
404,224,194299,1,0,0:0:0:0:
404,72,194439,5,0,0:0:0:0:
264,256,194578,1,0,0:0:0:0:
456,316,194718,5,0,0:0:0:0:
340,156,194857,1,0,0:0:0:0:
256,336,194997,6,0,P|216:360|132:352,1,100
12,232,195276,1,0,0:0:0:0:
180,256,195416,2,0,B|224:232|224:232|260:188,2,100
92,304,195834,5,0,0:0:0:0:
36,48,196113,5,0,0:0:0:0:
304,116,196392,1,0,0:0:0:0:
364,308,196671,5,0,0:0:0:0:
440,228,196811,1,0,0:0:0:0:
416,112,196950,1,0,0:0:0:0:
304,44,197090,2,0,P|244:32|192:52,1,100
88,96,197369,5,0,0:0:0:0:
256,148,197509,2,0,L|264:272,1,100
416,112,197788,5,0,0:0:0:0:
368,236,197927,1,0,0:0:0:0:
208,356,198067,5,0,0:0:0:0:
88,268,198206,1,0,0:0:0:0:
88,96,198346,5,0,0:0:0:0:
248,72,198485,1,0,0:0:0:0:
376,168,198625,1,0,0:0:0:0:
376,328,198764,1,0,0:0:0:0:
196,244,198904,5,0,0:0:0:0:
156,132,199043,1,0,0:0:0:0:
228,168,199183,5,0,0:0:0:0:
284,60,199323,1,0,0:0:0:0:
376,168,199462,6,0,L|308:272,1,100
224,96,199741,1,0,0:0:0:0:
204,264,199881,6,0,B|160:296|160:296|68:296,2,100
256,68,200299,2,0,P|208:12|144:0,1,100
148,112,200578,5,0,0:0:0:0:
396,68,200718,1,0,0:0:0:0:
376,168,200857,1,0,0:0:0:0:
356,276,200997,1,0,0:0:0:0:
216,328,201136,6,0,P|152:296|108:252,1,100
64,204,201416,1,0,0:0:0:0:
224,200,201555,2,0,P|268:172|304:112,1,100
196,100,201834,5,0,0:0:0:0:
336,244,201974,1,0,0:0:0:0:
144,300,202113,1,0,0:0:0:0:
96,76,202253,5,0,0:0:0:0:
60,240,202392,1,0,0:0:0:0:
412,48,202532,5,0,0:0:0:0:
364,304,202671,1,0,0:0:0:0:
256,100,202811,5,0,0:0:0:0:
224,268,202950,1,0,0:0:0:0:
339,204,203090,1,0,0:0:0:0:
456,144,203230,1,0,0:0:0:0:
356,100,203369,5,0,0:0:0:0:
404,296,203509,1,0,0:0:0:0:
464,104,203648,5,0,0:0:0:0:
292,288,203788,1,0,0:0:0:0:
448,228,203927,5,0,0:0:0:0:
256,192,204067,1,0,0:0:0:0:
256,44,204206,5,0,0:0:0:0:
152,216,204346,2,0,L|128:340,2,100
168,48,204764,5,0,0:0:0:0:
256,336,205043,1,0,0:0:0:0:
372,100,205323,1,0,0:0:0:0:
256,192,205602,5,0,0:0:0:0:
180,252,205741,1,0,0:0:0:0:
84,240,205881,1,0,0:0:0:0:
24,148,206020,2,0,L|-4:60,2,75.0000028610231
120,156,206439,5,0,0:0:0:0:
180,252,206578,1,0,0:0:0:0:
296,276,206718,2,0,P|368:252|416:160,1,150.000005722046
296,156,207136,5,0,0:0:0:0:
184,56,207276,1,0,0:0:0:0:
308,32,207416,1,0,0:0:0:0:
220,128,207555,5,0,0:0:0:0:
308,4,207695,1,0,0:0:0:0:
440,72,207834,2,0,L|480:136,1,75.0000028610231
409,268,208113,2,0,L|409:164,1,75.0000028610231
296,292,208392,2,0,L|224:356,1,75.0000028610231
300,188,208671,5,0,0:0:0:0:
208,244,208811,2,0,P|148:228|80:148,1,150.000005722046
208,112,209230,1,0,0:0:0:0:
80,300,209509,5,0,0:0:0:0:
80,144,209648,1,0,0:0:0:0:
200,40,209788,1,0,0:0:0:0:
356,40,209927,1,0,0:0:0:0:
324,224,210067,6,0,L|232:268,1,75.0000028610231
160,200,210348,1,0,0:0:0:0:
256,140,210489,2,0,B|328:108|328:108|408:108,1,150.000005722046
416,220,210912,5,0,0:0:0:0:
336,308,211052,1,0,0:0:0:0:
176,308,211193,2,0,L|108:244,1,75.0000028610231
256,256,211475,5,0,0:0:0:0:
344,184,211616,1,0,0:0:0:0:
256,348,211757,1,0,0:0:0:0:
240,216,211897,1,0,0:0:0:0:
160,128,212038,1,0,0:0:0:0:
68,80,212179,1,0,0:0:0:0:
188,100,212320,6,0,L|228:4,1,75.0000028610231
84,164,212620,2,0,L|52:244,1,75.0000028610231
112,332,212920,1,0,0:0:0:0:
220,356,213070,1,0,0:0:0:0:
316,296,213220,2,0,L|316:200,2,75.0000028610231
216,244,213666,5,0,0:0:0:0:
176,164,213812,1,0,0:0:0:0:
232,92,213959,1,0,0:0:0:0:
76,192,214105,5,0,0:0:0:0:
256,56,214398,1,0,0:0:0:0:
424,192,214690,5,0,0:0:0:0:
388,284,214842,1,0,0:0:0:0:
300,324,214994,1,0,0:0:0:0:
204,312,215146,2,0,L|160:240,2,75.0000028610231
256,228,215603,5,0,0:0:0:0:
196,152,215755,1,0,0:0:0:0:
100,152,215908,2,0,P|48:128|24:96,1,75.0000028610231
112,56,216212,5,0,0:0:0:0:
240,56,216365,1,0,0:0:0:0:
340,132,216517,1,0,0:0:0:0:
340,260,216669,1,0,0:0:0:0:
240,340,216821,5,0,0:0:0:0:
240,228,216974,1,0,0:0:0:0:
96,128,217126,6,0,L|140:228,1,75.0000028610231
256,124,217450,2,0,L|292:32,1,75.0000028610231
182,57,217774,2,0,L|122:205,1,150.000005722046
148,308,218261,1,0,0:0:0:0:
256,272,218423,1,0,0:0:0:0:
336,192,218580,1,0,0:0:0:0:
372,280,218738,2,0,L|456:344,2,75.0000028610231
256,192,219212,5,0,0:0:0:0:
148,308,219370,1,0,0:0:0:0:
72,184,219528,6,0,P|76:79|154:37,1,200
256,192,220982,5,0,0:0:0:0:
256,192,221073,12,0,223891,0:0:0:0:
