osu file format v14

[General]
AudioFilename: audio.mp3
AudioLeadIn: 0
PreviewTime: 83431
Countdown: 0
SampleSet: Normal
StackLeniency: 0.7
Mode: 0
LetterboxInBreaks: 0
WidescreenStoryboard: 1

[Editor]
DistanceSpacing: 1
BeatDivisor: 4
GridSize: 32
TimelineZoom: 1.6

[Metadata]
Title:The Pretender
TitleUnicode:The Pretender
Artist:Foo Fighters
ArtistUnicode:Foo Fighters
Creator:pw384
Version:Post-Grunge
Source:
Tags:Echoes, Silence, Patience & Grace English post-grunge rock 384059043
BeatmapID:1929035
BeatmapSetID:923703

[Difficulty]
HPDrainRate:6
CircleSize:4
OverallDifficulty:8.5
ApproachRate:8.5
SliderMultiplier:1.6
SliderTickRate:1

[Events]
//Background and Video events
0,0,"bg.jpg",0,0
//Break Periods
2,164094,173277
2,197536,205531
//Storyboard Layer 0 (Background)
//Storyboard Layer 1 (Fail)
//Storyboard Layer 2 (Pass)
//Storyboard Layer 3 (Foreground)
//Storyboard Sound Samples

[TimingPoints]
195,346.820809248555,4,1,0,45,1,0
32102,-166.666666666667,4,1,0,45,0,0
36264,-125,4,1,0,55,0,0
58460,-100,4,1,0,65,0,0
79963,-100,4,1,0,75,0,0
83431,-100,4,1,0,80,0,1
94183,-100,4,1,0,80,0,0
94530,-100,4,1,0,80,0,1
105628,-100,4,1,0,45,0,0
108403,-100,4,1,0,55,0,0
119501,-100,4,1,0,65,0,0
133374,-100,4,1,0,80,0,1
144125,-100,4,1,0,80,0,0
144472,-100,4,1,0,80,0,1
158258,-100,4,1,0,55,0,1
158345,-166.666666666667,4,1,0,55,0,0
158431,-133.333333333333,4,2,0,25,0,0
173952,-133.333333333333,4,3,0,55,0,0
186090,-133.333333333333,4,1,0,60,0,0
191119,-100,4,1,0,60,0,0
206206,-100,4,1,0,25,0,0
207940,-100,4,2,0,5,0,0
208287,-100,4,1,0,80,0,1
219038,-100,4,1,0,80,0,0
219385,-100,4,1,0,80,0,1
230137,-100,4,1,0,80,0,0
230484,-83.3333333333333,4,1,0,80,0,1
241235,-83.3333333333333,4,1,0,80,0,0
241582,-83.3333333333333,4,1,0,80,0,1
254934,-83.3333333333333,4,1,0,80,0,0
255281,-62.5,4,1,0,80,0,1
255801,-83.3333333333333,4,1,0,80,0,1
256668,-62.5,4,1,0,80,0,1
257189,-83.3333333333333,4,1,0,80,0,1
258229,-62.5,4,1,0,80,0,1
258576,-83.3333333333333,4,1,0,80,0,1
259443,-62.5,4,1,0,80,0,1
259963,-83.3333333333333,4,1,0,80,0,1
263778,-100,4,1,0,80,0,0

[Colours]
Combo1 : 17,254,176
Combo2 : 173,255,95
Combo3 : 255,88,100
Combo4 : 255,94,55

[HitObjects]
467,63,33489,6,0,B|474:86|473:114,1,47.9999985351563,2|0,0:0|0:0,0:0:0:0:
424,176,33836,2,0,B|401:183|373:182,1,47.9999985351563,2|0,0:0|0:0,0:0:0:0:
299,128,34183,5,2,0:0:0:0:
303,132,34356,1,0,0:0:0:0:
419,223,34530,2,0,L|424:170,1,47.9999985351563,2|0,0:0|0:0,0:0:0:0:
307,136,34877,6,0,L|302:189,1,47.9999985351563,2|0,0:0|0:0,0:0:0:0:
387,298,35223,2,0,B|410:305|438:304,1,47.9999985351563,2|0,0:0|0:0,0:0:0:0:
311,263,35570,5,2,0:0:0:0:
315,267,35744,1,0,0:0:0:0:
230,287,35917,2,2,L|148:281,1,71.9999978027344,2|0,0:0|2:0,0:0:0:0:
154,285,36264,6,0,B|147:318|149:348,1,64,4|0,0:2|0:0,0:0:0:0:
187,192,36611,1,0,0:0:0:0:
191,196,36958,1,0,0:0:0:0:
195,200,37304,2,0,L|131:194,1,64,4|0,0:2|0:0,0:0:0:0:
73,125,37651,2,0,B|71:95|78:62,1,64,4|0,0:2|0:0,0:0:0:0:
155,15,37998,5,0,0:0:0:0:
159,19,38345,1,0,0:0:0:0:
163,23,38692,1,0,0:0:0:0:
244,60,39038,6,0,B|251:93|249:123,1,64,4|0,0:2|0:0,0:0:0:0:
160,236,39385,1,0,0:0:0:0:
164,240,39732,1,0,0:0:0:0:
168,244,40079,2,0,L|173:180,1,64,4|0,0:2|0:0,0:0:0:0:
296,225,40426,2,0,L|301:289,1,64,4|0,0:2|0:0,0:0:0:0:
172,248,40773,5,0,0:0:0:0:
176,252,41119,1,0,0:0:0:0:
180,256,41466,2,0,L|116:255,1,64,0|0,0:0|0:0,0:0:0:0:
234,330,41813,6,0,B|267:337|297:335,1,64,4|0,0:2|0:0,0:0:0:0:
369,285,42160,1,0,0:0:0:0:
373,289,42507,1,0,0:0:0:0:
377,293,42853,2,0,B|410:286|440:288,1,64,4|0,0:2|0:0,0:0:0:0:
494,215,43200,2,0,B|496:185|489:152,1,64,4|0,0:2|0:0,0:0:0:0:
411,105,43547,1,0,0:0:0:0:
411,105,43894,6,0,B|346:91|272:95,1,128,0|0,0:0|0:0,2:2:0:0:
494,215,44588,6,0,B|496:185|489:152,1,64,4|0,0:2|0:0,0:0:0:0:
411,105,44934,2,0,B|346:91|272:95,1,128,0|0,0:0|0:0,2:2:0:0:
191,290,45628,6,0,B|184:323|186:353,1,64,4|0,0:2|0:0,0:0:0:0:
285,260,45975,2,0,B|287:230|280:197,1,64,4|0,0:2|0:0,0:0:0:0:
202,150,46321,2,0,B|137:136|63:140,1,128,0|0,0:0|0:0,2:2:0:0:
74,139,47015,1,0,0:0:0:0:
163,221,47362,6,0,B|133:217|99:216,1,64,4|0,0:2|0:0,0:0:0:0:
16,252,47709,1,0,0:0:0:0:
20,256,48056,1,0,0:0:0:0:
24,260,48403,2,0,L|32:326,1,64,4|0,0:2|0:0,0:0:0:0:
119,306,48749,6,0,B|152:311|181:322,1,64,4|0,0:2|0:0,0:0:0:0:
263,358,49096,1,0,0:0:0:0:
267,362,49443,1,0,0:0:0:0:
271,366,49790,1,0,0:0:0:0:
413,322,50137,6,0,B|382:326|350:324,1,64,4|0,0:2|0:0,0:0:0:0:
269,266,50484,1,0,0:0:0:0:
273,270,50830,1,0,0:0:0:0:
277,274,51177,2,0,L|284:207,1,64,4|0,0:2|0:0,0:0:0:0:
243,86,51524,1,4,0:2:0:0:
202,165,51697,6,0,B|170:167|139:163,1,64,0|0,0:0|0:0,0:0:0:0:
243,86,52044,2,0,B|309:86|384:95,1,128,0|0,0:0|0:0,0:0:0:0:
370,93,52564,1,0,0:0:0:0:
431,160,52911,6,0,B|481:229|422:301,1,128,4|0,0:2|0:0,2:2:0:0:
305,344,53605,2,0,B|255:275|314:203,1,128,0|4,0:0|0:2,2:2:0:0:
337,141,54125,1,0,0:0:0:0:
341,145,54299,6,0,B|279:152|213:152,1,128,4|0,0:2|0:0,2:2:0:0:
26,217,54992,2,0,B|92:217|153:224,1,128,0|0,0:0|0:0,2:2:0:0:
153,224,55686,6,0,B|103:155|162:83,1,128,4|0,0:2|0:0,2:2:0:0:
279,40,56380,2,0,B|329:109|270:181,1,128,0|4,0:0|0:2,2:2:0:0:
239,235,56900,1,0,0:0:0:0:
243,239,57074,6,0,B|304:231|370:231,1,128,4|0,0:2|0:0,2:2:0:0:
207,108,57767,2,0,B|145:100|79:100,1,128,0|4,0:0|0:2,2:2:0:0:
79,100,58460,5,4,0:2:0:0:
79,283,58807,2,0,B|145:283|205:277,1,120,2|0,0:2|2:0,0:0:0:0:
203,281,59154,2,0,B|213:319|210:378,1,80,0|0,0:0|0:0,0:0:0:0:
120,197,59501,1,0,0:0:0:0:
301,190,59674,6,0,L|305:270,1,80,2|0,0:2|2:0,0:0:0:0:
368,342,60021,2,0,B|406:352|465:349,1,80,2|0,0:2|2:0,0:0:0:0:
309,274,60368,1,2,0:2:0:0:
411,253,60541,2,0,B|398:177|408:94,1,160,0|0,0:0|0:0,0:0:0:0:
407,94,61235,6,0,B|417:132|414:191,1,80,4|0,0:2|2:0,2:2:0:0:
328,214,61582,2,0,L|204:204,1,120,2|0,0:2|2:0,0:0:0:0:
204,208,61929,2,0,B|193:246|196:305,1,80,0|0,0:0|0:0,0:0:0:0:
255,362,62275,1,4,0:2:0:0:
108,323,62449,6,0,L|25:319,1,80,2|4,0:2|2:2,0:0:0:0:
79,219,62796,2,0,L|-4:215,1,80,2|0,0:2|2:0,0:0:0:0:
191,322,63142,6,0,L|108:318,1,80,2|0,0:2|2:0,0:0:0:0:
162,218,63489,2,0,L|79:214,1,80,2|0,0:2|2:0,0:0:0:0:
185,99,63836,1,2,0:2:0:0:
181,103,64010,6,0,B|105:135|21:106,1,160,4|0,0:2|0:0,0:0:0:0:
181,103,65050,5,4,0:2:0:0:
274,83,65223,1,0,0:0:0:0:
222,223,65397,1,4,0:2:0:0:
315,203,65570,2,0,B|360:208|407:205,1,80,0|0,0:0|0:0,2:2:0:0:
315,203,66090,6,0,B|320:248|317:295,1,80,2|0,0:2|2:0,2:2:0:0:
408,357,66437,2,0,B|401:304|408:238,1,120,2|0,0:2|2:0,2:2:0:0:
404,241,66784,6,0,L|233:249,1,160,4|0,0:2|0:0,0:0:0:0:
244,249,67825,5,4,0:2:0:0:
148,237,67998,1,0,0:0:0:0:
244,124,68171,1,4,0:2:0:0:
148,112,68345,2,0,B|145:77|150:32,1,80,0|0,0:0|0:0,2:2:0:0:
146,316,68865,6,0,B|143:281|148:236,1,80,0|0,0:0|0:0,2:2:0:0:
244,124,69212,2,0,B|297:131|363:124,1,120,4|0,0:2|0:0,2:2:0:0:
368,120,69559,6,0,L|360:206,1,80,4|0,0:2|0:0,0:0:0:0:
472,255,69905,2,0,L|464:169,1,80,2|0,0:2|0:0,0:0:0:0:
357,204,70252,1,0,0:0:0:0:
389,316,70426,1,2,0:2:0:0:
469,172,70599,1,0,0:0:0:0:
353,208,70773,6,0,B|344:247|346:293,1,80,2|0,0:2|0:0,0:0:0:0:
236,344,71119,2,0,B|237:303|228:264,1,80,2|0,0:2|0:0,0:0:0:0:
68,179,71466,2,0,L|147:184,1,80,2|0,0:2|0:0,0:0:0:0:
372,79,71813,2,0,L|212:90,1,160,2|0,0:2|0:0,0:0:0:0:
216,93,72333,6,0,B|256:91|295:100,1,80,4|0,0:2|0:0,0:0:0:0:
455,38,72680,2,0,B|464:77|462:117,1,80,2|0,0:2|0:0,0:0:0:0:
371,160,73027,1,0,0:0:0:0:
370,244,73200,2,0,L|375:161,1,80,2|0,0:2|0:0,0:0:0:0:
283,198,73547,6,0,B|267:236|275:277,1,80,2|0,0:2|0:0,0:0:0:0:
366,326,73894,2,0,B|382:288|373:246,1,80,2|0,0:2|0:0,0:0:0:0:
280,280,74241,2,0,L|188:274,1,80,2|0,0:2|0:0,0:0:0:0:
129,208,74588,2,0,L|37:202,1,80,2|0,0:2|0:0,0:0:0:0:
45,206,75108,6,0,B|12:127|53:51,1,160,4|0,0:2|0:0,0:0:0:0:
142,15,75628,1,0,0:0:0:0:
203,88,75801,2,0,L|362:83,1,160,0|4,0:0|0:2,0:0:0:0:
366,87,76495,6,0,L|207:92,1,160,4|0,0:2|0:0,0:0:0:0:
146,19,77014,1,0,0:0:0:0:
57,55,77189,2,0,B|16:131|48:209,1,160
53,214,77882,6,0,B|20:135|61:59,1,160,4|0,0:2|0:0,0:0:0:0:
150,23,78402,1,0,0:0:0:0:
211,96,78576,2,0,L|370:91,1,160,0|4,0:0|0:2,0:0:0:0:
374,95,79269,6,0,L|215:100,1,160,4|0,0:2|0:0,0:0:0:0:
154,27,79790,1,0,0:0:0:0:
65,63,79963,1,0,0:0:0:0:
65,63,80050,1,0,0:0:0:0:
65,63,80137,1,0,0:0:0:0:
14,144,80310,2,0,B|-13:202|3:262,1,120,4|0,0:0|0:0,0:0:0:0:
6,265,80657,6,0,B|62:293|95:239|168:266,1,160,4|0,0:2|0:0,0:0:0:0:
166,268,81351,1,0,0:0:0:0:
308,278,81524,1,0,0:0:0:0:
312,274,82044,6,0,B|312:234|302:195,1,80,0|0,0:0|0:0,0:0:0:0:
399,112,82391,2,0,B|359:101|319:101,1,80,0|0,0:0|0:0,0:0:0:0:
224,70,82739,1,0,0:0:0:0:
204,73,82825,1,0,0:0:0:0:
184,77,82912,1,0,0:0:0:0:
165,81,82999,1,0,0:0:0:0:
145,85,83085,1,0,0:0:0:0:
125,89,83172,1,0,0:0:0:0:
106,93,83259,1,0,0:0:0:0:
86,97,83345,1,0,0:0:0:0:
68,102,83431,6,0,B|108:102|152:114,1,80,6|0,0:0|0:0,0:0:0:0:
212,183,83778,2,0,B|251:172|291:172,1,80,10|0,0:0|0:0,0:0:0:0:
122,267,84125,2,2,B|188:258|264:294,1,120,2|0,0:0|2:0,0:0:0:0:
243,287,84472,1,10,0:0:0:0:
407,369,84645,6,2,B|398:286|414:206,2,160,2|0|0,0:0|0:0|0:0,0:0:0:0:
497,264,85512,1,2,0:0:0:0:
313,245,85686,1,0,0:0:0:0:
462,15,85859,2,0,B|485:72|477:132,1,120,8|0,0:0|2:0,0:0:0:0:
474,136,86206,6,0,L|378:123,1,80,2|0,0:0|0:0,0:0:0:0:
296,56,86553,2,0,B|285:95|289:143,1,80,10|0,0:0|0:0,0:0:0:0:
191,236,86900,2,2,B|256:215|328:248,1,120,2|0,0:0|2:0,0:0:0:0:
312,244,87247,1,10,0:0:0:0:
164,324,87420,6,2,B|173:241|157:161,2,160,2|0|0,0:0|0:0|0:0,0:0:0:0:
72,96,88287,1,2,0:0:0:0:
256,120,88460,1,0,0:0:0:0:
36,178,88634,2,2,B|168:160,1,120,14|0,0:0|2:0,0:0:0:0:
158,165,88981,6,0,B|161:124|152:83,1,80,4|0,0:2|0:0,0:0:0:0:
81,282,89327,1,10,0:0:0:0:
81,282,89501,1,0,0:0:0:0:
248,246,89674,6,0,B|289:243|330:252,1,80,2|0,0:0|0:0,0:0:0:0:
369,338,90021,2,0,B|410:341|451:332,1,80,8|0,0:0|0:0,0:0:0:0:
389,96,90368,5,6,0:0:0:0:
332,255,90541,1,2,0:0:0:0:
474,139,90715,1,8,0:0:0:0:
383,176,90888,2,2,B|380:135|389:94,1,80,2|0,0:0|2:0,0:0:0:0:
387,180,91235,2,2,B|304:152|225:161,1,160,2|0,0:0|2:0,0:0:0:0:
119,213,91755,6,2,B|133:250|137:294,1,80,6|0,0:0|0:0,0:0:0:0:
101,380,92102,1,10,0:0:0:0:
101,380,92275,1,0,0:0:0:0:
39,204,92449,6,2,L|119:213,1,80,2|0,0:0|0:0,0:0:0:0:
245,271,92796,1,10,0:0:0:0:
363,257,92969,1,0,0:0:0:0:
231,152,93142,5,6,0:0:0:0:
350,138,93315,1,0,0:0:0:0:
245,271,93489,1,10,0:0:0:0:
363,257,93663,6,2,B|420:257|487:278,1,120,2|0,0:0|2:0,0:0:0:0:
485,280,94010,1,2,0:0:0:0:
245,271,94183,1,4,0:2:0:0:
245,271,94530,6,0,B|248:230|239:189,1,80,6|0,0:0|0:0,0:0:0:0:
78,45,94877,2,0,B|69:83|72:124,1,80,10|0,0:0|0:0,0:0:0:0:
120,198,95223,2,2,L|239:191,1,120,2|0,0:0|2:0,0:0:0:0:
243,195,95570,1,8,0:0:0:0:
469,273,95744,6,2,B|398:218|308:263,2,160,2|0|0,0:0|0:0|0:0,0:0:0:0:
243,195,96611,1,2,0:0:0:0:
383,6,96784,1,0,0:0:0:0:
322,262,96958,2,0,L|320:132,1,120,8|0,0:0|2:0,0:0:0:0:
324,138,97304,6,0,B|361:136|405:147,1,80,2|0,0:0|0:0,0:0:0:0:
243,195,97651,2,0,B|200:205|163:203,1,80,10|0,0:0|0:0,0:0:0:0:
151,89,97998,2,2,B|185:137|163:204,1,120,2|0,0:0|2:0,0:0:0:0:
159,207,98345,1,8,0:0:0:0:
55,367,98518,6,2,L|66:198,2,160,2|0|0,0:0|0:0|0:0,0:0:0:0:
152,301,99385,1,2,0:0:0:0:
61,203,99559,1,0,0:0:0:0:
156,305,99732,2,2,B|208:339|277:330,1,120,14|0,0:0|2:0,0:0:0:0:
274,334,100079,6,0,B|355:364,1,80,4|0,0:2|0:0,0:0:0:0:
489,266,100426,2,0,B|408:296,1,80,10|0,0:0|0:0,0:0:0:0:
211,167,100773,6,0,B|323:208,1,120,2|0,0:0|2:0,0:0:0:0:
327,212,101119,2,0,B|402:184,1,80,8|0,0:0|0:0,0:0:0:0:
231,3,101466,5,6,0:0:0:0:
211,167,101640,1,2,0:0:0:0:
309,63,101813,1,8,0:0:0:0:
133,107,101986,2,2,B|94:88|43:92,1,80,2|0,0:0|2:0,0:0:0:0:
55,91,102333,2,2,L|67:260,1,160,2|0,0:0|2:0,0:0:0:0:
175,273,102853,6,0,B|151:309|153:360,1,80,6|0,0:0|0:0,0:0:0:0:
205,173,103200,2,0,B|185:134|140:110,1,80,10|0,0:0|0:0,0:0:0:0:
276,248,103547,2,0,B|319:250|362:223,1,80,2|0,0:0|0:0,0:0:0:0:
416,148,103894,1,10,0:0:0:0:
396,316,104067,1,0,0:0:0:0:
498,183,104241,6,0,B|500:139|492:96,1,80,6|0,0:0|0:0,0:0:0:0:
437,24,104588,1,10,0:0:0:0:
498,183,104761,6,2,B|436:163|379:163,1,120,2|0,0:0|2:0,0:0:0:0:
376,167,105108,1,2,0:0:0:0:
388,332,105281,1,8,0:0:0:0:
388,332,105628,5,0,0:0:0:0:
126,288,105975,1,0,0:0:0:0:
392,336,106322,5,0,0:0:0:0:
130,292,106669,1,0,0:0:0:0:
396,340,107015,5,0,0:0:0:0:
134,296,107362,1,0,0:0:0:0:
400,344,107709,6,0,B|355:332|316:332,1,80,0|0,0:0|0:0,0:0:0:0:
138,300,108056,2,0,B|127:230|148:173,1,120,4|0,0:0|2:0,0:0:0:0:
149,177,108403,6,0,L|63:183,1,80,4|0,0:2|0:0,0:0:0:0:
4,74,108749,1,0,0:0:0:0:
8,78,109096,1,0,0:0:0:0:
12,82,109443,2,0,L|98:88,1,80,4|0,0:2|0:0,0:0:0:0:
149,177,109790,6,0,L|63:183,1,80,4|0,0:2|0:0,0:0:0:0:
16,86,110137,1,0,0:0:0:0:
20,90,110484,1,0,0:0:0:0:
24,94,110830,1,0,0:0:0:0:
74,187,111177,6,0,B|83:228|73:272,1,80,4|0,0:2|0:0,0:0:0:0:
180,318,111524,1,0,0:0:0:0:
184,322,111871,1,0,0:0:0:0:
188,326,112218,2,0,B|179:285|189:241,1,80,4|0,0:2|0:0,0:0:0:0:
74,187,112564,6,0,B|83:228|73:272,1,80,4|0,0:2|0:0,0:0:0:0:
192,330,112911,1,0,0:0:0:0:
196,334,113258,1,0,0:0:0:0:
200,338,113605,1,0,0:0:0:0:
287,298,113778,1,0,0:0:0:0:
272,202,113952,6,0,B|315:201|360:214,1,80,4|0,0:2|0:0,0:0:0:0:
430,266,114299,1,0,0:0:0:0:
434,270,114645,1,0,0:0:0:0:
438,274,114992,2,0,B|437:231|450:186,1,80,4|0,0:2|0:0,0:0:0:0:
510,108,115339,6,0,B|467:109|422:96,1,80,4|0,0:2|0:0,0:0:0:0:
340,33,115686,1,0,0:0:0:0:
344,37,116033,2,0,B|345:79|332:124,1,80,0|0,0:0|2:0,2:2:0:0:
351,211,116379,2,0,B|315:201|272:202,1,80,0|0,0:0|2:0,2:2:0:0:
187,248,116726,6,0,L|193:333,1,80,4|0,0:2|0:0,0:0:0:0:
98,355,117073,1,0,0:0:0:0:
102,359,117420,1,0,0:0:0:0:
106,363,117767,2,0,L|100:278,1,80,4|0,0:2|0:0,0:0:0:0:
187,248,118114,6,0,L|193:333,1,80,4|0,0:2|0:0,0:0:0:0:
96,279,118460,1,0,0:0:0:0:
292,301,118807,5,0,0:0:0:0:
292,301,118894,1,0,0:0:0:0:
292,301,118981,1,0,0:0:0:0:
358,97,119154,2,0,B|379:158|365:241,1,120,4|0,0:2|2:0,0:0:0:0:
369,215,119501,6,0,L|456:211,1,80,4|0,0:2|0:0,0:0:0:0:
489,124,119848,1,2,0:2:0:0:
369,215,120021,2,0,B|370:253|381:293,1,80,2|0,0:2|0:0,0:0:0:0:
462,344,120368,1,2,0:2:0:0:
466,348,120541,1,0,0:0:0:0:
291,317,120715,6,0,L|205:324,1,80,2|0,0:2|0:0,0:0:0:0:
132,270,121062,2,0,B|133:231|144:191,1,80,2|0,0:2|0:0,0:0:0:0:
204,54,121408,1,2,0:2:0:0:
208,58,121582,2,0,B|230:117|226:180,1,120,0|0,0:0|2:0,0:0:0:0:
223,179,121929,2,0,B|184:180|144:191,1,80,0|0,0:0|0:0,0:0:0:0:
35,89,122275,6,0,B|75:100|113:101,1,80,0|0,0:0|0:0,0:0:0:0:
204,54,122622,1,2,0:2:0:0:
309,169,122796,2,0,B|316:211|309:249,1,80,2|0,0:2|0:0,0:0:0:0:
196,343,123142,2,0,B|189:301|196:263,1,80,2|0,0:2|0:0,0:0:0:0:
305,253,123489,6,0,L|396:256,1,80,2|0,0:2|0:0,0:0:0:0:
200,347,123836,2,0,L|109:344,1,80,2|0,0:2|0:0,0:0:0:0:
225,162,124183,6,0,L|316:165,1,80,2|0,0:2|0:0,0:0:0:0:
120,256,124530,2,0,L|29:253,1,80,2|0,0:2|0:0,0:0:0:0:
44,249,125050,6,0,B|90:176|61:95,1,160,4|0,0:2|0:0,0:0:0:0:
1,20,125570,1,0,0:0:0:0:
158,51,125744,2,0,B|174:87|174:130,1,80,0|0,0:0|0:0,0:0:0:0:
48,245,126090,2,0,L|133:242,1,80,0|0,0:0|0:0,0:0:0:0:
303,111,126437,6,0,L|287:276,1,160,0|0,0:0|0:0,0:0:0:0:
314,363,126958,1,0,0:0:0:0:
462,250,127131,2,0,B|426:234|383:234,1,80
274,281,127478,2,0,B|238:297|195:297,1,80,0|0,0:0|0:0,0:0:0:0:
44,249,127825,6,0,B|90:176|61:95,1,160,4|0,0:2|0:0,0:0:0:0:
1,20,128345,1,0,0:0:0:0:
158,51,128519,2,0,B|174:87|174:130,1,80,0|0,0:0|0:0,0:0:0:0:
48,245,128865,2,0,L|133:242,1,80,0|0,0:0|0:0,0:0:0:0:
303,111,129212,6,0,L|287:276,1,160
314,363,129733,1,0,0:0:0:0:
469,170,129905,2,0,L|461:249,1,80
398,52,130252,2,0,L|386:170,1,120,4|0,0:0|0:0,0:0:0:0:
390,175,130599,6,0,B|327:150|288:228|237:207,1,160,4|0,0:2|0:0,0:0:0:0:
148,178,131293,1,0,0:0:0:0:
282,291,131466,1,0,0:0:0:0:
282,291,131986,6,0,B|274:251|288:210,1,80,0|0,0:0|0:0,0:0:0:0:
390,175,132333,2,0,L|469:180,1,80,0|0,0:0|0:0,0:0:0:0:
338,74,132681,5,0,0:0:0:0:
318,72,132767,1,0,0:0:0:0:
298,71,132854,1,0,0:0:0:0:
278,70,132941,1,0,0:0:0:0:
258,69,133027,1,0,0:0:0:0:
238,68,133114,1,0,0:0:0:0:
218,67,133201,1,0,0:0:0:0:
198,66,133287,1,0,0:0:0:0:
178,65,133374,6,0,B|204:99|195:145,1,80,6|0,0:0|0:0,0:0:0:0:
25,110,133721,2,0,L|111:116,1,80,10|0,0:0|0:0,0:0:0:0:
314,130,134067,2,2,B|249:118|184:145,1,120,2|0,0:0|2:0,0:0:0:0:
191,144,134414,1,8,0:0:0:0:
84,272,134588,6,2,B|75:191|110:101,2,160,2|0|0,0:0|0:0|0:0,0:0:0:0:
203,266,135455,1,2,0:0:0:0:
0,354,135628,1,0,0:0:0:0:
84,272,135801,2,0,L|206:266,1,120,8|0,0:0|2:0,0:0:0:0:
207,270,136148,6,0,B|227:307|218:364,1,80,2|0,0:0|0:0,0:0:0:0:
80,268,136495,2,0,L|85:188,1,80,10|0,0:0|0:0,0:0:0:0:
271,74,136842,2,2,L|263:194,1,120,2|0,0:0|2:0,0:0:0:0:
267,197,137189,1,8,0:0:0:0:
161,146,137362,6,2,B|84:175|3:166,2,160,2|0|0,0:0|0:0|0:0,0:0:0:0:
271,74,138229,1,2,0:0:0:0:
76,59,138403,1,0,0:0:0:0:
174,265,138576,2,2,B|171:203|159:135,1,120,14|0,0:0|2:0,0:0:0:0:
156,142,138923,6,0,L|245:151,1,80,4|0,0:2|0:0,0:0:0:0:
94,256,139270,2,0,L|183:265,1,80,10|0,0:0|0:0,0:0:0:0:
332,106,139616,2,2,B|344:165|316:222,1,120,2|0,0:0|2:0,0:0:0:0:
313,227,139963,2,0,L|402:236,1,80,8|0,0:0|0:0,0:0:0:0:
173,264,140310,5,6,0:0:0:0:
396,239,140484,1,2,0:0:0:0:
218,360,140657,1,8,0:0:0:0:
355,139,140830,2,2,L|350:41,1,80,2|0,0:0|2:0,0:0:0:0:
351,143,141177,2,2,B|268:181|174:121,1,160,2|0,0:0|2:0,0:0:0:0:
45,119,141697,6,0,B|25:151|32:197,1,80,6|0,0:0|0:0,0:0:0:0:
124,66,142043,1,10,0:0:0:0:
128,70,142217,1,0,0:0:0:0:
32,196,142391,6,0,L|115:191,1,80,2|0,0:0|0:0,0:0:0:0:
221,242,142738,1,10,0:0:0:0:
341,254,142911,1,0,0:0:0:0:
208,362,143085,5,6,0:0:0:0:
328,374,143258,1,0,0:0:0:0:
221,242,143431,1,10,0:0:0:0:
341,254,143605,2,2,B|398:271|466:263,1,120,2|0,0:0|2:0,0:0:0:0:
473,274,143952,5,2,0:2:0:0:
493,271,144038,1,2,0:2:0:0:
512,267,144125,1,2,0:2:0:0:
399,177,144299,1,2,0:2:0:0:
380,173,144385,1,2,0:2:0:0:
361,169,144472,6,0,B|355:133|362:84,1,80,6|0,0:0|0:0,0:0:0:0:
217,16,144819,2,0,B|223:52|216:101,1,80,10|0,0:0|0:0,0:0:0:0:
260,301,145166,2,2,B|252:242|262:173,1,120,2|0,0:0|2:0,0:0:0:0:
264,177,145512,1,8,0:0:0:0:
164,242,145686,6,2,B|87:289|6:239,2,160,2|0|0,0:0|0:0|0:0,0:0:0:0:
88,135,146553,1,2,0:0:0:0:
9,238,146726,1,0,0:0:0:0:
164,242,146900,2,0,L|169:364,1,120,8|0,0:0|2:0,0:0:0:0:
172,357,147247,6,0,B|214:351|257:366,1,80,2|0,0:0|0:0,0:0:0:0:
339,326,147593,2,0,B|376:312|418:318,1,80,10|0,0:0|0:0,0:0:0:0:
234,213,147940,2,2,L|371:223,1,120,2|0,0:0|2:0,0:0:0:0:
357,225,148287,1,8,0:0:0:0:
481,193,148460,6,2,B|517:116|485:31,2,160,2|0|0,0:0|0:0|0:0,0:0:0:0:
288,112,149327,2,0,L|368:107,1,80,2|0,0:0|0:0,0:0:0:0:
178,40,149674,2,2,L|41:50,1,120,14|0,0:0|2:0,0:0:0:0:
54,52,150021,6,0,L|59:131,1,80,4|0,0:2|0:0,0:0:0:0:
140,207,150368,2,0,B|177:221|219:215,1,80,10|0,0:0|0:0,0:0:0:0:
13,309,150715,2,2,B|68:286|138:310,1,120,2|0,0:0|2:0,0:0:0:0:
134,311,151062,2,0,L|213:316,1,80,8|0,0:0|0:0,0:0:0:0:
436,268,151408,5,6,0:0:0:0:
217,320,151582,1,2,0:0:0:0:
396,367,151755,1,8,0:0:0:0:
219,215,151929,2,2,B|214:133,1,80,2|0,0:0|2:0,0:0:0:0:
367,111,152275,2,2,B|302:161|203:132,1,160,2|0,0:0|2:0,0:0:0:0:
58,48,152796,6,0,B|95:49|135:69,1,80,6|0,0:0|0:0,0:0:0:0:
219,215,153142,2,0,B|214:135,1,80,10|0,0:0|0:0,0:0:0:0:
70,196,153489,2,0,B|67:242|78:280,1,80,2|0,0:0|0:0,0:0:0:0:
178,317,153836,1,10,0:0:0:0:
4,360,154010,1,0,0:0:0:0:
182,321,154183,6,0,L|275:319,1,80,2|0,0:0|0:0,0:0:0:0:
381,361,154530,1,8,0:0:0:0:
279,194,154703,2,2,B|344:144|443:173,1,160,2|0,0:0|0:0,0:0:0:0:
452,181,155137,1,0,0:0:0:0:
471,195,155223,2,0,L|480:150,3,40,0|0|0|0,0:0|0:0|0:0|0:0,0:0:0:0:
486,132,155570,6,0,L|482:45,1,80,4|0,0:0|2:0,0:0:0:0:
341,175,155917,2,0,L|338:95,1,80,4|0,0:2|2:0,2:0:0:0:
175,95,156264,6,0,L|171:175,1,80,4|0,0:2|2:0,2:0:0:0:
29,52,156611,2,0,L|26:132,1,80,4|0,0:2|2:0,2:0:0:0:
72,309,156958,6,0,B|69:263|80:225,1,80,4|0,0:0|2:0,2:0:0:0:
256,341,157304,2,0,L|256:245,1,80,4|0,0:2|2:0,2:0:0:0:
440,309,157651,2,0,B|443:263|432:225,1,80,4|0,0:2|2:0,2:0:0:0:
169,191,157998,1,4,0:2:0:0:
343,191,158171,1,0,0:0:0:0:
256,261,158345,5,0,0:0:0:0:
256,192,158518,12,0,163894,0:0:0:0:
20,91,173952,5,0,0:0:0:0:
20,91,174645,2,0,L|90:86,1,60.0000022888184,0|0,0:0|0:0,0:0:0:0:
143,51,174992,5,0,0:0:0:0:
213,67,175339,1,0,0:0:0:0:
284,61,175686,1,0,0:0:0:0:
344,99,176033,1,0,0:0:0:0:
413,79,176379,5,0,0:0:0:0:
341,69,176726,1,0,0:0:0:0:
270,84,177073,1,0,0:0:0:0:
198,95,177420,1,0,0:0:0:0:
126,92,177767,5,0,0:0:0:0:
197,80,178114,1,0,0:0:0:0:
266,98,178460,1,0,0:0:0:0:
330,129,178807,1,0,0:0:0:0:
401,140,179154,5,0,0:0:0:0:
470,120,179501,1,0,0:0:0:0:
398,108,179848,1,0,0:0:0:0:
333,140,180195,1,0,0:0:0:0:
312,208,180541,5,0,0:0:0:0:
345,327,180888,2,0,L|350:268,1,60.0000022888184,2|0,1:3|0:0,0:0:0:0:
308,204,181235,5,0,0:0:0:0:
341,323,181582,2,0,L|345:263,1,60.0000022888184,2|0,1:3|0:0,0:0:0:0:
304,200,181929,5,0,0:0:0:0:
337,319,182276,2,0,L|341:259,1,60.0000022888184,2|0,1:3|0:0,0:0:0:0:
300,196,182622,5,0,0:0:0:0:
333,315,182969,2,0,L|337:255,1,60.0000022888184,2|0,1:3|0:0,0:0:0:0:
296,192,183316,5,0,0:0:0:0:
224,161,183489,2,0,B|162:159|106:204,2,120.000004577637,0|0|0,1:0|1:0|1:0,0:0:0:0:
375,177,184530,1,0,0:0:0:0:
375,177,184703,1,0,0:0:0:0:
232,154,185050,6,0,L|88:150,1,120.000004577637,0|0,1:0|0:0,0:0:0:0:
70,82,185570,2,0,B|13:128|41:188,1,120.000004577637,0|0,1:0|0:0,0:0:0:0:
107,334,186437,6,0,B|165:289|137:229,1,120.000004577637,4|0,0:2|0:0,0:0:0:0:
65,266,186957,2,0,L|184:269,1,120.000004577637,0|0,0:0|0:0,2:2:0:0:
253,333,187825,6,0,L|372:329,1,120.000004577637,4|0,0:2|0:0,0:0:0:0:
442,284,188345,2,0,B|400:227|335:255,1,120.000004577637,0|0,0:0|0:0,2:2:0:0:
442,284,189212,6,0,B|385:242|412:178,1,120.000004577637,4|0,0:2|0:0,0:0:0:0:
487,214,189732,2,0,L|491:95,1,120.000004577637,0|0,0:0|0:0,2:2:0:0:
344,30,190599,6,0,L|340:149,1,120.000004577637,4|0,0:2|0:0,0:0:0:0:
286,216,191119,2,0,B|249:256|179:255|146:206,1,160,0|0,0:0|0:0,2:2:0:0:
102,120,191640,6,0,L|17:113,1,80,4|0,0:0|0:0,0:0:0:0:
185,109,191986,2,0,L|106:116,1,80,8|0,0:0|0:0,0:0:0:0:
67,200,192333,6,0,L|147:207,1,80,0|0,0:0|0:0,0:0:0:0:
151,203,192679,2,0,L|236:196,1,80,8|0,0:0|0:0,0:0:0:0:
318,64,193027,6,0,B|287:96|287:139,1,80,4|0,0:0|0:0,0:0:0:0:
351,183,193374,1,8,0:0:0:0:
351,183,193547,1,0,0:0:0:0:
471,214,193721,6,0,B|458:171|424:151,1,80,0|0,0:0|0:0,0:0:0:0:
341,261,194067,2,0,B|307:281|264:271,1,80,8|0,0:0|0:0,0:0:0:0:
123,217,194414,6,0,B|81:207|29:206,1,80,4|0,0:0|0:0,0:0:0:0:
133,301,194761,2,0,L|126:221,1,80,8|0,0:0|0:0,0:0:0:0:
27,116,195108,2,0,L|33:36,1,80,0|0,0:0|0:0,0:0:0:0:
209,115,195455,2,0,B|219:157|220:209,1,80,8|0,0:0|0:0,0:0:0:0:
52,318,195801,5,4,0:0:0:0:
56,322,195975,1,0,0:0:0:0:
133,301,196148,1,8,0:0:0:0:
137,305,196322,1,0,0:0:0:0:
212,331,196495,5,0,0:0:0:0:
291,328,196668,1,0,0:0:0:0:
370,337,196842,1,8,0:0:0:0:
448,324,197015,1,2,0:2:0:0:
452,328,197102,1,2,0:2:0:0:
456,332,197189,1,2,0:2:0:0:
256,192,206206,12,0,207940,0:0:0:0:
155,223,208287,6,0,L|158:140,1,80,6|0,0:0|0:0,0:0:0:0:
260,266,208634,2,0,L|257:183,1,80,10|0,0:0|0:0,0:0:0:0:
45,241,208981,2,2,B|98:201|158:226,1,120,2|0,0:0|2:0,0:0:0:0:
162,230,209327,1,8,0:0:0:0:
260,266,209501,6,2,B|259:181|280:105,2,160,2|0|0,0:0|0:0|0:0,0:0:0:0:
368,294,210368,1,2,0:0:0:0:
174,330,210541,1,0,0:0:0:0:
332,213,210715,2,0,L|451:220,1,120,8|0,0:0|2:0,0:0:0:0:
455,224,211062,6,0,B|469:262|457:308,1,80,2|0,0:0|0:0,0:0:0:0:
328,209,211408,2,0,B|314:171|326:125,1,80,10|0,0:0|0:0,0:0:0:0:
446,16,211755,2,2,L|442:135,1,120,2|0,0:0|2:0,0:0:0:0:
445,140,212102,1,8,0:0:0:0:
329,126,212275,6,2,B|254:89|174:109,2,160,2|0|0,0:0|0:0|0:0,0:0:0:0:
449,144,213142,5,2,0:0:0:0:
238,203,213316,1,0,0:0:0:0:
318,6,213489,2,2,L|330:132,1,120,14|0,0:0|2:0,0:0:0:0:
333,129,213836,6,0,L|325:208,1,80,4|0,0:2|0:0,0:0:0:0:
424,345,214183,2,0,B|430:304|416:266,1,80,10|0,0:0|0:0,0:0:0:0:
329,212,214530,2,2,B|266:196|196:203,1,120,2|0,0:0|2:0,0:0:0:0:
205,205,214877,2,0,L|197:284,1,80,8|0,0:0|0:0,0:0:0:0:
264,352,215223,5,6,0:0:0:0:
161,124,215397,1,2,0:0:0:0:
329,212,215570,1,8,0:0:0:0:
96,264,215744,2,2,B|52:262|10:268,1,80,2|0,0:0|2:0,0:0:0:0:
100,268,216090,2,2,B|178:234|260:272,1,160,2|0,0:0|2:0,0:0:0:0:
410,333,216611,6,0,L|513:328,1,80,6|0,0:0|0:0,0:0:0:0:
259,265,216958,2,0,L|156:260,1,80,10|0,0:0|0:0,0:0:0:0:
433,222,217304,2,0,L|536:217,1,80,2|0,0:0|0:0,0:0:0:0:
315,61,217651,2,0,B|301:99|307:139,1,80,10|0,0:0|0:0,0:0:0:0:
468,110,217998,5,6,0:0:0:0:
179,147,218171,1,0,0:0:0:0:
319,57,218345,1,10,0:0:0:0:
403,206,218518,6,2,B|417:245|414:333,1,120,2|0,0:0|2:0,0:0:0:0:
410,328,218865,1,0,0:0:0:0:
179,284,219038,2,0,L|305:277,1,120,4|0,0:2|2:0,0:0:0:0:
302,281,219385,6,0,B|313:322|304:365,1,80,6|0,0:0|0:0,0:0:0:0:
175,280,219732,2,0,B|166:241|177:200,1,80,10|0,0:0|0:0,0:0:0:0:
0,126,220079,2,2,L|120:120,1,120,2|0,0:0|2:0,0:0:0:0:
124,124,220426,1,8,0:0:0:0:
336,64,220599,6,2,B|256:92|180:44,2,160,2|0|0,0:0|0:0|0:0,0:0:0:0:
424,25,221466,1,2,0:0:0:0:
448,174,221640,1,0,0:0:0:0:
240,202,221813,2,0,L|360:213,1,120,8|0,0:0|2:0,0:0:0:0:
364,217,222160,6,0,B|377:255|369:299,1,80,2|0,0:0|0:0,0:0:0:0:
468,355,222507,2,0,B|460:314|473:276,1,80,10|0,0:0|0:0,0:0:0:0:
454,54,222853,2,2,L|448:174,1,120,2|0,0:0|2:0,0:0:0:0:
452,178,223200,1,8,0:0:0:0:
366,300,223374,6,2,B|300:363|211:317,2,160,2|0|0,0:0|0:0|0:0,0:0:0:0:
150,244,224241,5,2,0:0:0:0:
214,83,224414,1,0,0:0:0:0:
216,317,224588,2,2,L|87:325,1,120,14|0,0:0|2:0,0:0:0:0:
92,328,224934,6,0,B|54:315|10:323,1,80,4|0,0:2|0:0,0:0:0:0:
58,195,225281,2,0,B|98:202|136:189,1,80,10|0,0:0|0:0,0:0:0:0:
227,18,225628,2,2,L|221:137,1,120,2|0,0:0|2:0,0:0:0:0:
225,142,225975,2,0,B|238:180|230:220,1,80,8|0,0:0|0:0,0:0:0:0:
159,286,226322,5,6,0:0:0:0:
303,72,226495,1,2,0:0:0:0:
290,295,226668,1,8,0:0:0:0:
155,282,226842,2,2,B|114:274|76:287,1,80,2|0,0:0|2:0,0:0:0:0:
87,127,227189,2,2,L|76:288,1,160,2|0,0:0|2:0,0:0:0:0:
245,355,227709,6,0,B|283:368|324:360,1,80,6|0,0:0|0:0,0:0:0:0:
412,321,228056,1,10,0:0:0:0:
412,321,228229,1,0,0:0:0:0:
250,275,228403,6,0,L|244:355,1,80,2|0,0:0|0:0,0:0:0:0:
412,321,228749,2,0,L|406:240,1,80,10|0,0:0|0:0,0:0:0:0:
255,195,229096,5,2,0:0:0:0:
341,107,229270,1,0,0:0:0:0:
343,92,229356,1,0,0:0:0:0:
345,77,229443,1,8,0:0:0:0:
347,62,229530,1,0,0:0:0:0:
349,47,229616,1,2,0:0:0:0:
465,94,229790,5,0,0:0:0:0:
434,97,229877,1,0,0:0:0:0:
403,100,229963,1,0,0:0:0:0:
372,103,230050,1,0,0:0:0:0:
341,107,230137,1,0,0:0:0:0:
310,110,230223,1,0,0:0:0:0:
279,114,230310,1,0,0:0:0:0:
248,118,230397,1,0,0:0:0:0:
217,122,230484,6,0,L|112:115,1,95.9999970703126,6|0,0:0|0:0,0:0:0:0:
40,61,230830,2,0,B|14:110|34:155,1,95.9999970703126,10|0,0:0|0:0,0:0:0:0:
109,213,231177,2,2,B|138:279|99:352,1,143.999995605469,2|0,0:0|2:0,0:0:0:0:
96,355,231524,1,8,0:0:0:0:
109,213,231697,6,2,B|206:249|297:227,2,191.999994140625,2|0|0,0:0|0:0|0:0,0:0:0:0:
23,256,232564,1,2,0:0:0:0:
222,314,232738,1,0,0:0:0:0:
101,69,232911,2,0,L|109:213,1,143.999995605469,8|0,0:0|2:0,0:0:0:0:
113,217,233258,6,0,B|154:244|208:229,1,95.9999970703126,2|0,0:0|0:0,0:0:0:0:
283,173,233605,2,0,B|324:146|375:160,1,95.9999970703126,10|0,0:0|0:0,0:0:0:0:
470,194,233952,2,2,B|390:147|433:53,1,143.999995605469,2|0,0:0|2:0,0:0:0:0:
429,67,234299,1,8,0:0:0:0:
474,190,234472,6,2,L|283:173,2,191.999994140625,2|0|0,0:0|0:0|0:0,0:0:0:0:
424,273,235339,1,2,0:0:0:0:
333,90,235512,1,0,0:0:0:0:
255,312,235686,2,2,B|227:241|278:176,1,143.999995605469,14|0,0:0|2:0,0:0:0:0:
283,173,236033,6,0,L|187:164,1,95.9999970703126,4|0,0:2|0:0,0:0:0:0:
259,316,236379,2,0,L|355:325,1,95.9999970703126,10|0,0:0|0:0,0:0:0:0:
177,255,236726,2,2,L|33:241,1,143.999995605469,2|0,0:0|2:0,0:0:0:0:
29,245,237073,2,0,B|9:294|21:344,1,95.9999970703126,8|0,0:0|0:0,0:0:0:0:
181,259,237420,5,6,0:0:0:0:
0,145,237593,1,2,0:0:0:0:
234,173,237767,1,8,0:0:0:0:
114,37,237940,6,2,L|122:134,1,95.9999970703126,2|0,0:0|0:0,0:0:0:0:
301,57,238287,2,2,B|226:79|177:15|113:36,1,191.999994140625,2|0,0:0|0:0,0:0:0:0:
35,92,238807,6,0,B|16:142|39:189,1,95.9999970703126,6|0,0:0|0:0,0:0:0:0:
122,230,239154,1,10,0:0:0:0:
122,230,239327,1,0,0:0:0:0:
32,373,239501,6,0,L|38:277,1,95.9999970703126,2|0,0:0|0:0,0:0:0:0:
215,229,239848,2,0,L|221:325,1,95.9999970703126,10|0,0:0|0:0,0:0:0:0:
216,328,240108,1,0,0:0:0:0:
212,332,240195,6,0,B|312:276|391:350,1,191.999994140625,6|8,0:0|0:0,0:0:0:0:
360,352,240628,1,0,0:0:0:0:
331,356,240715,2,0,L|337:260,1,95.9999970703126,0|0,0:0|2:0,0:0:0:0:
472,61,241148,5,2,0:2:0:0:
472,61,241235,1,2,0:2:0:0:
295,122,241408,1,2,0:2:0:0:
295,122,241495,1,2,0:2:0:0:
295,122,241582,6,0,L|400:115,1,95.9999970703126,6|0,0:0|0:0,0:0:0:0:
472,61,241928,2,0,B|498:110|478:155,1,95.9999970703126,10|0,0:0|0:0,0:0:0:0:
403,213,242275,2,2,B|374:279|413:352,1,143.999995605469,2|0,0:0|2:0,0:0:0:0:
416,355,242622,1,8,0:0:0:0:
403,213,242795,6,2,B|306:249|215:227,2,191.999994140625,2|0|0,0:0|0:0|0:0,0:0:0:0:
489,256,243662,1,2,0:0:0:0:
290,314,243836,1,0,0:0:0:0:
411,69,244009,2,0,L|403:213,1,143.999995605469,8|0,0:0|2:0,0:0:0:0:
399,217,244356,6,0,B|358:244|304:229,1,95.9999970703126,2|0,0:0|0:0,0:0:0:0:
229,173,244703,2,0,B|188:146|137:160,1,95.9999970703126,10|0,0:0|0:0,0:0:0:0:
42,194,245050,2,2,B|122:147|79:53,1,143.999995605469,2|0,0:0|2:0,0:0:0:0:
83,67,245397,1,8,0:0:0:0:
38,190,245570,6,2,L|229:173,2,191.999994140625,2|0|0,0:0|0:0|0:0,0:0:0:0:
88,273,246437,1,2,0:0:0:0:
179,90,246610,1,0,0:0:0:0:
257,312,246784,2,2,B|285:241|234:176,1,143.999995605469,14|0,0:0|2:0,0:0:0:0:
229,173,247131,6,0,L|325:164,1,95.9999970703126,4|0,0:2|0:0,0:0:0:0:
253,316,247477,2,0,L|157:325,1,95.9999970703126,10|0,0:0|0:0,0:0:0:0:
335,255,247824,2,2,L|479:241,1,143.999995605469,2|0,0:0|2:0,0:0:0:0:
483,245,248171,2,0,B|503:294|491:344,1,95.9999970703126,8|0,0:0|0:0,0:0:0:0:
331,259,248518,5,6,0:0:0:0:
512,145,248691,1,2,0:0:0:0:
278,173,248865,1,8,0:0:0:0:
398,37,249038,6,2,L|390:134,1,95.9999970703126,2|0,0:0|0:0,0:0:0:0:
211,57,249385,2,2,B|286:79|335:15|399:36,1,191.999994140625,2|0,0:0|0:0,0:0:0:0:
477,92,249905,6,0,B|496:142|473:189,1,95.9999970703126,6|0,0:0|0:0,0:0:0:0:
390,230,250252,1,10,0:0:0:0:
390,230,250425,1,0,0:0:0:0:
480,373,250599,6,0,L|474:277,1,95.9999970703126,2|0,0:0|0:0,0:0:0:0:
258,333,250946,1,10,0:0:0:0:
375,348,251119,1,0,0:0:0:0:
273,215,251293,5,2,0:0:0:0:
390,230,251466,1,0,0:0:0:0:
258,333,251640,1,8,0:0:0:0:
192,204,251813,6,2,B|157:107|220:16,1,191.999994140625,2|0,0:0|0:0,0:0:0:0:
171,110,252333,2,0,B|110:148|27:107,1,143.999995605469,0|0,0:0|2:0,0:0:0:0:
29,106,252680,6,0,L|40:219,1,95.9999970703126,4|0,0:0|2:0,2:0:0:0:
173,266,253027,2,0,B|154:312|165:361,1,95.9999970703126,4|0,0:2|2:0,2:0:0:0:
347,361,253374,2,0,B|358:312|339:266,1,95.9999970703126,4|0,0:2|2:0,2:0:0:0:
473,201,253721,2,0,L|483:106,1,95.9999970703126,4|0,0:2|2:0,2:0:0:0:
165,52,254067,6,0,L|176:165,1,95.9999970703126,4|0,0:0|2:0,2:0:0:0:
337,147,254414,2,0,L|347:52,1,95.9999970703126,4|0,0:2|2:0,2:0:0:0:
165,52,254761,5,0,0:0:0:0:
165,52,254848,1,0,0:0:0:0:
165,52,254934,1,0,0:0:0:0:
165,52,255021,1,0,0:0:0:0:
165,52,255108,1,0,0:0:0:0:
165,52,255195,1,0,0:0:0:0:
165,52,255281,6,2,B|-14:161|113:330,1,320,4|0,0:2|2:0,0:0:0:0:
109,323,255801,1,0,0:0:0:0:
280,302,255975,1,0,0:0:0:0:
280,302,256322,2,0,L|179:295,1,95.9999970703126,0|0,0:0|0:0,0:0:0:0:
0,196,256668,6,2,L|319:217,1,320,4|0,0:2|2:0,0:0:0:0:
323,221,257189,1,0,0:0:0:0:
153,96,257362,1,0,0:0:0:0:
153,96,257709,2,0,B|180:137|168:193,1,95.9999970703126
128,382,258056,1,0,0:0:0:0:
34,316,258229,6,2,B|114:238|212:300,1,192,4|0,0:2|2:0,0:0:0:0:
212,301,258576,1,0,0:0:0:0:
128,382,258749,1,0,0:0:0:0:
132,378,259096,2,0,L|230:374,1,95.9999970703126
185,191,259443,6,2,B|289:351|473:243,1,320,4|0,0:2|2:0,0:0:0:0:
466,245,259963,1,0,0:0:0:0:
366,112,260137,1,0,0:0:0:0:
366,112,260484,2,0,L|374:4,1,95.9999970703126,0|0,0:0|0:0,0:0:0:0:
470,241,260830,1,0,0:0:0:0:
319,198,261004,6,0,B|298:243|304:295,1,95.9999970703126,4|0,0:2|0:0,0:0:0:0:
125,279,261351,2,0,B|146:324|140:376,1,95.9999970703126,4|0,0:2|0:0,0:0:0:0:
29,271,261697,6,0,L|125:279,1,95.9999970703126,4|0,0:2|0:0,0:0:0:0:
223,205,262044,2,0,L|319:198,1,95.9999970703126,4|0,0:2|0:0,0:0:0:0:
95,174,262391,6,0,L|0:167,1,95.9999970703126,4|0,0:2|0:0,0:0:0:0:
193,101,262738,2,0,L|288:93,1,95.9999970703126,4|0,0:2|0:0,0:0:0:0:
15,73,263085,6,0,B|-6:118|0:170,1,95.9999970703126,4|0,0:2|0:0,0:0:0:0:
223,205,263431,2,0,B|244:250|238:302,1,95.9999970703126,4|0,0:2|0:0,0:0:0:0:
186,359,263778,5,0,0:0:0:0:
450,323,263952,1,0,0:0:0:0:
190,363,264819,5,0,0:0:0:0:
450,323,264993,1,0,0:0:0:0:
194,367,265166,1,0,0:0:0:0:
454,327,265340,1,0,0:0:0:0:
