osu file format v14

[General]
AudioFilename: audio.mp3
AudioLeadIn: 0
PreviewTime: 83431
Countdown: 0
SampleSet: Normal
StackLeniency: 0.7
Mode: 0
LetterboxInBreaks: 0
WidescreenStoryboard: 1

[Editor]
DistanceSpacing: 0.5
BeatDivisor: 4
GridSize: 32
TimelineZoom: 1

[Metadata]
Title:The Pretender
TitleUnicode:The Pretender
Artist:Foo Fighters
ArtistUnicode:Foo Fighters
Creator:pw384
Version:Hard
Source:
Tags:Echoes, Silence, Patience & Grace English post-grunge rock 384059043
BeatmapID:1957660
BeatmapSetID:923703

[Difficulty]
HPDrainRate:5
CircleSize:4
OverallDifficulty:6.3
ApproachRate:8
SliderMultiplier:1.4
SliderTickRate:1

[Events]
//Background and Video events
0,0,"bg.jpg",0,0
//Break Periods
2,108603,118751
2,164094,173952
2,197389,205456
//Storyboard Layer 0 (Background)
//Storyboard Layer 1 (Fail)
//Storyboard Layer 2 (Pass)
//Storyboard Layer 3 (Foreground)
//Storyboard Sound Samples

[TimingPoints]
195,346.820809248555,4,1,0,45,1,0
32102,-133.333333333333,4,1,0,45,0,0
36264,-133.333333333333,4,1,0,55,0,0
58460,-100,4,1,0,65,0,0
79963,-100,4,1,0,75,0,0
83431,-83.3333333333333,4,1,0,80,0,1
94183,-83.3333333333333,4,1,0,80,0,0
94530,-83.3333333333333,4,1,0,80,0,1
105628,-100,4,1,0,45,0,0
108403,-100,4,1,0,55,0,0
119501,-100,4,1,0,65,0,0
133374,-83.3333333333333,4,1,0,80,0,1
144125,-83.3333333333333,4,1,0,80,0,0
144472,-83.3333333333333,4,1,0,80,0,1
158258,-100,4,1,0,55,0,1
158345,-100,4,1,0,55,0,0
158431,-100,4,2,0,25,0,0
173952,-100,4,3,0,55,0,0
186090,-100,4,1,0,60,0,0
191119,-100,4,1,0,60,0,0
206206,-100,4,1,0,25,0,0
207940,-100,4,2,0,5,0,0
208287,-83.3333333333333,4,1,0,80,0,1
219038,-83.3333333333333,4,1,0,80,0,0
219385,-83.3333333333333,4,1,0,80,0,1
230137,-83.3333333333333,4,1,0,80,0,0
230484,-83.3333333333333,4,1,0,80,0,1
241235,-83.3333333333333,4,1,0,80,0,0
241582,-83.3333333333333,4,1,0,80,0,1
254934,-83.3333333333333,4,1,0,80,0,0
255281,-83.3333333333333,4,1,0,80,0,1
263778,-83.3333333333333,4,1,0,80,0,0

[Colours]
Combo1 : 207,187,118
Combo2 : 170,105,74
Combo3 : 120,89,54

[HitObjects]
151,198,33489,6,0,L|256:192,1,105.000004005432,2|2,0:0|0:0,0:0:0:0:
246,89,34183,2,0,P|242:141|256:192,1,105.000004005432,2|2,0:0|0:0,0:0:0:0:
265,294,34877,2,0,P|269:242|256:192,1,105.000004005432,2|2,0:0|0:0,0:0:0:0:
256,192,35570,2,2,L|360:185,1,105.000004005432,2|2,0:0|0:0,0:0:0:0:
474,240,36264,6,0,L|483:292,1,52.5000020027161,4|0,0:2|0:0,0:0:0:0:
474,240,37304,2,0,P|482:287|482:306,1,52.5000020027161,4|0,0:2|0:0,0:0:0:0:
430,356,37651,1,4,0:2:0:0:
430,356,37825,1,0,0:0:0:0:
165,293,39038,6,0,L|237:289,1,52.5000020027161,4|0,0:2|0:0,0:0:0:0:
164,293,40079,6,0,P|194:294|219:289,1,52.5000020027161,4|0,0:2|0:0,0:0:0:0:
287,248,40426,1,4,0:2:0:0:
287,248,40599,1,0,0:0:0:0:
58,352,41813,6,0,L|66:292,1,52.5000020027161,4|0,0:2|0:0,0:0:0:0:
58,352,42853,6,0,P|63:325|66:292,1,52.5000020027161,4|0,0:2|0:0,0:0:0:0:
31,223,43200,1,4,0:2:0:0:
31,223,43374,1,0,0:0:0:0:
137,56,43894,2,0,L|241:61,1,105.000004005432,0|0,0:0|0:0,2:2:0:0:
137,56,44588,6,0,L|145:112,1,52.5000020027161,4|0,0:2|0:0,0:0:0:0:
137,56,45628,6,0,P|142:82|145:112,1,52.5000020027161,4|0,0:2|0:0,0:0:0:0:
114,182,45975,1,4,0:2:0:0:
114,182,46148,1,0,0:0:0:0:
259,304,46668,2,0,L|370:297,1,105.000004005432
461,216,47362,5,4,0:2:0:0:
461,216,47536,1,0,0:0:0:0:
443,134,48403,1,4,0:2:0:0:
361,152,48576,1,0,0:0:0:0:
379,234,48749,1,4,0:2:0:0:
461,216,48923,1,0,0:0:0:0:
228,136,50137,5,4,0:2:0:0:
228,136,50310,1,0,0:0:0:0:
146,154,51177,1,4,0:2:0:0:
164,236,51351,1,0,0:0:0:0:
246,218,51524,1,4,0:2:0:0:
228,136,51697,1,0,0:0:0:0:
16,352,52911,5,4,0:2:0:0:
16,352,53085,1,0,0:0:0:0:
96,320,53952,1,4,0:2:0:0:
176,352,54125,1,0,0:0:0:0:
256,320,54299,1,4,0:2:0:0:
336,352,54472,1,0,0:0:0:0:
496,352,55686,5,4,0:2:0:0:
496,352,55859,1,0,0:0:0:0:
416,320,56726,1,4,0:2:0:0:
336,352,56900,1,0,0:0:0:0:
256,320,57073,1,4,0:2:0:0:
176,352,57247,1,0,0:0:0:0:
42,204,57767,6,0,P|32:146|49:102,1,105.000004005432,0|4,0:0|0:2,2:2:0:0:
47,103,58460,6,0,L|211:94,1,140,4|2,0:2|0:2,0:0:0:0:
186,95,59154,1,0,0:0:0:0:
291,149,59327,2,0,P|363:134|432:172,1,140,0|2,0:0|0:2,0:0:0:0:
355,369,60021,2,0,L|349:227,1,140,2|2,0:2|0:2,0:0:0:0:
349,229,60541,2,0,P|277:244|208:206,1,140,0|0,0:0|0:0,0:0:0:0:
89,338,61235,5,4,0:2:0:0:
89,338,61582,2,0,L|231:332,1,140,2|0,0:2|0:0,0:0:0:0:
338,365,62102,2,0,P|357:305|344:216,1,140,0|2,0:0|0:2,0:0:0:0:
156,47,62796,2,0,P|137:107|150:196,2,140,2|2|2,0:2|0:2|0:2,0:0:0:0:
156,47,63836,1,2,0:2:0:0:
64,125,64010,6,0,L|68:264,1,140,4|0,0:2|0:0,0:0:0:0:
60,129,65050,6,0,L|64:268,1,140,4|4,0:2|0:2,0:0:0:0:
68,353,65570,1,0,0:0:0:0:
56,133,66090,6,0,L|60:272,1,140,2|2,0:2|0:2,2:2:0:0:
337,294,66784,6,0,P|286:274|208:301,1,140,4|0,0:2|0:0,0:0:0:0:
333,298,67825,6,0,P|282:278|204:305,1,140,4|4,0:2|0:2,0:0:0:0:
153,371,68345,1,0,0:0:0:0:
329,302,68865,6,0,P|278:282|200:309,1,140,0|4,0:0|0:2,2:2:0:0:
362,115,69559,6,0,L|439:119,1,70,4|0,0:2|0:0,0:0:0:0:
507,82,69905,1,2,0:2:0:0:
499,165,70079,2,0,P|507:199|505:234,1,70
441,289,70426,2,0,P|433:323|435:358,1,70,2|0,0:2|0:0,0:0:0:0:
441,289,70773,6,0,L|364:293,1,70,2|0,0:2|0:0,0:0:0:0:
343,213,71119,2,0,L|273:209,1,70,2|0,0:2|0:0,0:0:0:0:
228,281,71466,2,0,L|151:285,1,70,2|0,0:2|0:0,0:0:0:0:
130,205,71813,2,0,L|60:201,1,70,2|0,0:2|0:0,0:0:0:0:
61,202,72333,6,0,P|55:159|61:121,1,70,4|0,0:2|0:0,0:0:0:0:
96,57,72680,1,2,0:2:0:0:
168,15,72853,2,0,P|202:12|237:18,1,70,0|0,0:0|0:0,0:0:0:0:
317,45,73200,2,0,P|351:47|386:41,1,70,2|0,0:2|0:0,0:0:0:0:
387,41,73547,6,0,L|382:113,1,70,2|0,0:2|0:0,0:0:0:0:
506,95,73894,2,0,L|500:166,1,70,2|0,0:2|0:0,0:0:0:0:
392,124,74241,2,0,L|386:195,1,70,2|0,0:2|0:0,0:0:0:0:
510,177,74588,2,0,L|504:248,1,70,2|0,0:2|0:0,0:0:0:0:
512,259,75108,6,0,P|445:245|389:283,1,140,4|0,0:2|0:0,0:0:0:0:
462,325,75628,1,0,0:0:0:0:
382,277,75801,6,0,P|315:263|259:301,1,140,0|4,0:0|0:2,0:0:0:0:
332,343,76322,1,0,0:0:0:0:
252,295,76495,6,0,P|195:256|129:270,1,140,4|0,0:2|0:0,0:0:0:0:
180,336,77015,1,0,0:0:0:0:
122,262,77189,6,0,P|55:248|0:286,1,140,0|0,0:0|0:0,0:0:0:0:
0,287,77882,6,0,P|66:273|122:311,1,140,4|0,0:2|0:0,0:0:0:0:
50,353,78403,1,0,0:0:0:0:
130,305,78576,6,0,P|196:291|252:329,1,140,0|4,0:0|0:2,0:0:0:0:
180,371,79096,1,0,0:0:0:0:
260,323,79270,6,0,P|316:284|382:298,1,140,4|0,0:2|0:0,0:0:0:0:
332,364,79790,1,0,0:0:0:0:
390,290,79963,6,0,L|392:238,2,35,0|0|0,0:0|0:0|0:0,0:0:0:0:
464,210,80310,2,0,L|468:105,1,105,4|0,0:0|0:0,0:0:0:0:
468,105,80657,6,0,P|425:116|328:105,1,140,4|0,0:2|0:0,0:0:0:0:
106,84,81351,1,0,0:0:0:0:
109,171,81524,1,0,0:0:0:0:
109,171,82044,6,0,B|78:308|78:308|50:235,1,210,0|0,0:0|2:0,0:0:0:0:
106,84,82738,2,0,L|153:94,6,35
291,77,83431,6,0,P|301:110|296:165,1,83.9999974365235,4|0,0:0|2:0,0:0:0:0:
126,213,83778,2,0,L|209:209,1,83.9999974365235,8|0,0:0|2:0,0:0:0:0:
297,260,84125,2,0,L|422:254,1,125.999996154785,0|0,0:0|2:0,0:0:0:0:
439,264,84472,1,8,0:0:0:0:
375,342,84645,5,0,0:0:0:0:
407,131,84992,1,0,0:0:0:0:
209,209,85339,1,0,0:0:0:0:
245,115,85512,2,0,P|255:70|249:33,1,83.9999974365235
89,101,85859,2,0,P|68:159|90:217,1,125.999996154785,8|0,0:0|2:0,0:0:0:0:
106,231,86206,6,0,L|99:318,1,83.9999974365235,0|0,0:0|2:0,0:0:0:0:
210,209,86553,2,0,L|203:296,1,83.9999974365235,8|0,0:0|2:0,0:0:0:0:
314,187,86900,2,0,L|303:312,1,125.999996154785,0|0,0:0|2:0,0:0:0:0:
312,331,87247,1,8,0:0:0:0:
406,272,87420,5,0,0:0:0:0:
203,292,87767,1,0,0:0:0:0:
287,106,88114,1,0,0:0:0:0:
387,111,88287,2,0,L|479:103,1,83.9999974365235,0|0,0:0|0:0,0:0:0:0:
341,21,88634,2,0,P|274:4|215:38,1,125.999996154785,12|0,0:0|2:0,0:0:0:0:
210,45,88981,6,0,L|112:41,1,83.9999974365235,4|0,0:2|2:0,0:0:0:0:
168,132,89327,2,0,L|70:128,1,83.9999974365235,8|0,0:0|2:0,0:0:0:0:
0,213,89674,2,0,L|126:219,1,125.999996154785,0|0,0:0|2:0,0:0:0:0:
142,234,90021,2,0,L|225:237,1,83.9999974365235,8|0,0:0|2:0,0:0:0:0:
404,279,90368,6,0,P|422:237|422:193,1,83.9999974365235,4|0,0:0|0:0,0:0:0:0:
324,218,90715,1,8,0:0:0:0:
244,157,90888,2,0,P|226:199|226:243,1,83.9999974365235,0|0,0:0|2:0,0:0:0:0:
264,330,91235,2,0,L|446:329,1,167.999994873047,0|0,0:0|2:0,0:0:0:0:
324,218,91755,5,4,0:0:0:0:
324,218,91929,1,0,0:0:0:0:
244,157,92102,2,0,L|76:157,2,167.999994873047,8|0|8,0:0|0:0|0:0,0:0:0:0:
324,218,92969,1,0,0:0:0:0:
224,236,93142,6,0,P|226:195|244:157,1,83.9999974365235,4|0,0:0|0:0,0:0:0:0:
342,124,93489,1,8,0:0:0:0:
464,230,93663,2,0,P|390:262|324:218,1,167.999994873047,0|0,0:0|0:0,0:0:0:0:
287,312,94183,2,0,P|235:284|170:299,1,125.999996154785,4|0,0:2|2:0,0:0:0:0:
156,318,94530,6,0,L|68:312,1,83.9999974365235,4|0,0:0|2:0,0:0:0:0:
131,230,94877,2,0,L|43:224,1,83.9999974365235,8|0,0:0|2:0,0:0:0:0:
148,145,95223,2,0,L|22:136,1,125.999996154785,0|0,0:0|2:0,0:0:0:0:
3,150,95570,1,8,0:0:0:0:
56,64,95744,5,0,0:0:0:0:
256,152,96090,1,0,0:0:0:0:
456,64,96437,1,0,0:0:0:0:
497,156,96611,2,0,P|508:200|496:254,1,83.9999974365235
432,314,96958,2,0,P|370:316|320:280,1,125.999996154785,8|0,0:0|2:0,0:0:0:0:
308,260,97304,6,0,L|221:269,1,83.9999974365235,0|0,0:0|2:0,0:0:0:0:
123,261,97651,2,0,B|106:300|106:300|113:342,1,83.9999974365235,8|0,0:0|2:0,0:0:0:0:
224,268,97998,2,0,L|229:132,1,125.999996154785,0|0,0:0|2:0,0:0:0:0:
223,117,98345,1,8,0:0:0:0:
130,155,98518,5,0,0:0:0:0:
274,14,98865,1,0,0:0:0:0:
324,209,99212,1,0,0:0:0:0:
403,270,99385,2,0,P|423:224|419:179,1,83.9999974365235,0|0,0:0|0:0,0:0:0:0:
332,83,99732,2,0,L|323:217,1,125.999996154785,12|0,0:0|2:0,0:0:0:0:
313,225,100079,6,0,L|225:237,1,83.9999974365235,4|0,0:2|2:0,0:0:0:0:
65,286,100426,2,0,L|149:298,1,83.9999974365235,8|0,0:0|2:0,0:0:0:0:
241,338,100773,6,0,L|365:320,1,125.999996154785,0|0,0:0|2:0,0:0:0:0:
388,332,101119,2,0,P|404:290|400:242,1,83.9999974365235,8|0,0:0|2:0,0:0:0:0:
437,156,101466,6,0,B|396:147|396:147|356:160,1,83.9999974365235,4|0,0:0|0:0,0:0:0:0:
240,85,101813,1,8,0:0:0:0:
340,65,101986,2,0,L|256:69,1,83.9999974365235,0|0,0:0|2:0,0:0:0:0:
126,24,102333,2,0,P|93:93|113:182,1,167.999994873047,0|0,0:0|2:0,0:0:0:0:
189,244,102853,5,4,0:0:0:0:
189,244,103027,1,0,0:0:0:0:
260,315,103200,2,0,P|191:282|102:302,2,167.999994873047,8|0|8,0:0|0:0|0:0,0:0:0:0:
346,262,104067,1,0,0:0:0:0:
438,374,104241,6,0,P|447:335|442:289,1,83.9999974365235,4|0,0:0|0:0,0:0:0:0:
351,136,104588,1,8,0:0:0:0:
351,136,104761,2,0,L|345:265,1,125.999996154785,0|0,0:0|2:0,0:0:0:0:
354,281,105108,1,0,0:0:0:0:
486,174,105281,2,0,P|424:185|362:149,1,125.999996154785,8|0,0:0|2:0,0:0:0:0:
351,136,105628,6,0,L|212:140,1,140,0|0,0:0|0:0,0:0:0:0:
208,308,106322,2,0,L|69:312,1,140,0|0,0:0|0:0,0:0:0:0:
208,144,107015,6,0,L|347:140,1,140,0|0,0:0|0:0,0:0:0:0:
65,316,107709,1,0,0:0:0:0:
134,313,107882,1,0,0:0:0:0:
204,311,108055,1,4,0:0:0:0:
366,358,108403,5,4,0:2:0:0:
135,99,119501,6,0,P|148:130|147:173,1,70,4|0,0:2|0:0,0:0:0:0:
91,228,119848,1,2,0:2:0:0:
0,139,120021,2,0,L|69:147,1,70,2|0,0:2|0:0,0:0:0:0:
135,99,120368,2,0,L|204:106,1,70,2|0,0:2|0:0,0:0:0:0:
274,207,120715,6,0,L|343:199,1,70,2|0,0:2|0:0,0:0:0:0:
396,133,121062,2,0,L|465:125,1,70,2|0,0:2|0:0,0:0:0:0:
280,67,121408,1,2,0:2:0:0:
280,67,121582,2,0,L|273:211,1,140,0|0,0:0|0:0,0:0:0:0:
362,359,122275,6,0,P|393:364|432:353,1,70,0|0,0:0|0:0,0:0:0:0:
392,278,122622,1,2,0:2:0:0:
343,209,122796,2,0,L|270:206,1,70,2|0,0:2|0:0,0:0:0:0:
207,258,123142,2,0,P|197:285|197:335,1,70,2|0,0:2|0:0,0:0:0:0:
94,360,123489,6,0,P|94:326|83:293,1,70,2|0,0:2|0:0,0:0:0:0:
199,250,123836,2,0,P|189:277|189:327,1,70,2|0,0:2|0:0,0:0:0:0:
86,352,124183,2,0,P|85:317|74:284,1,70,2|0,0:2|0:0,0:0:0:0:
191,242,124530,2,0,P|181:269|181:319,1,70,2|0,0:2|0:0,0:0:0:0:
352,274,125050,6,0,B|420:287|420:287|467:234,1,140,4|0,0:2|0:0,0:0:0:0:
460,150,125570,1,0,0:0:0:0:
375,154,125744,2,0,B|329:206|329:206|351:273,1,140,0|4,0:0|0:2,0:0:0:0:
468,234,126437,6,0,B|445:168|445:168|376:153,1,140,4|0,0:2|0:0,0:0:0:0:
306,202,126958,1,0,0:0:0:0:
352,274,127131,2,0,B|419:287|419:287|467:234,1,140,0|0,0:0|0:0,0:0:0:0:
376,153,127825,6,0,B|330:205|330:205|352:272,1,140,4|0,0:2|0:0,0:0:0:0:
429,309,128345,1,0,0:0:0:0:
468,233,128518,2,0,B|445:167|445:167|376:152,1,140,0|4,0:0|0:2,0:0:0:0:
352,274,129212,6,0,B|420:287|420:287|467:234,1,140,4|0,0:2|0:0,0:0:0:0:
460,150,129732,1,0,0:0:0:0:
375,154,129905,2,0,B|329:206|329:206|351:273,1,140,0|4,0:0|0:0,0:0:0:0:
351,273,130599,6,0,L|207:289,1,140,4|0,0:2|0:0,0:0:0:0:
105,163,131293,1,0,0:0:0:0:
187,175,131466,1,0,0:0:0:0:
403,171,131986,6,0,B|434:308|434:308|462:235,1,210,0|0,0:0|2:0,0:0:0:0:
406,84,132680,2,0,L|359:94,6,35
221,77,133374,6,0,P|211:110|216:165,1,83.9999974365235,4|0,0:0|2:0,0:0:0:0:
386,213,133721,2,0,L|303:209,1,83.9999974365235,8|0,0:0|2:0,0:0:0:0:
215,260,134067,2,0,L|90:254,1,125.999996154785,0|0,0:0|2:0,0:0:0:0:
73,264,134414,1,8,0:0:0:0:
137,342,134588,5,0,0:0:0:0:
105,131,134934,1,0,0:0:0:0:
303,209,135281,1,0,0:0:0:0:
267,115,135454,2,0,P|257:70|263:33,1,83.9999974365235
422,101,135801,2,0,P|443:159|421:217,1,125.999996154785,8|0,0:0|2:0,0:0:0:0:
406,231,136148,6,0,L|413:318,1,83.9999974365235,0|0,0:0|2:0,0:0:0:0:
302,209,136495,2,0,L|309:296,1,83.9999974365235,8|0,0:0|2:0,0:0:0:0:
198,187,136842,2,0,L|209:312,1,125.999996154785,0|0,0:0|2:0,0:0:0:0:
200,331,137189,1,8,0:0:0:0:
106,272,137362,5,0,0:0:0:0:
309,292,137709,1,0,0:0:0:0:
225,106,138056,1,0,0:0:0:0:
125,111,138229,2,0,L|33:103,1,83.9999974365235,0|0,0:0|0:0,0:0:0:0:
171,21,138576,2,0,P|238:4|297:38,1,125.999996154785,12|0,0:0|2:0,0:0:0:0:
302,45,138923,6,0,L|400:41,1,83.9999974365235,4|0,0:2|2:0,0:0:0:0:
344,132,139270,2,0,L|442:128,1,83.9999974365235,8|0,0:0|2:0,0:0:0:0:
512,213,139616,2,0,L|386:219,1,125.999996154785,0|0,0:0|2:0,0:0:0:0:
370,234,139963,2,0,L|287:237,1,83.9999974365235,8|0,0:0|2:0,0:0:0:0:
108,279,140310,6,0,P|90:237|90:193,1,83.9999974365235,4|0,0:0|0:0,0:0:0:0:
188,218,140657,1,8,0:0:0:0:
268,157,140830,2,0,P|286:199|286:243,1,83.9999974365235,0|0,0:0|2:0,0:0:0:0:
248,330,141177,2,0,L|66:329,1,167.999994873047,0|0,0:0|2:0,0:0:0:0:
188,218,141697,5,4,0:0:0:0:
188,218,141871,1,0,0:0:0:0:
268,157,142044,2,0,L|436:157,2,167.999994873047,8|0|8,0:0|0:0|0:0,0:0:0:0:
188,218,142911,1,0,0:0:0:0:
288,236,143085,6,0,P|286:195|268:157,1,83.9999974365235,4|0,0:0|0:0,0:0:0:0:
188,218,143431,1,8,0:0:0:0:
95,312,143605,2,0,L|221:309,1,125.999996154785,0|0,0:0|2:0,0:0:0:0:
232,322,143952,2,0,P|236:346|232:368,2,41.9999987182618,2|2|2,0:2|0:2|0:2,0:0:0:0:
356,318,144299,1,2,0:2:0:0:
356,318,144385,1,2,0:2:0:0:
356,318,144472,6,0,L|444:312,1,83.9999974365235,4|0,0:0|2:0,0:0:0:0:
381,230,144819,2,0,L|469:224,1,83.9999974365235,8|0,0:0|2:0,0:0:0:0:
364,145,145166,2,0,L|490:136,1,125.999996154785,0|0,0:0|2:0,0:0:0:0:
509,150,145512,1,8,0:0:0:0:
456,64,145686,5,0,0:0:0:0:
256,152,146032,1,0,0:0:0:0:
56,64,146379,1,0,0:0:0:0:
15,156,146553,2,0,P|4:200|16:254,1,83.9999974365235
79,314,146900,2,0,P|141:316|191:280,1,125.999996154785,8|0,0:0|2:0,0:0:0:0:
204,260,147247,6,0,L|291:269,1,83.9999974365235,0|0,0:0|2:0,0:0:0:0:
389,261,147593,2,0,B|406:300|406:300|399:342,1,83.9999974365235,8|0,0:0|2:0,0:0:0:0:
288,268,147940,2,0,L|283:132,1,125.999996154785,0|0,0:0|2:0,0:0:0:0:
289,117,148287,1,8,0:0:0:0:
382,155,148460,5,0,0:0:0:0:
238,14,148807,1,0,0:0:0:0:
188,209,149154,1,0,0:0:0:0:
109,270,149327,2,0,P|89:224|93:179,1,83.9999974365235
180,83,149674,2,0,L|189:217,1,125.999996154785,12|0,0:0|2:0,0:0:0:0:
199,225,150021,6,0,L|287:237,1,83.9999974365235,4|0,0:2|2:0,0:0:0:0:
447,286,150368,2,0,L|363:298,1,83.9999974365235,8|0,0:0|2:0,0:0:0:0:
271,338,150715,6,0,L|147:320,1,125.999996154785,0|0,0:0|2:0,0:0:0:0:
124,332,151062,2,0,P|108:290|112:242,1,83.9999974365235,8|0,0:0|2:0,0:0:0:0:
75,156,151408,6,0,B|116:147|116:147|156:160,1,83.9999974365235,4|0,0:0|0:0,0:0:0:0:
272,85,151755,1,8,0:0:0:0:
172,65,151929,2,0,L|256:69,1,83.9999974365235,0|0,0:0|2:0,0:0:0:0:
386,24,152275,2,0,P|419:93|399:182,1,167.999994873047,0|0,0:0|2:0,0:0:0:0:
323,244,152796,5,4,0:0:0:0:
323,244,152969,1,0,0:0:0:0:
252,315,153142,2,0,P|321:282|410:302,2,167.999994873047,8|0|8,0:0|0:0|0:0,0:0:0:0:
166,262,154010,1,0,0:0:0:0:
74,374,154183,6,0,P|65:335|70:289,1,83.9999974365235,0|0,0:0|0:0,0:0:0:0:
161,136,154530,1,8,0:0:0:0:
161,136,154703,2,0,L|167:265,1,125.999996154785,0|0,0:0|2:0,0:0:0:0:
182,275,155050,5,0,0:0:0:0:
196,290,155137,1,0,0:0:0:0:
202,309,155223,2,0,P|204:331|198:355,4,41.9999987182618,0|0|0|0|4,0:0|0:0|0:0|0:0|0:0,0:0:0:0:
351,198,155917,6,0,P|395:202|435:186,1,83.9999974365235,4|0,0:2|2:0,2:2:0:0:
302,133,156264,2,0,P|320:173|354:199,1,83.9999974365235,4|0,0:2|2:0,2:2:0:0:
334,58,156611,2,0,P|308:94|302:136,1,83.9999974365235,4|0,0:2|2:0,2:2:0:0:
414,48,156958,2,0,P|370:43|330:59,1,83.9999974365235,4|0,0:0|2:0,2:2:0:0:
463,113,157304,2,0,P|444:72|410:46,1,83.9999974365235,4|0,0:2|2:0,2:2:0:0:
431,187,157651,2,0,P|456:150|462:108,1,83.9999974365235,4|0,0:2|2:0,2:2:0:0:
351,198,157998,2,0,P|395:202|435:186,1,83.9999974365235,4|0,0:2|0:0,0:0:0:0:
383,123,158345,5,0,0:0:0:0:
256,192,158518,12,0,163894,0:0:0:0:
114,155,174819,6,0,L|259:148,2,140,0|0|0,0:0|0:0|0:0,0:0:0:0:
398,229,176206,6,0,L|253:236,2,140,0|0|0,0:0|0:0|0:0,0:0:0:0:
219,334,177593,6,0,L|208:124,1,210,0|0,0:0|0:0,0:0:0:0:
293,50,178287,2,0,L|296:122,2,70
68,326,180368,1,0,0:0:0:0:
68,326,180541,5,0,0:0:0:0:
235,310,180888,2,0,L|160:306,1,70,2|0,1:3|0:0,0:0:0:0:
76,318,181235,5,0,0:0:0:0:
243,302,181582,2,0,L|168:298,1,70,2|0,1:3|0:0,0:0:0:0:
84,310,181928,5,0,0:0:0:0:
251,294,182275,2,0,L|176:290,1,70,2|0,1:3|0:0,0:0:0:0:
92,302,182622,5,0,0:0:0:0:
259,286,182969,2,0,L|184:282,1,70,2|0,1:3|0:0,0:0:0:0:
100,294,183316,5,0,0:0:0:0:
197,274,183489,2,0,L|336:281,1,140,0|0,1:0|1:0,0:0:0:0:
205,266,184183,2,0,L|344:273,1,140,0|0,1:0|0:0,0:0:0:0:
471,234,185050,2,0,P|510:290|495:357,1,140,0|0,1:0|0:0,0:0:0:0:
427,306,185570,2,0,L|434:166,1,140,0|0,1:0|0:0,0:0:0:0:
419,298,186437,6,0,L|426:158,1,140,4|0,0:2|0:0,0:0:0:0:
340,103,186958,2,0,L|333:243,1,140,0|0,0:0|0:0,2:2:0:0:
332,111,187825,6,0,L|325:251,1,140,4|0,0:2|0:0,0:0:0:0:
269,314,188345,2,0,P|203:333|139:307,1,140,0|0,0:0|0:0,2:2:0:0:
270,303,189212,6,0,P|204:322|140:296,1,140,4|0,0:2|0:0,0:0:0:0:
86,231,189732,2,0,B|61:165|61:165|68:96,1,140,0|0,0:0|0:0,2:2:0:0:
100,229,190599,6,0,B|75:163|75:163|82:94,1,140,4|0,0:2|0:0,0:0:0:0:
139,31,191119,2,0,L|293:36,1,140,0|0,0:0|0:0,2:2:0:0:
346,87,191640,6,0,P|386:82|422:90,1,70,4|0,0:0|0:0,0:0:0:0:
419,8,191986,2,0,P|424:48|416:84,1,70,8|0,0:0|0:0,0:0:0:0:
498,81,192333,2,0,P|458:86|422:78,1,70,0|0,0:0|0:0,0:0:0:0:
425,160,192680,2,0,P|420:120|428:84,1,70,8|0,0:0|0:0,0:0:0:0:
501,201,193027,6,0,L|497:272,1,70,4|0,0:0|0:0,0:0:0:0:
419,237,193374,2,0,L|415:308,1,70,8|0,0:0|0:0,0:0:0:0:
337,273,193721,2,0,L|333:344,1,70,0|0,0:0|0:0,0:0:0:0:
255,309,194067,2,0,L|251:380,1,70,8|0,0:0|0:0,0:0:0:0:
337,273,194414,6,0,L|333:202,1,70,4|0,0:0|0:0,0:0:0:0:
255,237,194761,2,0,L|251:166,1,70,8|0,0:0|0:0,0:0:0:0:
173,201,195108,2,0,L|169:130,1,70,0|0,0:0|0:0,0:0:0:0:
91,165,195454,2,0,L|87:94,1,70,8|0,0:0|0:0,0:0:0:0:
173,201,195801,6,0,L|169:272,1,70,4|0,0:0|0:0,0:0:0:0:
91,237,196148,2,0,L|87:308,1,70,8|0,0:0|0:0,0:0:0:0:
9,273,196495,6,0,L|5:344,2,70,0|0|8,0:0|0:0|0:0,0:0:0:0:
15,138,197015,1,2,0:2:0:0:
19,142,197102,1,2,0:2:0:0:
23,146,197189,1,2,0:2:0:0:
256,192,206206,12,0,207940,0:0:0:0:
352,236,208287,6,0,P|312:248|267:244,1,83.9999974365235,4|0,0:0|2:0,0:0:0:0:
119,173,208634,2,0,L|203:169,1,83.9999974365235,8|0,0:0|2:0,0:0:0:0:
310,23,208981,2,0,L|302:149,1,125.999996154785,0|0,0:0|2:0,0:0:0:0:
307,161,209327,1,8,0:0:0:0:
406,141,209501,6,0,L|394:308,2,167.999994873047,0|0|0,0:0|0:0|0:0,0:0:0:0:
414,40,210368,1,0,0:0:0:0:
496,97,210541,1,0,0:0:0:0:
406,141,210715,1,8,0:0:0:0:
205,121,211062,6,0,L|116:118,1,83.9999974365235,0|0,0:0|2:0,0:0:0:0:
23,143,211408,2,0,P|22:101|34:61,1,83.9999974365235,8|0,0:0|2:0,0:0:0:0:
121,118,211755,2,0,P|136:173|126:243,1,125.999996154785,0|0,0:0|2:0,0:0:0:0:
117,254,212102,1,8,0:0:0:0:
186,326,212275,6,0,L|355:338,2,167.999994873047,0|0|0,0:0|0:0|0:0,0:0:0:0:
87,350,213142,1,0,0:0:0:0:
87,350,213316,1,0,0:0:0:0:
12,282,213489,2,0,L|17:134,1,125.999996154785,12|0,0:0|2:0,0:0:0:0:
11,140,213836,6,0,L|94:132,1,83.9999974365235,4|0,0:2|2:0,0:0:0:0:
211,123,214183,2,0,L|294:115,1,83.9999974365235,8|0,0:0|2:0,0:0:0:0:
411,106,214530,1,0,0:0:0:0:
127,130,214877,2,0,L|210:122,1,83.9999974365235,8|0,0:0|2:0,0:0:0:0:
284,190,215223,6,0,P|295:227|289:274,1,83.9999974365235,4|0,0:0|0:0,0:0:0:0:
212,336,215570,1,8,0:0:0:0:
100,245,215744,2,0,L|184:238,1,83.9999974365235,0|0,0:0|2:0,0:0:0:0:
289,271,216090,2,0,L|456:256,1,167.999994873047,0|0,0:0|2:0,0:0:0:0:
507,168,216611,5,4,0:0:0:0:
507,168,216784,1,0,0:0:0:0:
424,108,216958,2,0,P|408:189|455:255,2,167.999994873047,8|0|8,0:0|0:0|0:0,0:0:0:0:
491,33,217825,1,0,0:0:0:0:
424,108,217998,6,0,P|378:109|337:98,1,83.9999974365235,4|0,0:0|0:0,0:0:0:0:
245,67,218345,1,8,0:0:0:0:
153,25,218518,2,0,P|80:15|13:93,1,167.999994873047,0|0,0:0|0:0,0:0:0:0:
16,76,219038,1,4,0:2:0:0:
160,236,219385,6,0,P|200:248|245:244,1,83.9999974365235,4|0,0:0|2:0,0:0:0:0:
393,173,219732,2,0,L|309:169,1,83.9999974365235,8|0,0:0|2:0,0:0:0:0:
202,23,220079,2,0,L|210:149,1,125.999996154785,0|0,0:0|2:0,0:0:0:0:
205,161,220425,1,8,0:0:0:0:
106,141,220599,6,0,L|118:308,2,167.999994873047,0|0|0,0:0|0:0|0:0,0:0:0:0:
98,40,221466,1,0,0:0:0:0:
16,97,221639,1,0,0:0:0:0:
106,141,221813,1,8,0:0:0:0:
307,121,222160,6,0,L|396:118,1,83.9999974365235,0|0,0:0|2:0,0:0:0:0:
489,143,222506,2,0,P|489:101|477:61,1,83.9999974365235,8|0,0:0|2:0,0:0:0:0:
391,118,222853,2,0,P|376:173|386:243,1,125.999996154785,0|0,0:0|2:0,0:0:0:0:
395,254,223200,1,8,0:0:0:0:
326,326,223374,6,0,L|157:338,2,167.999994873047
425,350,224240,1,0,0:0:0:0:
425,350,224414,1,0,0:0:0:0:
500,282,224587,2,0,L|495:134,1,125.999996154785,12|0,0:0|2:0,0:0:0:0:
501,140,224934,6,0,L|417:132,1,83.9999974365235,4|0,0:2|2:0,0:0:0:0:
301,123,225281,2,0,L|217:115,1,83.9999974365235,8|0,0:0|2:0,0:0:0:0:
101,106,225628,1,0,0:0:0:0:
385,130,225975,2,0,L|301:122,1,83.9999974365235,8|0,0:0|2:0,0:0:0:0:
228,190,226321,6,0,P|217:227|223:274,1,83.9999974365235,4|0,0:0|0:0,0:0:0:0:
300,336,226668,1,8,0:0:0:0:
411,245,226842,2,0,L|328:238,1,83.9999974365235,0|0,0:0|2:0,0:0:0:0:
223,271,227189,2,0,L|55:256,1,167.999994873047,0|0,0:0|2:0,0:0:0:0:
5,168,227709,5,4,0:0:0:0:
5,168,227882,1,0,0:0:0:0:
87,108,228056,2,0,P|103:189|56:255,2,167.999994873047,8|0|8,0:0|0:0|0:0,0:0:0:0:
21,33,228923,1,0,0:0:0:0:
88,108,229096,6,0,P|133:113|179:101,1,83.9999974365235
197,92,229356,1,0,0:0:0:0:
225,85,229443,1,0,0:0:0:0:
254,87,229530,1,0,0:0:0:0:
149,236,229790,6,0,B|208:213|263:222|276:257|328:273|396:245,1,251.999992309571
486,171,230484,6,0,L|483:65,1,83.9999974365235,4|0,0:0|0:0,0:0:0:0:
485,170,230830,2,0,P|415:128|335:146,1,167.999994873047,8|0,0:0|0:0,0:0:0:0:
175,270,231524,2,0,P|104:312|24:294,1,167.999994873047,8|0,0:0|0:0,0:0:0:0:
86,101,232218,6,0,L|84:197,2,83.9999974365235,8|0|0,0:0|0:0|0:0,0:0:0:0:
276,35,232911,2,0,L|272:202,1,167.999994873047,8|0,0:0|0:0,0:0:0:0:
413,347,233605,6,0,P|450:291|422:185,1,167.999994873047,8|0,0:0|0:0,0:0:0:0:
105,188,234299,2,0,L|279:203,1,167.999994873047,8|0,0:0|0:0,0:0:0:0:
512,35,234992,6,0,L|338:50,1,167.999994873047,8|0,0:0|0:0,0:0:0:0:
244,59,235512,1,0,0:0:0:0:
144,69,235686,2,0,P|125:109|136:190,1,125.999996154785,12|0,0:0|2:0,0:0:0:0:
150,202,236033,6,0,L|233:209,1,83.9999974365235,4|0,0:2|2:0,0:0:0:0:
377,132,236379,2,0,L|293:139,1,83.9999974365235,8|0,0:0|2:0,0:0:0:0:
183,285,236726,6,0,L|308:295,1,125.999996154785,0|0,0:0|2:0,0:0:0:0:
324,308,237073,2,0,L|407:300,1,83.9999974365235,8|0,0:0|2:0,0:0:0:0:
479,160,237420,6,0,P|490:201|490:242,1,83.9999974365235,4|0,0:0|0:0,0:0:0:0:
423,76,237767,1,8,0:0:0:0:
339,133,237940,6,0,P|298:143|256:143,1,83.9999974365235,0|0,0:0|2:0,0:0:0:0:
160,111,238287,2,0,P|76:96|-2:143,1,167.999994873047,0|0,0:0|2:0,0:0:0:0:
32,311,238807,6,0,L|38:220,2,83.9999974365235,4|0|8,0:0|0:0|0:0,0:0:0:0:
229,356,239501,2,0,P|288:365|378:305,1,167.999994873047,0|8,0:0|0:0,0:0:0:0:
442,151,240021,1,0,0:0:0:0:
442,151,240108,1,0,0:0:0:0:
442,151,240195,6,0,P|383:142|293:202,1,167.999994873047,0|8,0:0|0:0,0:0:0:0:
287,217,240628,1,0,0:0:0:0:
279,236,240715,2,0,L|112:226,1,167.999994873047
111,225,241148,1,2,0:2:0:0:
111,225,241235,1,2,0:2:0:0:
17,268,241408,1,2,0:2:0:0:
17,268,241495,1,2,0:2:0:0:
17,268,241582,6,0,L|26:370,1,83.9999974365235,4|0,0:0|0:0,0:0:0:0:
26,170,241928,2,0,P|96:128|176:146,1,167.999994873047,8|0,0:0|0:0,0:0:0:0:
337,270,242622,2,0,P|407:312|487:294,1,167.999994873047,8|0,0:0|0:0,0:0:0:0:
426,101,243316,6,0,L|428:197,2,83.9999974365235,8|0|0,0:0|0:0|0:0,0:0:0:0:
236,35,244009,2,0,L|239:202,1,167.999994873047,8|0,0:0|0:0,0:0:0:0:
99,347,244703,6,0,P|62:291|90:185,1,167.999994873047,8|0,0:0|0:0,0:0:0:0:
407,188,245397,2,0,L|233:203,1,167.999994873047,8|0,0:0|0:0,0:0:0:0:
0,35,246090,6,0,L|174:50,1,167.999994873047,8|0,0:0|0:0,0:0:0:0:
268,59,246610,1,0,0:0:0:0:
368,69,246784,2,0,P|387:109|376:190,1,125.999996154785,12|0,0:0|2:0,0:0:0:0:
362,202,247131,6,0,L|278:209,1,83.9999974365235,4|0,0:2|0:0,0:0:0:0:
135,132,247477,2,0,L|218:139,1,83.9999974365235,8|0,0:0|0:0,0:0:0:0:
329,285,247824,6,0,L|203:295,1,125.999996154785,0|0,0:0|2:0,0:0:0:0:
188,308,248171,2,0,L|104:300,1,83.9999974365235,8|0,0:0|0:0,0:0:0:0:
33,160,248518,6,0,P|22:201|22:242,1,83.9999974365235,4|0,0:0|0:0,0:0:0:0:
89,76,248865,1,8,0:0:0:0:
173,133,249038,6,0,P|214:143|256:143,1,83.9999974365235,0|0,0:0|2:0,0:0:0:0:
352,111,249385,2,0,P|436:96|514:143,1,167.999994873047,0|0,0:0|2:0,0:0:0:0:
480,311,249905,6,0,L|474:220,2,83.9999974365235,4|0|8,0:0|0:0|0:0,0:0:0:0:
237,238,250599,1,0,0:0:0:0:
237,238,250946,2,0,L|154:243,1,83.9999974365235,8|0,0:0|0:0,0:0:0:0:
54,218,251293,6,0,P|40:257|38:298,1,83.9999974365235,0|0,0:0|0:0,0:0:0:0:
127,147,251640,1,8,0:0:0:0:
153,243,251813,2,0,L|320:232,1,167.999994873047,0|0,0:0|0:0,0:0:0:0:
413,272,252333,1,0,0:0:0:0:
475,30,252680,6,0,L|480:113,1,83.9999974365235,4|0,0:0|2:0,2:2:0:0:
370,53,253027,2,0,L|375:136,1,83.9999974365235,4|0,0:2|2:0,2:2:0:0:
262,24,253374,6,0,L|267:107,1,83.9999974365235,4|0,0:2|2:0,2:2:0:0:
157,47,253721,2,0,L|162:130,1,83.9999974365235,4|0,0:2|2:0,2:2:0:0:
49,18,254067,6,0,L|54:101,1,83.9999974365235,4|0,0:0|2:0,2:2:0:0:
162,130,254414,2,0,P|187:198|166:279,1,125.999996154785,4|0,0:2|2:0,2:2:0:0:
168,264,254761,2,0,L|121:265,5,41.9999987182618,0|0|0|0|0|0,0:0|0:0|0:0|0:0|0:0|0:0,0:0:0:0:
109,278,255281,6,2,B|276:274|276:274|333:341,1,251.999992309571,4|0,0:2|0:0,0:0:0:0:
331,338,255975,1,0,0:0:0:0:
239,356,256322,5,0,0:0:0:0:
413,377,256668,2,2,P|486:280|443:167,1,251.999992309571,4|0,0:2|0:0,0:0:0:0:
443,167,257362,1,0,0:0:0:0:
357,114,257709,5,0,0:0:0:0:
175,201,258056,2,2,B|345:208|345:208|276:254,1,251.999992309571,4|0,0:2|0:0,0:0:0:0:
276,253,258749,1,0,0:0:0:0:
191,305,259096,5,0,0:0:0:0:
137,110,259443,2,2,B|388:120,1,251.999992309571,4|0,0:2|0:0,0:0:0:0:
388,120,260137,1,0,0:0:0:0:
388,120,260484,5,0,0:0:0:0:
442,34,260657,1,0,0:0:0:0:
336,205,261004,6,0,P|326:243|327:291,1,83.9999974365235,4|0,0:2|0:0,0:0:0:0:
436,365,261351,2,0,P|437:323|427:283,1,83.9999974365235,4|0,0:2|0:0,0:0:0:0:
328,197,261697,6,0,P|318:235|319:283,1,83.9999974365235,4|0,0:2|0:0,0:0:0:0:
428,357,262044,2,0,P|428:315|418:274,1,83.9999974365235,4|0,0:2|0:0,0:0:0:0:
229,324,262391,6,0,L|132:321,1,83.9999974365235,4|0,0:2|0:0,0:0:0:0:
34,214,262738,2,0,L|131:217,1,83.9999974365235,4|0,0:2|0:0,0:0:0:0:
221,332,263085,6,0,L|124:329,1,83.9999974365235,4|0,0:2|0:0,0:0:0:0:
26,222,263432,2,0,L|123:225,1,83.9999974365235,4|0,0:2|0:0,0:0:0:0:
275,228,263778,5,0,0:0:0:0:
275,228,263952,1,0,0:0:0:0:
222,57,264819,5,0,0:0:0:0:
222,57,264993,1,0,0:0:0:0:
321,70,265166,5,0,0:0:0:0:
321,70,265340,1,0,0:0:0:0:
