osu file format v14

[General]
AudioFilename: audio.mp3
AudioLeadIn: 0
PreviewTime: -1
Countdown: 1
SampleSet: Normal
StackLeniency: 0.7
Mode: 1
LetterboxInBreaks: 0
WidescreenStoryboard: 0

[Editor]
DistanceSpacing: 1
BeatDivisor: 4
GridSize: 4
TimelineZoom: 1.8

[Metadata]
Title:Everlong
TitleUnicode:Everlong
Artist:Foo Fighters
ArtistUnicode:Foo Fighters
Creator:Minisora
Version:Kantan AF
Source:
Tags:
BeatmapID:1733891
BeatmapSetID:827452

[Difficulty]
HPDrainRate:5
CircleSize:5
OverallDifficulty:5
ApproachRate:5
SliderMultiplier:1.4
SliderTickRate:1

[Events]
//Background and Video events
//Break Periods
2,183901,193223
//Storyboard Layer 0 (Background)
//Storyboard Layer 1 (Fail)
//Storyboard Layer 2 (Pass)
//Storyboard Layer 3 (Foreground)
//Storyboard Sound Samples

[TimingPoints]
10639.3791751436,379.746835443038,4,1,0,100,1,0
129113,379.746835443038,4,1,0,100,1,0
194423,379.746835443038,4,1,0,100,1,0

[HitObjects]
255,191,10639,5,0,0:0:0:0:
255,191,10734,1,0,0:0:0:0:
255,191,10829,1,0,0:0:0:0:
255,191,10924,1,0,0:0:0:0:
255,191,11019,1,8,0:0:0:0:
255,191,11114,1,0,0:0:0:0:
255,191,11208,1,0,0:0:0:0:
255,191,11303,1,0,0:0:0:0:
255,191,11398,1,0,0:0:0:0:
255,191,11493,1,0,0:0:0:0:
255,191,11588,1,0,0:0:0:0:
255,191,11683,1,0,0:0:0:0:
255,191,11778,1,8,0:0:0:0:
255,191,11873,1,0,0:0:0:0:
255,191,11968,1,0,0:0:0:0:
255,191,12063,1,0,0:0:0:0:
255,191,12158,1,0,0:0:0:0:
255,191,12253,1,0,0:0:0:0:
255,191,12348,1,0,0:0:0:0:
255,191,12443,1,0,0:0:0:0:
255,191,12538,1,8,0:0:0:0:
255,191,12633,1,0,0:0:0:0:
255,191,12727,1,0,0:0:0:0:
255,191,12822,1,0,0:0:0:0:
255,191,12917,1,0,0:0:0:0:
255,191,13012,1,0,0:0:0:0:
255,191,13107,1,0,0:0:0:0:
255,191,13202,1,0,0:0:0:0:
255,191,13297,1,8,0:0:0:0:
255,191,13392,1,0,0:0:0:0:
255,191,13487,1,0,0:0:0:0:
255,191,13582,1,0,0:0:0:0:
255,191,13677,1,0,0:0:0:0:
255,191,13772,1,0,0:0:0:0:
255,191,13867,1,0,0:0:0:0:
255,191,13962,1,0,0:0:0:0:
255,191,14057,1,8,0:0:0:0:
255,191,14152,1,0,0:0:0:0:
255,191,14246,1,0,0:0:0:0:
255,191,14341,1,0,0:0:0:0:
255,191,14436,1,0,0:0:0:0:
255,191,14531,1,0,0:0:0:0:
255,191,14626,1,0,0:0:0:0:
255,191,14721,1,0,0:0:0:0:
255,191,14816,1,8,0:0:0:0:
255,191,14911,1,0,0:0:0:0:
255,191,15006,1,0,0:0:0:0:
255,191,15101,1,0,0:0:0:0:
255,191,15196,1,0,0:0:0:0:
255,191,15291,1,0,0:0:0:0:
255,191,15386,1,0,0:0:0:0:
255,191,15481,1,0,0:0:0:0:
255,191,15576,1,8,0:0:0:0:
255,191,15671,1,0,0:0:0:0:
255,191,15765,1,0,0:0:0:0:
255,191,15860,1,0,0:0:0:0:
255,191,15955,1,0,0:0:0:0:
255,191,16050,1,0,0:0:0:0:
255,191,16145,1,0,0:0:0:0:
255,191,16240,1,0,0:0:0:0:
255,191,16335,1,8,0:0:0:0:
255,191,16430,1,0,0:0:0:0:
255,191,16525,1,0,0:0:0:0:
255,191,16620,1,0,0:0:0:0:
255,191,16715,1,0,0:0:0:0:
255,191,16810,1,0,0:0:0:0:
255,191,16905,1,0,0:0:0:0:
255,191,17000,1,0,0:0:0:0:
255,191,17095,1,8,0:0:0:0:
255,191,17190,1,0,0:0:0:0:
255,191,17284,1,0,0:0:0:0:
255,191,17379,1,0,0:0:0:0:
255,191,17474,1,0,0:0:0:0:
255,191,17569,1,0,0:0:0:0:
255,191,17664,1,0,0:0:0:0:
255,191,17759,1,0,0:0:0:0:
255,191,17854,1,8,0:0:0:0:
255,191,17949,1,0,0:0:0:0:
255,191,18044,1,0,0:0:0:0:
255,191,18139,1,0,0:0:0:0:
255,191,18234,1,0,0:0:0:0:
255,191,18329,1,0,0:0:0:0:
255,191,18424,1,0,0:0:0:0:
255,191,18519,1,0,0:0:0:0:
255,191,18614,1,8,0:0:0:0:
255,191,18708,1,0,0:0:0:0:
255,191,18803,1,0,0:0:0:0:
255,191,18898,1,0,0:0:0:0:
255,191,18993,1,0,0:0:0:0:
255,191,19088,1,0,0:0:0:0:
255,191,19183,1,0,0:0:0:0:
255,191,19278,1,0,0:0:0:0:
255,191,19373,1,8,0:0:0:0:
255,191,19468,1,0,0:0:0:0:
255,191,19563,1,0,0:0:0:0:
255,191,19658,1,0,0:0:0:0:
255,191,19753,1,0,0:0:0:0:
255,191,19848,1,0,0:0:0:0:
255,191,19943,1,0,0:0:0:0:
255,191,20038,1,0,0:0:0:0:
255,191,20133,1,8,0:0:0:0:
255,191,20227,1,0,0:0:0:0:
255,191,20322,1,0,0:0:0:0:
255,191,20417,1,0,0:0:0:0:
255,191,20512,1,0,0:0:0:0:
255,191,20607,1,0,0:0:0:0:
255,191,20702,1,0,0:0:0:0:
255,191,20797,1,0,0:0:0:0:
255,191,20892,1,8,0:0:0:0:
255,191,20987,1,0,0:0:0:0:
255,191,21082,1,8,0:0:0:0:
255,191,21177,1,8,0:0:0:0:
255,191,21272,1,8,0:0:0:0:
255,191,21367,1,0,0:0:0:0:
255,191,21462,1,0,0:0:0:0:
255,191,21557,1,0,0:0:0:0:
255,191,21652,1,8,0:0:0:0:
255,191,21746,1,0,0:0:0:0:
255,191,21841,1,0,0:0:0:0:
255,191,21936,1,0,0:0:0:0:
255,191,22031,1,8,0:0:0:0:
255,191,22126,1,0,0:0:0:0:
255,191,22221,1,0,0:0:0:0:
255,191,22316,1,0,0:0:0:0:
255,191,22411,1,8,0:0:0:0:
255,191,22506,1,0,0:0:0:0:
255,191,22601,1,0,0:0:0:0:
255,191,22696,1,0,0:0:0:0:
255,191,22791,1,8,0:0:0:0:
255,191,22886,1,0,0:0:0:0:
255,191,22981,1,0,0:0:0:0:
255,191,23076,1,0,0:0:0:0:
255,191,23171,1,8,0:0:0:0:
255,191,23265,1,0,0:0:0:0:
255,191,23360,1,0,0:0:0:0:
255,191,23455,1,0,0:0:0:0:
255,191,23550,1,8,0:0:0:0:
255,191,23645,1,0,0:0:0:0:
255,191,23740,1,8,0:0:0:0:
255,191,23835,1,0,0:0:0:0:
255,191,23930,1,8,0:0:0:0:
255,191,24025,1,0,0:0:0:0:
255,191,24120,1,0,0:0:0:0:
255,191,24215,1,0,0:0:0:0:
255,191,24310,1,8,0:0:0:0:
255,191,24405,1,0,0:0:0:0:
255,191,24500,1,0,0:0:0:0:
255,191,24595,1,0,0:0:0:0:
255,191,24690,1,8,0:0:0:0:
255,191,24784,1,0,0:0:0:0:
255,191,24879,1,0,0:0:0:0:
255,191,24974,1,0,0:0:0:0:
255,191,25069,1,8,0:0:0:0:
255,191,25164,1,0,0:0:0:0:
255,191,25259,1,0,0:0:0:0:
255,191,25354,1,0,0:0:0:0:
255,191,25449,1,8,0:0:0:0:
255,191,25544,1,0,0:0:0:0:
255,191,25639,1,0,0:0:0:0:
255,191,25734,1,0,0:0:0:0:
255,191,25829,1,8,0:0:0:0:
255,191,25924,1,0,0:0:0:0:
255,191,26019,1,0,0:0:0:0:
255,191,26114,1,0,0:0:0:0:
255,191,26208,1,8,0:0:0:0:
255,191,26303,1,0,0:0:0:0:
255,191,26398,1,0,0:0:0:0:
255,191,26493,1,0,0:0:0:0:
255,191,26588,1,8,0:0:0:0:
255,191,26683,1,0,0:0:0:0:
255,191,26778,1,8,0:0:0:0:
255,191,26873,1,0,0:0:0:0:
255,191,26968,1,8,0:0:0:0:
255,191,27063,1,0,0:0:0:0:
255,191,27158,1,0,0:0:0:0:
255,191,27253,1,0,0:0:0:0:
255,191,27348,1,8,0:0:0:0:
255,191,27443,1,0,0:0:0:0:
255,191,27538,1,0,0:0:0:0:
255,191,27633,1,0,0:0:0:0:
255,191,27727,1,8,0:0:0:0:
255,191,27822,1,0,0:0:0:0:
255,191,27917,1,0,0:0:0:0:
255,191,28012,1,0,0:0:0:0:
255,191,28107,1,8,0:0:0:0:
255,191,28202,1,0,0:0:0:0:
255,191,28297,1,0,0:0:0:0:
255,191,28392,1,0,0:0:0:0:
255,191,28487,1,8,0:0:0:0:
255,191,28582,1,0,0:0:0:0:
255,191,28677,1,0,0:0:0:0:
255,191,28772,1,0,0:0:0:0:
255,191,28867,1,8,0:0:0:0:
255,191,28962,1,0,0:0:0:0:
255,191,29057,1,0,0:0:0:0:
255,191,29152,1,0,0:0:0:0:
255,191,29246,1,8,0:0:0:0:
255,191,29341,1,0,0:0:0:0:
255,191,29436,1,0,0:0:0:0:
255,191,29531,1,0,0:0:0:0:
255,191,29626,1,8,0:0:0:0:
255,191,29721,1,0,0:0:0:0:
255,191,29816,1,8,0:0:0:0:
255,191,29911,1,0,0:0:0:0:
255,191,30006,1,8,0:0:0:0:
255,191,30101,1,0,0:0:0:0:
255,191,30196,1,0,0:0:0:0:
255,191,30291,1,0,0:0:0:0:
255,191,30386,1,8,0:0:0:0:
255,191,30481,1,0,0:0:0:0:
255,191,30576,1,0,0:0:0:0:
255,191,30671,1,0,0:0:0:0:
255,191,30765,1,8,0:0:0:0:
255,191,30860,1,0,0:0:0:0:
255,191,30955,1,0,0:0:0:0:
255,191,31050,1,0,0:0:0:0:
255,191,31145,1,8,0:0:0:0:
255,191,31240,1,0,0:0:0:0:
255,191,31335,1,0,0:0:0:0:
255,191,31430,1,0,0:0:0:0:
255,191,31525,1,8,0:0:0:0:
255,191,31620,1,0,0:0:0:0:
255,191,31715,1,8,0:0:0:0:
255,191,31810,1,8,0:0:0:0:
255,191,31905,1,8,0:0:0:0:
255,191,32000,1,0,0:0:0:0:
255,191,32095,1,0,0:0:0:0:
255,191,32190,1,0,0:0:0:0:
255,191,32284,1,8,0:0:0:0:
255,191,32379,1,0,0:0:0:0:
255,191,32474,1,0,0:0:0:0:
255,191,32569,1,0,0:0:0:0:
255,191,32664,1,8,0:0:0:0:
255,191,32759,1,0,0:0:0:0:
255,191,32854,1,8,0:0:0:0:
255,191,32949,1,0,0:0:0:0:
255,191,33044,1,8,0:0:0:0:
255,191,33139,1,0,0:0:0:0:
255,191,33234,1,8,0:0:0:0:
255,191,33329,1,0,0:0:0:0:
255,191,33424,1,0,0:0:0:0:
255,191,33519,1,0,0:0:0:0:
255,191,33614,1,8,0:0:0:0:
255,191,33708,1,0,0:0:0:0:
255,191,33803,1,8,0:0:0:0:
255,191,33898,1,0,0:0:0:0:
255,191,33993,1,0,0:0:0:0:
255,191,34088,1,0,0:0:0:0:
255,191,34183,1,8,0:0:0:0:
255,191,34278,1,0,0:0:0:0:
255,191,34373,1,8,0:0:0:0:
255,191,34468,1,0,0:0:0:0:
255,191,34563,1,8,0:0:0:0:
255,191,34658,1,0,0:0:0:0:
255,191,34753,1,0,0:0:0:0:
255,191,34848,1,0,0:0:0:0:
255,191,34943,1,8,0:0:0:0:
255,191,35038,1,0,0:0:0:0:
255,191,35133,1,0,0:0:0:0:
255,191,35227,1,0,0:0:0:0:
255,191,35322,1,8,0:0:0:0:
255,191,35417,1,0,0:0:0:0:
255,191,35512,1,0,0:0:0:0:
255,191,35607,1,0,0:0:0:0:
255,191,35702,1,8,0:0:0:0:
255,191,35797,1,0,0:0:0:0:
255,191,35892,1,8,0:0:0:0:
255,191,35987,1,0,0:0:0:0:
255,191,36082,1,8,0:0:0:0:
255,191,36177,1,0,0:0:0:0:
255,191,36272,1,8,0:0:0:0:
255,191,36367,1,0,0:0:0:0:
255,191,36462,1,0,0:0:0:0:
255,191,36557,1,0,0:0:0:0:
255,191,36652,1,8,0:0:0:0:
255,191,36746,1,0,0:0:0:0:
255,191,36841,1,8,0:0:0:0:
255,191,36936,1,0,0:0:0:0:
255,191,37031,1,0,0:0:0:0:
255,191,37126,1,0,0:0:0:0:
255,191,37221,1,8,0:0:0:0:
255,191,37316,1,0,0:0:0:0:
255,191,37411,1,8,0:0:0:0:
255,191,37506,1,0,0:0:0:0:
255,191,37601,1,8,0:0:0:0:
255,191,37696,1,0,0:0:0:0:
255,191,37791,1,0,0:0:0:0:
255,191,37886,1,0,0:0:0:0:
255,191,37981,1,8,0:0:0:0:
255,191,38076,1,0,0:0:0:0:
255,191,38171,1,0,0:0:0:0:
255,191,38265,1,0,0:0:0:0:
255,191,38360,1,8,0:0:0:0:
255,191,38455,1,0,0:0:0:0:
255,191,38550,1,0,0:0:0:0:
255,191,38645,1,0,0:0:0:0:
255,191,38740,1,8,0:0:0:0:
255,191,38835,1,0,0:0:0:0:
255,191,38930,1,8,0:0:0:0:
255,191,39025,1,0,0:0:0:0:
255,191,39120,1,8,0:0:0:0:
255,191,39215,1,0,0:0:0:0:
255,191,39310,1,8,0:0:0:0:
255,191,39405,1,0,0:0:0:0:
255,191,39500,1,0,0:0:0:0:
255,191,39595,1,0,0:0:0:0:
255,191,39690,1,8,0:0:0:0:
255,191,39784,1,0,0:0:0:0:
255,191,39879,1,8,0:0:0:0:
255,191,39974,1,0,0:0:0:0:
255,191,40069,1,0,0:0:0:0:
255,191,40164,1,0,0:0:0:0:
255,191,40259,1,8,0:0:0:0:
255,191,40354,1,0,0:0:0:0:
255,191,40449,1,8,0:0:0:0:
255,191,40544,1,0,0:0:0:0:
255,191,40639,1,8,0:0:0:0:
255,191,40734,1,0,0:0:0:0:
255,191,40829,1,0,0:0:0:0:
255,191,40924,1,0,0:0:0:0:
255,191,41019,1,8,0:0:0:0:
255,191,41114,1,0,0:0:0:0:
255,191,41208,1,8,0:0:0:0:
255,191,41303,1,0,0:0:0:0:
255,191,41398,1,8,0:0:0:0:
255,191,41493,1,0,0:0:0:0:
255,191,41588,1,0,0:0:0:0:
255,191,41683,1,0,0:0:0:0:
255,191,41778,1,8,0:0:0:0:
255,191,41873,1,0,0:0:0:0:
255,191,41968,1,8,0:0:0:0:
255,191,42063,1,0,0:0:0:0:
255,191,42158,1,8,0:0:0:0:
255,191,42253,1,0,0:0:0:0:
255,191,42348,1,8,0:0:0:0:
255,191,42443,1,8,0:0:0:0:
255,191,42538,1,8,0:0:0:0:
255,191,42633,1,0,0:0:0:0:
255,191,42727,1,0,0:0:0:0:
255,191,42822,1,0,0:0:0:0:
255,191,42917,1,8,0:0:0:0:
255,191,43012,1,0,0:0:0:0:
255,191,43107,1,0,0:0:0:0:
255,191,43202,1,0,0:0:0:0:
255,191,43297,1,8,0:0:0:0:
255,191,43392,1,0,0:0:0:0:
255,191,43487,1,8,0:0:0:0:
255,191,43582,1,0,0:0:0:0:
255,191,43677,1,8,0:0:0:0:
255,191,43772,1,0,0:0:0:0:
255,191,43867,1,8,0:0:0:0:
255,191,43962,1,0,0:0:0:0:
255,191,44057,1,0,0:0:0:0:
255,191,44152,1,0,0:0:0:0:
255,191,44246,1,8,0:0:0:0:
255,191,44341,1,0,0:0:0:0:
255,191,44436,1,8,0:0:0:0:
255,191,44531,1,0,0:0:0:0:
255,191,44626,1,0,0:0:0:0:
255,191,44721,1,0,0:0:0:0:
255,191,44816,1,8,0:0:0:0:
255,191,44911,1,0,0:0:0:0:
255,191,45006,1,8,0:0:0:0:
255,191,45101,1,0,0:0:0:0:
255,191,45196,1,8,0:0:0:0:
255,191,45291,1,0,0:0:0:0:
255,191,45386,1,0,0:0:0:0:
255,191,45481,1,0,0:0:0:0:
255,191,45576,1,8,0:0:0:0:
255,191,45671,1,0,0:0:0:0:
255,191,45765,1,0,0:0:0:0:
255,191,45860,1,0,0:0:0:0:
255,191,45955,1,8,0:0:0:0:
255,191,46050,1,0,0:0:0:0:
255,191,46145,1,0,0:0:0:0:
255,191,46240,1,0,0:0:0:0:
255,191,46335,1,8,0:0:0:0:
255,191,46430,1,0,0:0:0:0:
255,191,46525,1,8,0:0:0:0:
255,191,46620,1,0,0:0:0:0:
255,191,46715,1,8,0:0:0:0:
255,191,46810,1,0,0:0:0:0:
255,191,46905,1,8,0:0:0:0:
255,191,47000,1,0,0:0:0:0:
255,191,47095,1,0,0:0:0:0:
255,191,47190,1,0,0:0:0:0:
255,191,47284,1,8,0:0:0:0:
255,191,47379,1,0,0:0:0:0:
255,191,47474,1,8,0:0:0:0:
255,191,47569,1,0,0:0:0:0:
255,191,47664,1,0,0:0:0:0:
255,191,47759,1,0,0:0:0:0:
255,191,47854,1,8,0:0:0:0:
255,191,47949,1,0,0:0:0:0:
255,191,48044,1,8,0:0:0:0:
255,191,48139,1,0,0:0:0:0:
255,191,48234,1,8,0:0:0:0:
255,191,48329,1,0,0:0:0:0:
255,191,48424,1,0,0:0:0:0:
255,191,48519,1,0,0:0:0:0:
255,191,48614,1,8,0:0:0:0:
255,191,48708,1,0,0:0:0:0:
255,191,48803,1,0,0:0:0:0:
255,191,48898,1,0,0:0:0:0:
255,191,48993,1,8,0:0:0:0:
255,191,49088,1,0,0:0:0:0:
255,191,49183,1,0,0:0:0:0:
255,191,49278,1,0,0:0:0:0:
255,191,49373,1,8,0:0:0:0:
255,191,49468,1,0,0:0:0:0:
255,191,49563,1,8,0:0:0:0:
255,191,49658,1,0,0:0:0:0:
255,191,49753,1,8,0:0:0:0:
255,191,49848,1,0,0:0:0:0:
255,191,49943,1,8,0:0:0:0:
255,191,50038,1,0,0:0:0:0:
255,191,50133,1,0,0:0:0:0:
255,191,50227,1,0,0:0:0:0:
255,191,50322,1,8,0:0:0:0:
255,191,50417,1,0,0:0:0:0:
255,191,50512,1,8,0:0:0:0:
255,191,50607,1,0,0:0:0:0:
255,191,50702,1,0,0:0:0:0:
255,191,50797,1,0,0:0:0:0:
255,191,50892,1,8,0:0:0:0:
255,191,50987,1,0,0:0:0:0:
255,191,51082,1,8,0:0:0:0:
255,191,51177,1,0,0:0:0:0:
255,191,51272,1,8,0:0:0:0:
255,191,51367,1,0,0:0:0:0:
255,191,51462,1,0,0:0:0:0:
255,191,51557,1,0,0:0:0:0:
255,191,51652,1,8,0:0:0:0:
255,191,51746,1,0,0:0:0:0:
255,191,51841,1,8,0:0:0:0:
255,191,51936,1,0,0:0:0:0:
255,191,52031,1,8,0:0:0:0:
255,191,52126,1,0,0:0:0:0:
255,191,52221,1,0,0:0:0:0:
255,191,52316,1,0,0:0:0:0:
255,191,52411,1,8,0:0:0:0:
255,191,52506,1,0,0:0:0:0:
255,191,52601,1,8,0:0:0:0:
255,191,52696,1,0,0:0:0:0:
255,191,52791,1,8,0:0:0:0:
255,191,52886,1,0,0:0:0:0:
255,191,52981,1,8,0:0:0:0:
255,191,53076,1,8,0:0:0:0:
255,191,53171,1,8,0:0:0:0:
255,191,53265,1,0,0:0:0:0:
255,191,53360,1,0,0:0:0:0:
255,191,53455,1,0,0:0:0:0:
255,191,53550,1,8,0:0:0:0:
255,191,53645,1,0,0:0:0:0:
255,191,53740,1,0,0:0:0:0:
255,191,53835,1,0,0:0:0:0:
255,191,53930,1,8,0:0:0:0:
255,191,54025,1,0,0:0:0:0:
255,191,54120,1,0,0:0:0:0:
255,191,54215,1,0,0:0:0:0:
255,191,54310,1,8,0:0:0:0:
255,191,54405,1,0,0:0:0:0:
255,191,54500,1,0,0:0:0:0:
255,191,54595,1,0,0:0:0:0:
255,191,54690,1,8,0:0:0:0:
255,191,54784,1,0,0:0:0:0:
255,191,54879,1,0,0:0:0:0:
255,191,54974,1,0,0:0:0:0:
255,191,55069,1,8,0:0:0:0:
255,191,55164,1,0,0:0:0:0:
255,191,55259,1,0,0:0:0:0:
255,191,55354,1,0,0:0:0:0:
255,191,55449,1,8,0:0:0:0:
255,191,55544,1,0,0:0:0:0:
255,191,55639,1,8,0:0:0:0:
255,191,55734,1,0,0:0:0:0:
255,191,55829,1,8,0:0:0:0:
255,191,55924,1,0,0:0:0:0:
255,191,56019,1,0,0:0:0:0:
255,191,56114,1,0,0:0:0:0:
255,191,56208,1,8,0:0:0:0:
255,191,56303,1,0,0:0:0:0:
255,191,56398,1,0,0:0:0:0:
255,191,56493,1,0,0:0:0:0:
255,191,56588,1,8,0:0:0:0:
255,191,56683,1,0,0:0:0:0:
255,191,56778,1,0,0:0:0:0:
255,191,56873,1,0,0:0:0:0:
255,191,56968,1,8,0:0:0:0:
255,191,57063,1,0,0:0:0:0:
255,191,57158,1,0,0:0:0:0:
255,191,57253,1,0,0:0:0:0:
255,191,57348,1,8,0:0:0:0:
255,191,57443,1,0,0:0:0:0:
255,191,57538,1,0,0:0:0:0:
255,191,57633,1,0,0:0:0:0:
255,191,57727,1,8,0:0:0:0:
255,191,57822,1,0,0:0:0:0:
255,191,57917,1,0,0:0:0:0:
255,191,58012,1,0,0:0:0:0:
255,191,58107,1,8,0:0:0:0:
255,191,58202,1,0,0:0:0:0:
255,191,58297,1,0,0:0:0:0:
255,191,58392,1,0,0:0:0:0:
255,191,58487,1,8,0:0:0:0:
255,191,58582,1,0,0:0:0:0:
255,191,58677,1,8,0:0:0:0:
255,191,58772,1,0,0:0:0:0:
255,191,58867,1,8,0:0:0:0:
255,191,58962,1,0,0:0:0:0:
255,191,59057,1,0,0:0:0:0:
255,191,59152,1,0,0:0:0:0:
255,191,59246,1,8,0:0:0:0:
255,191,59341,1,0,0:0:0:0:
255,191,59436,1,0,0:0:0:0:
255,191,59531,1,0,0:0:0:0:
255,191,59626,1,8,0:0:0:0:
255,191,59721,1,0,0:0:0:0:
255,191,59816,1,0,0:0:0:0:
255,191,59911,1,0,0:0:0:0:
255,191,60006,1,8,0:0:0:0:
255,191,60101,1,0,0:0:0:0:
255,191,60196,1,0,0:0:0:0:
255,191,60291,1,0,0:0:0:0:
255,191,60386,1,8,0:0:0:0:
255,191,60481,1,0,0:0:0:0:
255,191,60576,1,0,0:0:0:0:
255,191,60671,1,0,0:0:0:0:
255,191,60765,1,8,0:0:0:0:
255,191,60860,1,0,0:0:0:0:
255,191,60955,1,0,0:0:0:0:
255,191,61050,1,0,0:0:0:0:
255,191,61145,1,8,0:0:0:0:
255,191,61240,1,0,0:0:0:0:
255,191,61335,1,0,0:0:0:0:
255,191,61430,1,0,0:0:0:0:
255,191,61525,1,8,0:0:0:0:
255,191,61620,1,0,0:0:0:0:
255,191,61715,1,8,0:0:0:0:
255,191,61810,1,0,0:0:0:0:
255,191,61905,1,8,0:0:0:0:
255,191,62000,1,0,0:0:0:0:
255,191,62095,1,0,0:0:0:0:
255,191,62190,1,0,0:0:0:0:
255,191,62284,5,8,0:0:0:0:
255,191,62379,1,0,0:0:0:0:
255,191,62474,1,0,0:0:0:0:
255,191,62569,1,0,0:0:0:0:
255,191,62664,1,8,0:0:0:0:
255,191,62759,1,0,0:0:0:0:
255,191,62854,1,0,0:0:0:0:
255,191,62949,1,0,0:0:0:0:
255,191,63044,1,8,0:0:0:0:
255,191,63139,1,0,0:0:0:0:
255,191,63234,1,0,0:0:0:0:
255,191,63329,1,0,0:0:0:0:
255,191,63424,5,8,0:0:0:0:
255,191,63519,1,0,0:0:0:0:
255,191,63614,1,8,0:0:0:0:
255,191,63708,1,8,0:0:0:0:
255,191,63803,1,8,0:0:0:0:
255,191,63898,1,0,0:0:0:0:
255,191,63993,1,0,0:0:0:0:
255,191,64088,1,0,0:0:0:0:
255,191,64183,1,8,0:0:0:0:
255,191,64278,1,0,0:0:0:0:
255,191,64373,1,0,0:0:0:0:
255,191,64468,1,0,0:0:0:0:
255,191,64563,1,8,0:0:0:0:
255,191,64658,1,0,0:0:0:0:
255,191,64753,1,8,0:0:0:0:
255,191,64848,1,0,0:0:0:0:
255,191,64943,1,8,0:0:0:0:
255,191,65038,1,0,0:0:0:0:
255,191,65133,1,8,0:0:0:0:
255,191,65227,1,0,0:0:0:0:
255,191,65322,1,0,0:0:0:0:
255,191,65417,1,0,0:0:0:0:
255,191,65512,1,8,0:0:0:0:
255,191,65607,1,0,0:0:0:0:
255,191,65702,1,8,0:0:0:0:
255,191,65797,1,0,0:0:0:0:
255,191,65892,1,0,0:0:0:0:
255,191,65987,1,0,0:0:0:0:
255,191,66082,1,8,0:0:0:0:
255,191,66177,1,0,0:0:0:0:
255,191,66272,1,8,0:0:0:0:
255,191,66367,1,0,0:0:0:0:
255,191,66462,1,8,0:0:0:0:
255,191,66557,1,0,0:0:0:0:
255,191,66652,1,0,0:0:0:0:
255,191,66746,1,0,0:0:0:0:
255,191,66841,1,8,0:0:0:0:
255,191,66936,1,0,0:0:0:0:
255,191,67031,1,0,0:0:0:0:
255,191,67126,1,0,0:0:0:0:
255,191,67221,1,8,0:0:0:0:
255,191,67316,1,0,0:0:0:0:
255,191,67411,1,0,0:0:0:0:
255,191,67506,1,0,0:0:0:0:
255,191,67601,1,8,0:0:0:0:
255,191,67696,1,0,0:0:0:0:
255,191,67791,1,8,0:0:0:0:
255,191,67886,1,0,0:0:0:0:
255,191,67981,1,8,0:0:0:0:
255,191,68076,1,0,0:0:0:0:
255,191,68171,1,8,0:0:0:0:
255,191,68265,1,0,0:0:0:0:
255,191,68360,1,0,0:0:0:0:
255,191,68455,1,0,0:0:0:0:
255,191,68550,1,8,0:0:0:0:
255,191,68645,1,0,0:0:0:0:
255,191,68740,1,8,0:0:0:0:
255,191,68835,1,0,0:0:0:0:
255,191,68930,1,0,0:0:0:0:
255,191,69025,1,0,0:0:0:0:
255,191,69120,1,8,0:0:0:0:
255,191,69215,1,0,0:0:0:0:
255,191,69310,1,8,0:0:0:0:
255,191,69405,1,0,0:0:0:0:
255,191,69500,1,8,0:0:0:0:
255,191,69595,1,0,0:0:0:0:
255,191,69690,1,0,0:0:0:0:
255,191,69784,1,0,0:0:0:0:
255,191,69879,1,8,0:0:0:0:
255,191,69974,1,0,0:0:0:0:
255,191,70069,1,0,0:0:0:0:
255,191,70164,1,0,0:0:0:0:
255,191,70259,1,8,0:0:0:0:
255,191,70354,1,0,0:0:0:0:
255,191,70449,1,0,0:0:0:0:
255,191,70544,1,0,0:0:0:0:
255,191,70639,1,8,0:0:0:0:
255,191,70734,1,0,0:0:0:0:
255,191,70829,1,8,0:0:0:0:
255,191,70924,1,0,0:0:0:0:
255,191,71019,1,8,0:0:0:0:
255,191,71114,1,0,0:0:0:0:
255,191,71208,1,8,0:0:0:0:
255,191,71303,1,0,0:0:0:0:
255,191,71398,1,0,0:0:0:0:
255,191,71493,1,0,0:0:0:0:
255,191,71588,1,8,0:0:0:0:
255,191,71683,1,0,0:0:0:0:
255,191,71778,1,8,0:0:0:0:
255,191,71873,1,0,0:0:0:0:
255,191,71968,1,0,0:0:0:0:
255,191,72063,1,0,0:0:0:0:
255,191,72158,1,8,0:0:0:0:
255,191,72253,1,0,0:0:0:0:
255,191,72348,1,8,0:0:0:0:
255,191,72443,1,0,0:0:0:0:
255,191,72538,1,8,0:0:0:0:
255,191,72633,1,0,0:0:0:0:
255,191,72727,1,0,0:0:0:0:
255,191,72822,1,0,0:0:0:0:
255,191,72917,1,8,0:0:0:0:
255,191,73012,1,0,0:0:0:0:
255,191,73107,1,8,0:0:0:0:
255,191,73202,1,0,0:0:0:0:
255,191,73297,1,8,0:0:0:0:
255,191,73392,1,0,0:0:0:0:
255,191,73487,1,0,0:0:0:0:
255,191,73582,1,0,0:0:0:0:
255,191,73677,1,8,0:0:0:0:
255,191,73772,1,0,0:0:0:0:
255,191,73867,1,8,0:0:0:0:
255,191,73962,1,0,0:0:0:0:
255,191,74057,1,8,0:0:0:0:
255,191,74152,1,0,0:0:0:0:
255,191,74246,1,8,0:0:0:0:
255,191,74341,1,8,0:0:0:0:
255,191,74436,1,8,0:0:0:0:
255,191,74531,1,0,0:0:0:0:
255,191,74626,1,0,0:0:0:0:
255,191,74721,1,0,0:0:0:0:
255,191,74816,1,8,0:0:0:0:
255,191,74911,1,0,0:0:0:0:
255,191,75006,1,0,0:0:0:0:
255,191,75101,1,0,0:0:0:0:
255,191,75196,1,8,0:0:0:0:
255,191,75291,1,0,0:0:0:0:
255,191,75386,1,8,0:0:0:0:
255,191,75481,1,0,0:0:0:0:
255,191,75576,1,8,0:0:0:0:
255,191,75671,1,0,0:0:0:0:
255,191,75765,1,8,0:0:0:0:
255,191,75860,1,0,0:0:0:0:
255,191,75955,1,0,0:0:0:0:
255,191,76050,1,0,0:0:0:0:
255,191,76145,1,8,0:0:0:0:
255,191,76240,1,0,0:0:0:0:
255,191,76335,1,8,0:0:0:0:
255,191,76430,1,0,0:0:0:0:
255,191,76525,1,0,0:0:0:0:
255,191,76620,1,0,0:0:0:0:
255,191,76715,1,8,0:0:0:0:
255,191,76810,1,0,0:0:0:0:
255,191,76905,1,8,0:0:0:0:
255,191,77000,1,0,0:0:0:0:
255,191,77095,1,8,0:0:0:0:
255,191,77190,1,0,0:0:0:0:
255,191,77284,1,0,0:0:0:0:
255,191,77379,1,0,0:0:0:0:
255,191,77474,1,8,0:0:0:0:
255,191,77569,1,0,0:0:0:0:
255,191,77664,1,0,0:0:0:0:
255,191,77759,1,0,0:0:0:0:
255,191,77854,1,8,0:0:0:0:
255,191,77949,1,0,0:0:0:0:
255,191,78044,1,0,0:0:0:0:
255,191,78139,1,0,0:0:0:0:
255,191,78234,1,8,0:0:0:0:
255,191,78329,1,0,0:0:0:0:
255,191,78424,1,8,0:0:0:0:
255,191,78519,1,0,0:0:0:0:
255,191,78614,1,8,0:0:0:0:
255,191,78708,1,0,0:0:0:0:
255,191,78803,1,8,0:0:0:0:
255,191,78898,1,0,0:0:0:0:
255,191,78993,1,0,0:0:0:0:
255,191,79088,1,0,0:0:0:0:
255,191,79183,1,8,0:0:0:0:
255,191,79278,1,0,0:0:0:0:
255,191,79373,1,8,0:0:0:0:
255,191,79468,1,0,0:0:0:0:
255,191,79563,1,0,0:0:0:0:
255,191,79658,1,0,0:0:0:0:
255,191,79753,1,8,0:0:0:0:
255,191,79848,1,0,0:0:0:0:
255,191,79943,1,8,0:0:0:0:
255,191,80038,1,0,0:0:0:0:
255,191,80133,1,8,0:0:0:0:
255,191,80227,1,0,0:0:0:0:
255,191,80322,1,0,0:0:0:0:
255,191,80417,1,0,0:0:0:0:
255,191,80512,1,8,0:0:0:0:
255,191,80607,1,0,0:0:0:0:
255,191,80702,1,8,0:0:0:0:
255,191,80797,1,0,0:0:0:0:
255,191,80892,1,8,0:0:0:0:
255,191,80987,1,0,0:0:0:0:
255,191,81082,1,0,0:0:0:0:
255,191,81177,1,0,0:0:0:0:
255,191,81272,1,8,0:0:0:0:
255,191,81367,1,0,0:0:0:0:
255,191,81462,1,8,0:0:0:0:
255,191,81557,1,0,0:0:0:0:
255,191,81652,1,8,0:0:0:0:
255,191,81746,1,0,0:0:0:0:
255,191,81841,1,0,0:0:0:0:
255,191,81936,1,0,0:0:0:0:
255,191,82031,1,8,0:0:0:0:
255,191,82126,1,0,0:0:0:0:
255,191,82221,1,8,0:0:0:0:
255,191,82316,1,0,0:0:0:0:
255,191,82411,1,8,0:0:0:0:
255,191,82506,1,0,0:0:0:0:
255,191,82601,1,0,0:0:0:0:
255,191,82696,1,0,0:0:0:0:
255,191,82791,1,8,0:0:0:0:
255,191,82886,1,0,0:0:0:0:
255,191,82981,1,8,0:0:0:0:
255,191,83076,1,0,0:0:0:0:
255,191,83171,1,8,0:0:0:0:
255,191,83265,1,0,0:0:0:0:
255,191,83360,1,0,0:0:0:0:
255,191,83455,1,0,0:0:0:0:
255,191,83550,1,8,0:0:0:0:
255,191,83645,1,0,0:0:0:0:
255,191,83740,1,8,0:0:0:0:
255,191,83835,1,0,0:0:0:0:
255,191,83930,1,8,0:0:0:0:
255,191,84025,1,0,0:0:0:0:
255,191,84120,1,8,0:0:0:0:
255,191,84215,1,0,0:0:0:0:
255,191,84310,1,8,0:0:0:0:
255,191,84405,1,0,0:0:0:0:
255,191,84500,1,8,0:0:0:0:
255,191,84595,1,8,0:0:0:0:
255,191,84690,1,8,0:0:0:0:
255,191,84784,1,8,0:0:0:0:
255,191,84879,1,8,0:0:0:0:
255,191,84974,1,8,0:0:0:0:
255,191,85069,1,12,0:0:0:0:
255,191,85259,1,4,0:0:0:0:
255,191,85449,1,4,0:0:0:0:
255,191,85639,1,12,0:0:0:0:
255,191,85829,1,4,0:0:0:0:
255,191,86019,1,4,0:0:0:0:
255,191,86208,1,12,0:0:0:0:
255,191,86398,1,4,0:0:0:0:
255,191,86588,1,4,0:0:0:0:
255,191,86778,1,12,0:0:0:0:
255,191,86968,1,4,0:0:0:0:
255,191,87158,1,4,0:0:0:0:
255,191,87348,1,12,0:0:0:0:
255,191,87538,1,4,0:0:0:0:
255,191,87727,1,12,0:0:0:0:
255,191,87917,1,4,0:0:0:0:
255,191,88297,1,4,0:0:0:0:
255,191,88487,1,12,0:0:0:0:
255,191,88867,1,4,0:0:0:0:
255,191,89057,1,12,0:0:0:0:
255,191,89246,1,4,0:0:0:0:
255,191,89436,1,4,0:0:0:0:
255,191,89816,1,0,0:0:0:0:
255,191,89911,1,0,0:0:0:0:
255,191,90006,1,0,0:0:0:0:
255,191,90101,1,0,0:0:0:0:
255,191,90196,1,12,0:0:0:0:
255,191,90386,1,0,0:0:0:0:
255,191,90481,1,0,0:0:0:0:
255,191,90576,1,0,0:0:0:0:
255,191,90671,1,0,0:0:0:0:
255,191,90765,1,12,0:0:0:0:
255,191,90955,1,0,0:0:0:0:
255,191,91050,1,0,0:0:0:0:
255,191,91145,1,0,0:0:0:0:
255,191,91240,1,0,0:0:0:0:
255,191,91335,1,12,0:0:0:0:
255,191,91525,1,0,0:0:0:0:
255,191,91620,1,0,0:0:0:0:
255,191,91715,1,0,0:0:0:0:
255,191,91810,1,0,0:0:0:0:
255,191,91905,1,0,0:0:0:0:
255,191,92000,1,0,0:0:0:0:
255,191,92095,1,8,0:0:0:0:
255,191,92190,1,8,0:0:0:0:
255,191,92284,1,0,0:0:0:0:
255,191,92379,1,0,0:0:0:0:
255,191,92474,1,12,0:0:0:0:
255,191,92854,1,4,0:0:0:0:
255,191,93044,1,12,0:0:0:0:
255,191,93424,1,4,0:0:0:0:
255,191,93614,1,4,0:0:0:0:
255,191,93803,1,12,0:0:0:0:
255,191,93993,1,4,0:0:0:0:
255,191,94183,1,12,0:0:0:0:
255,191,94373,1,4,0:0:0:0:
255,191,94563,1,12,0:0:0:0:
255,191,94753,1,4,0:0:0:0:
255,191,94943,1,12,0:0:0:0:
255,191,95133,1,4,0:0:0:0:
255,191,95322,1,12,0:0:0:0:
255,191,95512,1,4,0:0:0:0:
255,191,95702,1,12,0:0:0:0:
255,191,95892,1,4,0:0:0:0:
255,191,96082,1,12,0:0:0:0:
255,191,96272,1,4,0:0:0:0:
255,191,96462,1,12,0:0:0:0:
255,191,96652,1,12,0:0:0:0:
255,191,96841,1,12,0:0:0:0:
255,191,97031,1,4,0:0:0:0:
255,191,97411,1,4,0:0:0:0:
255,191,97601,1,12,0:0:0:0:
255,191,97981,1,12,0:0:0:0:
255,191,98171,1,12,0:0:0:0:
255,191,98360,1,4,0:0:0:0:
255,191,98550,1,12,0:0:0:0:
255,191,98930,1,4,0:0:0:0:
255,191,99120,1,12,0:0:0:0:
255,191,99500,1,12,0:0:0:0:
255,191,99690,1,12,0:0:0:0:
255,191,99879,1,4,0:0:0:0:
255,191,100069,1,12,0:0:0:0:
255,191,100449,1,4,0:0:0:0:
255,191,100639,1,12,0:0:0:0:
255,191,100829,1,4,0:0:0:0:
255,191,101019,1,4,0:0:0:0:
255,191,101208,1,0,0:0:0:0:
255,191,101303,1,0,0:0:0:0:
255,191,101398,1,12,0:0:0:0:
255,191,101588,1,4,0:0:0:0:
255,191,101778,1,0,0:0:0:0:
255,191,101873,1,0,0:0:0:0:
255,191,101968,1,12,0:0:0:0:
255,191,102158,1,4,0:0:0:0:
255,191,102348,1,0,0:0:0:0:
255,191,102443,1,0,0:0:0:0:
255,191,102538,1,0,0:0:0:0:
255,191,102633,1,0,0:0:0:0:
255,191,102727,1,8,0:0:0:0:
255,191,102822,1,8,0:0:0:0:
255,191,102917,1,0,0:0:0:0:
255,191,103012,1,0,0:0:0:0:
255,191,103107,1,12,0:0:0:0:
255,191,103487,1,4,0:0:0:0:
255,191,103677,1,12,0:0:0:0:
255,191,104057,1,12,0:0:0:0:
255,191,104246,1,12,0:0:0:0:
255,191,104436,1,4,0:0:0:0:
255,191,104626,1,12,0:0:0:0:
255,191,105006,1,4,0:0:0:0:
255,191,105196,1,12,0:0:0:0:
255,191,105576,1,12,0:0:0:0:
255,191,105765,1,12,0:0:0:0:
255,191,105955,1,4,0:0:0:0:
255,191,106145,1,12,0:0:0:0:
255,191,106525,1,4,0:0:0:0:
255,191,106715,1,12,0:0:0:0:
255,191,106905,1,4,0:0:0:0:
255,191,107095,1,4,0:0:0:0:
255,191,107284,1,0,0:0:0:0:
255,191,107379,1,0,0:0:0:0:
255,191,107474,1,12,0:0:0:0:
255,191,107569,1,0,0:0:0:0:
255,191,107664,1,0,0:0:0:0:
255,191,107759,1,0,0:0:0:0:
255,191,107854,1,0,0:0:0:0:
255,191,107949,1,0,0:0:0:0:
255,191,108044,1,12,0:0:0:0:
255,191,108139,1,0,0:0:0:0:
255,191,108234,1,0,0:0:0:0:
255,191,108329,1,0,0:0:0:0:
255,191,108424,1,0,0:0:0:0:
255,191,108519,1,0,0:0:0:0:
255,191,108614,1,0,0:0:0:0:
255,191,108708,1,0,0:0:0:0:
255,191,108803,1,8,0:0:0:0:
255,191,108898,1,8,0:0:0:0:
255,191,108993,1,0,0:0:0:0:
255,191,109088,1,0,0:0:0:0:
255,191,109183,1,12,0:0:0:0:
255,191,109563,1,4,0:0:0:0:
255,191,109753,1,12,0:0:0:0:
255,191,110133,1,12,0:0:0:0:
255,191,110322,1,12,0:0:0:0:
255,191,110512,1,4,0:0:0:0:
255,191,110702,1,12,0:0:0:0:
255,191,111082,1,4,0:0:0:0:
255,191,111272,1,12,0:0:0:0:
255,191,111652,1,12,0:0:0:0:
255,191,111841,1,12,0:0:0:0:
255,191,112031,1,4,0:0:0:0:
255,191,112221,1,12,0:0:0:0:
255,191,112601,1,4,0:0:0:0:
255,191,112791,1,12,0:0:0:0:
255,191,113171,1,12,0:0:0:0:
255,191,113360,1,12,0:0:0:0:
255,191,113550,1,4,0:0:0:0:
255,191,113740,1,12,0:0:0:0:
255,191,114120,1,4,0:0:0:0:
255,191,114310,1,12,0:0:0:0:
255,191,114690,1,12,0:0:0:0:
255,191,114879,1,12,0:0:0:0:
255,191,115069,1,4,0:0:0:0:
255,191,115259,1,8,0:0:0:0:
255,191,115354,1,8,0:0:0:0:
255,191,115449,1,4,0:0:0:0:
255,191,115639,1,4,0:0:0:0:
255,191,115829,1,12,0:0:0:0:
255,191,116208,1,4,0:0:0:0:
255,191,116398,1,4,0:0:0:0:
255,191,116588,1,12,0:0:0:0:
255,191,116968,1,4,0:0:0:0:
255,191,117158,1,4,0:0:0:0:
255,191,117348,1,12,0:0:0:0:
255,191,117727,1,4,0:0:0:0:
255,191,117917,1,4,0:0:0:0:
255,191,118107,1,12,0:0:0:0:
255,191,118297,1,0,0:0:0:0:
255,191,118392,1,0,0:0:0:0:
255,191,118487,1,12,0:0:0:0:
255,191,118867,1,8,0:0:0:0:
255,191,118962,1,0,0:0:0:0:
255,191,119057,1,0,0:0:0:0:
255,191,119152,1,0,0:0:0:0:
255,191,119246,1,8,0:0:0:0:
255,191,119341,1,0,0:0:0:0:
255,191,119436,1,0,0:0:0:0:
255,191,119531,1,0,0:0:0:0:
255,191,119626,1,8,0:0:0:0:
255,191,119721,1,0,0:0:0:0:
255,191,119816,1,0,0:0:0:0:
255,191,119911,1,0,0:0:0:0:
255,191,120006,1,8,0:0:0:0:
255,191,120101,1,0,0:0:0:0:
255,191,120196,1,0,0:0:0:0:
255,191,120291,1,0,0:0:0:0:
255,191,120386,1,8,0:0:0:0:
255,191,120481,1,0,0:0:0:0:
255,191,120576,1,0,0:0:0:0:
255,191,120671,1,0,0:0:0:0:
255,191,120765,1,8,0:0:0:0:
255,191,120860,1,0,0:0:0:0:
255,191,120955,1,8,0:0:0:0:
255,191,121050,1,0,0:0:0:0:
255,191,121145,1,8,0:0:0:0:
255,191,121240,1,0,0:0:0:0:
255,191,121335,1,0,0:0:0:0:
255,191,121430,1,0,0:0:0:0:
255,191,121525,1,8,0:0:0:0:
255,191,121620,1,0,0:0:0:0:
255,191,121715,1,0,0:0:0:0:
255,191,121810,1,0,0:0:0:0:
255,191,121905,1,8,0:0:0:0:
255,191,122000,1,0,0:0:0:0:
255,191,122095,1,0,0:0:0:0:
255,191,122190,1,0,0:0:0:0:
255,191,122284,1,8,0:0:0:0:
255,191,122379,1,0,0:0:0:0:
255,191,122474,1,0,0:0:0:0:
255,191,122569,1,0,0:0:0:0:
255,191,122664,1,8,0:0:0:0:
255,191,122759,1,0,0:0:0:0:
255,191,122854,1,0,0:0:0:0:
255,191,122949,1,0,0:0:0:0:
255,191,123044,1,8,0:0:0:0:
255,191,123139,1,0,0:0:0:0:
255,191,123234,1,0,0:0:0:0:
255,191,123329,1,0,0:0:0:0:
255,191,123424,1,8,0:0:0:0:
255,191,123519,1,0,0:0:0:0:
255,191,123614,1,0,0:0:0:0:
255,191,123708,1,0,0:0:0:0:
255,191,123803,1,8,0:0:0:0:
255,191,123898,1,0,0:0:0:0:
255,191,123993,1,8,0:0:0:0:
255,191,124088,1,0,0:0:0:0:
255,191,124183,1,8,0:0:0:0:
255,191,124278,1,0,0:0:0:0:
255,191,124373,1,0,0:0:0:0:
255,191,124468,1,0,0:0:0:0:
255,191,124563,1,8,0:0:0:0:
255,191,124658,1,0,0:0:0:0:
255,191,124753,1,0,0:0:0:0:
255,191,124848,1,0,0:0:0:0:
255,191,124943,1,8,0:0:0:0:
255,191,125038,1,0,0:0:0:0:
255,191,125133,1,0,0:0:0:0:
255,191,125227,1,0,0:0:0:0:
255,191,125322,1,8,0:0:0:0:
255,191,125417,1,0,0:0:0:0:
255,191,125512,1,0,0:0:0:0:
255,191,125607,1,0,0:0:0:0:
255,191,125702,1,8,0:0:0:0:
255,191,125797,1,0,0:0:0:0:
255,191,125892,1,0,0:0:0:0:
255,191,125987,1,0,0:0:0:0:
255,191,126082,1,8,0:0:0:0:
255,191,126177,1,0,0:0:0:0:
255,191,126272,1,0,0:0:0:0:
255,191,126367,1,0,0:0:0:0:
255,191,126462,1,8,0:0:0:0:
255,191,126557,1,0,0:0:0:0:
255,191,126652,1,0,0:0:0:0:
255,191,126746,1,0,0:0:0:0:
255,191,126841,1,8,0:0:0:0:
255,191,126936,1,0,0:0:0:0:
255,191,127031,1,8,0:0:0:0:
255,191,127126,1,0,0:0:0:0:
255,191,127221,1,8,0:0:0:0:
255,191,127316,1,0,0:0:0:0:
255,191,127411,1,0,0:0:0:0:
255,191,127506,1,0,0:0:0:0:
255,191,127601,1,8,0:0:0:0:
255,191,127696,1,0,0:0:0:0:
255,191,127791,1,0,0:0:0:0:
255,191,127886,1,0,0:0:0:0:
255,191,127981,1,8,0:0:0:0:
255,191,128076,1,0,0:0:0:0:
255,191,128171,1,0,0:0:0:0:
255,191,128265,1,0,0:0:0:0:
255,191,128360,1,8,0:0:0:0:
255,191,128455,1,0,0:0:0:0:
255,191,128550,1,0,0:0:0:0:
255,191,128645,1,0,0:0:0:0:
255,191,128740,1,8,0:0:0:0:
255,191,128835,1,0,0:0:0:0:
255,191,128930,1,8,0:0:0:0:
255,191,129025,1,8,0:0:0:0:
255,191,129113,1,8,0:0:0:0:
255,191,129207,1,0,0:0:0:0:
255,191,129302,1,0,0:0:0:0:
255,191,129397,1,0,0:0:0:0:
255,191,129492,1,8,0:0:0:0:
255,191,129587,1,0,0:0:0:0:
255,191,129682,1,0,0:0:0:0:
255,191,129777,1,0,0:0:0:0:
255,191,129872,1,8,0:0:0:0:
255,191,129967,1,0,0:0:0:0:
255,191,130062,1,8,0:0:0:0:
255,191,130157,1,0,0:0:0:0:
255,191,130252,1,8,0:0:0:0:
255,191,130347,1,0,0:0:0:0:
255,191,130442,1,8,0:0:0:0:
255,191,130537,1,0,0:0:0:0:
255,191,130631,1,0,0:0:0:0:
255,191,130726,1,0,0:0:0:0:
255,191,130821,1,8,0:0:0:0:
255,191,130916,1,0,0:0:0:0:
255,191,131011,1,8,0:0:0:0:
255,191,131106,1,0,0:0:0:0:
255,191,131201,1,0,0:0:0:0:
255,191,131296,1,0,0:0:0:0:
255,191,131391,1,8,0:0:0:0:
255,191,131486,1,0,0:0:0:0:
255,191,131581,1,8,0:0:0:0:
255,191,131676,1,0,0:0:0:0:
255,191,131771,1,8,0:0:0:0:
255,191,131866,1,0,0:0:0:0:
255,191,131961,1,0,0:0:0:0:
255,191,132056,1,0,0:0:0:0:
255,191,132150,1,8,0:0:0:0:
255,191,132245,1,0,0:0:0:0:
255,191,132340,1,0,0:0:0:0:
255,191,132435,1,0,0:0:0:0:
255,191,132530,1,8,0:0:0:0:
255,191,132625,1,0,0:0:0:0:
255,191,132720,1,0,0:0:0:0:
255,191,132815,1,0,0:0:0:0:
255,191,132910,1,8,0:0:0:0:
255,191,133005,1,0,0:0:0:0:
255,191,133100,1,8,0:0:0:0:
255,191,133195,1,0,0:0:0:0:
255,191,133290,1,8,0:0:0:0:
255,191,133385,1,0,0:0:0:0:
255,191,133480,1,8,0:0:0:0:
255,191,133575,1,0,0:0:0:0:
255,191,133669,1,0,0:0:0:0:
255,191,133764,1,0,0:0:0:0:
255,191,133859,1,8,0:0:0:0:
255,191,133954,1,0,0:0:0:0:
255,191,134049,1,8,0:0:0:0:
255,191,134144,1,0,0:0:0:0:
255,191,134239,1,0,0:0:0:0:
255,191,134334,1,0,0:0:0:0:
255,191,134429,1,8,0:0:0:0:
255,191,134524,1,0,0:0:0:0:
255,191,134619,1,8,0:0:0:0:
255,191,134714,1,0,0:0:0:0:
255,191,134809,1,8,0:0:0:0:
255,191,134904,1,0,0:0:0:0:
255,191,134999,1,0,0:0:0:0:
255,191,135094,1,0,0:0:0:0:
255,191,135188,1,8,0:0:0:0:
255,191,135283,1,0,0:0:0:0:
255,191,135378,1,0,0:0:0:0:
255,191,135473,1,0,0:0:0:0:
255,191,135568,1,8,0:0:0:0:
255,191,135663,1,0,0:0:0:0:
255,191,135758,1,0,0:0:0:0:
255,191,135853,1,0,0:0:0:0:
255,191,135948,1,8,0:0:0:0:
255,191,136043,1,0,0:0:0:0:
255,191,136138,1,8,0:0:0:0:
255,191,136233,1,0,0:0:0:0:
255,191,136328,1,8,0:0:0:0:
255,191,136423,1,0,0:0:0:0:
255,191,136518,1,8,0:0:0:0:
255,191,136613,1,0,0:0:0:0:
255,191,136707,1,0,0:0:0:0:
255,191,136802,1,0,0:0:0:0:
255,191,136897,1,8,0:0:0:0:
255,191,136992,1,0,0:0:0:0:
255,191,137087,1,8,0:0:0:0:
255,191,137182,1,0,0:0:0:0:
255,191,137277,1,0,0:0:0:0:
255,191,137372,1,0,0:0:0:0:
255,191,137467,1,8,0:0:0:0:
255,191,137562,1,0,0:0:0:0:
255,191,137657,1,8,0:0:0:0:
255,191,137752,1,0,0:0:0:0:
255,191,137847,1,8,0:0:0:0:
255,191,137942,1,0,0:0:0:0:
255,191,138037,1,0,0:0:0:0:
255,191,138131,1,0,0:0:0:0:
255,191,138226,1,8,0:0:0:0:
255,191,138321,1,0,0:0:0:0:
255,191,138416,1,8,0:0:0:0:
255,191,138511,1,0,0:0:0:0:
255,191,138606,1,8,0:0:0:0:
255,191,138701,1,0,0:0:0:0:
255,191,138796,1,0,0:0:0:0:
255,191,138891,1,0,0:0:0:0:
255,191,138986,1,8,0:0:0:0:
255,191,139081,1,0,0:0:0:0:
255,191,139176,1,8,0:0:0:0:
255,191,139271,1,0,0:0:0:0:
255,191,139366,1,8,0:0:0:0:
255,191,139461,1,0,0:0:0:0:
255,191,139556,1,8,0:0:0:0:
255,191,139650,1,8,0:0:0:0:
255,191,139745,1,8,0:0:0:0:
255,191,139840,1,0,0:0:0:0:
255,191,139935,1,0,0:0:0:0:
255,191,140030,1,0,0:0:0:0:
255,191,140125,1,8,0:0:0:0:
255,191,140220,1,0,0:0:0:0:
255,191,140315,1,0,0:0:0:0:
255,191,140410,1,0,0:0:0:0:
255,191,140505,1,8,0:0:0:0:
255,191,140600,1,0,0:0:0:0:
255,191,140695,1,8,0:0:0:0:
255,191,140790,1,0,0:0:0:0:
255,191,140885,1,8,0:0:0:0:
255,191,140980,1,0,0:0:0:0:
255,191,141075,1,8,0:0:0:0:
255,191,141169,1,0,0:0:0:0:
255,191,141264,1,0,0:0:0:0:
255,191,141359,1,0,0:0:0:0:
255,191,141454,1,8,0:0:0:0:
255,191,141549,1,0,0:0:0:0:
255,191,141644,1,8,0:0:0:0:
255,191,141739,1,0,0:0:0:0:
255,191,141834,1,0,0:0:0:0:
255,191,141929,1,0,0:0:0:0:
255,191,142024,1,8,0:0:0:0:
255,191,142119,1,0,0:0:0:0:
255,191,142214,1,8,0:0:0:0:
255,191,142309,1,0,0:0:0:0:
255,191,142404,1,8,0:0:0:0:
255,191,142499,1,0,0:0:0:0:
255,191,142594,1,0,0:0:0:0:
255,191,142688,1,0,0:0:0:0:
255,191,142783,1,8,0:0:0:0:
255,191,142878,1,0,0:0:0:0:
255,191,142973,1,0,0:0:0:0:
255,191,143068,1,0,0:0:0:0:
255,191,143163,1,8,0:0:0:0:
255,191,143258,1,0,0:0:0:0:
255,191,143353,1,0,0:0:0:0:
255,191,143448,1,0,0:0:0:0:
255,191,143543,1,8,0:0:0:0:
255,191,143638,1,0,0:0:0:0:
255,191,143733,1,8,0:0:0:0:
255,191,143828,1,0,0:0:0:0:
255,191,143923,1,8,0:0:0:0:
255,191,144018,1,0,0:0:0:0:
255,191,144113,1,8,0:0:0:0:
255,191,144207,1,0,0:0:0:0:
255,191,144302,1,0,0:0:0:0:
255,191,144397,1,0,0:0:0:0:
255,191,144492,1,8,0:0:0:0:
255,191,144587,1,0,0:0:0:0:
255,191,144682,1,8,0:0:0:0:
255,191,144777,1,0,0:0:0:0:
255,191,144872,1,0,0:0:0:0:
255,191,144967,1,0,0:0:0:0:
255,191,145062,1,8,0:0:0:0:
255,191,145157,1,0,0:0:0:0:
255,191,145252,1,8,0:0:0:0:
255,191,145347,1,0,0:0:0:0:
255,191,145442,1,8,0:0:0:0:
255,191,145537,1,0,0:0:0:0:
255,191,145631,1,0,0:0:0:0:
255,191,145726,1,0,0:0:0:0:
255,191,145821,1,8,0:0:0:0:
255,191,145916,1,0,0:0:0:0:
255,191,146011,1,8,0:0:0:0:
255,191,146106,1,0,0:0:0:0:
255,191,146201,1,8,0:0:0:0:
255,191,146296,1,0,0:0:0:0:
255,191,146391,1,0,0:0:0:0:
255,191,146486,1,0,0:0:0:0:
255,191,146581,1,8,0:0:0:0:
255,191,146676,1,0,0:0:0:0:
255,191,146771,1,8,0:0:0:0:
255,191,146866,1,0,0:0:0:0:
255,191,146961,1,8,0:0:0:0:
255,191,147056,1,0,0:0:0:0:
255,191,147150,1,0,0:0:0:0:
255,191,147245,1,0,0:0:0:0:
255,191,147340,1,8,0:0:0:0:
255,191,147435,1,0,0:0:0:0:
255,191,147530,1,8,0:0:0:0:
255,191,147625,1,0,0:0:0:0:
255,191,147720,1,8,0:0:0:0:
255,191,147815,1,0,0:0:0:0:
255,191,147910,1,0,0:0:0:0:
255,191,148005,1,0,0:0:0:0:
255,191,148100,1,8,0:0:0:0:
255,191,148195,1,0,0:0:0:0:
255,191,148290,1,8,0:0:0:0:
255,191,148385,1,0,0:0:0:0:
255,191,148480,1,8,0:0:0:0:
255,191,148575,1,0,0:0:0:0:
255,191,148669,1,0,0:0:0:0:
255,191,148764,1,0,0:0:0:0:
255,191,148859,1,8,0:0:0:0:
255,191,148954,1,0,0:0:0:0:
255,191,149049,1,8,0:0:0:0:
255,191,149144,1,0,0:0:0:0:
255,191,149239,1,8,0:0:0:0:
255,191,149334,1,0,0:0:0:0:
255,191,149429,1,8,0:0:0:0:
255,191,149524,1,0,0:0:0:0:
255,191,149619,1,8,0:0:0:0:
255,191,149714,1,0,0:0:0:0:
255,191,149809,1,8,0:0:0:0:
255,191,149904,1,8,0:0:0:0:
255,191,149999,1,8,0:0:0:0:
255,191,150094,1,8,0:0:0:0:
255,191,150188,1,8,0:0:0:0:
255,191,150283,1,8,0:0:0:0:
255,191,150378,1,12,0:0:0:0:
255,191,150568,1,4,0:0:0:0:
255,191,150758,1,4,0:0:0:0:
255,191,150948,1,12,0:0:0:0:
255,191,151138,1,4,0:0:0:0:
255,191,151328,1,4,0:0:0:0:
255,191,151518,1,12,0:0:0:0:
255,191,151707,1,4,0:0:0:0:
255,191,151897,1,4,0:0:0:0:
255,191,152087,1,12,0:0:0:0:
255,191,152277,1,4,0:0:0:0:
255,191,152467,1,4,0:0:0:0:
255,191,152657,1,12,0:0:0:0:
255,191,152847,1,4,0:0:0:0:
255,191,153037,1,12,0:0:0:0:
255,191,153226,1,4,0:0:0:0:
255,191,153606,1,4,0:0:0:0:
255,191,153796,1,12,0:0:0:0:
255,191,154176,1,4,0:0:0:0:
255,191,154366,1,4,0:0:0:0:
255,191,154556,1,12,0:0:0:0:
255,191,154745,1,4,0:0:0:0:
255,191,154935,1,4,0:0:0:0:
255,191,155125,1,0,0:0:0:0:
255,191,155220,1,0,0:0:0:0:
255,191,155315,1,0,0:0:0:0:
255,191,155410,1,0,0:0:0:0:
255,191,155505,1,12,0:0:0:0:
255,191,155695,1,0,0:0:0:0:
255,191,155790,1,0,0:0:0:0:
255,191,155885,1,0,0:0:0:0:
255,191,155980,1,0,0:0:0:0:
255,191,156075,1,12,0:0:0:0:
255,191,156264,1,0,0:0:0:0:
255,191,156359,1,0,0:0:0:0:
255,191,156454,1,0,0:0:0:0:
255,191,156549,1,0,0:0:0:0:
255,191,156644,1,12,0:0:0:0:
255,191,156834,1,0,0:0:0:0:
255,191,156929,1,0,0:0:0:0:
255,191,157024,1,0,0:0:0:0:
255,191,157119,1,0,0:0:0:0:
255,191,157214,1,0,0:0:0:0:
255,191,157309,1,0,0:0:0:0:
255,191,157404,1,8,0:0:0:0:
255,191,157499,1,8,0:0:0:0:
255,191,157594,1,0,0:0:0:0:
255,191,157688,1,0,0:0:0:0:
255,191,157783,1,12,0:0:0:0:
255,191,158163,1,4,0:0:0:0:
255,191,158353,1,12,0:0:0:0:
255,191,158733,1,4,0:0:0:0:
255,191,158923,1,4,0:0:0:0:
255,191,159113,1,12,0:0:0:0:
255,191,159302,1,4,0:0:0:0:
255,191,159492,1,12,0:0:0:0:
255,191,159682,1,4,0:0:0:0:
255,191,159872,1,12,0:0:0:0:
255,191,160062,1,4,0:0:0:0:
255,191,160252,1,12,0:0:0:0:
255,191,160442,1,4,0:0:0:0:
255,191,160631,1,12,0:0:0:0:
255,191,160821,1,4,0:0:0:0:
255,191,161011,1,12,0:0:0:0:
255,191,161201,1,4,0:0:0:0:
255,191,161391,1,12,0:0:0:0:
255,191,161581,1,4,0:0:0:0:
255,191,161771,1,12,0:0:0:0:
255,191,161961,1,12,0:0:0:0:
255,191,162150,1,12,0:0:0:0:
255,191,162340,1,4,0:0:0:0:
255,191,162720,1,4,0:0:0:0:
255,191,162910,1,12,0:0:0:0:
255,191,163290,1,12,0:0:0:0:
255,191,163480,1,12,0:0:0:0:
255,191,163669,1,4,0:0:0:0:
255,191,163859,1,12,0:0:0:0:
255,191,164239,1,4,0:0:0:0:
255,191,164429,1,12,0:0:0:0:
255,191,164809,1,12,0:0:0:0:
255,191,164999,1,12,0:0:0:0:
255,191,165188,1,4,0:0:0:0:
255,191,165378,1,12,0:0:0:0:
255,191,165758,1,4,0:0:0:0:
255,191,165948,1,12,0:0:0:0:
255,191,166138,1,4,0:0:0:0:
255,191,166328,1,4,0:0:0:0:
255,191,166518,1,0,0:0:0:0:
255,191,166613,1,0,0:0:0:0:
255,191,166707,1,12,0:0:0:0:
255,191,166897,1,4,0:0:0:0:
255,191,167087,1,0,0:0:0:0:
255,191,167182,1,0,0:0:0:0:
255,191,167277,1,12,0:0:0:0:
255,191,167467,1,4,0:0:0:0:
255,191,167657,1,0,0:0:0:0:
255,191,167752,1,0,0:0:0:0:
255,191,167847,1,0,0:0:0:0:
255,191,167942,1,0,0:0:0:0:
255,191,168037,1,8,0:0:0:0:
255,191,168131,1,8,0:0:0:0:
255,191,168226,1,0,0:0:0:0:
255,191,168321,1,0,0:0:0:0:
255,191,168416,1,12,0:0:0:0:
255,191,168796,1,4,0:0:0:0:
255,191,168986,1,12,0:0:0:0:
255,191,169366,1,12,0:0:0:0:
255,191,169556,1,12,0:0:0:0:
255,191,169745,1,4,0:0:0:0:
255,191,169935,1,12,0:0:0:0:
255,191,170315,1,4,0:0:0:0:
255,191,170505,1,12,0:0:0:0:
255,191,170885,1,12,0:0:0:0:
255,191,171075,1,12,0:0:0:0:
255,191,171264,1,4,0:0:0:0:
255,191,171454,1,12,0:0:0:0:
255,191,171834,1,4,0:0:0:0:
255,191,172024,1,12,0:0:0:0:
255,191,172214,1,4,0:0:0:0:
255,191,172404,1,4,0:0:0:0:
255,191,172594,1,0,0:0:0:0:
255,191,172688,1,0,0:0:0:0:
255,191,172783,1,12,0:0:0:0:
255,191,172878,1,0,0:0:0:0:
255,191,172973,1,0,0:0:0:0:
255,191,173068,1,0,0:0:0:0:
255,191,173163,1,0,0:0:0:0:
255,191,173258,1,0,0:0:0:0:
255,191,173353,1,12,0:0:0:0:
255,191,173448,1,0,0:0:0:0:
255,191,173543,1,0,0:0:0:0:
255,191,173638,1,0,0:0:0:0:
255,191,173733,1,0,0:0:0:0:
255,191,173828,1,0,0:0:0:0:
255,191,173923,1,0,0:0:0:0:
255,191,174018,1,0,0:0:0:0:
255,191,174113,1,8,0:0:0:0:
255,191,174207,1,8,0:0:0:0:
255,191,174302,1,0,0:0:0:0:
255,191,174397,1,0,0:0:0:0:
255,191,174492,1,12,0:0:0:0:
255,191,174872,1,4,0:0:0:0:
255,191,175062,1,12,0:0:0:0:
255,191,175442,1,12,0:0:0:0:
255,191,175631,1,12,0:0:0:0:
255,191,175821,1,4,0:0:0:0:
255,191,176011,1,12,0:0:0:0:
255,191,176391,1,4,0:0:0:0:
255,191,176581,1,12,0:0:0:0:
255,191,176961,1,12,0:0:0:0:
255,191,177150,1,12,0:0:0:0:
255,191,177340,1,4,0:0:0:0:
255,191,177530,1,12,0:0:0:0:
255,191,177910,1,4,0:0:0:0:
255,191,178100,1,12,0:0:0:0:
255,191,178480,1,12,0:0:0:0:
255,191,178669,1,12,0:0:0:0:
255,191,178859,1,4,0:0:0:0:
255,191,179049,1,12,0:0:0:0:
255,191,179429,1,4,0:0:0:0:
255,191,179619,1,12,0:0:0:0:
255,191,179999,1,12,0:0:0:0:
255,191,180188,1,12,0:0:0:0:
255,191,180378,1,4,0:0:0:0:
255,191,180568,1,8,0:0:0:0:
255,191,180663,1,8,0:0:0:0:
255,191,180758,1,4,0:0:0:0:
255,191,180948,1,4,0:0:0:0:
255,191,181138,1,12,0:0:0:0:
255,191,181518,1,4,0:0:0:0:
255,191,181707,1,4,0:0:0:0:
255,191,181897,1,12,0:0:0:0:
255,191,182277,1,4,0:0:0:0:
255,191,182467,1,4,0:0:0:0:
255,191,182657,1,12,0:0:0:0:
255,191,183037,1,4,0:0:0:0:
255,191,183226,1,8,0:0:0:0:
255,191,183321,1,8,0:0:0:0:
255,191,183416,1,8,0:0:0:0:
255,191,183511,1,8,0:0:0:0:
255,191,183606,1,8,0:0:0:0:
255,191,183701,1,8,0:0:0:0:
255,191,194423,5,8,0:0:0:0:
255,191,194517,5,8,0:0:0:0:
255,191,194612,1,8,0:0:0:0:
255,191,194707,1,8,0:0:0:0:
255,191,194802,1,8,0:0:0:0:
255,191,194897,1,8,0:0:0:0:
255,191,194992,1,8,0:0:0:0:
255,191,195087,1,8,0:0:0:0:
255,191,195182,5,8,0:0:0:0:
255,191,195277,1,8,0:0:0:0:
255,191,195372,1,8,0:0:0:0:
255,191,195467,1,8,0:0:0:0:
255,191,195562,1,8,0:0:0:0:
255,191,195657,1,8,0:0:0:0:
255,191,195752,1,8,0:0:0:0:
255,191,195847,1,8,0:0:0:0:
255,191,195941,5,8,0:0:0:0:
255,191,196036,1,8,0:0:0:0:
255,191,196131,1,8,0:0:0:0:
255,191,196226,1,8,0:0:0:0:
255,191,196321,1,8,0:0:0:0:
255,191,196416,1,8,0:0:0:0:
255,191,196511,1,8,0:0:0:0:
255,191,196606,1,8,0:0:0:0:
255,191,196701,5,8,0:0:0:0:
255,191,196796,1,8,0:0:0:0:
255,191,196891,1,8,0:0:0:0:
255,191,196986,1,8,0:0:0:0:
255,191,197081,1,8,0:0:0:0:
255,191,197176,1,8,0:0:0:0:
255,191,197271,1,8,0:0:0:0:
255,191,197366,1,8,0:0:0:0:
255,191,197460,5,8,0:0:0:0:
255,191,197555,1,8,0:0:0:0:
255,191,197650,1,8,0:0:0:0:
255,191,197745,1,8,0:0:0:0:
255,191,197840,1,8,0:0:0:0:
255,191,197935,1,8,0:0:0:0:
255,191,198030,1,8,0:0:0:0:
255,191,198125,1,8,0:0:0:0:
255,191,198220,5,8,0:0:0:0:
255,191,198315,1,8,0:0:0:0:
255,191,198410,1,8,0:0:0:0:
255,191,198505,1,8,0:0:0:0:
255,191,198600,1,8,0:0:0:0:
255,191,198695,1,8,0:0:0:0:
255,191,198790,1,8,0:0:0:0:
255,191,198885,1,8,0:0:0:0:
255,191,198979,5,8,0:0:0:0:
255,191,199074,1,8,0:0:0:0:
255,191,199169,1,8,0:0:0:0:
255,191,199264,1,8,0:0:0:0:
255,191,199359,1,8,0:0:0:0:
255,191,199454,1,8,0:0:0:0:
255,191,199549,1,8,0:0:0:0:
255,191,199644,1,8,0:0:0:0:
255,191,199739,5,8,0:0:0:0:
255,191,199834,1,8,0:0:0:0:
255,191,199929,1,8,0:0:0:0:
255,191,200024,1,8,0:0:0:0:
255,191,200119,1,8,0:0:0:0:
255,191,200498,1,0,0:0:0:0:
255,191,200593,1,0,0:0:0:0:
255,191,200688,1,0,0:0:0:0:
255,191,200783,1,0,0:0:0:0:
255,191,200878,1,0,0:0:0:0:
255,191,200973,1,0,0:0:0:0:
255,191,201068,1,0,0:0:0:0:
255,191,201163,1,0,0:0:0:0:
255,191,201258,1,0,0:0:0:0:
255,191,201353,1,0,0:0:0:0:
255,191,201448,1,0,0:0:0:0:
255,191,201543,1,0,0:0:0:0:
255,191,201638,1,0,0:0:0:0:
255,191,201733,1,0,0:0:0:0:
255,191,201828,1,0,0:0:0:0:
255,191,201923,1,0,0:0:0:0:
255,191,202017,1,0,0:0:0:0:
255,191,202112,1,0,0:0:0:0:
255,191,202207,1,0,0:0:0:0:
255,191,202302,1,0,0:0:0:0:
255,191,202397,1,0,0:0:0:0:
255,191,202492,1,0,0:0:0:0:
255,191,202587,1,0,0:0:0:0:
255,191,202682,1,0,0:0:0:0:
255,191,202777,1,0,0:0:0:0:
255,191,202872,1,0,0:0:0:0:
255,191,202967,1,0,0:0:0:0:
255,191,203062,1,0,0:0:0:0:
255,191,203157,1,0,0:0:0:0:
255,191,203252,1,0,0:0:0:0:
255,191,203347,1,0,0:0:0:0:
255,191,203441,1,0,0:0:0:0:
255,191,203536,1,0,0:0:0:0:
255,191,203631,1,0,0:0:0:0:
255,191,203726,1,0,0:0:0:0:
255,191,203821,1,0,0:0:0:0:
255,191,203916,1,0,0:0:0:0:
255,191,204011,1,0,0:0:0:0:
255,191,204106,1,0,0:0:0:0:
255,191,204201,1,0,0:0:0:0:
255,191,204296,1,0,0:0:0:0:
255,191,204391,1,0,0:0:0:0:
255,191,204486,1,8,0:0:0:0:
255,191,204581,1,8,0:0:0:0:
255,191,204676,1,0,0:0:0:0:
255,191,204771,1,0,0:0:0:0:
255,191,204866,1,0,0:0:0:0:
255,191,204960,1,0,0:0:0:0:
255,191,205055,1,12,0:0:0:0:
255,191,205245,1,4,0:0:0:0:
255,191,205435,1,4,0:0:0:0:
255,191,205625,1,12,0:0:0:0:
255,191,205815,1,4,0:0:0:0:
255,191,206005,1,4,0:0:0:0:
255,191,206195,1,12,0:0:0:0:
255,191,206385,1,4,0:0:0:0:
255,191,206574,1,4,0:0:0:0:
255,191,206764,1,12,0:0:0:0:
255,191,206954,1,4,0:0:0:0:
255,191,207144,1,4,0:0:0:0:
255,191,207334,1,12,0:0:0:0:
255,191,207524,1,4,0:0:0:0:
255,191,207714,1,8,0:0:0:0:
255,191,207809,1,8,0:0:0:0:
255,191,207904,1,0,0:0:0:0:
255,191,207998,1,0,0:0:0:0:
255,191,208093,1,12,0:0:0:0:
255,191,208283,1,4,0:0:0:0:
255,191,208473,1,4,0:0:0:0:
255,191,208663,1,12,0:0:0:0:
255,191,208853,1,4,0:0:0:0:
255,191,209043,1,4,0:0:0:0:
255,191,209233,1,12,0:0:0:0:
255,191,209423,1,4,0:0:0:0:
255,191,209612,1,4,0:0:0:0:
255,191,209802,1,12,0:0:0:0:
255,191,209992,1,4,0:0:0:0:
255,191,210182,1,4,0:0:0:0:
255,191,210372,1,12,0:0:0:0:
255,191,210562,1,4,0:0:0:0:
255,191,210752,1,12,0:0:0:0:
255,191,210941,1,4,0:0:0:0:
255,191,211131,1,0,0:0:0:0:
255,191,211226,1,0,0:0:0:0:
255,191,211321,1,0,0:0:0:0:
255,191,211416,1,0,0:0:0:0:
255,191,211511,1,0,0:0:0:0:
255,191,211606,1,0,0:0:0:0:
255,191,211701,1,0,0:0:0:0:
255,191,211796,1,0,0:0:0:0:
255,191,211891,1,0,0:0:0:0:
255,191,211986,1,0,0:0:0:0:
255,191,212081,1,0,0:0:0:0:
255,191,212176,1,0,0:0:0:0:
255,191,212271,1,0,0:0:0:0:
255,191,212366,1,0,0:0:0:0:
255,191,212460,1,0,0:0:0:0:
255,191,212555,1,0,0:0:0:0:
255,191,212650,1,0,0:0:0:0:
255,191,212745,1,0,0:0:0:0:
255,191,212840,1,0,0:0:0:0:
255,191,212935,1,0,0:0:0:0:
255,191,213030,1,0,0:0:0:0:
255,191,213125,1,0,0:0:0:0:
255,191,213220,1,0,0:0:0:0:
255,191,213315,1,0,0:0:0:0:
255,191,213410,1,0,0:0:0:0:
255,191,213505,1,0,0:0:0:0:
255,191,213600,1,8,0:0:0:0:
255,191,213695,1,8,0:0:0:0:
255,191,213790,1,0,0:0:0:0:
255,191,213885,1,0,0:0:0:0:
255,191,213979,1,12,0:0:0:0:
255,191,214359,1,4,0:0:0:0:
255,191,214549,1,12,0:0:0:0:
255,191,214929,1,12,0:0:0:0:
255,191,215119,1,12,0:0:0:0:
255,191,215308,1,4,0:0:0:0:
255,191,215498,1,12,0:0:0:0:
255,191,215878,1,4,0:0:0:0:
255,191,216068,1,12,0:0:0:0:
255,191,216448,1,12,0:0:0:0:
255,191,216638,1,12,0:0:0:0:
255,191,216827,1,4,0:0:0:0:
255,191,217017,1,12,0:0:0:0:
255,191,217397,1,4,0:0:0:0:
255,191,217587,1,12,0:0:0:0:
255,191,217777,1,4,0:0:0:0:
255,191,217967,1,4,0:0:0:0:
255,191,218156,1,0,0:0:0:0:
255,191,218251,1,0,0:0:0:0:
255,191,218346,1,12,0:0:0:0:
255,191,218536,1,12,0:0:0:0:
255,191,218726,1,0,0:0:0:0:
255,191,218821,1,0,0:0:0:0:
255,191,218916,1,12,0:0:0:0:
255,191,219106,1,12,0:0:0:0:
255,191,219296,1,0,0:0:0:0:
255,191,219391,1,0,0:0:0:0:
255,191,219486,1,0,0:0:0:0:
255,191,219581,1,0,0:0:0:0:
255,191,219675,1,8,0:0:0:0:
255,191,219770,1,8,0:0:0:0:
255,191,219865,1,0,0:0:0:0:
255,191,219960,1,0,0:0:0:0:
255,191,220055,1,12,0:0:0:0:
255,191,220435,1,4,0:0:0:0:
255,191,220625,1,12,0:0:0:0:
255,191,221005,1,12,0:0:0:0:
255,191,221194,1,12,0:0:0:0:
255,191,221384,1,4,0:0:0:0:
255,191,221574,1,12,0:0:0:0:
255,191,221954,1,4,0:0:0:0:
255,191,222144,1,12,0:0:0:0:
255,191,222524,1,12,0:0:0:0:
255,191,222713,1,12,0:0:0:0:
255,191,222903,1,4,0:0:0:0:
255,191,223093,1,12,0:0:0:0:
255,191,223473,1,4,0:0:0:0:
255,191,223663,1,12,0:0:0:0:
255,191,223853,1,4,0:0:0:0:
255,191,224043,1,4,0:0:0:0:
255,191,224232,1,0,0:0:0:0:
255,191,224327,1,0,0:0:0:0:
255,191,224422,1,12,0:0:0:0:
255,191,224517,1,0,0:0:0:0:
255,191,224612,1,0,0:0:0:0:
255,191,224707,1,0,0:0:0:0:
255,191,224802,1,0,0:0:0:0:
255,191,224897,1,0,0:0:0:0:
255,191,224992,1,12,0:0:0:0:
255,191,225087,1,0,0:0:0:0:
255,191,225182,1,0,0:0:0:0:
255,191,225277,1,0,0:0:0:0:
255,191,225372,1,0,0:0:0:0:
255,191,225467,1,0,0:0:0:0:
255,191,225562,1,0,0:0:0:0:
255,191,225656,1,0,0:0:0:0:
255,191,225751,1,8,0:0:0:0:
255,191,225846,1,8,0:0:0:0:
255,191,225941,1,0,0:0:0:0:
255,191,226036,1,0,0:0:0:0:
255,191,226131,1,12,0:0:0:0:
255,191,226511,1,4,0:0:0:0:
255,191,226701,1,12,0:0:0:0:
255,191,227081,1,12,0:0:0:0:
255,191,227270,1,12,0:0:0:0:
255,191,227460,1,4,0:0:0:0:
255,191,227650,1,12,0:0:0:0:
255,191,228030,1,4,0:0:0:0:
255,191,228220,1,12,0:0:0:0:
255,191,228600,1,12,0:0:0:0:
255,191,228789,1,12,0:0:0:0:
255,191,228979,1,4,0:0:0:0:
255,191,229169,1,12,0:0:0:0:
255,191,229549,1,4,0:0:0:0:
255,191,229739,1,12,0:0:0:0:
255,191,230119,1,12,0:0:0:0:
255,191,230308,1,12,0:0:0:0:
255,191,230498,1,4,0:0:0:0:
255,191,230688,1,12,0:0:0:0:
255,191,231068,1,4,0:0:0:0:
255,191,231258,1,12,0:0:0:0:
255,191,231638,1,12,0:0:0:0:
255,191,231827,1,12,0:0:0:0:
255,191,232017,1,4,0:0:0:0:
255,191,232207,1,8,0:0:0:0:
255,191,232302,1,8,0:0:0:0:
255,191,232397,1,4,0:0:0:0:
255,191,232587,1,4,0:0:0:0:
255,191,232777,1,12,0:0:0:0:
255,191,232967,1,4,0:0:0:0:
255,191,233157,1,4,0:0:0:0:
255,191,233347,1,4,0:0:0:0:
255,191,233536,1,12,0:0:0:0:
255,191,233916,1,4,0:0:0:0:
255,191,234106,1,4,0:0:0:0:
255,191,234296,1,12,0:0:0:0:
255,191,234486,1,4,0:0:0:0:
255,191,234676,1,4,0:0:0:0:
255,191,234866,1,4,0:0:0:0:
255,191,235055,1,12,0:0:0:0:
255,191,235435,1,4,0:0:0:0:
255,191,235625,1,4,0:0:0:0:
255,191,235815,1,12,0:0:0:0:
255,191,236195,1,4,0:0:0:0:
255,191,236385,1,4,0:0:0:0:
255,191,236574,1,12,0:0:0:0:
255,191,236954,1,4,0:0:0:0:
255,191,237144,1,4,0:0:0:0:
255,191,237334,5,12,0:0:0:0:
255,191,237524,1,4,0:0:0:0:
255,191,237714,1,4,0:0:0:0:
255,191,237904,1,12,0:0:0:0:
255,191,238093,1,12,0:0:0:0:
255,191,238283,1,4,0:0:0:0:
255,191,238473,5,12,0:0:0:0:
