osu file format v14

[General]
AudioFilename: audio.mp3
AudioLeadIn: 0
PreviewTime: 28269
Countdown: 0
SampleSet: Soft
StackLeniency: 0.7
Mode: 0
LetterboxInBreaks: 0
WidescreenStoryboard: 1

[Editor]
Bookmarks: 59237,61947
DistanceSpacing: 0.6
BeatDivisor: 4
GridSize: 4
TimelineZoom: 1.3

[Metadata]
Title:Believe
TitleUnicode:Believe
Artist:Folder5
ArtistUnicode:Folder5
Creator:Chaoslitz
Version:Insane
Source:ONE PIECE
Tags:ワンピース opening op 2 Starfy StarForYou
BeatmapID:1200737
BeatmapSetID:566875

[Difficulty]
HPDrainRate:5
CircleSize:4
OverallDifficulty:7
ApproachRate:8.5
SliderMultiplier:1.6
SliderTickRate:1

[Events]
//Background and Video events
0,0,"bg.jpg",0,0
Video,-250,"optc.flv"
//Break Periods
//Storyboard Layer 0 (Background)
//Storyboard Layer 1 (Fail)
//Storyboard Layer 2 (Pass)
//Storyboard Layer 3 (Foreground)
//Storyboard Sound Samples

[TimingPoints]
399,387.096774193548,4,2,1,50,1,0
399,-111.111111111111,4,2,1,50,0,0
12786,-111.111111111111,4,2,1,60,0,0
26721,-111.111111111111,4,2,1,70,0,0
27689,-133.333333333333,4,2,1,70,0,0
28269,-100,4,2,1,65,0,0
29044,-100,4,2,1,70,0,0
29818,-100,4,2,1,75,0,0
30592,-100,4,2,1,80,0,0
32915,-83.3333333333333,4,2,2,80,0,0
34463,-100,4,2,1,60,0,0
53528,-100,4,2,1,10,0,0
53624,-100,4,2,1,60,0,0
58269,-133.333333333333,4,2,1,60,0,0
58850,-83.3333333333333,4,2,1,60,0,0
59044,-100,4,2,1,10,0,0
59237,-100,4,2,1,80,0,1
70657,-133.333333333333,4,2,1,80,0,1
71237,-133.333333333333,4,2,1,80,0,0
71624,-100,4,2,1,65,0,0
72398,-100,4,2,1,70,0,0
73173,-100,4,2,1,75,0,0
73947,-100,4,2,1,80,0,0
75689,-83.3333333333333,4,2,2,80,0,0
75882,-83.3333333333333,4,2,1,80,0,0
76269,-83.3333333333333,4,2,2,80,0,0
77624,-100,4,2,2,80,0,0
77818,-100,4,2,1,80,0,1
90011,-100,4,2,1,80,0,0
90205,-100,4,2,1,80,0,1
101624,-133.333333333333,4,2,1,80,0,1
101625,-100,4,2,1,80,0,1
102205,-100,4,2,1,80,0,0
102592,-100,4,2,1,65,0,0
103366,-100,4,2,1,70,0,0
104140,-100,4,2,1,75,0,0
104141,-100,4,2,1,80,0,0
106657,-83.3333333333333,4,2,2,80,0,0
106850,-83.3333333333333,4,2,1,80,0,0
107237,-83.3333333333333,4,2,2,80,0,0
108689,-100,4,2,1,10,0,0

[Colours]
Combo1 : 55,143,242
Combo2 : 255,164,45
Combo3 : 79,225,9
Combo4 : 255,95,52

[HitObjects]
44,85,399,6,0,P|115:79|187:71,1,143.999995605469,4|0,0:0|1:0,0:0:0:0:
256,136,979,1,0,0:0:0:0:
324,71,1173,2,0,L|396:79,1,71.9999978027344,0|0,0:0|0:0,0:0:0:0:
485,53,1560,1,2,0:1:0:0:
459,184,1753,6,0,P|392:164|328:199,1,143.999995605469,10|0,0:1|0:0,0:0:0:0:
203,249,2334,2,0,P|208:289|212:326,1,71.9999978027344,0|0,1:0|0:0,0:0:0:0:
309,293,2721,2,0,P|305:333|300:370,2,71.9999978027344,0|0|4,0:0|0:0|0:3,0:0:0:0:
200,335,3302,1,8,0:0:0:0:
200,335,3398,1,8,0:0:0:0:
200,335,3495,6,0,P|166:339|129:343,1,71.9999978027344,8|0,0:3|0:0,0:0:0:0:
11,268,3882,1,0,1:0:0:0:
32,364,4076,1,0,0:0:0:0:
32,364,4269,1,0,0:0:0:0:
106,247,4463,1,0,0:0:0:0:
128,343,4657,1,2,0:1:0:0:
256,259,4850,6,0,P|287:197|260:130,1,143.999995605469,8|0,0:1|0:0,0:0:0:0:
152,169,5431,2,0,P|113:161|71:155,1,71.9999978027344,0|0,1:0|0:0,0:0:0:0:
0,119,5818,2,0,P|26:89|52:55,1,71.9999978027344,2|0,0:1|0:0,0:0:0:0:
119,12,6205,2,0,P|131:49|147:89,1,71.9999978027344,0|0,3:0|0:0,0:0:0:0:
286,41,6592,6,0,P|250:34|206:28,2,71.9999978027344,2|0|2,0:1|0:0|0:0,0:0:0:0:
352,106,7173,1,0,0:0:0:0:
352,106,7366,1,0,0:0:0:0:
428,60,7560,2,0,P|440:93|438:129,1,71.9999978027344,2|0,0:0|0:0,0:0:0:0:
355,224,7947,6,0,P|425:210|487:250,1,143.999995605469,2|2,0:0|0:0,0:0:0:0:
407,309,8528,2,0,P|412:344|415:380,2,71.9999978027344,0|0|2,0:0|0:0|0:0,0:0:0:0:
355,224,9108,1,8,0:3:0:0:
296,298,9302,2,0,P|260:303|214:305,1,71.9999978027344,2|4,0:1|0:3,0:0:0:0:
144,371,9689,6,0,P|99:362|50:357,1,71.9999978027344,2|0,0:1|0:0,0:0:0:0:
73,358,10076,1,2,0:0:0:0:
11,288,10269,1,0,0:0:0:0:
11,288,10463,1,0,0:0:0:0:
95,242,10657,2,0,P|106:208|102:157,1,71.9999978027344,2|0,0:0|0:0,0:0:0:0:
35,112,11044,6,0,P|97:130|170:71,1,143.999995605469,8|0,0:1|0:0,0:0:0:0:
236,31,11624,2,0,P|244:65|249:101,1,71.9999978027344,0|0,0:0|0:0,0:0:0:0:
372,85,12011,1,2,3:1:0:0:
297,218,12205,1,0,0:0:0:0:
372,85,12398,2,0,P|369:125|363:161,1,71.9999978027344,2|0,3:1|0:0,0:0:0:0:
489,224,12786,6,0,P|486:188|481:152,1,71.9999978027344,6|0,0:0|0:0,0:0:0:0:
403,239,13173,2,0,L|398:278,2,35.9999989013672,10|0|0,0:0|0:0|0:0,0:0:0:0:
498,318,13560,1,0,0:0:0:0:
418,364,13753,1,2,0:0:0:0:
418,364,13850,1,0,0:0:0:0:
418,364,13947,2,0,P|383:357|347:353,1,71.9999978027344,8|2,0:0|0:0,0:0:0:0:
256,308,14334,6,0,L|256:271,2,35.9999989013672,0|0|0,0:0|0:0|0:0,0:0:0:0:
166,352,14721,2,0,P|130:356|95:364,1,71.9999978027344,8|0,0:0|0:0,0:0:0:0:
95,363,15011,1,0,0:0:0:0:
95,363,15108,1,8,0:1:0:0:
0,342,15302,1,2,0:0:0:0:
21,246,15496,1,8,0:0:0:0:
117,267,15689,1,2,0:1:0:0:
201,199,15882,6,0,P|204:177|208:148,2,35.9999989013672,2|0|0,0:0|0:0|0:0,0:0:0:0:
259,271,16269,2,0,P|264:312|267:351,1,71.9999978027344,10|0,0:0|0:0,0:0:0:0:
250,368,16560,1,0,0:0:0:0:
250,368,16657,2,0,P|290:353|342:355,1,71.9999978027344,0|2,0:0|0:0,0:0:0:0:
411,373,17044,1,8,0:0:0:0:
493,327,17237,6,0,P|521:263|487:200,1,143.999995605469,2|0,0:0|0:0,0:0:0:0:
412,135,17818,2,0,P|376:139|340:142,1,71.9999978027344,8|0,0:0|3:0,0:0:0:0:
323,136,18108,1,0,0:0:0:0:
305,129,18205,1,2,0:1:0:0:
259,49,18398,1,0,0:0:0:0:
259,49,18495,1,0,0:0:0:0:
259,49,18592,2,0,P|223:53|187:56,1,71.9999978027344,8|0,3:2|0:0,0:0:0:0:
65,131,18979,6,0,P|107:135|151:143,1,71.9999978027344,2|0,0:0|0:0,0:0:0:0:
162,152,19269,1,0,0:0:0:0:
162,152,19366,2,0,P|172:191|164:233,1,71.9999978027344,10|0,0:0|0:0,0:0:0:0:
101,290,19753,2,0,P|67:296|18:303,2,71.9999978027344,0|2|8,0:0|0:0|0:0,0:0:0:0:
167,367,20334,6,0,P|223:326|291:341,1,143.999995605469,2|0,0:0|0:0,0:0:0:0:
291,341,20818,1,0,0:0:0:0:
291,341,20915,1,8,0:0:0:0:
384,373,21108,1,0,0:0:0:0:
398,362,21205,1,0,0:0:0:0:
412,351,21302,2,0,P|458:346|493:343,1,71.9999978027344,2|0,0:1|0:0,0:0:0:0:
512,245,21689,2,0,P|476:248|440:252,1,71.9999978027344,8|0,3:2|0:0,0:0:0:0:
314,211,22076,6,0,P|318:175|322:138,1,71.9999978027344,2|2,0:0|0:1,0:0:0:0:
340,50,22463,2,0,L|333:14,2,35.9999989013672,10|0|2,0:0|0:0|0:1,0:0:0:0:
253,78,22850,2,0,P|218:88|183:83,1,71.9999978027344,0|2,0:0|0:0,0:0:0:0:
104,33,23237,1,8,0:0:0:0:
104,33,23334,1,0,0:0:0:0:
104,33,23431,6,0,P|144:79|124:166,1,143.999995605469,2|0,0:0|0:0,0:0:0:0:
72,234,24011,2,0,P|36:239|0:244,1,71.9999978027344,8|0,0:0|0:0,0:0:0:0:
0,244,24302,1,0,0:0:0:0:
0,244,24398,1,8,0:1:0:0:
7,330,24592,1,2,0:0:0:0:
81,373,24786,1,8,0:0:0:0:
158,334,24979,1,2,0:1:0:0:
168,248,25173,6,0,L|208:244,3,35.9999989013672,2|2|2|2,0:1|0:1|0:1|0:1,0:0:0:0:
230,255,25560,1,2,0:1:0:0:
250,249,25656,1,2,0:1:0:0:
272,247,25753,1,2,0:1:0:0:
293,249,25850,1,2,0:1:0:0:
314,255,25947,5,2,0:0:0:0:
345,273,26043,1,0,0:0:0:0:
381,273,26140,1,2,0:0:0:0:
412,257,26237,1,0,0:0:0:0:
432,227,26334,1,0,0:0:0:0:
436,192,26430,1,2,0:0:0:0:
422,159,26527,1,0,0:0:0:0:
394,137,26624,1,0,0:0:0:0:
359,130,26721,6,0,L|364:94,5,23.9999992675781,8|0|0|0|0|0,0:3|0:0|0:0|0:0|0:0|0:0,0:0:0:0:
285,101,27108,2,0,L|280:63,5,23.9999992675781,2|0|0|2|0|0,0:1|0:0|0:0|0:0|0:0|0:0,0:0:0:0:
219,148,27495,1,0,0:0:0:0:
197,52,27689,6,0,B|167:51|144:61|144:61|100:49|100:49|75:60|48:58,1,150.000005722046,4|0,0:3|0:0,0:0:0:0:
0,121,28269,6,0,P|-5:166|48:224,1,120,6|0,0:0|0:0,0:0:0:0:
61,231,28657,2,0,L|112:224,2,40,10|0|2,0:0|0:0|0:0,0:0:0:0:
0,329,29044,2,0,P|55:317|120:360,1,120,2|0,0:0|0:0,0:0:0:0:
117,368,29431,2,0,L|177:363,2,40,10|0|2,0:0|0:0|0:0,0:0:0:0:
170,282,29818,6,0,P|209:285|249:290,1,80,2|0,0:0|0:0,0:0:0:0:
275,309,30108,1,0,0:0:0:0:
275,309,30205,2,0,P|301:306|327:304,1,40,10|0,0:0|0:0,0:0:0:0:
377,369,30398,2,0,P|403:366|429:364,1,40,2|0,0:0|0:0,0:0:0:0:
495,321,30592,2,0,P|515:288|510:232,1,80,2|0,0:0|0:0,0:0:0:0:
501,218,30882,1,0,0:0:0:0:
501,218,30979,2,0,P|510:185|513:151,1,40,10|0,0:0|0:0,0:0:0:0:
425,177,31173,2,0,P|428:158|430:132,1,40,2|0,0:0|0:0,0:0:0:0:
344,146,31366,6,0,P|345:117|343:92,3,40,2|0|2|0,0:0|0:0|0:0|0:0,0:0:0:0:
333,75,31753,1,10,0:0:0:0:
306,56,31849,1,0,0:0:0:0:
275,50,31946,1,2,0:0:0:0:
244,58,32043,1,0,0:0:0:0:
219,77,32140,2,0,P|196:83|170:82,1,40,2|2,0:0|0:0,0:0:0:0:
100,51,32334,2,0,L|106:16,3,26.6666666666667,0|0|0|10,0:0|0:0|0:0|0:0,0:0:0:0:
46,187,32721,1,0,0:0:0:0:
260,191,32915,6,0,L|164:199,1,95.9999970703126,2|0,0:1|0:0,0:0:0:0:
46,187,33302,2,0,L|156:177,1,95.9999970703126,10|0,0:1|0:0,0:0:0:0:
347,294,33689,2,0,P|301:285|256:305,1,95.9999970703126,2|0,0:1|0:0,0:0:0:0:
200,368,33979,1,2,0:1:0:0:
200,368,34076,2,0,P|176:362|153:358,1,47.9999985351563,8|0,0:1|0:0,0:0:0:0:
130,275,34269,2,0,P|106:278|82:280,1,47.9999985351563,2|0,0:1|0:0,0:0:0:0:
0,314,34463,5,8,0:1:0:0:
97,194,34657,1,0,0:0:0:0:
34,107,34850,1,8,0:0:0:0:
34,107,35044,1,0,0:0:0:0:
128,15,35237,2,0,P|134:55|140:94,2,80,2|0|8,0:1|0:0|0:0,0:0:0:0:
256,68,35818,6,0,P|247:147|238:227,1,160,0|0,0:0|0:0,0:0:0:0:
266,350,36398,2,0,P|222:353|179:359,1,80,8|0,0:0|0:0,0:0:0:0:
21,324,36786,1,2,0:1:0:0:
21,324,36882,1,0,3:0:0:0:
21,324,36979,1,0,0:0:0:0:
102,369,37173,2,0,P|106:329|110:289,1,80,8|0,0:0|0:0,0:0:0:0:
93,262,37463,1,0,0:0:0:0:
93,262,37560,6,0,P|63:236|24:227,1,80,2|0,0:1|0:0,0:0:0:0:
150,183,37947,1,8,0:0:0:0:
150,183,38140,1,0,0:0:0:0:
76,103,38334,2,0,P|72:60|67:20,1,80,2|0,0:1|0:0,0:0:0:0:
67,23,38721,1,8,0:0:0:0:
182,78,38915,6,0,P|256:104|330:78,1,160,0|0,0:0|0:0,0:0:0:0:
444,23,39495,2,0,P|439:63|436:103,1,80,8|0,0:0|0:0,0:0:0:0:
507,214,39882,1,2,0:1:0:0:
412,194,40076,1,0,0:0:0:0:
332,247,40269,1,8,0:0:0:0:
318,342,40463,1,2,0:0:0:0:
182,207,40657,5,2,0:1:0:0:
182,207,40850,1,0,0:0:0:0:
25,287,41044,1,8,0:0:0:0:
90,358,41237,2,0,P|129:364|167:353,1,80,0|2,0:0|0:1,0:0:0:0:
215,271,41624,2,0,P|211:236|205:203,2,40,0|0|8,0:0|0:0|0:0,0:0:0:0:
379,334,42011,6,0,P|451:307|511:355,1,160,0|0,0:0|0:0,0:0:0:0:
292,367,42592,2,0,P|295:327|300:285,1,80,8|0,0:0|0:0,0:0:0:0:
379,242,42979,1,2,0:1:0:0:
242,142,43173,1,0,0:0:0:0:
242,142,43269,1,0,0:0:0:0:
242,142,43366,2,0,L|248:94,2,40,0|0|8,3:0|0:0|0:0,0:0:0:0:
125,278,43753,5,2,0:1:0:0:
125,278,43947,1,0,0:0:0:0:
38,194,44140,2,0,P|89:188|135:181,1,80,8|0,0:0|0:0,0:0:0:0:
214,242,44528,2,0,P|265:248|311:255,2,80,2|0|8,0:1|0:0|0:0,0:0:0:0:
34,319,45108,6,0,P|111:314|165:370,1,160,0|0,0:0|0:0,0:0:0:0:
257,334,45689,1,8,0:0:0:0:
279,340,45786,1,0,0:0:0:0:
303,341,45883,1,0,0:0:0:0:
327,335,45980,1,0,0:0:0:0:
347,323,46076,1,2,0:1:0:0:
282,172,46269,1,0,0:0:0:0:
282,172,46366,1,0,0:0:0:0:
282,172,46463,2,0,P|288:212|293:251,1,80,8|0,0:0|0:0,0:0:0:0:
425,376,46850,6,0,P|440:340|438:300,1,80,2|0,0:0|0:0,0:0:0:0:
379,220,47237,1,8,0:0:0:0:
433,133,47431,2,0,P|470:128|519:122,1,80,2|2,0:0|0:1,0:0:0:0:
379,18,47818,2,0,P|419:22|459:25,1,80,2|8,0:0|0:0,0:0:0:0:
343,102,48205,6,0,P|280:146|207:121,1,160,0|0,0:0|0:0,0:0:0:0:
147,25,48786,1,10,0:0:0:0:
123,27,48882,1,2,0:0:0:0:
99,30,48979,1,0,0:0:0:0:
75,32,49076,1,0,0:0:0:0:
51,34,49173,1,2,0:1:0:0:
93,124,49366,2,0,P|48:127|8:131,2,80,0|8|2,0:0|0:0|0:0,0:0:0:0:
153,206,49947,5,2,0:1:0:0:
153,206,50044,1,0,0:0:0:0:
153,206,50140,2,0,P|148:245|143:285,1,80,0|8,0:0|0:0,0:0:0:0:
76,353,50528,1,0,0:0:0:0:
51,260,50721,2,0,P|48:230|44:204,2,40,2|0|2,0:1|0:0|0:0,0:0:0:0:
168,377,51108,2,0,P|215:371|258:367,1,80,8|2,0:0|0:0,0:0:0:0:
306,293,51495,1,2,0:1:0:0:
381,366,51689,5,2,0:0:0:0:
407,373,51785,1,2,0:0:0:0:
435,371,51882,1,8,0:0:0:0:
461,360,51979,1,0,0:0:0:0:
482,342,52076,1,0,0:0:0:0:
412,243,52269,2,0,L|417:283,2,40,2|0|0,0:1|0:0|0:0,0:0:0:0:
389,52,52657,1,8,0:0:0:0:
401,147,52850,1,0,0:0:0:0:
263,187,53044,6,0,P|224:182|184:178,1,80,2|0,0:0|0:0,0:0:0:0:
51,111,53431,1,8,0:0:0:0:
2,199,53624,2,0,P|-10:264|57:332,1,160,2|2,0:0|0:0,0:0:0:0:
211,266,54205,1,8,0:0:0:0:
134,355,54398,6,0,P|129:313|122:274,1,80,2|2,0:0|0:1,0:0:0:0:
292,315,54786,2,0,P|300:266|304:226,1,80,2|8,0:0|0:0,0:0:0:0:
510,338,55173,2,0,P|448:355|383:284,1,160,2|0,0:0|0:0,0:0:0:0:
433,192,55753,1,10,0:0:0:0:
443,98,55947,1,0,0:0:0:0:
248,132,56140,5,2,0:0:0:0:
238,38,56334,1,0,0:0:0:0:
342,122,56528,1,10,0:0:0:0:
332,29,56721,1,0,0:0:0:0:
235,148,56915,1,2,0:1:0:0:
235,148,57108,2,0,P|195:153|155:157,1,80,0|8,0:0|0:0,0:0:0:0:
77,208,57495,1,0,0:0:0:0:
155,372,57689,5,4,0:3:0:0:
274,360,57882,1,2,0:1:0:0:
205,263,58076,1,0,0:0:0:0:
155,372,58269,6,0,P|214:364|274:361,1,120.000004577637,4|0,0:3|3:0,0:0:0:0:
354,375,58753,1,0,3:0:0:0:
354,375,58850,6,0,P|387:342|393:295,1,95.9999970703126,8|0,0:1|0:0,0:0:0:0:
354,199,59237,5,4,0:0:0:0:
429,130,59431,2,0,P|472:126|508:121,2,80,2|8|0,0:0|0:0|0:0,0:0:0:0:
326,18,60011,2,0,P|330:58|333:98,1,80,2|2,0:1|0:0,0:0:0:0:
256,167,60398,1,8,0:0:0:0:
178,98,60592,6,0,P|125:82|41:139,1,160,2|0,0:0|0:0,0:0:0:0:
0,242,61173,2,0,P|7:278|14:329,1,80,10|0,0:0|0:0,0:0:0:0:
201,369,61560,1,2,0:1:0:0:
210,259,61753,1,2,0:0:0:0:
111,307,61947,1,8,0:0:0:0:
111,307,62140,1,2,0:0:0:0:
301,320,62334,6,0,P|342:316|399:311,2,80,2|0|10,0:1|0:0|0:0,0:0:0:0:
210,259,62915,1,0,0:0:0:0:
210,259,63011,1,0,0:0:0:0:
210,259,63108,2,0,P|194:222|197:183,1,80,2|0,0:1|0:0,0:0:0:0:
256,92,63495,1,10,0:0:0:0:
314,183,63689,1,0,0:0:0:0:
446,135,63882,6,0,P|453:87|457:43,1,80,2|0,0:1|0:0,0:0:0:0:
454,43,64173,1,0,0:0:0:0:
452,31,64269,1,8,0:0:0:0:
352,82,64463,1,0,0:0:0:0:
401,219,64657,1,2,0:1:0:0:
427,228,64753,1,0,0:0:0:0:
455,229,64850,1,2,0:0:0:0:
482,222,64947,1,0,0:0:0:0:
505,208,65044,1,8,0:0:0:0:
446,135,65237,1,0,0:0:0:0:
314,183,65431,6,0,P|321:262|327:342,2,160,4|10|2,0:0|0:0|0:1,0:0:0:0:
256,92,66398,1,0,0:0:0:0:
256,92,66495,1,0,0:0:0:0:
256,92,66592,2,0,P|216:88|177:101,1,80,10|2,0:0|0:0,0:0:0:0:
124,248,66979,5,2,0:1:0:0:
79,173,67173,2,0,P|39:169|0:165,2,80,0|10|0,0:0|0:0|0:0,0:0:0:0:
207,210,67753,2,0,P|214:248|205:287,1,80,2|2,0:1|0:0,0:0:0:0:
129,337,68140,1,8,0:0:0:0:
129,337,68334,1,2,0:0:0:0:
300,247,68528,6,0,L|305:286,3,40,2|0|2|0,0:1|0:0|0:0|0:0,0:0:0:0:
324,302,68915,2,0,L|318:341,3,40,8|0|2|0,0:0|0:0|0:0|0:0,0:0:0:0:
306,362,69302,1,2,0:1:0:0:
330,349,69398,1,0,0:0:0:0:
358,343,69495,1,2,0:0:0:0:
385,345,69592,1,0,0:0:0:0:
412,354,69689,5,8,0:0:0:0:
445,373,69785,1,0,0:0:0:0:
482,360,69882,1,2,0:0:0:0:
501,327,69979,1,2,0:0:0:0:
488,289,70076,6,0,P|493:242|496:203,1,80,4|2,0:3|0:1,0:0:0:0:
383,122,70463,1,4,0:3:0:0:
493,110,70657,6,0,P|436:97|383:122,1,120.000004577637,8|0,0:3|0:0,0:0:0:0:
373,137,71140,1,0,0:0:0:0:
373,137,71237,2,0,P|378:180|381:222,1,60.0000022888184,8|2,0:0|0:1,0:0:0:0:
353,302,71624,6,0,P|299:315|227:264,1,120,4|0,0:0|0:0,0:0:0:0:
230,267,72011,2,0,L|238:219,2,40,10|0|2,0:0|0:0|0:0,0:0:0:0:
132,299,72398,2,0,P|78:286|6:337,1,120,2|0,0:0|0:0,0:0:0:0:
9,334,72785,2,0,L|17:382,2,40,10|0|2,0:0|0:0|0:0,0:0:0:0:
67,243,73173,6,0,P|70:203|71:163,1,80,2|0,0:0|0:0,0:0:0:0:
66,131,73463,1,0,0:0:0:0:
66,131,73560,2,0,P|100:126|123:123,1,40,10|0,0:0|0:0,0:0:0:0:
155,56,73753,2,0,P|174:57|194:60,1,40,2|0,0:0|0:0,0:0:0:0:
264,110,73947,6,0,P|304:106|344:102,1,80,2|0,0:0|0:0,0:0:0:0:
373,111,74237,1,0,0:0:0:0:
373,111,74334,2,0,P|383:128|389:147,1,40,10|0,0:0|0:0,0:0:0:0:
470,172,74528,2,0,P|463:190|452:207,1,40,2|0,0:0|0:0,0:0:0:0:
484,284,74721,6,0,P|466:290|445:292,3,40,2|0|2|0,0:0|0:0|0:0|0:0,0:0:0:0:
413,287,75108,1,10,0:0:0:0:
416,318,75204,1,0,0:0:0:0:
403,347,75301,1,2,0:0:0:0:
377,366,75398,1,0,0:0:0:0:
346,369,75495,5,2,0:0:0:0:
311,350,75591,1,2,0:0:0:0:
294,315,75689,2,0,P|295:291|299:267,1,47.9999985351563,2|0,0:1|0:0,0:0:0:0:
320,182,75882,1,2,0:1:0:0:
199,356,76076,1,0,0:0:0:0:
106,199,76269,6,0,P|110:243|114:299,1,95.9999970703126,2|0,0:1|0:0,0:0:0:0:
199,356,76657,2,0,P|203:312|207:256,1,95.9999970703126,2|0,0:1|0:0,0:0:0:0:
177,138,77044,2,0,P|104:104|14:183,1,191.999994140625,2|10,0:1|0:1,0:0:0:0:
106,199,77624,1,2,0:1:0:0:
194,43,77818,5,4,0:0:0:0:
265,113,78011,2,0,P|262:152|258:193,2,80,2|8|0,0:0|0:0|0:0,0:0:0:0:
346,57,78592,2,0,P|385:41|427:49,1,80,2|2,0:1|0:0,0:0:0:0:
506,129,78979,1,8,0:0:0:0:
484,248,79173,6,0,P|412:278|344:243,1,160,2|0,0:0|0:0,0:0:0:0:
258,192,79753,2,0,P|255:231|251:272,1,80,10|0,0:0|0:0,0:0:0:0:
90,307,80140,1,2,0:1:0:0:
80,211,80334,1,2,0:0:0:0:
70,115,80528,1,8,0:0:0:0:
70,115,80722,1,2,0:0:0:0:
248,164,80915,6,0,P|207:168|168:173,1,80,2|0,0:1|0:0,0:0:0:0:
80,211,81302,1,10,0:0:0:0:
107,325,81495,1,0,0:0:0:0:
107,325,81592,1,0,0:0:0:0:
107,325,81689,2,0,P|157:340|200:326,1,80,2|0,0:1|0:0,0:0:0:0:
256,268,82076,1,10,0:0:0:0:
328,334,82269,6,0,P|393:359|468:309,1,160,0|0,0:0|0:0,0:0:0:0:
435,218,82850,1,8,0:0:0:0:
493,147,83044,2,0,P|500:99|504:55,1,80,0|2,0:0|0:1,0:0:0:0:
501,55,83335,1,0,0:0:0:0:
499,43,83431,1,2,0:0:0:0:
378,30,83624,2,0,P|361:66|361:105,1,80,8|0,0:0|0:0,0:0:0:0:
412,186,84011,6,0,P|354:134|278:149,2,160,4|10|2,0:0|0:0|0:1,0:0:0:0:
452,288,84979,1,0,0:0:0:0:
452,288,85076,1,0,0:0:0:0:
452,288,85173,2,0,P|446:336|441:368,1,80,10|2,0:0|0:0,0:0:0:0:
332,218,85560,5,2,0:1:0:0:
278,302,85753,2,0,P|314:317|356:315,2,80,0|10|0,0:0|0:0|0:0,0:0:0:0:
179,351,86334,2,0,P|140:353|100:357,1,80,2|2,0:1|0:0,0:0:0:0:
14,306,86721,1,8,0:0:0:0:
14,306,86915,1,2,0:0:0:0:
76,210,87108,6,0,P|74:182|69:159,3,40,2|0|2|0,0:1|0:0|0:0|0:0,0:0:0:0:
62,148,87495,2,0,L|67:102,3,40,8|0|2|0,0:0|0:0|0:0|0:0,0:0:0:0:
60,84,87882,5,2,0:1:0:0:
86,95,87978,1,0,0:0:0:0:
113,97,88075,1,2,0:0:0:0:
140,89,88172,1,0,0:0:0:0:
163,73,88269,5,8,0:0:0:0:
196,51,88365,1,0,0:0:0:0:
235,49,88462,1,2,0:0:0:0:
270,68,88559,1,2,0:0:0:0:
292,101,88657,6,0,P|288:140|283:180,1,80,2|2,0:1|0:1,0:0:0:0:
229,254,89044,1,2,0:1:0:0:
378,210,89237,2,0,P|383:252|388:309,1,80,8|2,0:0|0:1,0:0:0:0:
327,375,89624,1,8,0:0:0:0:
327,375,89721,1,0,0:0:0:0:
327,375,89818,1,2,0:1:0:0:
473,239,90011,1,8,0:0:0:0:
283,180,90205,5,4,0:0:0:0:
397,49,90398,1,2,0:0:0:0:
397,49,90592,2,0,P|400:92|379:132,1,80,8|0,0:0|0:0,0:0:0:0:
283,180,90979,2,0,P|230:172|186:168,1,80,2|2,0:1|0:0,0:0:0:0:
89,117,91366,1,8,0:0:0:0:
4,205,91560,6,0,P|-12:266|53:343,1,160,2|0,0:0|0:0,0:0:0:0:
154,245,92140,2,0,P|114:251|74:255,1,80,10|0,0:0|0:0,0:0:0:0:
160,368,92528,1,2,0:1:0:0:
256,300,92722,1,2,0:0:0:0:
352,368,92915,1,8,0:0:0:0:
352,368,93108,1,2,0:0:0:0:
461,255,93302,6,0,P|466:214|470:174,1,80,2|0,0:1|0:0,0:0:0:0:
342,46,93689,1,10,0:0:0:0:
310,141,93882,1,0,0:0:0:0:
310,141,93979,1,0,0:0:0:0:
310,141,94076,2,0,P|352:146|396:129,1,80,2|0,0:1|0:0,0:0:0:0:
342,46,94463,1,10,0:0:0:0:
202,141,94657,6,0,P|128:161|65:116,1,160,0|0,0:0|0:0,0:0:0:0:
2,204,95237,2,0,P|8:243|12:283,1,80,8|0,0:0|0:0,0:0:0:0:
114,361,95624,1,2,0:1:0:0:
94,363,95720,1,0,0:0:0:0:
74,365,95817,1,2,0:0:0:0:
124,252,96011,2,0,P|164:256|204:261,1,80,8|0,0:0|0:0,0:0:0:0:
367,313,96398,6,0,P|308:363|234:344,2,160,4|10|2,0:0|0:0|0:1,0:0:0:0:
295,197,97366,1,0,0:0:0:0:
295,197,97463,1,0,0:0:0:0:
295,197,97560,2,0,P|292:237|288:277,1,80,10|2,0:0|0:0,0:0:0:0:
439,244,97947,5,2,0:1:0:0:
468,153,98140,2,0,P|428:147|391:160,1,80,0|10,0:0|0:0,0:0:0:0:
391,159,98528,1,0,0:0:0:0:
238,108,98721,2,0,P|277:113|314:100,1,80,2|2,0:1|0:0,0:0:0:0:
267,17,99108,1,8,0:0:0:0:
267,17,99302,1,2,0:0:0:0:
149,136,99495,6,0,P|124:135|91:128,3,40,2|0|2|0,0:1|0:0|0:0|0:0,0:0:0:0:
87,142,99882,2,0,L|47:147,3,40,8|0|2|0,0:0|0:0|0:0|0:0,0:0:0:0:
27,160,100269,5,2,0:1:0:0:
46,181,100365,1,0,0:0:0:0:
55,207,100462,1,2,0:0:0:0:
52,234,100559,1,0,0:0:0:0:
38,258,100657,5,8,0:0:0:0:
18,292,100753,1,0,0:0:0:0:
20,331,100850,1,2,0:0:0:0:
45,362,100947,1,2,0:0:0:0:
82,374,101044,6,0,P|122:369|168:364,1,80,4|2,0:3|0:1,0:0:0:0:
256,264,101431,1,4,0:3:0:0:
365,274,101624,6,0,P|308:289|255:263,1,120.000004577637,8|0,0:3|0:0,0:0:0:0:
245,248,102108,1,0,0:0:0:0:
245,248,102205,2,0,P|249:197|253:167,1,80,8|2,0:0|0:1,0:0:0:0:
284,56,102592,6,0,P|341:41|394:67,1,120.000004577637,4|0,0:0|0:0,0:0:0:0:
409,84,102979,2,0,L|414:131,2,40,10|0|2,0:0|0:0|0:0,0:0:0:0:
510,56,103366,2,0,P|503:124|497:178,1,120,2|0,0:0|0:0,0:0:0:0:
486,197,103753,2,0,P|467:199|446:201,2,40,10|0|2,0:0|0:0|0:0,0:0:0:0:
511,292,104140,6,0,P|472:295|432:299,1,80,2|0,0:0|0:0,0:0:0:0:
409,322,104431,1,0,0:0:0:0:
409,322,104528,2,0,P|375:315|344:312,1,40,10|0,0:0|0:0,0:0:0:0:
291,367,104721,2,0,P|256:372|222:374,1,40,2|0,0:0|0:0,0:0:0:0:
157,341,104915,2,0,P|141:306|147:258,1,80,2|0,0:0|0:0,0:0:0:0:
168,245,105205,1,0,0:0:0:0:
168,245,105302,2,0,P|170:211|174:189,1,40,10|0,0:0|0:0,0:0:0:0:
237,133,105495,2,0,P|234:101|225:71,1,40,2|0,0:0|0:0,0:0:0:0:
163,32,105689,6,0,P|145:36|121:39,3,40,2|0|2|0,0:0|0:0|0:0|0:0,0:0:0:0:
96,22,106076,1,10,0:0:0:0:
66,16,106172,1,0,0:0:0:0:
35,25,106269,1,2,0:0:0:0:
15,50,106366,1,0,0:0:0:0:
9,81,106463,5,2,0:0:0:0:
25,118,106559,1,2,0:0:0:0:
58,138,106657,2,0,P|84:135|106:133,1,47.9999985351563,2|0,0:1|0:0,0:0:0:0:
199,122,106850,1,2,0:1:0:0:
15,273,107044,1,0,0:0:0:0:
199,341,107237,6,0,L|209:244,1,95.9999970703126,2|0,0:1|0:0,0:0:0:0:
199,122,107624,2,0,L|189:232,1,95.9999970703126,10|0,0:1|0:0,0:0:0:0:
313,341,108011,2,0,P|360:351|421:316,1,95.9999970703126,2|0,0:1|0:0,0:0:0:0:
458,266,108302,1,2,0:1:0:0:
458,266,108398,2,0,P|455:230|449:196,1,47.9999985351563,8|0,0:1|0:0,0:0:0:0:
419,137,108592,1,2,0:1:0:0:
