osu file format v14

[General]
AudioFilename: audio.mp3
AudioLeadIn: 0
PreviewTime: 28269
Countdown: 0
SampleSet: Soft
StackLeniency: 0.7
Mode: 0
LetterboxInBreaks: 0
WidescreenStoryboard: 0

[Editor]
Bookmarks: 59237
DistanceSpacing: 0.5
BeatDivisor: 4
GridSize: 4
TimelineZoom: 1.3

[Metadata]
Title:Believe
TitleUnicode:Believe
Artist:Folder5
ArtistUnicode:Folder5
Creator:Chaoslitz
Version:Romance Dawn
Source:ONE PIECE
Tags:ワンピース opening op 2 Starfy StarForYou
BeatmapID:1282789
BeatmapSetID:566875

[Difficulty]
HPDrainRate:6
CircleSize:4.5
OverallDifficulty:8
ApproachRate:9
SliderMultiplier:1.8
SliderTickRate:1

[Events]
//Background and Video events
0,0,"bg.jpg",0,0
Video,-250,"optc.flv"
//Break Periods
//Storyboard Layer 0 (Background)
//Storyboard Layer 1 (Fail)
//Storyboard Layer 2 (Pass)
//Storyboard Layer 3 (Foreground)
//Storyboard Sound Samples

[TimingPoints]
399,387.096774193548,4,2,1,50,1,0
399,-133.333333333333,4,2,1,50,0,0
12786,-133.333333333333,4,2,1,60,0,0
26721,-100,4,2,1,70,0,0
27108,-133.333333333333,4,2,1,70,0,0
27689,-200,4,2,1,70,0,0
28269,-133.333333333333,4,2,1,65,0,0
29044,-111.111111111111,4,2,1,70,0,0
29818,-100,4,2,1,75,0,0
30592,-83.3333333333333,4,2,1,80,0,0
32915,-83.3333333333333,4,2,2,80,0,0
34366,-83.3333333333333,4,2,2,10,0,0
34463,-111.111111111111,4,2,1,60,0,0
53528,-111.111111111111,4,2,1,10,0,0
53624,-111.111111111111,4,2,1,60,0,0
58269,-133.333333333333,4,2,1,60,0,0
58850,-111.111111111111,4,2,1,60,0,0
59044,-111.111111111111,4,2,1,10,0,0
59237,-100,4,2,1,80,0,1
70657,-133.333333333333,4,2,1,80,0,1
71237,-133.333333333333,4,2,1,80,0,0
71624,-133.333333333333,4,2,1,65,0,0
72398,-111.111111111111,4,2,1,70,0,0
73173,-100,4,2,1,75,0,0
73947,-83.3333333333333,4,2,1,80,0,0
75689,-83.3333333333333,4,2,2,80,0,0
75882,-83.3333333333333,4,2,1,80,0,0
76269,-83.3333333333333,4,2,2,80,0,0
77624,-83.3333333333333,4,2,2,80,0,0
77818,-100,4,2,1,80,0,1
90011,-100,4,2,1,80,0,0
90205,-100,4,2,1,80,0,1
101624,-133.333333333333,4,2,1,80,0,1
101625,-100,4,2,1,80,0,1
102205,-133.333333333333,4,2,1,80,0,0
102592,-133.333333333333,4,2,1,65,0,0
103366,-111.111111111111,4,2,1,70,0,0
104140,-100,4,2,1,75,0,0
104141,-100,4,2,1,80,0,0
104915,-83.3333333333333,4,2,1,80,0,0
106657,-83.3333333333333,4,2,2,80,0,0
106850,-83.3333333333333,4,2,1,80,0,0
107237,-83.3333333333333,4,2,2,80,0,0
108592,-83.3333333333333,4,2,2,80,0,0
108689,-83.3333333333333,4,2,1,10,0,0

[Colours]
Combo1 : 55,143,242
Combo2 : 255,164,45
Combo3 : 79,225,9
Combo4 : 255,95,52

[HitObjects]
41,342,302,5,0,0:0:0:0:
41,342,399,2,0,P|6:285|16:219,1,135.000005149842,4|0,0:0|1:0,0:0:0:0:
99,174,979,1,0,0:0:0:0:
162,257,1173,2,0,P|128:261|95:267,1,67.5000025749208
95,266,1560,1,2,0:1:0:0:
239,331,1753,6,0,P|247:263|252:196,1,135.000005149842,10|0,0:1|0:0,0:0:0:0:
210,100,2334,2,0,P|243:97|276:89,1,67.5000025749208,0|0,1:0|0:0,0:0:0:0:
373,38,2721,1,0,0:0:0:0:
357,124,2915,1,0,0:0:0:0:
414,190,3108,1,4,0:3:0:0:
501,187,3302,1,8,0:0:0:0:
501,187,3398,1,8,0:0:0:0:
501,187,3495,6,0,P|497:221|493:253,1,67.5000025749208,8|0,0:3|0:0,0:0:0:0:
404,301,3882,2,0,P|409:334|412:367,1,67.5000025749208,0|0,1:0|0:0,0:0:0:0:
304,267,4269,1,0,0:0:0:0:
414,190,4463,1,0,0:0:0:0:
414,190,4657,1,2,0:1:0:0:
304,267,4850,6,0,P|268:211|278:145,1,135.000005149842,8|0,0:1|0:0,0:0:0:0:
420,122,5431,2,0,L|414:189,1,67.5000025749208,0|0,1:0|0:0,0:0:0:0:
322,76,5818,2,0,P|290:64|256:64,1,67.5000025749208,2|0,0:1|0:0,0:0:0:0:
401,29,6205,2,0,P|440:24|477:19,1,67.5000025749208,0|0,3:0|0:0,0:0:0:0:
322,76,6592,6,0,P|318:42|313:9,2,67.5000025749208,2|0|2,0:1|0:0|0:0,0:0:0:0:
399,131,7173,1,0,0:0:0:0:
399,131,7366,2,0,P|394:164|390:197,1,67.5000025749208,0|2,0:0|0:0,0:0:0:0:
374,284,7753,1,0,0:0:0:0:
270,196,7947,6,0,P|237:201|204:205,2,67.5000025749208,2|0|2,0:0|0:0|0:0,0:0:0:0:
374,284,8528,2,0,P|340:282|308:290,1,67.5000025749208
246,358,8915,1,2,0:0:0:0:
225,123,9108,5,8,0:3:0:0:
308,290,9302,1,2,0:1:0:0:
225,123,9495,2,0,L|228:87,1,33.7500012874604,4|0,0:3|0:0,0:0:0:0:
154,182,9689,6,0,P|159:214|163:248,1,67.5000025749208,2|0,0:1|0:0,0:0:0:0:
144,339,10076,1,2,0:0:0:0:
293,281,10269,1,0,0:0:0:0:
293,281,10463,1,0,0:0:0:0:
222,350,10657,2,0,P|190:344|156:340,1,67.5000025749208,2|0,0:0|0:0,0:0:0:0:
317,376,11044,6,0,P|373:338|388:274,1,135.000005149842,8|0,0:1|0:0,0:0:0:0:
286,213,11624,2,0,P|290:247|292:281,1,67.5000025749208
384,171,12011,5,2,3:1:0:0:
401,363,12205,1,0,0:0:0:0:
384,171,12398,2,0,P|377:222|374:252,1,67.5000025749208,2|0,3:1|0:0,0:0:0:0:
298,103,12786,5,6,0:0:0:0:
469,52,12979,1,0,0:0:0:0:
373,9,13173,1,10,0:0:0:0:
375,29,13269,1,0,0:0:0:0:
377,49,13366,1,0,0:0:0:0:
284,211,13560,1,0,0:0:0:0:
298,103,13753,1,2,0:0:0:0:
298,103,13850,1,0,0:0:0:0:
298,103,13947,1,8,0:0:0:0:
384,171,14140,1,2,0:0:0:0:
204,147,14334,5,0,0:0:0:0:
184,149,14430,1,0,0:0:0:0:
164,151,14527,1,0,0:0:0:0:
44,237,14721,2,0,P|77:240|111:243,1,67.5000025749208,8|0,0:0|0:0,0:0:0:0:
131,245,15011,1,0,0:0:0:0:
151,246,15108,5,8,0:1:0:0:
140,23,15302,1,2,0:0:0:0:
64,119,15495,1,8,0:0:0:0:
227,150,15689,1,2,0:1:0:0:
151,246,15882,5,2,0:0:0:0:
145,272,15978,1,0,0:0:0:0:
147,299,16075,1,0,0:0:0:0:
157,323,16172,1,0,0:0:0:0:
174,344,16269,1,10,0:0:0:0:
307,372,16463,1,0,0:0:0:0:
230,278,16657,2,0,P|270:275|309:269,1,67.5000025749208,0|2,0:0|0:0,0:0:0:0:
317,268,16947,1,0,0:0:0:0:
336,264,17044,1,8,0:0:0:0:
402,195,17237,1,2,0:0:0:0:
382,97,17431,5,0,0:0:0:0:
278,148,17624,1,0,0:0:0:0:
274,127,17720,1,0,0:0:0:0:
271,107,17817,1,8,0:0:0:0:
268,87,17914,1,0,0:0:0:0:
265,67,18011,2,0,L|308:75,1,33.7500012874604,0|0,3:0|0:0,0:0:0:0:
382,97,18205,1,2,0:1:0:0:
310,239,18398,1,0,0:0:0:0:
283,245,18494,1,0,0:0:0:0:
257,243,18591,1,8,3:2:0:0:
189,177,18786,1,0,0:0:0:0:
93,363,18979,6,0,P|121:359|147:354,1,33.7500012874604,2|0,0:0|0:0,0:0:0:0:
204,347,19173,1,0,0:0:0:0:
101,206,19366,2,0,P|106:239|109:272,1,67.5000025749208,10|0,0:0|0:0,0:0:0:0:
189,177,19753,1,0,0:0:0:0:
118,106,19947,1,2,0:0:0:0:
98,109,20043,1,0,0:0:0:0:
78,113,20140,1,8,0:0:0:0:
165,22,20334,1,2,0:0:0:0:
183,199,20528,5,0,0:0:0:0:
247,55,20721,2,0,L|253:10,2,33.7500012874604,0|0|8,0:0|0:0|0:0,0:0:0:0:
333,202,21108,1,0,0:0:0:0:
359,204,21204,1,0,0:0:0:0:
386,207,21301,1,2,0:1:0:0:
286,132,21495,1,0,0:0:0:0:
266,134,21591,1,0,0:0:0:0:
246,136,21689,1,8,3:2:0:0:
353,80,21882,1,0,0:0:0:0:
465,167,22076,6,0,P|469:199|471:234,1,67.5000025749208,2|2,0:0|0:1,0:0:0:0:
505,330,22463,1,10,0:0:0:0:
343,370,22657,1,2,0:1:0:0:
343,370,22850,1,0,0:0:0:0:
389,222,23044,1,2,0:0:0:0:
391,242,23140,1,0,0:0:0:0:
393,262,23237,2,0,L|397:299,1,33.7500012874604,8|0,0:0|0:0,0:0:0:0:
343,370,23431,1,2,0:0:0:0:
217,334,23624,5,0,0:0:0:0:
207,308,23720,1,0,0:0:0:0:
206,281,23817,1,0,0:0:0:0:
284,183,24011,2,0,P|287:216|290:250,1,67.5000025749208,8|0,0:0|0:0,0:0:0:0:
292,270,24301,1,0,0:0:0:0:
294,291,24398,5,8,0:1:0:0:
284,68,24592,1,2,0:0:0:0:
193,161,24785,1,8,0:0:0:0:
386,198,24979,1,2,0:1:0:0:
344,353,25173,5,2,0:1:0:0:
326,363,25269,1,2,0:1:0:0:
307,369,25366,1,2,0:1:0:0:
287,371,25463,1,2,0:1:0:0:
267,367,25560,5,2,0:1:0:0:
245,350,25656,1,2,0:1:0:0:
220,340,25753,1,2,0:1:0:0:
194,337,25850,1,2,0:1:0:0:
167,343,25947,5,2,0:0:0:0:
139,360,26043,1,0,0:0:0:0:
105,364,26140,1,2,0:0:0:0:
74,354,26237,1,0,0:0:0:0:
49,331,26334,1,0,0:0:0:0:
36,300,26430,1,2,0:0:0:0:
38,267,26527,1,0,0:0:0:0:
53,237,26624,1,0,0:0:0:0:
79,216,26721,6,0,L|125:210,5,30,8|0|0|0|0|0,0:3|0:0|0:0|0:0|0:0|0:0,0:0:0:0:
184,241,27108,6,0,L|206:237,5,22.5000008583069,2|0|0|2|0|0,0:1|0:0|0:0|0:0|0:0|0:0,0:0:0:0:
283,212,27495,2,0,L|288:180,2,22.5000008583069,0|0|0,0:0|0:0|0:0,0:0:0:0:
288,234,27689,6,0,P|293:290|296:346,1,112.5,4|0,0:3|0:0,0:0:0:0:
379,371,28269,6,0,P|413:368|443:352,1,67.5000025749208,6|0,0:0|0:0,0:0:0:0:
454,340,28560,1,0,0:0:0:0:
468,270,28657,5,10,0:0:0:0:
463,250,28753,1,0,0:0:0:0:
451,230,28850,2,0,P|439:217|425:209,1,33.7500012874604,2|0,0:0|0:0,0:0:0:0:
338,232,29044,6,0,P|298:234|257:238,1,80.9999975280763,2|0,0:0|0:0,0:0:0:0:
236,239,29334,1,0,0:0:0:0:
166,216,29431,5,10,0:0:0:0:
151,195,29527,1,0,0:0:0:0:
144,172,29624,2,0,P|143:149|147:131,1,40.4999987640381,2|0,0:0|0:0,0:0:0:0:
189,48,29818,6,0,P|229:30|273:36,1,90,2|0,0:0|0:0,0:0:0:0:
294,44,30108,1,0,0:0:0:0:
355,89,30205,5,10,0:0:0:0:
377,95,30301,1,0,0:0:0:0:
402,93,30398,2,0,P|426:89|447:78,1,45,2|0,0:0|0:0,0:0:0:0:
492,18,30592,6,0,L|505:140,1,107.999996704102,2|0,0:0|0:0,0:0:0:0:
506,152,30882,1,0,0:0:0:0:
435,180,30979,5,10,0:0:0:0:
432,206,31075,1,0,0:0:0:0:
429,233,31173,2,0,L|423:286,1,53.9999983520508,2|0,0:0|0:0,0:0:0:0:
482,340,31366,5,2,0:0:0:0:
453,322,31462,1,0,0:0:0:0:
421,321,31559,1,2,0:0:0:0:
390,331,31656,1,0,0:0:0:0:
366,352,31753,1,10,0:0:0:0:
337,370,31850,1,0,0:0:0:0:
305,371,31946,1,2,0:0:0:0:
274,361,32043,1,0,0:0:0:0:
250,340,32140,5,2,0:0:0:0:
215,325,32236,1,2,0:0:0:0:
178,327,32334,2,0,P|160:330|142:333,2,35.9999989013672,0|0|0,0:0|0:0|0:0,0:0:0:0:
175,248,32528,6,0,P|148:252|121:256,1,53.9999983520508,10|0,0:0|0:0,0:0:0:0:
42,269,32721,1,0,0:0:0:0:
253,125,32915,5,2,0:1:0:0:
274,361,33108,1,0,0:0:0:0:
253,125,33302,2,0,P|259:173|265:232,1,107.999996704102,10|0,0:1|0:0,0:0:0:0:
400,317,33689,2,0,P|407:263|414:207,1,107.999996704102,2|0,0:1|0:0,0:0:0:0:
408,337,33979,1,2,0:1:0:0:
408,337,34076,2,0,P|436:331|462:328,1,53.9999983520508,8|0,0:1|0:0,0:0:0:0:
318,237,34269,2,0,P|291:234|264:231,1,53.9999983520508,2|0,0:1|0:0,0:0:0:0:
466,87,34463,6,0,L|472:126,1,40.4999987640381,8|0,0:1|0:0,0:0:0:0:
472,126,34657,1,0,0:0:0:0:
389,33,34850,1,8,0:0:0:0:
241,93,35044,1,0,0:0:0:0:
318,240,35237,1,2,0:1:0:0:
299,13,35431,1,0,0:0:0:0:
318,240,35624,1,8,0:0:0:0:
395,204,35818,6,0,P|314:212|233:220,1,161.999995056153
150,261,36398,1,8,0:0:0:0:
220,377,36592,1,0,0:0:0:0:
159,165,36786,1,2,0:1:0:0:
159,165,36882,1,0,3:0:0:0:
159,165,36979,1,0,0:0:0:0:
138,352,37173,2,0,P|119:355|97:357,1,40.4999987640381,8|0,0:0|0:0,0:0:0:0:
220,377,37366,1,0,0:0:0:0:
220,377,37463,1,0,0:0:0:0:
220,377,37560,6,0,P|261:372|301:365,1,80.9999975280763,2|0,0:1|0:0,0:0:0:0:
374,213,37947,1,8,0:0:0:0:
400,371,38140,1,0,0:0:0:0:
266,184,38334,1,2,0:1:0:0:
266,184,38528,2,0,P|270:224|273:264,1,80.9999975280763,0|8,0:0|0:0,0:0:0:0:
300,365,38915,1,0,0:0:0:0:
441,280,39108,5,2,0:1:0:0:
441,280,39205,1,0,0:0:0:0:
441,280,39302,1,0,0:0:0:0:
464,177,39495,1,8,0:0:0:0:
380,112,39689,1,0,0:0:0:0:
286,160,39882,1,2,0:1:0:0:
159,138,40076,1,0,0:0:0:0:
181,10,40269,1,8,0:0:0:0:
309,33,40463,1,2,0:0:0:0:
159,138,40657,5,2,0:1:0:0:
309,33,40850,1,0,0:0:0:0:
212,216,41044,1,8,0:0:0:0:
318,113,41237,2,0,P|314:73|309:32,1,80.9999975280763,0|2,0:0|0:1,0:0:0:0:
364,196,41624,1,0,0:0:0:0:
361,216,41720,1,0,0:0:0:0:
358,236,41817,1,8,0:0:0:0:
262,377,42011,1,0,0:0:0:0:
130,344,42205,5,2,0:1:0:0:
252,296,42398,2,0,P|258:336|262:377,1,80.9999975280763,0|8,0:0|0:0,0:0:0:0:
387,332,42786,1,0,0:0:0:0:
367,329,42882,1,0,0:0:0:0:
346,326,42979,1,2,0:1:0:0:
187,231,43173,1,0,0:0:0:0:
209,214,43269,1,0,0:0:0:0:
236,205,43366,1,0,3:0:0:0:
265,205,43463,1,0,0:0:0:0:
291,214,43560,1,8,0:0:0:0:
346,326,43753,5,2,0:1:0:0:
346,326,43947,1,0,0:0:0:0:
428,277,44140,2,0,P|468:272|508:267,1,80.9999975280763,8|0,0:0|0:0,0:0:0:0:
429,373,44528,1,2,0:1:0:0:
346,326,44721,2,0,P|331:288|335:248,1,80.9999975280763,0|8,0:0|0:0,0:0:0:0:
402,182,45108,1,0,0:0:0:0:
243,227,45302,6,0,P|240:186|235:146,1,80.9999975280763,2|0,0:1|0:0,0:0:0:0:
380,52,45689,1,8,0:0:0:0:
358,69,45785,1,0,0:0:0:0:
331,78,45882,1,0,0:0:0:0:
302,78,45979,1,0,0:0:0:0:
276,69,46076,1,2,0:1:0:0:
186,15,46269,1,0,0:0:0:0:
186,15,46366,1,0,0:0:0:0:
186,15,46463,1,8,0:0:0:0:
152,194,46657,1,0,0:0:0:0:
94,35,46850,6,0,P|53:40|13:44,1,80.9999975280763,2|0,0:0|0:0,0:0:0:0:
154,101,47237,1,8,0:0:0:0:
67,170,47431,2,0,P|65:210|81:246,1,80.9999975280763,2|2,0:0|0:1,0:0:0:0:
188,352,47818,2,0,P|193:311|197:271,1,80.9999975280763,2|8,0:0|0:0,0:0:0:0:
152,194,48205,1,0,0:0:0:0:
301,304,48398,5,2,0:1:0:0:
186,370,48592,1,0,0:0:0:0:
271,215,48786,1,10,0:0:0:0:
297,208,48883,1,2,0:0:0:0:
326,210,48980,1,0,0:0:0:0:
352,222,49077,1,0,0:0:0:0:
373,240,49173,2,0,P|376:257|379:282,1,40.4999987640381,2|0,0:1|0:0,0:0:0:0:
363,360,49366,1,0,0:0:0:0:
474,250,49560,1,8,0:0:0:0:
318,124,49753,1,2,0:0:0:0:
482,166,49947,5,2,0:1:0:0:
462,169,50043,1,0,0:0:0:0:
441,172,50140,1,0,0:0:0:0:
318,124,50334,2,0,P|322:83|325:43,1,80.9999975280763,8|0,0:0|0:0,0:0:0:0:
456,85,50721,1,2,0:1:0:0:
436,88,50817,1,0,0:0:0:0:
415,91,50914,1,2,0:0:0:0:
252,184,51108,1,8,0:0:0:0:
361,204,51302,1,2,0:0:0:0:
461,334,51495,5,2,0:1:0:0:
287,372,51689,1,2,0:0:0:0:
269,350,51785,1,2,0:0:0:0:
260,323,51882,1,8,0:0:0:0:
261,294,51979,1,0,0:0:0:0:
270,268,52076,1,0,0:0:0:0:
473,205,52269,5,2,0:1:0:0:
470,238,52366,1,0,0:0:0:0:
467,270,52463,1,0,0:0:0:0:
464,302,52560,1,0,0:0:0:0:
461,334,52657,2,0,P|442:330|422:327,1,40.4999987640381,8|0,0:0|0:0,0:0:0:0:
342,313,52850,1,0,0:0:0:0:
179,366,53044,5,2,0:0:0:0:
240,202,53237,1,0,0:0:0:0:
89,297,53431,2,0,L|138:292,1,40.4999987640381,8|0,0:0|0:0,0:0:0:0:
209,283,53624,1,2,0:0:0:0:
150,173,53818,1,2,0:1:0:0:
153,194,53915,1,0,0:0:0:0:
156,214,54011,1,2,0:0:0:0:
217,109,54205,1,8,0:0:0:0:
292,275,54398,6,0,P|332:270|373:266,1,80.9999975280763,2|2,0:0|0:1,0:0:0:0:
313,109,54786,2,0,P|319:148|324:189,1,80.9999975280763,2|8,0:0|0:0,0:0:0:0:
389,348,55173,2,0,P|452:301|444:222,1,161.999995056153,2|0,0:0|0:0,0:0:0:0:
313,109,55753,1,10,0:0:0:0:
372,266,55947,1,0,0:0:0:0:
492,84,56140,5,2,0:0:0:0:
313,109,56334,1,0,0:0:0:0:
487,102,56528,5,10,0:0:0:0:
323,125,56722,1,0,0:0:0:0:
461,219,56915,5,2,0:1:0:0:
461,219,57011,1,0,0:0:0:0:
461,219,57108,1,0,0:0:0:0:
456,324,57302,1,8,0:0:0:0:
360,366,57495,1,0,0:0:0:0:
276,301,57689,5,4,0:3:0:0:
313,109,57882,1,2,0:1:0:0:
276,301,58076,1,0,0:0:0:0:
232,133,58269,2,0,P|165:141|97:147,1,135.000005149842,4|0,0:3|3:0,0:0:0:0:
25,186,58753,1,0,3:0:0:0:
25,186,58850,6,0,B|36:216|36:216|30:277,1,80.9999975280763,8|0,0:1|0:0,0:0:0:0:
248,305,59237,5,4,0:0:0:0:
140,370,59431,2,0,P|136:322|131:280,1,90,2|8,0:0|0:0,0:0:0:0:
97,146,59818,1,0,0:0:0:0:
286,206,60011,2,0,P|241:211|196:215,1,90,2|2,0:1|0:0,0:0:0:0:
196,215,60398,1,8,0:0:0:0:
378,192,60592,1,2,0:0:0:0:
248,305,60786,5,2,0:1:0:0:
318,118,60979,1,0,0:0:0:0:
436,286,61173,2,0,P|391:280|346:277,1,90,10|0,0:0|0:0,0:0:0:0:
248,305,61560,1,2,0:1:0:0:
397,188,61753,1,2,0:0:0:0:
320,374,61947,1,8,0:0:0:0:
320,374,62140,1,2,0:0:0:0:
495,200,62334,5,2,0:1:0:0:
320,128,62528,1,0,0:0:0:0:
308,147,62624,1,0,0:0:0:0:
301,168,62721,1,10,0:0:0:0:
299,191,62818,1,0,0:0:0:0:
303,213,62915,1,0,0:0:0:0:
311,233,63011,1,0,0:0:0:0:
324,252,63108,1,2,0:1:0:0:
397,188,63302,1,0,0:0:0:0:
243,285,63495,1,10,0:0:0:0:
320,374,63689,1,0,0:0:0:0:
303,213,63882,5,2,0:1:0:0:
271,197,63978,1,0,0:0:0:0:
235,194,64075,1,0,0:0:0:0:
201,205,64172,1,0,0:0:0:0:
174,228,64269,1,8,0:0:0:0:
151,367,64463,1,0,0:0:0:0:
33,308,64657,5,2,0:1:0:0:
29,277,64753,1,0,0:0:0:0:
24,246,64850,1,2,0:0:0:0:
20,215,64947,1,0,0:0:0:0:
12,185,65044,2,0,P|35:182|57:177,1,45,8|0,0:0|0:0,0:0:0:0:
151,115,65237,1,0,0:0:0:0:
128,110,65334,1,0,0:0:0:0:
104,108,65431,6,0,P|165:46|249:63,1,180,4|10,0:0|0:0,0:0:0:0:
332,137,66011,1,0,0:0:0:0:
201,205,66205,2,0,P|206:248|209:294,1,90,2|0,0:1|0:0,0:0:0:0:
210,312,66495,1,0,0:0:0:0:
211,329,66592,1,10,0:0:0:0:
110,279,66786,1,2,0:0:0:0:
318,229,66979,5,2,0:1:0:0:
299,369,67173,1,0,0:0:0:0:
408,217,67366,2,0,P|363:223|318:229,1,90,10|0,0:0|0:0,0:0:0:0:
318,229,67657,1,0,0:0:0:0:
318,229,67753,1,2,0:1:0:0:
468,317,67947,1,2,0:0:0:0:
299,369,68140,1,8,0:0:0:0:
299,369,68334,1,2,0:0:0:0:
267,159,68528,5,2,0:1:0:0:
291,146,68624,1,0,0:0:0:0:
317,143,68721,1,2,0:0:0:0:
343,148,68818,1,0,0:0:0:0:
374,172,68915,5,8,0:0:0:0:
400,177,69012,1,0,0:0:0:0:
426,174,69109,1,2,0:0:0:0:
450,161,69205,1,0,0:0:0:0:
477,156,69302,5,2,0:1:0:0:
493,114,69398,1,0,0:0:0:0:
486,71,69495,1,2,0:0:0:0:
456,37,69592,1,0,0:0:0:0:
414,24,69689,1,8,0:0:0:0:
371,36,69785,1,0,0:0:0:0:
341,68,69882,2,0,P|345:94|347:114,1,45,2|2,0:0|0:0,0:0:0:0:
312,273,70076,6,0,P|316:243|318:221,1,45,4|0,0:3|0:0,0:0:0:0:
317,228,70269,1,2,0:1:0:0:
468,317,70463,1,4,0:3:0:0:
299,369,70657,6,0,P|231:361|164:355,1,135.000005149842,8|0,0:3|0:0,0:0:0:0:
148,353,71140,1,0,0:0:0:0:
131,352,71237,1,8,0:0:0:0:
66,278,71431,1,2,0:1:0:0:
120,177,71624,6,0,P|153:173|184:185,1,67.5000025749208,4|0,0:0|0:0,0:0:0:0:
198,195,71915,1,0,0:0:0:0:
253,246,72011,5,10,0:0:0:0:
272,251,72107,1,0,0:0:0:0:
296,251,72205,2,0,P|313:247|327:238,1,33.7500012874604,2|0,0:0|0:0,0:0:0:0:
404,183,72398,6,0,P|408:141|410:102,1,80.9999975280763,2|0,0:0|0:0,0:0:0:0:
410,81,72689,1,0,0:0:0:0:
360,27,72786,5,10,0:0:0:0:
335,19,72882,1,0,0:0:0:0:
311,19,72979,2,0,P|288:24|272:33,1,40.4999987640381,2|0,0:0|0:0,0:0:0:0:
213,102,73173,6,0,P|173:121|128:120,1,90,2|0,0:0|0:0,0:0:0:0:
106,111,73463,1,0,0:0:0:0:
32,93,73560,5,10,0:0:0:0:
35,120,73656,1,0,0:0:0:0:
38,145,73753,2,0,P|40:168|42:200,1,45,2|0,0:0|0:0,0:0:0:0:
7,274,73947,6,0,P|59:262|109:278,1,107.999996704102,2|0,0:0|0:0,0:0:0:0:
131,294,74237,1,0,0:0:0:0:
186,343,74335,5,10,0:0:0:0:
210,352,74431,1,0,0:0:0:0:
237,352,74529,2,0,P|263:347|287:335,1,53.9999983520508,2|0,0:0|0:0,0:0:0:0:
342,257,74721,5,2,0:0:0:0:
338,224,74817,1,0,0:0:0:0:
324,196,74914,1,2,0:0:0:0:
300,173,75011,1,0,0:0:0:0:
271,160,75108,1,10,0:0:0:0:
239,158,75204,1,0,0:0:0:0:
208,167,75301,1,2,0:0:0:0:
182,186,75398,1,0,0:0:0:0:
161,217,75495,5,2,0:0:0:0:
114,229,75591,1,2,0:0:0:0:
71,204,75689,2,0,P|74:177|78:150,1,53.9999983520508,2|0,0:1|0:0,0:0:0:0:
89,59,75882,1,2,0:1:0:0:
249,247,76076,1,0,0:0:0:0:
251,273,76173,1,0,0:0:0:0:
253,300,76269,6,0,P|306:295|360:289,1,107.999996704102,2|0,0:1|0:0,0:0:0:0:
476,158,76657,2,0,P|422:153|368:147,1,107.999996704102,10|0,0:1|0:0,0:0:0:0:
429,352,77044,2,0,P|452:303|444:250,1,107.999996704102,2|0,0:1|0:0,0:0:0:0:
368,147,77431,1,10,0:1:0:0:
248,224,77624,1,2,0:1:0:0:
105,96,77818,5,4,0:0:0:0:
70,227,78011,2,0,P|114:220|159:215,1,90,2|8,0:0|0:0,0:0:0:0:
248,224,78398,1,0,0:0:0:0:
186,348,78592,2,0,P|141:340|96:336,1,90,2|2,0:1|0:0,0:0:0:0:
96,336,78979,1,8,0:0:0:0:
159,215,79173,1,2,0:0:0:0:
274,365,79366,5,2,0:1:0:0:
274,365,79560,1,0,0:0:0:0:
321,175,79753,1,10,0:0:0:0:
361,319,79947,1,0,0:0:0:0:
159,215,80140,5,2,0:1:0:0:
350,304,80334,1,2,0:0:0:0:
186,348,80528,1,8,0:0:0:0:
249,241,80721,1,2,0:0:0:0:
257,258,80818,1,0,0:0:0:0:
263,274,80915,6,0,P|269:319|273:364,1,90,2|0,0:1|0:0,0:0:0:0:
273,364,81205,1,0,0:0:0:0:
273,364,81302,1,10,0:0:0:0:
388,231,81495,1,0,0:0:0:0:
481,336,81689,2,0,P|436:330|392:325,1,90,2|0,0:1|0:0,0:0:0:0:
374,323,81979,1,0,0:0:0:0:
356,321,82076,1,10,0:0:0:0:
309,187,82269,1,0,0:0:0:0:
381,68,82463,6,0,P|425:62|467:76,1,90,2|0,0:1|0:0,0:0:0:0:
512,211,82850,1,8,0:0:0:0:
406,240,83044,2,0,P|411:195|417:150,1,90,0|2,0:0|0:1,0:0:0:0:
313,293,83431,2,0,P|318:337|321:382,1,90,2|8,0:0|0:0,0:0:0:0:
309,187,83818,1,0,0:0:0:0:
221,333,84011,6,0,P|139:361|68:310,1,180,4|10,0:0|0:0,0:0:0:0:
36,210,84592,1,0,0:0:0:0:
96,83,84786,2,0,P|138:76|184:71,1,90,2|0,0:1|0:0,0:0:0:0:
202,70,85076,1,0,0:0:0:0:
219,68,85173,1,10,0:0:0:0:
316,92,85366,1,2,0:0:0:0:
214,227,85560,5,2,0:1:0:0:
423,154,85753,1,0,0:0:0:0:
316,92,85947,1,10,0:0:0:0:
320,118,86043,1,0,0:0:0:0:
324,145,86140,1,0,0:0:0:0:
338,328,86334,1,2,0:1:0:0:
214,227,86528,1,2,0:0:0:0:
426,290,86721,1,8,0:0:0:0:
426,290,86915,1,2,0:0:0:0:
273,376,87108,5,2,0:1:0:0:
260,352,87204,1,0,0:0:0:0:
257,326,87301,1,2,0:0:0:0:
262,300,87398,1,0,0:0:0:0:
279,274,87495,5,8,0:0:0:0:
292,250,87591,1,0,0:0:0:0:
295,224,87688,1,2,0:0:0:0:
290,198,87785,1,0,0:0:0:0:
272,170,87882,5,2,0:1:0:0:
309,194,87978,1,0,0:0:0:0:
353,197,88075,1,2,0:0:0:0:
393,178,88172,1,0,0:0:0:0:
419,142,88269,1,8,0:0:0:0:
424,98,88365,1,0,0:0:0:0:
407,57,88462,1,2,0:0:0:0:
371,30,88559,1,2,0:0:0:0:
327,23,88657,6,0,P|334:68|339:113,1,90,2|2,0:1|0:1,0:0:0:0:
338,112,89044,1,2,0:1:0:0:
214,227,89237,1,8,0:0:0:0:
426,290,89431,1,2,0:1:0:0:
256,354,89624,1,8,0:0:0:0:
259,327,89720,1,0,0:0:0:0:
262,300,89818,1,2,0:1:0:0:
272,170,90011,1,8,0:0:0:0:
481,214,90205,5,4,0:0:0:0:
353,372,90398,2,0,P|349:328|342:283,1,90,2|8,0:0|0:0,0:0:0:0:
272,170,90786,1,0,0:0:0:0:
447,125,90979,1,2,0:1:0:0:
447,125,91173,1,2,0:0:0:0:
342,283,91366,2,0,P|348:238|352:193,1,90,8|2,0:0|0:0,0:0:0:0:
432,318,91753,5,2,0:1:0:0:
352,193,91947,1,0,0:0:0:0:
256,354,92140,2,0,P|211:347|166:343,1,90,10|0,0:0|0:0,0:0:0:0:
335,292,92528,1,2,0:1:0:0:
257,167,92721,1,2,0:0:0:0:
268,371,92915,1,8,0:0:0:0:
221,245,93108,1,2,0:0:0:0:
204,253,93205,1,0,0:0:0:0:
188,259,93302,6,0,P|143:265|98:269,1,90,2|0,0:1|0:0,0:0:0:0:
98,269,93592,1,0,0:0:0:0:
98,269,93689,1,10,0:0:0:0:
7,197,93882,1,0,0:0:0:0:
7,197,93979,1,0,0:0:0:0:
7,197,94076,2,0,P|-3:153|10:111,1,90,2|0,0:1|0:0,0:0:0:0:
108,40,94463,1,10,0:0:0:0:
177,141,94657,6,0,P|132:147|87:152,1,90,0|2,0:0|0:1,0:0:0:0:
7,197,95044,1,0,0:0:0:0:
63,369,95237,1,8,0:0:0:0:
140,286,95431,1,0,0:0:0:0:
159,275,95527,1,0,0:0:0:0:
181,269,95624,1,2,0:1:0:0:
203,269,95721,1,0,0:0:0:0:
226,275,95818,1,2,0:0:0:0:
244,285,95914,1,0,0:0:0:0:
262,300,96011,2,0,P|267:327|268:349,1,45,8|0,0:0|0:0,0:0:0:0:
254,198,96205,1,0,0:0:0:0:
357,356,96398,6,0,P|442:351|468:271,1,180,4|10,0:0|0:0,0:0:0:0:
373,200,96979,1,0,0:0:0:0:
467,143,97173,2,0,P|472:98|478:54,1,90,2|0,0:1|0:0,0:0:0:0:
471,37,97463,1,0,0:0:0:0:
463,20,97560,1,10,0:0:0:0:
361,91,97753,1,2,0:0:0:0:
468,271,97947,5,2,0:1:0:0:
283,209,98140,1,0,0:0:0:0:
283,209,98334,2,0,P|327:205|372:200,1,90,10|0,0:0|0:0,0:0:0:0:
390,196,98624,1,0,0:0:0:0:
407,193,98721,1,2,0:1:0:0:
342,99,98915,1,2,0:0:0:0:
359,315,99108,1,8,0:0:0:0:
359,315,99302,1,2,0:0:0:0:
193,246,99495,5,2,0:1:0:0:
196,219,99591,1,0,0:0:0:0:
198,192,99688,1,2,0:0:0:0:
201,165,99785,1,0,0:0:0:0:
221,134,99882,5,8,0:0:0:0:
196,144,99978,1,0,0:0:0:0:
169,148,100075,1,2,0:0:0:0:
142,147,100172,1,0,0:0:0:0:
120,125,100269,5,2,0:1:0:0:
75,116,100365,1,0,0:0:0:0:
34,130,100462,1,2,0:0:0:0:
6,166,100559,1,0,0:0:0:0:
0,209,100656,1,8,0:0:0:0:
20,250,100752,1,0,0:0:0:0:
56,274,100850,2,0,P|80:272|102:266,1,45,2|2,0:0|0:0,0:0:0:0:
267,309,101044,6,0,P|245:302|223:299,1,45,4|0,0:3|0:0,0:0:0:0:
223,299,101237,1,2,0:1:0:0:
334,250,101431,1,4,0:3:0:0:
147,334,101624,6,0,P|142:266|135:199,1,135.000005149842,8|0,0:3|0:0,0:0:0:0:
134,182,102108,1,0,0:0:0:0:
132,165,102205,1,8,0:0:0:0:
45,101,102398,1,2,0:1:0:0:
123,20,102592,6,0,P|168:19|209:40,1,67.5000025749208,4|0,0:0|0:0,0:0:0:0:
203,33,102882,1,0,0:0:0:0:
264,82,102979,5,10,0:0:0:0:
283,83,103075,1,0,0:0:0:0:
303,82,103172,2,0,P|322:79|341:73,1,33.7500012874604,2|0,0:0|0:0,0:0:0:0:
420,47,103366,6,0,P|425:85|428:127,1,80.9999975280763,2|0,0:0|0:0,0:0:0:0:
430,147,103657,1,0,0:0:0:0:
385,209,103753,5,10,0:0:0:0:
360,216,103849,1,0,0:0:0:0:
336,215,103947,2,0,P|314:209|298:199,1,40.4999987640381,2|0,0:0|0:0,0:0:0:0:
216,157,104140,6,0,P|168:153|130:167,1,90,2|0,0:0|0:0,0:0:0:0:
111,181,104431,1,0,0:0:0:0:
69,247,104528,5,10,0:0:0:0:
65,270,104624,1,0,0:0:0:0:
71,295,104721,2,0,P|79:316|91:333,1,45,2|0,0:0|0:0,0:0:0:0:
178,370,104915,6,0,L|300:357,1,107.999996704102,2|0,0:0|0:0,0:0:0:0:
305,356,105205,1,0,0:0:0:0:
337,290,105302,5,10,0:0:0:0:
362,292,105398,1,0,0:0:0:0:
389,295,105496,2,0,L|441:301,1,53.9999983520508,2|0,0:0|0:0,0:0:0:0:
485,375,105689,5,2,0:0:0:0:
469,346,105785,1,0,0:0:0:0:
464,314,105882,1,2,0:0:0:0:
471,283,105979,1,0,0:0:0:0:
488,256,106076,1,10,0:0:0:0:
503,227,106172,1,0,0:0:0:0:
508,195,106269,1,2,0:0:0:0:
501,164,106366,1,0,0:0:0:0:
479,133,106463,5,2,0:0:0:0:
436,108,106560,1,2,0:0:0:0:
388,117,106657,2,0,P|382:149|379:179,1,53.9999983520508,2|0,0:1|0:0,0:0:0:0:
362,292,106850,1,2,0:1:0:0:
231,73,107044,1,0,0:0:0:0:
206,83,107140,1,0,0:0:0:0:
180,93,107237,6,0,P|126:98|72:103,1,107.999996704102,2|0,0:1|0:0,0:0:0:0:
169,255,107624,2,0,P|225:249|278:244,1,107.999996704102,10|0,0:1|0:0,0:0:0:0:
61,254,108011,2,0,P|68:307|72:361,1,107.999996704102,2|0,0:1|0:0,0:0:0:0:
55,230,108302,1,2,0:1:0:0:
55,230,108399,2,0,P|29:217|3:211,1,53.9999983520508,8|0,0:1|0:0,0:0:0:0:
216,167,108592,2,0,P|241:158|266:150,1,53.9999983520508,2|0,0:1|0:0,0:0:0:0:
