osu file format v14

[General]
AudioFilename: audio.mp3
AudioLeadIn: 0
PreviewTime: 28269
Countdown: 0
SampleSet: Soft
StackLeniency: 0.7
Mode: 0
LetterboxInBreaks: 0
WidescreenStoryboard: 0

[Editor]
Bookmarks: 59237,67753
DistanceSpacing: 0.8
BeatDivisor: 4
GridSize: 4
TimelineZoom: 1.3

[Metadata]
Title:Believe
TitleUnicode:Believe
Artist:Folder5
ArtistUnicode:Folder5
Creator:Chaoslitz
Version:Normal
Source:ONE PIECE
Tags:ワンピース opening op 2 Starfy StarForYou
BeatmapID:1200738
BeatmapSetID:566875

[Difficulty]
HPDrainRate:4
CircleSize:3.5
OverallDifficulty:4
ApproachRate:5
SliderMultiplier:1.2
SliderTickRate:1

[Events]
//Background and Video events
0,0,"bg.jpg",0,0
Video,-250,"optc.flv"
//Break Periods
//Storyboard Layer 0 (Background)
//Storyboard Layer 1 (Fail)
//Storyboard Layer 2 (Pass)
//Storyboard Layer 3 (Foreground)
//Storyboard Sound Samples

[TimingPoints]
399,387.096774193548,4,2,1,50,1,0
12786,-100,4,2,1,60,0,0
26721,-100,4,2,1,70,0,0
28269,-100,4,2,1,65,0,0
29044,-100,4,2,1,70,0,0
29818,-100,4,2,1,75,0,0
30592,-100,4,2,1,80,0,0
32915,-100,4,2,2,80,0,0
34463,-100,4,2,1,60,0,0
53528,-100,4,2,1,10,0,0
53624,-100,4,2,1,60,0,0
59044,-100,4,2,1,10,0,0
59237,-100,4,2,1,80,0,1
71237,-100,4,2,1,80,0,0
71624,-100,4,2,1,65,0,0
72398,-100,4,2,1,70,0,0
73173,-100,4,2,1,75,0,0
73947,-100,4,2,1,80,0,0
75689,-100,4,2,2,80,0,0
75882,-100,4,2,1,80,0,0
76269,-100,4,2,2,80,0,0
77818,-100,4,2,1,80,0,1
90011,-100,4,2,1,80,0,0
90205,-100,4,2,1,80,0,1
102205,-100,4,2,1,80,0,0
102592,-100,4,2,1,65,0,0
103366,-100,4,2,1,70,0,0
104140,-100,4,2,1,75,0,0
104141,-100,4,2,1,80,0,0
106657,-100,4,2,2,80,0,0
106850,-100,4,2,1,80,0,0
107237,-100,4,2,2,80,0,0
108689,-100,4,2,1,10,0,0

[Colours]
Combo1 : 55,143,242
Combo2 : 255,164,45
Combo3 : 79,225,9
Combo4 : 255,95,52

[HitObjects]
0,122,399,6,0,P|59:118|118:112,1,120,4|0,0:0|1:0,0:0:0:0:
187,45,1173,2,0,P|213:97|203:155,1,120,0|2,0:0|0:1,0:0:0:0:
175,194,1753,2,0,P|163:251|189:305,1,120,10|0,0:1|0:0,0:0:0:0:
225,337,2334,1,0,1:0:0:0:
319,351,2721,2,0,P|378:344|438:340,1,120,0|4,0:0|0:3,0:0:0:0:
484,356,3302,1,8,0:0:0:0:
484,356,3495,6,0,B|463:316|463:316|472:241,1,120,8|0,0:3|1:0,0:0:0:0:
512,155,4269,2,0,P|453:146|401:179,1,120,0|2,0:0|0:1,0:0:0:0:
367,208,4850,2,0,P|314:234|257:222,1,120,8|0,0:1|0:0,0:0:0:0:
211,207,5431,2,0,L|205:138,1,60,0|0,1:0|0:0,0:0:0:0:
200,99,5818,1,2,0:1:0:0:
113,56,6205,1,0,3:0:0:0:
41,119,6592,6,0,L|54:238,1,120,2|2,0:1|0:0,0:0:0:0:
62,333,7366,2,0,P|114:359|171:343,1,120,0|0,0:0|0:0,0:0:0:0:
207,312,7947,2,0,P|259:285|316:301,1,120,2|2,0:0|0:0,0:0:0:0:
356,327,8528,2,0,P|412:339|469:314,2,120,0|2|2,0:0|0:0|0:1,0:0:0:0:
404,244,9689,6,0,P|411:182|415:124,1,120,2|2,0:1|0:0,0:0:0:0:
374,38,10463,2,0,P|333:45|311:47,1,60,0|2,0:0|0:0,0:0:0:0:
267,57,10850,1,0,0:0:0:0:
267,57,11044,2,0,B|201:53|201:53|158:68|158:68|88:64,1,180,8|0,0:1|0:0,0:0:0:0:
27,137,12011,2,0,P|36:183|40:217,1,60,2|0,3:1|0:0,0:0:0:0:
65,235,12398,2,0,P|56:281|52:315,1,60,2|0,3:1|0:0,0:0:0:0:
45,341,12786,5,6,0:0:0:0:
136,369,13173,1,10,0:0:0:0:
224,332,13560,2,0,P|273:325|294:321,1,60,0|2,0:0|0:0,0:0:0:0:
325,299,13947,1,8,0:0:0:0:
325,299,14140,2,0,P|374:329|450:311,2,120,2|0|0,0:0|0:0|0:0,0:0:0:0:
309,253,15108,2,0,P|313:210|316:185,1,60,8|2,0:1|0:0,0:0:0:0:
337,151,15495,2,0,P|333:108|330:83,1,60,8|2,0:0|0:1,0:0:0:0:
324,43,15882,5,2,0:0:0:0:
230,20,16269,1,10,0:0:0:0:
170,95,16657,2,0,P|140:99|110:104,1,60,0|2,0:0|0:0,0:0:0:0:
75,136,17044,1,8,0:0:0:0:
75,136,17237,2,0,P|79:70|38:16,2,120,2|0|0,0:0|0:0|3:0,0:0:0:0:
49,176,18205,1,2,0:1:0:0:
110,249,18592,1,8,3:2:0:0:
75,338,18979,6,0,P|134:342|194:350,1,120,2|10,0:0|0:0,0:0:0:0:
288,366,19753,2,0,P|287:337|280:307,1,60,0|2,0:0|0:0,0:0:0:0:
253,267,20140,1,8,0:0:0:0:
253,267,20334,2,0,P|311:276|363:249,2,120,2|0|0,0:0|0:0|0:0,0:0:0:0:
216,235,21302,1,2,0:1:0:0:
249,145,21689,1,8,3:2:0:0:
215,55,22076,6,0,L|95:68,1,120,2|10,0:0|0:0,0:0:0:0:
33,141,22850,2,0,P|56:154|92:160,1,60,0|2,0:0|0:0,0:0:0:0:
129,187,23237,1,8,0:0:0:0:
129,187,23431,2,0,P|103:244|115:306,2,120,2|0|0,0:0|0:0|0:0,0:0:0:0:
172,166,24398,2,0,P|207:162|244:156,1,60,8|2,0:1|0:0,0:0:0:0:
275,177,24786,2,0,P|312:173|347:167,1,60,8|2,0:0|0:1,0:0:0:0:
381,180,25173,6,0,P|418:210|421:293,1,120,2|2,0:1|0:1,0:0:0:0:
363,350,25947,1,2,0:0:0:0:
363,350,26140,2,0,P|303:340|243:334,1,120,2|0,0:0|0:0,0:0:0:0:
200,355,26721,2,0,P|159:365|78:326,1,120,8|2,0:3|0:1,0:0:0:0:
55,302,27302,2,0,P|52:269|48:242,1,60,2|0,0:0|0:0,0:0:0:0:
42,194,27689,1,4,0:3:0:0:
72,53,28269,6,0,P|133:42|189:67,1,120,6|10,0:0|0:0,0:0:0:0:
220,96,28850,1,2,0:0:0:0:
220,96,29044,2,0,L|339:88,1,120,2|10,0:0|0:0,0:0:0:0:
414,34,29818,6,0,P|431:90|411:145,1,120,2|10,0:0|0:0,0:0:0:0:
377,180,30398,1,2,0:0:0:0:
377,180,30592,2,0,P|356:235|373:291,1,120,2|10,0:0|0:0,0:0:0:0:
398,332,31173,1,2,0:0:0:0:
429,369,31366,6,0,P|369:362|309:357,1,120,2|10,0:0|0:0,0:0:0:0:
267,334,31947,1,2,0:0:0:0:
267,334,32140,2,0,P|235:337|199:340,2,60,2|0|10,0:0|0:0|0:0,0:0:0:0:
288,240,32915,6,0,P|232:246|166:252,1,120,2|10,0:1|0:1,0:0:0:0:
82,209,33689,2,0,P|73:250|92:311,2,90,2|2|2,0:1|0:1|0:1,0:0:0:0:
103,165,34463,6,0,P|163:160|223:153,1,120,8|8,0:1|0:0,0:0:0:0:
254,117,35044,1,0,0:0:0:0:
254,117,35237,2,0,P|313:112|373:106,1,120,2|8,0:1|0:0,0:0:0:0:
410,75,35818,6,0,P|400:131|443:190,1,120,0|0,0:0|0:0,0:0:0:0:
466,216,36398,1,8,0:0:0:0:
450,311,36786,2,0,P|401:316|327:327,1,120,2|8,0:1|0:0,0:0:0:0:
293,356,37366,1,0,0:0:0:0:
293,356,37560,6,0,P|230:363|178:331,1,120,2|8,0:1|0:0,0:0:0:0:
142,309,38140,1,0,0:0:0:0:
142,309,38334,2,0,L|150:249,1,60,2|0,0:1|0:0,0:0:0:0:
128,206,38721,2,0,P|125:176|120:146,1,60,8|0,0:0|0:0,0:0:0:0:
155,57,39302,5,0,0:0:0:0:
155,57,39495,2,0,P|209:45|280:91,1,120,8|2,0:0|0:1,0:0:0:0:
291,112,40076,1,0,0:0:0:0:
291,112,40269,2,0,L|353:105,1,60,8|2,0:0|0:0,0:0:0:0:
400,109,40657,5,2,0:1:0:0:
475,168,41044,1,8,0:0:0:0:
387,208,41431,2,0,P|395:258|398:290,1,60,2|0,0:1|0:0,0:0:0:0:
415,311,41818,1,8,0:0:0:0:
415,311,42011,6,0,P|362:302|293:341,1,120,0|0,0:0|0:0,0:0:0:0:
274,367,42592,2,0,P|238:358|210:353,1,60,8|0,0:0|0:0,0:0:0:0:
184,315,42979,2,0,P|125:321|65:325,1,120,2|0,0:1|3:0,0:0:0:0:
6,250,43753,5,2,0:1:0:0:
80,189,44140,2,0,P|75:137|71:115,1,60,8|0,0:0|0:0,0:0:0:0:
49,87,44528,2,0,P|109:95|177:55,1,120,2|8,0:1|0:0,0:0:0:0:
198,40,45108,6,0,P|252:15|310:23,1,120,0|0,0:0|0:0,0:0:0:0:
356,39,45689,2,0,P|363:80|365:103,1,60,8|0,0:0|0:0,0:0:0:0:
370,146,46076,1,2,0:1:0:0:
456,188,46463,2,0,P|448:239|446:266,1,60,8|0,0:0|0:0,0:0:0:0:
433,293,46850,6,0,P|373:306|303:269,1,120,2|8,0:0|0:0,0:0:0:0:
283,253,47431,2,0,P|289:305|296:389,2,120,2|2|0,0:0|0:0|0:0,0:0:0:0:
275,205,48398,5,2,0:1:0:0:
192,254,48786,2,0,P|146:243|117:241,1,60,10|0,0:0|0:0,0:0:0:0:
87,254,49173,2,0,P|53:194|68:131,1,120,2|8,0:1|0:0,0:0:0:0:
89,107,49753,6,0,P|147:100|207:91,1,120,2|0,0:0|0:0,0:0:0:0:
304,90,50528,2,0,P|363:99|423:107,1,120,0|2,0:0|0:0,0:0:0:0:
469,118,51108,2,0,P|461:152|455:193,1,60,8|2,0:0|0:0,0:0:0:0:
478,219,51495,5,2,0:1:0:0:
478,219,51689,2,0,P|485:269|484:297,1,60,2|8,0:0|0:0,0:0:0:0:
488,326,52076,1,0,0:0:0:0:
400,364,52463,2,0,P|335:353|265:346,1,120,0|0,0:0|0:0,0:0:0:0:
234,359,53044,6,0,P|201:301|223:227,1,120,2|8,0:0|0:0,0:0:0:0:
230,207,53624,2,0,P|245:150|223:95,1,120,2|2,0:0|0:0,0:0:0:0:
188,62,54205,1,8,0:0:0:0:
188,62,54398,6,0,P|125:70|49:75,1,120,2|2,0:0|0:0,0:0:0:0:
9,150,55173,2,0,P|-1:207|25:259,1,120,2|0,0:0|0:0,0:0:0:0:
68,282,55753,2,0,P|103:277|140:273,1,60,10|0,0:0|0:0,0:0:0:0:
167,301,56140,6,0,P|214:295|251:291,1,60,2|0,0:0|0:0,0:0:0:0:
272,309,56528,2,0,P|319:303|356:299,1,60,10|0,0:0|0:0,0:0:0:0:
377,316,56915,1,2,0:1:0:0:
377,316,57108,2,0,P|406:268|384:195,1,120,0|0,0:0|0:0,0:0:0:0:
361,172,57689,5,4,0:3:0:0:
361,172,57882,2,0,L|369:111,2,60,2|0|4,0:1|0:0|0:3,0:0:0:0:
267,193,58657,2,0,L|260:133,1,60,0|8,3:0|0:1,0:0:0:0:
167,98,59237,5,4,0:0:0:0:
167,98,59431,2,0,P|161:154|155:182,1,60,2|8,0:0|0:0,0:0:0:0:
124,188,59818,1,0,0:0:0:0:
124,188,60011,2,0,P|129:234|135:317,1,120,2|8,0:1|0:0,0:0:0:0:
114,351,60592,1,2,0:0:0:0:
206,375,60979,5,0,0:0:0:0:
206,375,61173,2,0,P|247:367|279:363,1,60,10|0,0:0|0:0,0:0:0:0:
295,327,61560,2,0,P|356:308|411:336,1,120,2|8,0:1|0:0,0:0:0:0:
439,363,62140,1,2,0:0:0:0:
467,271,62528,5,0,0:0:0:0:
467,271,62721,2,0,P|474:225|478:191,1,60,10|0,0:0|0:0,0:0:0:0:
483,164,63108,2,0,P|447:120|363:124,1,120,2|10,0:1|0:0,0:0:0:0:
340,121,63689,6,0,P|280:125|220:132,1,120
148,195,64463,2,0,P|125:137|154:62,2,120,0|2|0,0:0|0:0|0:0,0:0:0:0:
182,228,65431,5,4,0:0:0:0:
136,312,65818,2,0,P|196:323|247:298,1,120,10|2,0:0|0:1,0:0:0:0:
283,266,66398,1,0,0:0:0:0:
283,266,66592,2,0,P|292:299|300:344,1,60,10|2,0:0|0:0,0:0:0:0:
325,362,66979,5,2,0:1:0:0:
399,300,67366,2,0,P|429:297|458:293,1,60,10|0,0:0|0:0,0:0:0:0:
504,275,67753,2,0,P|524:222|504:148,1,120,2|8,0:1|0:0,0:0:0:0:
487,120,68334,1,2,0:0:0:0:
487,120,68528,6,0,P|446:125|416:127,1,60,2|2,0:1|0:0,0:0:0:0:
387,99,68915,2,0,P|346:94|316:92,1,60,8|2,0:0|0:0,0:0:0:0:
281,106,69302,2,0,P|240:113|210:115,2,60,2|2|8,0:1|0:0|0:0,0:0:0:0:
245,16,70076,6,0,P|185:23|125:29,1,120,4|4,0:3|0:3,0:0:0:0:
82,50,70657,2,0,P|65:117|87:176,1,120,8|0,0:3|0:0,0:0:0:0:
115,195,71237,2,0,P|107:232|104:267,1,60,8|2,0:0|0:1,0:0:0:0:
78,294,71624,6,0,P|135:279|189:301,1,120,4|10,0:0|0:0,0:0:0:0:
235,318,72205,1,2,0:0:0:0:
235,318,72398,2,0,P|294:311|354:306,1,120,2|10,0:0|0:0,0:0:0:0:
430,367,73173,6,0,P|451:311|429:244,1,120,2|10,0:0|0:0,0:0:0:0:
408,215,73753,1,2,0:0:0:0:
408,215,73947,2,0,P|387:159|401:102,1,120,2|10,0:0|0:0,0:0:0:0:
428,62,74528,1,2,0:0:0:0:
462,28,74721,6,0,P|393:38|316:44,1,120,2|10,0:0|0:0,0:0:0:0:
301,66,75302,1,2,0:0:0:0:
301,66,75495,2,0,P|259:56|221:50,1,60,2|2,0:0|0:1,0:0:0:0:
195,44,75882,1,2,0:1:0:0:
99,54,76269,6,0,P|107:113|111:173,1,120,2|10,0:1|0:1,0:0:0:0:
36,233,77044,2,0,P|84:266|143:264,1,120,2|10,0:1|0:1,0:0:0:0:
183,237,77624,1,2,0:1:0:0:
211,197,77818,6,0,L|204:136,2,60,4|2|8,0:0|0:0|0:0,0:0:0:0:
258,203,78398,1,0,0:0:0:0:
258,203,78592,2,0,B|270:240|270:240|261:325,1,120,2|8,0:1|0:0,0:0:0:0:
254,368,79173,1,2,0:0:0:0:
346,341,79560,6,0,P|375:337|406:334,1,60,0|10,0:0|0:0,0:0:0:0:
453,340,79947,1,0,0:0:0:0:
453,340,80140,2,0,P|490:290|493:225,1,120,2|8,0:1|0:0,0:0:0:0:
479,188,80721,1,2,0:0:0:0:
446,152,80915,5,2,0:1:0:0:
363,201,81302,2,0,P|329:206|302:213,1,60,10|0,0:0|0:0,0:0:0:0:
259,227,81689,2,0,P|216:220|184:218,1,60,2|0,0:1|0:0,0:0:0:0:
153,230,82076,1,10,0:0:0:0:
153,230,82269,6,0,P|125:165|138:109,1,120,0|0,0:0|0:0,0:0:0:0:
191,41,83044,2,0,L|333:47,2,120,0|2|0,0:0|0:0|0:0,0:0:0:0:
149,17,84011,5,4,0:0:0:0:
64,63,84398,2,0,P|59:126|52:195,1,120,10|2,0:0|0:1,0:0:0:0:
84,219,84979,1,0,0:0:0:0:
84,219,85173,2,0,P|92:270|94:294,1,60,10|2,0:0|0:0,0:0:0:0:
90,326,85560,6,0,P|149:323|208:339,1,120,2|10,0:1|0:0,0:0:0:0:
304,338,86334,2,0,P|362:323|421:325,1,120,2|8,0:1|0:0,0:0:0:0:
466,344,86915,1,2,0:0:0:0:
466,344,87108,6,0,L|475:276,1,60,2|2,0:1|0:0,0:0:0:0:
483,239,87495,1,8,0:0:0:0:
388,223,87882,2,0,P|382:177|378:154,1,60,2|2,0:1|0:0,0:0:0:0:
346,129,88269,2,0,P|352:83|356:60,1,60,8|2,0:0|0:0,0:0:0:0:
361,21,88657,6,0,P|292:29|235:34,1,120,2|2,0:1|0:1,0:0:0:0:
199,56,89237,2,0,P|150:27|71:37,1,120,8|8,0:0|0:0,0:0:0:0:
55,64,89818,1,2,0:1:0:0:
121,134,90205,6,0,P|156:139|194:151,2,60,4|2|8,0:0|0:0|0:0,0:0:0:0:
76,151,90786,1,0,0:0:0:0:
76,151,90979,2,0,P|61:221|103:270,1,120,2|8,0:1|0:0,0:0:0:0:
126,283,91560,1,2,0:0:0:0:
219,309,91947,6,0,L|210:371,2,60,0|10|0,0:0|0:0|0:0,0:0:0:0:
222,261,92528,2,0,P|279:234|334:250,1,120,2|8,0:1|0:0,0:0:0:0:
364,282,93108,1,2,0:0:0:0:
453,248,93495,2,0,P|457:286|457:316,2,60,0|10|0,0:0|0:0|0:0,0:0:0:0:
431,204,94076,2,0,P|435:161|438:132,1,60,2|0,0:1|0:0,0:0:0:0:
453,99,94463,1,10,0:0:0:0:
453,99,94657,6,0,P|401:110|331:78,1,120,0|0,0:0|0:0,0:0:0:0:
246,66,95431,2,0,L|255:189,2,120,0|2|0,0:0|0:0|0:0,0:0:0:0:
220,25,96398,5,4,0:0:0:0:
140,78,96786,2,0,L|18:90,2,120,10|2|10,0:0|0:1|0:0,0:0:0:0:
175,109,97753,1,2,0:0:0:0:
175,109,97947,6,0,P|181:165|181:187,1,60,2|0,0:1|0:0,0:0:0:0:
157,210,98334,2,0,P|151:266|151:288,1,60,10|0,0:0|0:0,0:0:0:0:
156,317,98721,2,0,P|207:344|288:324,1,120,2|8,0:1|0:0,0:0:0:0:
304,309,99302,1,2,0:0:0:0:
304,309,99495,6,0,L|377:301,1,60,2|2,0:1|0:0,0:0:0:0:
407,322,99882,2,0,L|480:314,1,60,8|2,0:0|0:0,0:0:0:0:
501,281,100269,2,0,P|506:239|511:207,2,60,2|2|8,0:1|0:0|0:0,0:0:0:0:
418,229,101044,6,0,L|410:109,1,120,4|4,0:3|0:3,0:0:0:0:
415,61,101624,2,0,P|362:83|294:67,1,120,8|0,0:3|0:0,0:0:0:0:
262,44,102205,2,0,P|219:48|195:52,1,60,8|2,0:0|0:1,0:0:0:0:
176,91,102592,6,0,P|124:84|49:76,1,120,4|10,0:0|0:0,0:0:0:0:
11,94,103173,1,2,0:0:0:0:
11,94,103366,2,0,P|-2:150|44:217,1,120,2|10,0:0|0:0,0:0:0:0:
119,222,104140,6,0,P|132:274|106:337,1,120,2|10,0:0|0:0,0:0:0:0:
77,370,104721,1,2,0:0:0:0:
77,370,104915,2,0,P|153:363|215:359,1,120,2|10,0:0|0:0,0:0:0:0:
234,343,105495,1,2,0:0:0:0:
276,322,105689,6,0,P|336:315|396:311,1,120,2|10,0:0|0:0,0:0:0:0:
442,326,106269,1,2,0:0:0:0:
442,326,106463,2,0,P|447:275|450:251,1,60,2|2,0:0|0:1,0:0:0:0:
453,218,106850,1,2,0:1:0:0:
409,132,107237,6,0,P|349:138|289:143,1,120,2|10,0:1|0:1,0:0:0:0:
209,196,108011,2,0,P|194:156|200:107,2,90,2|2|2,0:1|0:1|0:1,0:0:0:0:
