osu file format v14

[General]
AudioFilename: audio.mp3
AudioLeadIn: 0
PreviewTime: 28269
Countdown: 0
SampleSet: Soft
StackLeniency: 0.7
Mode: 0
LetterboxInBreaks: 0
WidescreenStoryboard: 0

[Editor]
Bookmarks: 59237,104915
DistanceSpacing: 1
BeatDivisor: 4
GridSize: 4
TimelineZoom: 1.3

[Metadata]
Title:Believe
TitleUnicode:Believe
Artist:Folder5
ArtistUnicode:Folder5
Creator:Chaoslitz
Version:Easy
Source:ONE PIECE
Tags:ワンピース opening op 2 Starfy StarForYou
BeatmapID:1200736
BeatmapSetID:566875

[Difficulty]
HPDrainRate:2
CircleSize:3
OverallDifficulty:2
ApproachRate:3
SliderMultiplier:0.999999999999999
SliderTickRate:1

[Events]
//Background and Video events
0,0,"bg.jpg",0,0
Video,-250,"optc.flv"
//Break Periods
//Storyboard Layer 0 (Background)
//Storyboard Layer 1 (Fail)
//Storyboard Layer 2 (Pass)
//Storyboard Layer 3 (Foreground)
//Storyboard Sound Samples

[TimingPoints]
399,387.096774193548,4,2,1,50,1,0
12786,-100,4,2,1,60,0,0
26721,-100,4,2,1,70,0,0
28269,-100,4,2,1,65,0,0
29044,-100,4,2,1,70,0,0
29818,-100,4,2,1,75,0,0
30592,-100,4,2,1,80,0,0
32915,-100,4,2,2,80,0,0
34463,-100,4,2,1,60,0,0
53528,-100,4,2,1,10,0,0
53624,-100,4,2,1,60,0,0
59044,-100,4,2,1,10,0,0
59237,-100,4,2,1,80,0,1
70657,-100,4,2,1,80,0,1
71237,-100,4,2,1,80,0,0
71624,-100,4,2,1,65,0,0
72398,-100,4,2,1,70,0,0
73173,-100,4,2,1,75,0,0
73947,-100,4,2,1,80,0,0
75689,-100,4,2,2,80,0,0
75882,-100,4,2,1,80,0,0
76269,-100,4,2,2,80,0,0
77818,-100,4,2,1,80,0,1
90011,-100,4,2,1,80,0,0
90205,-100,4,2,1,80,0,1
102205,-100,4,2,1,80,0,0
102592,-100,4,2,1,65,0,0
103366,-100,4,2,1,70,0,0
104140,-100,4,2,1,75,0,0
104141,-100,4,2,1,80,0,0
106657,-100,4,2,2,80,0,0
106850,-100,4,2,1,80,0,0
107237,-100,4,2,2,80,0,0
108689,-100,4,2,1,10,0,0

[Colours]
Combo1 : 55,143,242
Combo2 : 255,164,45
Combo3 : 79,225,9
Combo4 : 255,95,52

[HitObjects]
105,46,399,6,0,L|218:35,1,99.9999999999999,4|0,0:0|1:0,0:0:0:0:
284,96,1173,2,0,L|440:81,2,150,0|10|0,0:0|0:1|1:0,0:0:0:0:
216,169,2721,2,0,L|116:178,1,99.9999999999999,0|4,0:0|0:3,0:0:0:0:
34,236,3495,6,0,P|27:284|47:329,1,99.9999999999999,8|0,0:3|1:0,0:0:0:0:
137,373,4269,2,0,L|293:358,2,150,0|8|0,0:0|0:1|1:0,0:0:0:0:
127,273,5818,2,0,L|226:263,1,99.9999999999999,2|0,0:1|3:0,0:0:0:0:
325,251,6592,6,0,P|390:281|460:86,2,350,2|2|2,0:1|0:0|0:1,0:0:0:0:
259,175,9689,6,0,L|271:71,1,99.9999999999999,2|2,0:1|0:0,0:0:0:0:
182,27,10463,2,0,B|83:37|83:37|29:78,2,150,0|8|0,0:0|0:1|0:0,0:0:0:0:
270,75,12011,1,2,3:1:0:0:
353,19,12398,1,2,3:1:0:0:
448,48,12786,6,0,L|458:158,1,99.9999999999999,6|10,0:0|0:0,0:0:0:0:
386,217,13560,2,0,L|398:366,2,150,0|2|8,0:0|0:0|0:0,0:0:0:0:
298,168,15108,1,8,0:1:0:0:
214,222,15495,1,8,0:0:0:0:
156,140,15882,6,0,L|49:149,1,99.9999999999999,2|10,0:0|0:0,0:0:0:0:
7,236,16657,2,0,P|-2:286|52:365,2,150,0|2|8,0:0|0:0|0:0,0:0:0:0:
98,276,18205,2,0,L|197:267,1,99.9999999999999,2|8,0:1|3:2,0:0:0:0:
227,171,18979,6,0,L|127:179,1,99.9999999999999,2|10,0:0|0:0,0:0:0:0:
156,80,19753,2,0,L|305:68,2,150,0|2|8,0:0|0:0|0:0,0:0:0:0:
56,67,21302,1,2,0:1:0:0:
39,165,21689,1,8,3:2:0:0:
22,263,22076,6,0,L|140:253,1,99.9999999999999,2|10,0:0|0:0,0:0:0:0:
217,282,22850,2,0,L|229:132,2,150,0|2|8,0:0|0:0|0:0,0:0:0:0:
289,350,24398,2,0,P|339:368|392:357,1,99.9999999999999,8|8,0:1|0:0,0:0:0:0:
468,306,25173,6,0,P|456:176|308:198,1,300,2|0,0:1|0:0,0:0:0:0:
238,248,26721,2,0,P|167:283|97:259,1,150,8|2,0:3|0:0,0:0:0:0:
25,199,27689,1,4,0:3:0:0:
68,59,28269,6,0,L|169:48,1,99.9999999999999,6|10,0:0|0:0,0:0:0:0:
263,76,29044,2,0,L|364:65,1,99.9999999999999,2|10,0:0|0:0,0:0:0:0:
462,64,29818,2,0,P|475:111|462:158,1,99.9999999999999,2|10,0:0|0:0,0:0:0:0:
379,214,30592,2,0,P|365:261|379:308,1,99.9999999999999,2|10,0:0|0:0,0:0:0:0:
469,351,31366,6,0,B|320:298|313:401|170:344,1,300,2|10,0:0|0:0,0:0:0:0:
115,266,32915,2,0,L|13:279,1,99.9999999999999,2|10,0:1|0:1,0:0:0:0:
3,179,33689,2,0,L|183:158,1,150,2|2,0:1|0:1,0:0:0:0:
193,188,34463,6,0,P|242:172|302:182,1,99.9999999999999,8|8,0:1|0:0,0:0:0:0:
366,240,35237,2,0,L|355:339,1,99.9999999999999,2|8,0:1|0:0,0:0:0:0:
451,367,36011,2,0,L|462:268,1,99.9999999999999,0|8,0:0|0:0,0:0:0:0:
509,179,36786,2,0,L|498:80,1,99.9999999999999,2|8,0:1|0:0,0:0:0:0:
416,21,37560,6,0,P|366:15|321:34,1,99.9999999999999,2|8,0:1|0:0,0:0:0:0:
248,102,38334,2,0,P|202:120|153:114,1,99.9999999999999,2|8,0:1|0:0,0:0:0:0:
64,69,39108,1,2,0:1:0:0:
0,147,39495,1,8,0:0:0:0:
46,235,39882,2,0,P|51:285|55:336,1,99.9999999999999,2|8,0:1|0:0,0:0:0:0:
152,362,40657,6,0,P|234:365|268:250,1,200,2|2,0:1|0:1,0:0:0:0:
213,189,41818,1,8,0:0:0:0:
249,95,42205,2,0,L|355:85,1,99.9999999999999,2|8,0:1|0:0,0:0:0:0:
447,74,42979,1,2,0:1:0:0:
502,156,43366,1,0,3:0:0:0:
471,251,43753,5,2,0:1:0:0:
371,261,44140,2,0,L|381:370,2,99.9999999999999,8|2|8,0:0|0:1|0:0,0:0:0:0:
318,175,45302,2,0,P|240:153|158:231,1,200,2|2,0:1|0:1,0:0:0:0:
99,307,46463,1,8,0:0:0:0:
18,247,46850,6,0,L|1:92,2,150,2|2|8,0:0|0:0|0:0,0:0:0:0:
99,307,48398,2,0,P|176:328|258:250,1,200,2|2,0:1|0:1,0:0:0:0:
228,157,49560,1,8,0:0:0:0:
276,69,49947,6,0,P|322:52|371:61,1,99.9999999999999,2|8,0:1|0:0,0:0:0:0:
453,118,50721,2,0,L|461:222,1,99.9999999999999,2|8,0:1|0:0,0:0:0:0:
415,307,51495,2,0,P|337:328|255:250,1,200,2|2,0:1|0:1,0:0:0:0:
228,157,52657,1,8,0:0:0:0:
156,227,53044,6,0,L|-11:249,1,150,2|2,0:0|0:0,0:0:0:0:
42,340,54011,2,0,L|148:325,2,99.9999999999999,2|2|2,0:0|0:0|0:0,0:0:0:0:
7,246,55173,2,0,P|18:173|25:90,1,150,2|10,0:0|0:0,0:0:0:0:
103,35,56140,6,0,P|161:30|222:60,1,99.9999999999999,2|10,0:0|0:0,0:0:0:0:
268,116,56915,1,2,0:1:0:0:
351,60,57302,1,8,0:0:0:0:
446,90,57689,2,0,B|468:188|468:188|459:253,1,150,4|4,0:3|0:3,0:0:0:0:
446,338,58657,2,0,L|392:343,1,50,0|8,3:0|0:1,0:0:0:0:
304,294,59237,5,4,0:0:0:0:
213,336,59624,2,0,L|112:345,2,99.9999999999999,8|2|8,0:0|0:1|0:0,0:0:0:0:
304,294,60786,2,0,P|318:237|284:178,1,99.9999999999999,2|8,0:1|0:0,0:0:0:0:
213,159,61560,1,2,0:1:0:0:
129,213,61947,1,8,0:0:0:0:
34,180,62334,6,0,L|26:81,2,99.9999999999999,2|8|2,0:1|0:0|0:1,0:0:0:0:
45,279,63495,1,8,0:0:0:0:
117,347,63882,2,0,P|212:368|294:299,1,200,2|2,0:1|0:1,0:0:0:0:
312,212,65044,1,8,0:0:0:0:
403,252,65431,5,4,0:0:0:0:
485,195,65818,2,0,L|496:94,2,99.9999999999999,8|2|8,0:0|0:1|0:0,0:0:0:0:
403,252,66979,2,0,L|413:351,1,99.9999999999999,2|8,0:1|0:0,0:0:0:0:
315,334,67753,2,0,L|304:234,1,99.9999999999999,2|8,0:1|0:0,0:0:0:0:
268,140,68528,5,2,0:1:0:0:
193,206,68915,1,8,0:0:0:0:
138,122,69302,2,0,P|88:131|39:138,1,99.9999999999999,2|8,0:1|0:0,0:0:0:0:
2,231,70076,2,0,P|3:303|58:351,2,150,4|8|8,0:3|0:3|0:0,0:0:0:0:
39,138,71624,6,0,P|88:131|138:122,1,99.9999999999999,4|10,0:0|0:0,0:0:0:0:
237,110,72398,2,0,P|253:158|241:206,1,99.9999999999999,2|10,0:0|0:0,0:0:0:0:
160,264,73173,2,0,P|150:313|169:359,1,99.9999999999999,2|10,0:0|0:0,0:0:0:0:
267,370,73947,2,0,P|316:362|368:357,1,99.9999999999999,2|10,0:0|0:0,0:0:0:0:
453,309,74721,6,0,P|507:238|431:118,1,250,2|2,0:0|0:1,0:0:0:0:
289,169,76269,2,0,P|242:177|192:159,1,99.9999999999999,2|10,0:1|0:1,0:0:0:0:
158,66,77044,2,0,P|111:49|62:57,1,99.9999999999999,2|10,0:1|0:1,0:0:0:0:
0,136,77818,5,4,0:0:0:0:
86,186,78205,1,8,0:0:0:0:
11,252,78592,2,0,P|21:306|25:353,1,99.9999999999999,2|8,0:1|0:0,0:0:0:0:
123,367,79366,2,0,P|190:368|227:338,1,99.9999999999999,2|8,0:1|0:0,0:0:0:0:
287,281,80140,1,2,0:1:0:0:
371,335,80528,1,8,0:0:0:0:
463,298,80915,6,0,L|480:99,1,200,2|2,0:1|0:1,0:0:0:0:
410,27,82076,1,8,0:0:0:0:
353,109,82463,2,0,L|241:99,1,99.9999999999999,2|8,0:1|0:0,0:0:0:0:
189,23,83237,2,0,L|77:33,1,99.9999999999999,2|8,0:1|0:0,0:0:0:0:
22,105,84011,5,4,0:0:0:0:
88,179,84398,2,0,L|100:290,1,99.9999999999999,8|2,0:0|0:1,0:0:0:0:
106,378,85173,1,8,0:0:0:0:
187,320,85560,2,0,P|239:306|294:313,1,99.9999999999999,2|8,0:1|0:0,0:0:0:0:
367,366,86334,2,0,P|416:369|464:351,1,99.9999999999999,2|8,0:1|0:0,0:0:0:0:
504,261,87108,6,0,P|494:190|348:181,1,200,2|2,0:1|0:1,0:0:0:0:
295,201,88269,1,8,0:0:0:0:
196,180,88657,2,0,L|33:194,2,150,2|8|2,0:1|0:0|0:1,0:0:0:0:
295,201,90205,5,4,0:0:0:0:
383,154,90592,2,0,L|483:145,2,99.9999999999999,8|2|8,0:0|0:1|0:0,0:0:0:0:
295,201,91753,2,0,L|302:305,1,99.9999999999999,2|8,0:1|0:0,0:0:0:0:
218,357,92528,1,2,0:1:0:0:
135,300,92915,1,8,0:0:0:0:
38,326,93302,5,2,0:1:0:0:
5,231,93689,2,0,L|14:128,1,99.9999999999999,8|2,0:0|0:1,0:0:0:0:
43,35,94463,1,8,0:0:0:0:
128,86,94850,2,0,L|231:75,1,99.9999999999999,2|8,0:1|0:0,0:0:0:0:
317,31,95624,2,0,L|420:42,1,99.9999999999999,2|8,0:1|0:0,0:0:0:0:
483,115,96398,6,0,P|467:224|374:237,1,200,4|2,0:0|0:1,0:0:0:0:
324,168,97560,1,8,0:0:0:0:
238,219,97947,2,0,L|247:338,1,99.9999999999999,2|8,0:1|0:0,0:0:0:0:
154,360,98721,2,0,P|104:366|55:346,1,99.9999999999999,2|8,0:1|0:0,0:0:0:0:
13,259,99495,6,0,P|56:173|152:166,1,200,2|2,0:1|0:1,0:0:0:0:
238,219,100657,1,8,0:0:0:0:
312,151,101044,2,0,P|391:138|458:175,2,150,4|8|8,0:3|0:3|0:0,0:0:0:0:
238,219,102592,6,0,P|236:269|232:325,1,99.9999999999999,4|10,0:0|0:0,0:0:0:0:
325,355,103366,2,0,P|376:370|433:353,1,99.9999999999999,2|10,0:0|0:0,0:0:0:0:
507,310,104140,2,0,P|510:260|512:210,1,99.9999999999999,2|10,0:0|0:0,0:0:0:0:
423,164,104915,2,0,P|426:114|428:64,1,99.9999999999999,2|10,0:0|0:0,0:0:0:0:
340,17,105689,6,0,P|224:53|246:174,1,250,2|2,0:0|0:1,0:0:0:0:
355,247,107237,2,0,P|362:296|341:341,1,99.9999999999999,2|10,0:1|0:1,0:0:0:0:
243,357,108011,2,0,L|93:345,1,150,2|2,0:1|0:1,0:0:0:0:
