osu file format v14

[General]
AudioFilename: believe.ogg
AudioLeadIn: 0
PreviewTime: -1
Countdown: 0
SampleSet: None
StackLeniency: 0.7
Mode: 3
LetterboxInBreaks: 0
SpecialStyle: 0
WidescreenStoryboard: 0

[Editor]
DistanceSpacing: 0.8
BeatDivisor: 2
GridSize: 32
TimelineZoom: 1

[Metadata]
Title:Believe
TitleUnicode:Believe
Artist:Folder 5
ArtistUnicode:Folder 5
Creator:rosepetal
Version:Beginner
Source:
Tags:
BeatmapID:1570093
BeatmapSetID:744704

[Difficulty]
HPDrainRate:7
CircleSize:4
OverallDifficulty:8
ApproachRate:5
SliderMultiplier:1.4
SliderTickRate:1

[Events]
//Background and Video events
//Break Periods
//Storyboard Layer 0 (Background)
//Storyboard Layer 1 (Fail)
//Storyboard Layer 2 (Pass)
//Storyboard Layer 3 (Foreground)
//Storyboard Sound Samples

[TimingPoints]
72,387.096774,4,1,0,100,1,0

[HitObjects]
64,192,72,5,0,0:0:0:0:
192,192,72,1,0,0:0:0:0:
320,192,72,1,0,0:0:0:0:
192,192,266,1,0,0:0:0:0:
320,192,266,1,0,0:0:0:0:
448,192,266,1,0,0:0:0:0:
64,192,459,1,0,0:0:0:0:
192,192,459,1,0,0:0:0:0:
320,192,459,1,0,0:0:0:0:
192,192,653,1,0,0:0:0:0:
448,192,653,1,0,0:0:0:0:
64,192,846,1,0,0:0:0:0:
192,192,846,1,0,0:0:0:0:
320,192,846,1,0,0:0:0:0:
64,192,1040,1,0,0:0:0:0:
320,192,1040,1,0,0:0:0:0:
192,192,1233,1,0,0:0:0:0:
320,192,1233,1,0,0:0:0:0:
448,192,1233,1,0,0:0:0:0:
192,192,1427,1,0,0:0:0:0:
448,192,1427,1,0,0:0:0:0:
64,192,1620,1,0,0:0:0:0:
192,192,1620,1,0,0:0:0:0:
320,192,1620,1,0,0:0:0:0:
192,192,1814,1,0,0:0:0:0:
320,192,1814,1,0,0:0:0:0:
64,192,2007,1,0,0:0:0:0:
448,192,2007,1,0,0:0:0:0:
192,192,2201,1,0,0:0:0:0:
320,192,2201,1,0,0:0:0:0:
448,192,2201,1,0,0:0:0:0:
64,192,2395,1,0,0:0:0:0:
320,192,2395,1,0,0:0:0:0:
448,192,2395,1,0,0:0:0:0:
64,192,2588,1,0,0:0:0:0:
192,192,2588,1,0,0:0:0:0:
448,192,2588,1,0,0:0:0:0:
192,192,2782,1,0,0:0:0:0:
320,192,2782,1,0,0:0:0:0:
448,192,2782,1,0,0:0:0:0:
64,192,2975,1,0,0:0:0:0:
320,192,2975,1,0,0:0:0:0:
448,192,2975,1,0,0:0:0:0:
64,192,3169,1,0,0:0:0:0:
448,192,3169,1,0,0:0:0:0:
192,192,3362,1,0,0:0:0:0:
448,192,3362,1,0,0:0:0:0:
64,192,3556,1,0,0:0:0:0:
192,192,3556,1,0,0:0:0:0:
320,192,3556,1,0,0:0:0:0:
64,192,3749,1,0,0:0:0:0:
320,192,3749,1,0,0:0:0:0:
192,192,3943,1,0,0:0:0:0:
320,192,3943,1,0,0:0:0:0:
448,192,3943,1,0,0:0:0:0:
64,192,4137,1,0,0:0:0:0:
320,192,4137,1,0,0:0:0:0:
448,192,4137,1,0,0:0:0:0:
64,192,4330,1,0,0:0:0:0:
320,192,4330,1,0,0:0:0:0:
448,192,4330,1,0,0:0:0:0:
64,192,4524,1,0,0:0:0:0:
192,192,4524,1,0,0:0:0:0:
320,192,4524,1,0,0:0:0:0:
192,192,4717,1,0,0:0:0:0:
448,192,4717,1,0,0:0:0:0:
192,192,4911,1,0,0:0:0:0:
320,192,4911,1,0,0:0:0:0:
448,192,4911,1,0,0:0:0:0:
64,192,5104,1,0,0:0:0:0:
320,192,5104,1,0,0:0:0:0:
64,192,5298,1,0,0:0:0:0:
192,192,5298,1,0,0:0:0:0:
320,192,5298,1,0,0:0:0:0:
192,192,5491,1,0,0:0:0:0:
448,192,5491,1,0,0:0:0:0:
64,192,5685,1,0,0:0:0:0:
320,192,5685,1,0,0:0:0:0:
64,192,5878,1,0,0:0:0:0:
320,192,5878,1,0,0:0:0:0:
448,192,5878,1,0,0:0:0:0:
64,192,6072,1,0,0:0:0:0:
192,192,6072,1,0,0:0:0:0:
448,192,6072,1,0,0:0:0:0:
192,192,6266,1,0,0:0:0:0:
320,192,6266,1,0,0:0:0:0:
448,192,6266,1,0,0:0:0:0:
64,192,6459,1,0,0:0:0:0:
320,192,6459,1,0,0:0:0:0:
320,192,6653,1,0,0:0:0:0:
448,192,6653,1,0,0:0:0:0:
192,192,6846,1,0,0:0:0:0:
448,192,6846,1,0,0:0:0:0:
64,192,7040,1,0,0:0:0:0:
192,192,7040,1,0,0:0:0:0:
192,192,7233,1,0,0:0:0:0:
320,192,7233,1,0,0:0:0:0:
448,192,7233,1,0,0:0:0:0:
64,192,7427,1,0,0:0:0:0:
320,192,7427,1,0,0:0:0:0:
448,192,7427,1,0,0:0:0:0:
64,192,7620,1,0,0:0:0:0:
192,192,7620,1,0,0:0:0:0:
448,192,7620,1,0,0:0:0:0:
192,192,7814,1,0,0:0:0:0:
320,192,7814,1,0,0:0:0:0:
448,192,7814,1,0,0:0:0:0:
64,192,8007,1,0,0:0:0:0:
192,192,8007,1,0,0:0:0:0:
320,192,8007,1,0,0:0:0:0:
64,192,8201,1,0,0:0:0:0:
320,192,8201,1,0,0:0:0:0:
192,192,8395,1,0,0:0:0:0:
320,192,8395,1,0,0:0:0:0:
448,192,8395,1,0,0:0:0:0:
192,192,8588,1,0,0:0:0:0:
448,192,8588,1,0,0:0:0:0:
64,192,8782,1,0,0:0:0:0:
192,192,8782,1,0,0:0:0:0:
320,192,8975,1,0,0:0:0:0:
448,192,8975,1,0,0:0:0:0:
64,192,9169,1,0,0:0:0:0:
192,192,9169,1,0,0:0:0:0:
320,192,9169,1,0,0:0:0:0:
192,192,9362,1,0,0:0:0:0:
320,192,9362,1,0,0:0:0:0:
448,192,9362,1,0,0:0:0:0:
64,192,9427,1,0,0:0:0:0:
192,192,9491,1,0,0:0:0:0:
64,192,9556,1,0,0:0:0:0:
192,192,9620,1,0,0:0:0:0:
64,192,9685,1,0,0:0:0:0:
192,192,9749,1,0,0:0:0:0:
448,192,9814,1,0,0:0:0:0:
320,192,9878,1,0,0:0:0:0:
448,192,9943,1,0,0:0:0:0:
320,192,10007,1,0,0:0:0:0:
192,192,10072,1,0,0:0:0:0:
320,192,10137,1,0,0:0:0:0:
448,192,10201,128,0,10846:0:0:0:0:
192,192,10266,1,0,0:0:0:0:
64,192,10330,1,0,0:0:0:0:
192,192,10395,1,0,0:0:0:0:
320,192,10459,1,0,0:0:0:0:
192,192,10524,1,0,0:0:0:0:
64,192,10588,1,0,0:0:0:0:
192,192,10653,1,0,0:0:0:0:
320,192,10717,1,0,0:0:0:0:
192,192,10782,1,0,0:0:0:0:
64,192,10846,1,0,0:0:0:0:
320,192,10911,1,0,0:0:0:0:
64,192,10975,1,0,0:0:0:0:
192,192,10975,1,0,0:0:0:0:
320,192,11040,1,0,0:0:0:0:
448,192,11040,1,0,0:0:0:0:
64,192,11104,1,0,0:0:0:0:
192,192,11104,1,0,0:0:0:0:
320,192,11169,1,0,0:0:0:0:
448,192,11169,1,0,0:0:0:0:
64,192,11233,1,0,0:0:0:0:
192,192,11233,1,0,0:0:0:0:
320,192,11298,1,0,0:0:0:0:
448,192,11298,1,0,0:0:0:0:
64,192,11362,1,0,0:0:0:0:
192,192,11362,1,0,0:0:0:0:
320,192,11427,1,0,0:0:0:0:
448,192,11427,1,0,0:0:0:0:
64,192,11491,1,0,0:0:0:0:
192,192,11491,1,0,0:0:0:0:
320,192,11556,1,0,0:0:0:0:
448,192,11556,1,0,0:0:0:0:
64,192,11620,1,0,0:0:0:0:
192,192,11620,1,0,0:0:0:0:
192,192,11878,1,0,0:0:0:0:
320,192,11878,1,0,0:0:0:0:
448,192,11878,1,0,0:0:0:0:
64,192,12459,1,0,0:0:0:0:
192,192,12524,1,0,0:0:0:0:
64,192,12588,1,0,0:0:0:0:
320,192,12588,1,0,0:0:0:0:
192,192,12653,1,0,0:0:0:0:
320,192,12717,1,0,0:0:0:0:
192,192,12782,1,0,0:0:0:0:
448,192,12782,1,0,0:0:0:0:
320,192,12846,1,0,0:0:0:0:
448,192,12911,1,0,0:0:0:0:
192,192,12975,1,0,0:0:0:0:
320,192,12975,1,0,0:0:0:0:
64,192,13040,1,0,0:0:0:0:
448,192,13104,1,0,0:0:0:0:
192,192,13169,1,0,0:0:0:0:
320,192,13169,1,0,0:0:0:0:
64,192,13233,1,0,0:0:0:0:
320,192,13298,1,0,0:0:0:0:
192,192,13362,1,0,0:0:0:0:
448,192,13362,1,0,0:0:0:0:
320,192,13427,1,0,0:0:0:0:
192,192,13491,1,0,0:0:0:0:
64,192,13556,1,0,0:0:0:0:
320,192,13556,1,0,0:0:0:0:
192,192,13620,1,0,0:0:0:0:
64,192,13685,1,0,0:0:0:0:
192,192,13749,1,0,0:0:0:0:
320,192,13749,1,0,0:0:0:0:
448,192,13814,1,0,0:0:0:0:
320,192,13878,1,0,0:0:0:0:
192,192,13943,1,0,0:0:0:0:
448,192,13943,1,0,0:0:0:0:
64,192,14007,1,0,0:0:0:0:
192,192,14072,1,0,0:0:0:0:
64,192,14137,1,0,0:0:0:0:
320,192,14137,1,0,0:0:0:0:
448,192,14201,1,0,0:0:0:0:
192,192,14266,1,0,0:0:0:0:
64,192,14330,1,0,0:0:0:0:
320,192,14330,1,0,0:0:0:0:
192,192,14395,1,0,0:0:0:0:
448,192,14459,1,0,0:0:0:0:
192,192,14524,1,0,0:0:0:0:
320,192,14524,1,0,0:0:0:0:
64,192,14588,1,0,0:0:0:0:
448,192,14653,1,0,0:0:0:0:
192,192,14717,1,0,0:0:0:0:
320,192,14717,1,0,0:0:0:0:
64,192,14782,1,0,0:0:0:0:
192,192,14846,1,0,0:0:0:0:
320,192,14911,1,0,0:0:0:0:
448,192,14911,1,0,0:0:0:0:
192,192,14975,1,0,0:0:0:0:
320,192,15040,1,0,0:0:0:0:
64,192,15104,1,0,0:0:0:0:
192,192,15104,1,0,0:0:0:0:
448,192,15169,1,0,0:0:0:0:
320,192,15233,1,0,0:0:0:0:
192,192,15298,1,0,0:0:0:0:
448,192,15298,1,0,0:0:0:0:
64,192,15362,1,0,0:0:0:0:
192,192,15427,1,0,0:0:0:0:
320,192,15491,1,0,0:0:0:0:
448,192,15491,1,0,0:0:0:0:
64,192,15556,1,0,0:0:0:0:
192,192,15620,1,0,0:0:0:0:
64,192,15685,1,0,0:0:0:0:
192,192,15749,1,0,0:0:0:0:
64,192,15814,1,0,0:0:0:0:
192,192,15878,1,0,0:0:0:0:
320,192,15943,1,0,0:0:0:0:
448,192,16007,1,0,0:0:0:0:
320,192,16072,1,0,0:0:0:0:
448,192,16137,1,0,0:0:0:0:
320,192,16201,1,0,0:0:0:0:
448,192,16266,1,0,0:0:0:0:
320,192,16330,1,0,0:0:0:0:
192,192,16395,1,0,0:0:0:0:
64,192,16459,1,0,0:0:0:0:
448,192,16524,1,0,0:0:0:0:
320,192,16588,1,0,0:0:0:0:
192,192,16653,1,0,0:0:0:0:
64,192,16717,1,0,0:0:0:0:
192,192,17104,1,0,0:0:0:0:
320,192,17104,1,0,0:0:0:0:
448,192,17104,1,0,0:0:0:0:
64,192,17491,1,0,0:0:0:0:
192,192,17491,1,0,0:0:0:0:
320,192,17491,1,0,0:0:0:0:
192,192,17878,1,0,0:0:0:0:
320,192,17878,1,0,0:0:0:0:
448,192,17878,1,0,0:0:0:0:
64,192,18266,1,0,0:0:0:0:
192,192,18266,1,0,0:0:0:0:
320,192,18266,1,0,0:0:0:0:
192,192,18459,1,0,0:0:0:0:
320,192,18459,1,0,0:0:0:0:
448,192,18459,1,0,0:0:0:0:
448,192,18653,1,0,0:0:0:0:
320,192,18717,1,0,0:0:0:0:
192,192,18782,1,0,0:0:0:0:
448,192,18782,1,0,0:0:0:0:
64,192,18846,1,0,0:0:0:0:
192,192,18911,1,0,0:0:0:0:
320,192,18975,1,0,0:0:0:0:
448,192,18975,1,0,0:0:0:0:
192,192,19040,1,0,0:0:0:0:
320,192,19104,1,0,0:0:0:0:
192,192,19169,1,0,0:0:0:0:
448,192,19169,1,0,0:0:0:0:
64,192,19233,1,0,0:0:0:0:
192,192,19298,1,0,0:0:0:0:
64,192,19362,1,0,0:0:0:0:
320,192,19362,1,0,0:0:0:0:
448,192,19427,1,0,0:0:0:0:
192,192,19491,1,0,0:0:0:0:
64,192,19556,1,0,0:0:0:0:
320,192,19556,1,0,0:0:0:0:
192,192,19620,1,0,0:0:0:0:
448,192,19685,1,0,0:0:0:0:
192,192,19749,1,0,0:0:0:0:
320,192,19749,1,0,0:0:0:0:
64,192,19814,1,0,0:0:0:0:
448,192,19878,1,0,0:0:0:0:
192,192,19943,1,0,0:0:0:0:
320,192,19943,1,0,0:0:0:0:
64,192,20007,1,0,0:0:0:0:
448,192,20072,1,0,0:0:0:0:
64,192,20137,1,0,0:0:0:0:
320,192,20137,1,0,0:0:0:0:
192,192,20201,1,0,0:0:0:0:
448,192,20266,1,0,0:0:0:0:
64,192,20330,1,0,0:0:0:0:
320,192,20330,1,0,0:0:0:0:
192,192,20395,1,0,0:0:0:0:
320,192,20459,1,0,0:0:0:0:
192,192,20524,1,0,0:0:0:0:
448,192,20524,1,0,0:0:0:0:
320,192,20588,1,0,0:0:0:0:
448,192,20653,1,0,0:0:0:0:
64,192,20717,1,0,0:0:0:0:
192,192,20717,1,0,0:0:0:0:
320,192,20782,1,0,0:0:0:0:
448,192,20846,1,0,0:0:0:0:
192,192,20911,1,0,0:0:0:0:
320,192,20911,1,0,0:0:0:0:
64,192,20975,1,0,0:0:0:0:
192,192,21040,1,0,0:0:0:0:
320,192,21104,1,0,0:0:0:0:
448,192,21104,1,0,0:0:0:0:
64,192,21169,1,0,0:0:0:0:
192,192,21233,1,0,0:0:0:0:
64,192,21298,1,0,0:0:0:0:
320,192,21298,1,0,0:0:0:0:
192,192,21362,1,0,0:0:0:0:
448,192,21427,1,0,0:0:0:0:
192,192,21491,1,0,0:0:0:0:
320,192,21491,1,0,0:0:0:0:
64,192,21556,1,0,0:0:0:0:
448,192,21620,1,0,0:0:0:0:
64,192,21685,1,0,0:0:0:0:
192,192,21685,1,0,0:0:0:0:
320,192,21749,1,0,0:0:0:0:
192,192,21814,1,0,0:0:0:0:
64,192,21878,1,0,0:0:0:0:
320,192,21878,1,0,0:0:0:0:
192,192,21943,1,0,0:0:0:0:
448,192,22007,1,0,0:0:0:0:
192,192,22072,1,0,0:0:0:0:
320,192,22072,1,0,0:0:0:0:
64,192,22137,1,0,0:0:0:0:
192,192,22201,1,0,0:0:0:0:
64,192,22266,1,0,0:0:0:0:
320,192,22266,1,0,0:0:0:0:
192,192,22330,1,0,0:0:0:0:
320,192,22395,1,0,0:0:0:0:
192,192,22459,1,0,0:0:0:0:
448,192,22459,1,0,0:0:0:0:
320,192,22524,1,0,0:0:0:0:
448,192,22588,1,0,0:0:0:0:
64,192,22653,1,0,0:0:0:0:
192,192,22653,1,0,0:0:0:0:
320,192,22717,1,0,0:0:0:0:
192,192,22782,1,0,0:0:0:0:
64,192,22846,1,0,0:0:0:0:
320,192,22846,1,0,0:0:0:0:
192,192,22911,1,0,0:0:0:0:
448,192,22975,1,0,0:0:0:0:
64,192,23040,1,0,0:0:0:0:
192,192,23040,1,0,0:0:0:0:
320,192,23104,1,0,0:0:0:0:
192,192,23169,1,0,0:0:0:0:
448,192,23233,1,0,0:0:0:0:
64,192,23298,1,0,0:0:0:0:
192,192,23298,1,0,0:0:0:0:
320,192,23298,1,0,0:0:0:0:
192,192,23685,1,0,0:0:0:0:
320,192,23685,1,0,0:0:0:0:
448,192,23685,1,0,0:0:0:0:
64,192,24072,1,0,0:0:0:0:
192,192,24072,1,0,0:0:0:0:
320,192,24072,1,0,0:0:0:0:
192,192,24266,1,0,0:0:0:0:
320,192,24266,1,0,0:0:0:0:
448,192,24266,1,0,0:0:0:0:
64,192,24459,1,0,0:0:0:0:
192,192,24459,1,0,0:0:0:0:
320,192,24459,1,0,0:0:0:0:
192,192,24653,1,0,0:0:0:0:
320,192,24653,1,0,0:0:0:0:
448,192,24653,1,0,0:0:0:0:
64,192,25040,1,0,0:0:0:0:
448,192,25104,1,0,0:0:0:0:
192,192,25169,1,0,0:0:0:0:
320,192,25169,1,0,0:0:0:0:
448,192,25233,1,0,0:0:0:0:
64,192,25298,1,0,0:0:0:0:
192,192,25362,1,0,0:0:0:0:
320,192,25362,1,0,0:0:0:0:
448,192,25427,1,0,0:0:0:0:
320,192,25491,1,0,0:0:0:0:
192,192,25556,1,0,0:0:0:0:
448,192,25556,1,0,0:0:0:0:
64,192,25620,1,0,0:0:0:0:
192,192,25685,1,0,0:0:0:0:
64,192,25749,1,0,0:0:0:0:
320,192,25749,1,0,0:0:0:0:
448,192,25814,1,0,0:0:0:0:
192,192,25878,1,0,0:0:0:0:
320,192,25943,1,0,0:0:0:0:
448,192,25943,1,0,0:0:0:0:
192,192,26007,1,0,0:0:0:0:
320,192,26072,1,0,0:0:0:0:
64,192,26137,1,0,0:0:0:0:
192,192,26137,1,0,0:0:0:0:
448,192,26201,1,0,0:0:0:0:
320,192,26266,1,0,0:0:0:0:
192,192,26330,1,0,0:0:0:0:
448,192,26330,1,0,0:0:0:0:
64,192,26395,1,0,0:0:0:0:
192,192,26459,1,0,0:0:0:0:
320,192,26524,1,0,0:0:0:0:
448,192,26524,1,0,0:0:0:0:
64,192,26588,1,0,0:0:0:0:
192,192,26653,1,0,0:0:0:0:
64,192,26717,1,0,0:0:0:0:
320,192,26717,1,0,0:0:0:0:
192,192,26782,1,0,0:0:0:0:
320,192,26846,1,0,0:0:0:0:
64,192,26911,1,0,0:0:0:0:
192,192,26911,1,0,0:0:0:0:
448,192,26975,128,0,27556:0:0:0:0:
320,192,27040,1,0,0:0:0:0:
192,192,27104,1,0,0:0:0:0:
320,192,27169,1,0,0:0:0:0:
192,192,27233,1,0,0:0:0:0:
320,192,27298,1,0,0:0:0:0:
192,192,27362,1,0,0:0:0:0:
320,192,27427,1,0,0:0:0:0:
192,192,27491,1,0,0:0:0:0:
320,192,27556,1,0,0:0:0:0:
64,192,28137,1,0,0:0:0:0:
192,192,28201,1,0,0:0:0:0:
320,192,28266,1,0,0:0:0:0:
448,192,28266,1,0,0:0:0:0:
192,192,28330,1,0,0:0:0:0:
320,192,28395,1,0,0:0:0:0:
192,192,28459,1,0,0:0:0:0:
448,192,28459,1,0,0:0:0:0:
320,192,28524,1,0,0:0:0:0:
448,192,28588,1,0,0:0:0:0:
64,192,28653,1,0,0:0:0:0:
192,192,28653,1,0,0:0:0:0:
448,192,28717,1,0,0:0:0:0:
320,192,28782,1,0,0:0:0:0:
64,192,28846,1,0,0:0:0:0:
192,192,28846,1,0,0:0:0:0:
320,192,28911,1,0,0:0:0:0:
192,192,28975,1,0,0:0:0:0:
320,192,29040,1,0,0:0:0:0:
448,192,29040,1,0,0:0:0:0:
192,192,29104,1,0,0:0:0:0:
64,192,29169,1,0,0:0:0:0:
192,192,29233,1,0,0:0:0:0:
320,192,29233,1,0,0:0:0:0:
448,192,29298,1,0,0:0:0:0:
320,192,29362,1,0,0:0:0:0:
192,192,29427,1,0,0:0:0:0:
448,192,29427,1,0,0:0:0:0:
64,192,29491,1,0,0:0:0:0:
192,192,29556,1,0,0:0:0:0:
64,192,29620,1,0,0:0:0:0:
320,192,29620,1,0,0:0:0:0:
448,192,29685,1,0,0:0:0:0:
320,192,29749,1,0,0:0:0:0:
64,192,29814,1,0,0:0:0:0:
192,192,29814,1,0,0:0:0:0:
320,192,29878,1,0,0:0:0:0:
448,192,29943,1,0,0:0:0:0:
64,192,30007,1,0,0:0:0:0:
192,192,30007,1,0,0:0:0:0:
320,192,30072,1,0,0:0:0:0:
192,192,30137,1,0,0:0:0:0:
320,192,30201,1,0,0:0:0:0:
448,192,30201,1,0,0:0:0:0:
64,192,30266,1,0,0:0:0:0:
192,192,30330,1,0,0:0:0:0:
64,192,30395,1,0,0:0:0:0:
320,192,30395,1,0,0:0:0:0:
192,192,30459,1,0,0:0:0:0:
320,192,30524,1,0,0:0:0:0:
192,192,30588,1,0,0:0:0:0:
448,192,30588,1,0,0:0:0:0:
320,192,30653,1,0,0:0:0:0:
192,192,30717,1,0,0:0:0:0:
64,192,30782,1,0,0:0:0:0:
320,192,30782,1,0,0:0:0:0:
192,192,30846,1,0,0:0:0:0:
320,192,30911,1,0,0:0:0:0:
64,192,30975,1,0,0:0:0:0:
192,192,30975,1,0,0:0:0:0:
320,192,31040,1,0,0:0:0:0:
320,192,31427,1,0,0:0:0:0:
192,192,31491,1,0,0:0:0:0:
320,192,31556,1,0,0:0:0:0:
448,192,31556,1,0,0:0:0:0:
192,192,31620,1,0,0:0:0:0:
64,192,31685,1,0,0:0:0:0:
192,192,31749,1,0,0:0:0:0:
320,192,31749,1,0,0:0:0:0:
64,192,31814,1,0,0:0:0:0:
192,192,31878,1,0,0:0:0:0:
320,192,31943,1,0,0:0:0:0:
448,192,31943,1,0,0:0:0:0:
192,192,32007,1,0,0:0:0:0:
320,192,32072,1,0,0:0:0:0:
192,192,32137,1,0,0:0:0:0:
448,192,32137,1,0,0:0:0:0:
320,192,32201,1,0,0:0:0:0:
448,192,32266,1,0,0:0:0:0:
64,192,32330,1,0,0:0:0:0:
192,192,32330,1,0,0:0:0:0:
320,192,32395,1,0,0:0:0:0:
192,192,32459,1,0,0:0:0:0:
64,192,32524,1,0,0:0:0:0:
448,192,32524,1,0,0:0:0:0:
320,192,32588,1,0,0:0:0:0:
192,192,32653,1,0,0:0:0:0:
64,192,32717,1,0,0:0:0:0:
320,192,32717,1,0,0:0:0:0:
192,192,32782,1,0,0:0:0:0:
320,192,32846,1,0,0:0:0:0:
64,192,32911,1,0,0:0:0:0:
448,192,32911,1,0,0:0:0:0:
192,192,32975,1,0,0:0:0:0:
320,192,33040,1,0,0:0:0:0:
192,192,33104,1,0,0:0:0:0:
64,192,33169,128,0,33749:0:0:0:0:
448,192,33169,1,0,0:0:0:0:
320,192,33233,1,0,0:0:0:0:
192,192,33298,1,0,0:0:0:0:
320,192,33362,1,0,0:0:0:0:
448,192,33427,1,0,0:0:0:0:
320,192,33491,1,0,0:0:0:0:
192,192,33556,1,0,0:0:0:0:
320,192,33620,1,0,0:0:0:0:
448,192,33685,1,0,0:0:0:0:
320,192,33749,1,0,0:0:0:0:
192,192,34330,1,0,0:0:0:0:
320,192,34395,1,0,0:0:0:0:
192,192,34459,1,0,0:0:0:0:
448,192,34459,1,0,0:0:0:0:
64,192,34524,1,0,0:0:0:0:
192,192,34588,1,0,0:0:0:0:
64,192,34653,1,0,0:0:0:0:
448,192,34653,1,0,0:0:0:0:
192,192,34717,1,0,0:0:0:0:
320,192,34782,1,0,0:0:0:0:
192,192,34846,1,0,0:0:0:0:
448,192,34846,1,0,0:0:0:0:
320,192,34911,1,0,0:0:0:0:
192,192,34975,1,0,0:0:0:0:
64,192,35040,1,0,0:0:0:0:
448,192,35040,1,0,0:0:0:0:
192,192,35104,1,0,0:0:0:0:
320,192,35169,1,0,0:0:0:0:
192,192,35233,1,0,0:0:0:0:
448,192,35233,1,0,0:0:0:0:
320,192,35298,1,0,0:0:0:0:
448,192,35362,1,0,0:0:0:0:
64,192,35427,1,0,0:0:0:0:
192,192,35427,1,0,0:0:0:0:
320,192,35491,1,0,0:0:0:0:
192,192,35556,1,0,0:0:0:0:
320,192,35620,1,0,0:0:0:0:
448,192,35620,1,0,0:0:0:0:
192,192,35685,1,0,0:0:0:0:
64,192,35749,1,0,0:0:0:0:
192,192,35814,1,0,0:0:0:0:
320,192,35814,1,0,0:0:0:0:
64,192,35878,1,0,0:0:0:0:
192,192,35943,1,0,0:0:0:0:
320,192,36007,1,0,0:0:0:0:
448,192,36007,1,0,0:0:0:0:
192,192,36072,1,0,0:0:0:0:
320,192,36137,1,0,0:0:0:0:
192,192,36201,1,0,0:0:0:0:
448,192,36201,1,0,0:0:0:0:
64,192,36266,1,0,0:0:0:0:
192,192,36330,1,0,0:0:0:0:
320,192,36395,1,0,0:0:0:0:
64,192,36459,1,0,0:0:0:0:
448,192,36459,1,0,0:0:0:0:
192,192,36524,128,0,36782:0:0:0:0:
320,192,36524,128,0,36782:0:0:0:0:
64,192,36846,1,0,0:0:0:0:
192,192,36911,1,0,0:0:0:0:
320,192,36975,1,0,0:0:0:0:
448,192,36975,1,0,0:0:0:0:
192,192,37040,1,0,0:0:0:0:
320,192,37104,1,0,0:0:0:0:
64,192,37169,1,0,0:0:0:0:
448,192,37169,1,0,0:0:0:0:
192,192,37233,1,0,0:0:0:0:
320,192,37298,1,0,0:0:0:0:
192,192,37362,1,0,0:0:0:0:
448,192,37362,1,0,0:0:0:0:
320,192,37427,1,0,0:0:0:0:
192,192,37491,1,0,0:0:0:0:
64,192,37556,1,0,0:0:0:0:
320,192,37556,1,0,0:0:0:0:
192,192,37620,1,0,0:0:0:0:
448,192,37685,1,0,0:0:0:0:
64,192,37749,1,0,0:0:0:0:
192,192,37749,1,0,0:0:0:0:
320,192,37814,1,0,0:0:0:0:
192,192,37878,1,0,0:0:0:0:
320,192,37943,1,0,0:0:0:0:
448,192,37943,1,0,0:0:0:0:
64,192,38007,1,0,0:0:0:0:
192,192,38072,1,0,0:0:0:0:
64,192,38137,1,0,0:0:0:0:
320,192,38137,1,0,0:0:0:0:
192,192,38201,1,0,0:0:0:0:
320,192,38266,1,0,0:0:0:0:
192,192,38330,1,0,0:0:0:0:
64,192,38395,1,0,0:0:0:0:
448,192,38395,128,0,38975:0:0:0:0:
192,192,38459,1,0,0:0:0:0:
320,192,38524,1,0,0:0:0:0:
192,192,38588,1,0,0:0:0:0:
64,192,38653,1,0,0:0:0:0:
192,192,38717,1,0,0:0:0:0:
320,192,38782,1,0,0:0:0:0:
192,192,38846,1,0,0:0:0:0:
64,192,38911,1,0,0:0:0:0:
192,192,38975,1,0,0:0:0:0:
448,192,39749,1,0,0:0:0:0:
64,192,39814,1,0,0:0:0:0:
320,192,39878,1,0,0:0:0:0:
448,192,39878,1,0,0:0:0:0:
192,192,39943,1,0,0:0:0:0:
448,192,40007,1,0,0:0:0:0:
64,192,40072,1,0,0:0:0:0:
192,192,40072,1,0,0:0:0:0:
320,192,40137,1,0,0:0:0:0:
192,192,40201,1,0,0:0:0:0:
320,192,40266,1,0,0:0:0:0:
448,192,40266,1,0,0:0:0:0:
64,192,40330,1,0,0:0:0:0:
320,192,40395,1,0,0:0:0:0:
64,192,40459,1,0,0:0:0:0:
192,192,40459,1,0,0:0:0:0:
320,192,40524,1,0,0:0:0:0:
448,192,40588,1,0,0:0:0:0:
192,192,40653,1,0,0:0:0:0:
320,192,40653,1,0,0:0:0:0:
64,192,40717,1,0,0:0:0:0:
192,192,40782,1,0,0:0:0:0:
64,192,40846,1,0,0:0:0:0:
320,192,40846,1,0,0:0:0:0:
448,192,40911,1,0,0:0:0:0:
320,192,40975,1,0,0:0:0:0:
192,192,41040,1,0,0:0:0:0:
448,192,41040,1,0,0:0:0:0:
64,192,41104,1,0,0:0:0:0:
192,192,41169,1,0,0:0:0:0:
320,192,41233,1,0,0:0:0:0:
448,192,41233,1,0,0:0:0:0:
192,192,41298,1,0,0:0:0:0:
64,192,41362,1,0,0:0:0:0:
320,192,41427,1,0,0:0:0:0:
448,192,41427,1,0,0:0:0:0:
192,192,41491,1,0,0:0:0:0:
320,192,41556,1,0,0:0:0:0:
448,192,41620,1,0,0:0:0:0:
64,192,41685,128,0,42266:0:0:0:0:
192,192,41685,1,0,0:0:0:0:
320,192,41749,1,0,0:0:0:0:
448,192,41814,1,0,0:0:0:0:
320,192,41878,1,0,0:0:0:0:
192,192,41943,1,0,0:0:0:0:
320,192,42007,1,0,0:0:0:0:
448,192,42072,1,0,0:0:0:0:
320,192,42137,1,0,0:0:0:0:
192,192,42201,1,0,0:0:0:0:
320,192,42266,1,0,0:0:0:0:
64,192,42653,1,0,0:0:0:0:
448,192,42653,128,0,43040:0:0:0:0:
192,192,42717,1,0,0:0:0:0:
64,192,42782,1,0,0:0:0:0:
192,192,42846,1,0,0:0:0:0:
64,192,42911,1,0,0:0:0:0:
192,192,42975,1,0,0:0:0:0:
64,192,43040,1,0,0:0:0:0:
320,192,43233,1,0,0:0:0:0:
192,192,43298,1,0,0:0:0:0:
64,192,43362,1,0,0:0:0:0:
320,192,43362,1,0,0:0:0:0:
448,192,43427,1,0,0:0:0:0:
320,192,43491,1,0,0:0:0:0:
192,192,43556,1,0,0:0:0:0:
448,192,43556,1,0,0:0:0:0:
320,192,43620,1,0,0:0:0:0:
192,192,43685,1,0,0:0:0:0:
64,192,43749,1,0,0:0:0:0:
320,192,43749,1,0,0:0:0:0:
192,192,43814,1,0,0:0:0:0:
320,192,43878,1,0,0:0:0:0:
192,192,43943,1,0,0:0:0:0:
448,192,43943,1,0,0:0:0:0:
64,192,44007,1,0,0:0:0:0:
192,192,44072,1,0,0:0:0:0:
64,192,44137,1,0,0:0:0:0:
320,192,44137,1,0,0:0:0:0:
192,192,44201,1,0,0:0:0:0:
320,192,44266,1,0,0:0:0:0:
192,192,44330,1,0,0:0:0:0:
448,192,44330,1,0,0:0:0:0:
320,192,44395,1,0,0:0:0:0:
448,192,44459,1,0,0:0:0:0:
64,192,44524,1,0,0:0:0:0:
192,192,44524,1,0,0:0:0:0:
320,192,44588,1,0,0:0:0:0:
448,192,44653,1,0,0:0:0:0:
64,192,44782,1,0,0:0:0:0:
192,192,44782,1,0,0:0:0:0:
320,192,44782,1,0,0:0:0:0:
192,192,44975,1,0,0:0:0:0:
192,192,45169,1,0,0:0:0:0:
320,192,45169,1,0,0:0:0:0:
448,192,45169,1,0,0:0:0:0:
320,192,45362,1,0,0:0:0:0:
64,192,45556,1,0,0:0:0:0:
192,192,45556,1,0,0:0:0:0:
320,192,45556,1,0,0:0:0:0:
448,192,46137,1,0,0:0:0:0:
320,192,46201,1,0,0:0:0:0:
448,192,46266,1,0,0:0:0:0:
320,192,46330,1,0,0:0:0:0:
448,192,46395,1,0,0:0:0:0:
320,192,46459,1,0,0:0:0:0:
448,192,46524,1,0,0:0:0:0:
64,192,46588,1,0,0:0:0:0:
192,192,46653,1,0,0:0:0:0:
64,192,46717,1,0,0:0:0:0:
192,192,46782,1,0,0:0:0:0:
64,192,46846,1,0,0:0:0:0:
192,192,46911,1,0,0:0:0:0:
320,192,46975,1,0,0:0:0:0:
448,192,47040,1,0,0:0:0:0:
320,192,47104,1,0,0:0:0:0:
448,192,47169,1,0,0:0:0:0:
320,192,47233,1,0,0:0:0:0:
448,192,47298,1,0,0:0:0:0:
192,192,47362,1,0,0:0:0:0:
64,192,47427,1,0,0:0:0:0:
192,192,47491,1,0,0:0:0:0:
64,192,47556,1,0,0:0:0:0:
192,192,47620,1,0,0:0:0:0:
64,192,47685,1,0,0:0:0:0:
448,192,47685,1,0,0:0:0:0:
320,192,47733,1,0,0:0:0:0:
192,192,47782,1,0,0:0:0:0:
64,192,47830,1,0,0:0:0:0:
448,192,47878,1,0,0:0:0:0:
320,192,47927,1,0,0:0:0:0:
192,192,47975,1,0,0:0:0:0:
64,192,48024,1,0,0:0:0:0:
192,192,48072,1,0,0:0:0:0:
320,192,48120,1,0,0:0:0:0:
448,192,48169,1,0,0:0:0:0:
320,192,48217,1,0,0:0:0:0:
192,192,48266,1,0,0:0:0:0:
64,192,48314,1,0,0:0:0:0:
192,192,48362,1,0,0:0:0:0:
320,192,48411,1,0,0:0:0:0:
448,192,48459,1,0,0:0:0:0:
320,192,48507,1,0,0:0:0:0:
192,192,48556,1,0,0:0:0:0:
64,192,48604,1,0,0:0:0:0:
192,192,48653,1,0,0:0:0:0:
320,192,48701,1,0,0:0:0:0:
448,192,48749,1,0,0:0:0:0:
320,192,48798,1,0,0:0:0:0:
192,192,48846,1,0,0:0:0:0:
64,192,48895,1,0,0:0:0:0:
192,192,48943,1,0,0:0:0:0:
320,192,48991,1,0,0:0:0:0:
448,192,49040,1,0,0:0:0:0:
320,192,49088,1,0,0:0:0:0:
192,192,49137,1,0,0:0:0:0:
64,192,49185,1,0,0:0:0:0:
192,192,49233,1,0,0:0:0:0:
64,192,49620,1,0,0:0:0:0:
192,192,49620,1,0,0:0:0:0:
320,192,49620,1,0,0:0:0:0:
448,192,49685,1,0,0:0:0:0:
64,192,49749,1,0,0:0:0:0:
320,192,49749,1,0,0:0:0:0:
192,192,49814,1,0,0:0:0:0:
448,192,49878,1,0,0:0:0:0:
192,192,49943,1,0,0:0:0:0:
320,192,49943,1,0,0:0:0:0:
64,192,50007,1,0,0:0:0:0:
448,192,50072,1,0,0:0:0:0:
64,192,50137,1,0,0:0:0:0:
320,192,50137,1,0,0:0:0:0:
192,192,50201,1,0,0:0:0:0:
320,192,50266,1,0,0:0:0:0:
192,192,50330,1,0,0:0:0:0:
448,192,50330,1,0,0:0:0:0:
64,192,50395,1,0,0:0:0:0:
192,192,50459,1,0,0:0:0:0:
64,192,50524,1,0,0:0:0:0:
320,192,50524,1,0,0:0:0:0:
448,192,50588,1,0,0:0:0:0:
320,192,50653,1,0,0:0:0:0:
192,192,50717,1,0,0:0:0:0:
448,192,50717,1,0,0:0:0:0:
320,192,50782,1,0,0:0:0:0:
192,192,50846,1,0,0:0:0:0:
64,192,50911,1,0,0:0:0:0:
320,192,50911,1,0,0:0:0:0:
192,192,50975,1,0,0:0:0:0:
320,192,51040,1,0,0:0:0:0:
64,192,51104,1,0,0:0:0:0:
192,192,51104,1,0,0:0:0:0:
320,192,51169,1,0,0:0:0:0:
448,192,51233,1,0,0:0:0:0:
64,192,51298,1,0,0:0:0:0:
192,192,51298,1,0,0:0:0:0:
320,192,51362,1,0,0:0:0:0:
192,192,51427,1,0,0:0:0:0:
64,192,51491,1,0,0:0:0:0:
320,192,51491,1,0,0:0:0:0:
448,192,51556,1,0,0:0:0:0:
320,192,51620,1,0,0:0:0:0:
64,192,51685,1,0,0:0:0:0:
192,192,51685,1,0,0:0:0:0:
320,192,51749,1,0,0:0:0:0:
192,192,51814,1,0,0:0:0:0:
64,192,51878,1,0,0:0:0:0:
320,192,51878,1,0,0:0:0:0:
192,192,51943,1,0,0:0:0:0:
64,192,52007,1,0,0:0:0:0:
320,192,52072,1,0,0:0:0:0:
448,192,52072,1,0,0:0:0:0:
192,192,52137,1,0,0:0:0:0:
320,192,52201,1,0,0:0:0:0:
192,192,52266,1,0,0:0:0:0:
448,192,52266,1,0,0:0:0:0:
320,192,52330,1,0,0:0:0:0:
192,192,52395,1,0,0:0:0:0:
64,192,52459,1,0,0:0:0:0:
320,192,52459,1,0,0:0:0:0:
192,192,52524,1,0,0:0:0:0:
64,192,52588,1,0,0:0:0:0:
320,192,52653,1,0,0:0:0:0:
448,192,52653,1,0,0:0:0:0:
192,192,52717,1,0,0:0:0:0:
64,192,52782,1,0,0:0:0:0:
320,192,52846,1,0,0:0:0:0:
448,192,52846,1,0,0:0:0:0:
192,192,52911,1,0,0:0:0:0:
320,192,52975,1,0,0:0:0:0:
192,192,53040,1,0,0:0:0:0:
448,192,53040,1,0,0:0:0:0:
320,192,53104,1,0,0:0:0:0:
448,192,53169,1,0,0:0:0:0:
64,192,53233,1,0,0:0:0:0:
192,192,53233,1,0,0:0:0:0:
448,192,53298,1,0,0:0:0:0:
320,192,53362,1,0,0:0:0:0:
64,192,53427,1,0,0:0:0:0:
192,192,53427,1,0,0:0:0:0:
320,192,53491,1,0,0:0:0:0:
192,192,53556,1,0,0:0:0:0:
320,192,53620,1,0,0:0:0:0:
448,192,53620,1,0,0:0:0:0:
64,192,53685,1,0,0:0:0:0:
192,192,53749,1,0,0:0:0:0:
64,192,53814,1,0,0:0:0:0:
320,192,53814,1,0,0:0:0:0:
448,192,53878,1,0,0:0:0:0:
320,192,53943,1,0,0:0:0:0:
192,192,54007,1,0,0:0:0:0:
448,192,54007,1,0,0:0:0:0:
64,192,54072,1,0,0:0:0:0:
192,192,54137,1,0,0:0:0:0:
64,192,54201,1,0,0:0:0:0:
320,192,54201,1,0,0:0:0:0:
192,192,54266,1,0,0:0:0:0:
320,192,54330,1,0,0:0:0:0:
192,192,54395,1,0,0:0:0:0:
448,192,54395,1,0,0:0:0:0:
320,192,54459,1,0,0:0:0:0:
64,192,54524,1,0,0:0:0:0:
192,192,54588,1,0,0:0:0:0:
320,192,54588,1,0,0:0:0:0:
448,192,54653,1,0,0:0:0:0:
64,192,54717,1,0,0:0:0:0:
192,192,54782,1,0,0:0:0:0:
320,192,54782,1,0,0:0:0:0:
448,192,54846,1,0,0:0:0:0:
320,192,54911,1,0,0:0:0:0:
64,192,54975,1,0,0:0:0:0:
192,192,54975,1,0,0:0:0:0:
320,192,55040,1,0,0:0:0:0:
192,192,55104,1,0,0:0:0:0:
320,192,55169,1,0,0:0:0:0:
448,192,55169,1,0,0:0:0:0:
64,192,55233,1,0,0:0:0:0:
192,192,55298,1,0,0:0:0:0:
320,192,55362,1,0,0:0:0:0:
448,192,55362,1,0,0:0:0:0:
64,192,55427,1,0,0:0:0:0:
192,192,55491,1,0,0:0:0:0:
320,192,55556,1,0,0:0:0:0:
64,192,55620,1,0,0:0:0:0:
448,192,55620,128,0,56007:0:0:0:0:
192,192,55685,1,0,0:0:0:0:
320,192,55749,1,0,0:0:0:0:
192,192,55814,1,0,0:0:0:0:
64,192,55878,1,0,0:0:0:0:
192,192,55943,1,0,0:0:0:0:
320,192,56007,1,0,0:0:0:0:
192,192,56072,1,0,0:0:0:0:
64,192,56137,1,0,0:0:0:0:
192,192,56201,1,0,0:0:0:0:
320,192,56266,1,0,0:0:0:0:
192,192,56330,1,0,0:0:0:0:
448,192,56330,1,0,0:0:0:0:
320,192,56395,1,0,0:0:0:0:
448,192,56459,1,0,0:0:0:0:
192,192,56524,1,0,0:0:0:0:
320,192,56524,1,0,0:0:0:0:
448,192,56588,1,0,0:0:0:0:
320,192,56653,1,0,0:0:0:0:
64,192,56717,1,0,0:0:0:0:
192,192,56717,1,0,0:0:0:0:
320,192,56782,1,0,0:0:0:0:
192,192,56846,1,0,0:0:0:0:
64,192,56911,1,0,0:0:0:0:
320,192,56911,1,0,0:0:0:0:
192,192,56975,1,0,0:0:0:0:
64,192,57040,1,0,0:0:0:0:
320,192,57104,1,0,0:0:0:0:
448,192,57104,1,0,0:0:0:0:
192,192,57169,1,0,0:0:0:0:
320,192,57233,1,0,0:0:0:0:
64,192,57298,1,0,0:0:0:0:
448,192,57298,1,0,0:0:0:0:
320,192,57362,1,0,0:0:0:0:
448,192,57427,1,0,0:0:0:0:
192,192,57491,1,0,0:0:0:0:
320,192,57491,1,0,0:0:0:0:
64,192,57556,1,0,0:0:0:0:
448,192,57620,1,0,0:0:0:0:
192,192,57685,1,0,0:0:0:0:
320,192,57685,1,0,0:0:0:0:
64,192,57749,1,0,0:0:0:0:
192,192,57814,1,0,0:0:0:0:
64,192,57878,1,0,0:0:0:0:
320,192,57878,1,0,0:0:0:0:
192,192,57943,1,0,0:0:0:0:
320,192,58007,1,0,0:0:0:0:
64,192,58072,1,0,0:0:0:0:
192,192,58072,1,0,0:0:0:0:
448,192,58137,1,0,0:0:0:0:
320,192,58201,1,0,0:0:0:0:
64,192,58266,1,0,0:0:0:0:
192,192,58266,1,0,0:0:0:0:
320,192,58330,1,0,0:0:0:0:
192,192,58395,1,0,0:0:0:0:
320,192,58459,1,0,0:0:0:0:
64,192,58524,1,0,0:0:0:0:
448,192,58524,128,0,59298:0:0:0:0:
192,192,58588,1,0,0:0:0:0:
320,192,58653,1,0,0:0:0:0:
192,192,58717,1,0,0:0:0:0:
64,192,58782,1,0,0:0:0:0:
192,192,58846,1,0,0:0:0:0:
320,192,58911,1,0,0:0:0:0:
192,192,58975,1,0,0:0:0:0:
64,192,59040,1,0,0:0:0:0:
192,192,59104,1,0,0:0:0:0:
320,192,59169,1,0,0:0:0:0:
192,192,59233,1,0,0:0:0:0:
64,192,59298,1,0,0:0:0:0:
64,192,59685,1,0,0:0:0:0:
192,192,59749,1,0,0:0:0:0:
320,192,59814,1,0,0:0:0:0:
64,192,59878,1,0,0:0:0:0:
448,192,59878,1,0,0:0:0:0:
320,192,59943,1,0,0:0:0:0:
192,192,60007,1,0,0:0:0:0:
64,192,60072,1,0,0:0:0:0:
448,192,60072,1,0,0:0:0:0:
192,192,60137,1,0,0:0:0:0:
320,192,60201,1,0,0:0:0:0:
64,192,60266,1,0,0:0:0:0:
448,192,60266,1,0,0:0:0:0:
320,192,60330,1,0,0:0:0:0:
192,192,60395,1,0,0:0:0:0:
64,192,60459,1,0,0:0:0:0:
448,192,60459,1,0,0:0:0:0:
192,192,60524,1,0,0:0:0:0:
320,192,60588,1,0,0:0:0:0:
64,192,60653,1,0,0:0:0:0:
448,192,60653,1,0,0:0:0:0:
320,192,60717,1,0,0:0:0:0:
192,192,60782,1,0,0:0:0:0:
64,192,60846,1,0,0:0:0:0:
448,192,60846,1,0,0:0:0:0:
192,192,60911,1,0,0:0:0:0:
320,192,60975,1,0,0:0:0:0:
64,192,61040,1,0,0:0:0:0:
448,192,61040,1,0,0:0:0:0:
320,192,61104,1,0,0:0:0:0:
192,192,61169,1,0,0:0:0:0:
64,192,61233,1,0,0:0:0:0:
448,192,61233,1,0,0:0:0:0:
192,192,61298,1,0,0:0:0:0:
320,192,61362,1,0,0:0:0:0:
64,192,61427,1,0,0:0:0:0:
448,192,61427,1,0,0:0:0:0:
320,192,61491,1,0,0:0:0:0:
192,192,61556,1,0,0:0:0:0:
64,192,61620,1,0,0:0:0:0:
64,192,62007,1,0,0:0:0:0:
192,192,62072,1,0,0:0:0:0:
320,192,62137,1,0,0:0:0:0:
448,192,62137,1,0,0:0:0:0:
192,192,62201,1,0,0:0:0:0:
320,192,62266,1,0,0:0:0:0:
64,192,62330,1,0,0:0:0:0:
192,192,62330,1,0,0:0:0:0:
320,192,62395,1,0,0:0:0:0:
448,192,62459,1,0,0:0:0:0:
192,192,62524,1,0,0:0:0:0:
320,192,62524,1,0,0:0:0:0:
64,192,62588,1,0,0:0:0:0:
448,192,62653,1,0,0:0:0:0:
192,192,62717,1,0,0:0:0:0:
320,192,62717,1,0,0:0:0:0:
64,192,62782,1,0,0:0:0:0:
192,192,62846,1,0,0:0:0:0:
64,192,62911,1,0,0:0:0:0:
320,192,62911,1,0,0:0:0:0:
448,192,62975,1,0,0:0:0:0:
320,192,63040,1,0,0:0:0:0:
192,192,63104,1,0,0:0:0:0:
448,192,63104,1,0,0:0:0:0:
64,192,63169,1,0,0:0:0:0:
320,192,63233,1,0,0:0:0:0:
192,192,63298,1,0,0:0:0:0:
448,192,63298,1,0,0:0:0:0:
320,192,63362,1,0,0:0:0:0:
192,192,63427,1,0,0:0:0:0:
64,192,63491,1,0,0:0:0:0:
320,192,63491,1,0,0:0:0:0:
192,192,63556,1,0,0:0:0:0:
448,192,63620,1,0,0:0:0:0:
64,192,63685,1,0,0:0:0:0:
192,192,63685,1,0,0:0:0:0:
320,192,63749,1,0,0:0:0:0:
448,192,63814,1,0,0:0:0:0:
192,192,63878,1,0,0:0:0:0:
320,192,63878,1,0,0:0:0:0:
448,192,63943,1,0,0:0:0:0:
320,192,64007,1,0,0:0:0:0:
64,192,64072,1,0,0:0:0:0:
192,192,64072,1,0,0:0:0:0:
320,192,64137,1,0,0:0:0:0:
192,192,64201,1,0,0:0:0:0:
64,192,64266,1,0,0:0:0:0:
448,192,64266,1,0,0:0:0:0:
192,192,64330,1,0,0:0:0:0:
320,192,64395,1,0,0:0:0:0:
64,192,64459,1,0,0:0:0:0:
448,192,64459,1,0,0:0:0:0:
320,192,64524,1,0,0:0:0:0:
448,192,64588,1,0,0:0:0:0:
64,192,64653,1,0,0:0:0:0:
192,192,64653,1,0,0:0:0:0:
320,192,64717,1,0,0:0:0:0:
192,192,64782,1,0,0:0:0:0:
64,192,64846,1,0,0:0:0:0:
448,192,64846,1,0,0:0:0:0:
192,192,64911,1,0,0:0:0:0:
64,192,64975,1,0,0:0:0:0:
192,192,65040,1,0,0:0:0:0:
320,192,65040,1,0,0:0:0:0:
448,192,65104,1,0,0:0:0:0:
64,192,65169,1,0,0:0:0:0:
192,192,65233,1,0,0:0:0:0:
448,192,65233,1,0,0:0:0:0:
320,192,65298,1,0,0:0:0:0:
448,192,65362,1,0,0:0:0:0:
192,192,65427,1,0,0:0:0:0:
320,192,65427,1,0,0:0:0:0:
64,192,65491,1,0,0:0:0:0:
192,192,65556,1,0,0:0:0:0:
64,192,65620,1,0,0:0:0:0:
320,192,65620,1,0,0:0:0:0:
448,192,65685,1,0,0:0:0:0:
320,192,65749,1,0,0:0:0:0:
192,192,65814,1,0,0:0:0:0:
448,192,65814,1,0,0:0:0:0:
64,192,65878,1,0,0:0:0:0:
192,192,65943,1,0,0:0:0:0:
64,192,66007,1,0,0:0:0:0:
320,192,66007,1,0,0:0:0:0:
192,192,66072,1,0,0:0:0:0:
320,192,66137,1,0,0:0:0:0:
192,192,66201,1,0,0:0:0:0:
448,192,66201,1,0,0:0:0:0:
320,192,66266,1,0,0:0:0:0:
448,192,66330,1,0,0:0:0:0:
64,192,66395,1,0,0:0:0:0:
192,192,66395,1,0,0:0:0:0:
320,192,66459,1,0,0:0:0:0:
448,192,66524,1,0,0:0:0:0:
192,192,66588,1,0,0:0:0:0:
320,192,66588,1,0,0:0:0:0:
448,192,66653,1,0,0:0:0:0:
320,192,66717,1,0,0:0:0:0:
192,192,66782,1,0,0:0:0:0:
448,192,66782,1,0,0:0:0:0:
320,192,66846,1,0,0:0:0:0:
192,192,66911,1,0,0:0:0:0:
64,192,66975,1,0,0:0:0:0:
320,192,66975,1,0,0:0:0:0:
192,192,67040,1,0,0:0:0:0:
64,192,67104,1,0,0:0:0:0:
320,192,67169,1,0,0:0:0:0:
448,192,67169,1,0,0:0:0:0:
192,192,67233,1,0,0:0:0:0:
448,192,67298,1,0,0:0:0:0:
64,192,67362,1,0,0:0:0:0:
192,192,67362,1,0,0:0:0:0:
320,192,67427,1,0,0:0:0:0:
192,192,67491,1,0,0:0:0:0:
64,192,67556,1,0,0:0:0:0:
320,192,67556,1,0,0:0:0:0:
448,192,67620,1,0,0:0:0:0:
320,192,67685,1,0,0:0:0:0:
192,192,67749,1,0,0:0:0:0:
448,192,67749,1,0,0:0:0:0:
320,192,67814,1,0,0:0:0:0:
192,192,67878,1,0,0:0:0:0:
64,192,67943,1,0,0:0:0:0:
320,192,67943,1,0,0:0:0:0:
192,192,68007,1,0,0:0:0:0:
320,192,68072,1,0,0:0:0:0:
192,192,68137,1,0,0:0:0:0:
448,192,68137,1,0,0:0:0:0:
320,192,68201,1,0,0:0:0:0:
448,192,68266,1,0,0:0:0:0:
64,192,68330,1,0,0:0:0:0:
192,192,68330,1,0,0:0:0:0:
320,192,68395,1,0,0:0:0:0:
192,192,68459,1,0,0:0:0:0:
320,192,68524,1,0,0:0:0:0:
448,192,68524,1,0,0:0:0:0:
192,192,68588,1,0,0:0:0:0:
64,192,68653,1,0,0:0:0:0:
320,192,68717,1,0,0:0:0:0:
448,192,68717,1,0,0:0:0:0:
192,192,68782,1,0,0:0:0:0:
64,192,68846,1,0,0:0:0:0:
192,192,68911,1,0,0:0:0:0:
320,192,68911,1,0,0:0:0:0:
448,192,68975,1,0,0:0:0:0:
64,192,69040,1,0,0:0:0:0:
192,192,69104,1,0,0:0:0:0:
320,192,69104,1,0,0:0:0:0:
448,192,69169,1,0,0:0:0:0:
320,192,69233,1,0,0:0:0:0:
64,192,69298,1,0,0:0:0:0:
448,192,69298,1,0,0:0:0:0:
192,192,69362,1,0,0:0:0:0:
320,192,69427,1,0,0:0:0:0:
64,192,69491,1,0,0:0:0:0:
448,192,69491,1,0,0:0:0:0:
192,192,69556,1,0,0:0:0:0:
320,192,69620,1,0,0:0:0:0:
192,192,69685,1,0,0:0:0:0:
448,192,69685,1,0,0:0:0:0:
320,192,69749,1,0,0:0:0:0:
448,192,69814,1,0,0:0:0:0:
64,192,69878,1,0,0:0:0:0:
192,192,69878,1,0,0:0:0:0:
320,192,69943,1,0,0:0:0:0:
192,192,70007,1,0,0:0:0:0:
64,192,70072,1,0,0:0:0:0:
320,192,70072,1,0,0:0:0:0:
192,192,70137,1,0,0:0:0:0:
64,192,70201,1,0,0:0:0:0:
320,192,70266,1,0,0:0:0:0:
448,192,70266,1,0,0:0:0:0:
192,192,70330,1,0,0:0:0:0:
320,192,70395,1,0,0:0:0:0:
192,192,70459,1,0,0:0:0:0:
448,192,70459,1,0,0:0:0:0:
320,192,70524,1,0,0:0:0:0:
448,192,70588,1,0,0:0:0:0:
64,192,70653,1,0,0:0:0:0:
192,192,70653,1,0,0:0:0:0:
320,192,70717,1,0,0:0:0:0:
192,192,70782,1,0,0:0:0:0:
64,192,70846,1,0,0:0:0:0:
320,192,70846,1,0,0:0:0:0:
192,192,70911,1,0,0:0:0:0:
320,192,70975,1,0,0:0:0:0:
192,192,71040,1,0,0:0:0:0:
448,192,71040,1,0,0:0:0:0:
64,192,71104,128,0,71685:0:0:0:0:
64,192,71878,1,0,0:0:0:0:
192,192,71943,1,0,0:0:0:0:
320,192,72007,1,0,0:0:0:0:
64,192,72072,1,0,0:0:0:0:
448,192,72072,1,0,0:0:0:0:
320,192,72137,1,0,0:0:0:0:
192,192,72201,1,0,0:0:0:0:
64,192,72266,1,0,0:0:0:0:
448,192,72266,1,0,0:0:0:0:
192,192,72330,1,0,0:0:0:0:
320,192,72395,1,0,0:0:0:0:
64,192,72459,1,0,0:0:0:0:
448,192,72459,1,0,0:0:0:0:
320,192,72524,1,0,0:0:0:0:
192,192,72588,1,0,0:0:0:0:
64,192,72653,1,0,0:0:0:0:
192,192,72717,1,0,0:0:0:0:
320,192,72782,1,0,0:0:0:0:
64,192,72846,128,0,73427:0:0:0:0:
448,192,72911,1,0,0:0:0:0:
320,192,72975,1,0,0:0:0:0:
448,192,73040,1,0,0:0:0:0:
320,192,73104,1,0,0:0:0:0:
448,192,73169,1,0,0:0:0:0:
320,192,73233,1,0,0:0:0:0:
448,192,73298,1,0,0:0:0:0:
320,192,73362,1,0,0:0:0:0:
448,192,73427,128,0,74201:0:0:0:0:
192,192,73491,1,0,0:0:0:0:
64,192,73556,1,0,0:0:0:0:
192,192,73620,1,0,0:0:0:0:
64,192,73685,1,0,0:0:0:0:
192,192,73749,1,0,0:0:0:0:
64,192,73814,1,0,0:0:0:0:
192,192,73878,1,0,0:0:0:0:
64,192,73943,1,0,0:0:0:0:
192,192,74007,1,0,0:0:0:0:
64,192,74072,1,0,0:0:0:0:
192,192,74137,1,0,0:0:0:0:
64,192,74201,128,0,77491:0:0:0:0:
320,192,74201,1,0,0:0:0:0:
448,192,74266,1,0,0:0:0:0:
320,192,74330,1,0,0:0:0:0:
192,192,74395,1,0,0:0:0:0:
320,192,74459,1,0,0:0:0:0:
448,192,74524,1,0,0:0:0:0:
320,192,74588,1,0,0:0:0:0:
192,192,74653,1,0,0:0:0:0:
320,192,74717,1,0,0:0:0:0:
448,192,74782,1,0,0:0:0:0:
320,192,74846,1,0,0:0:0:0:
192,192,74911,1,0,0:0:0:0:
320,192,74975,1,0,0:0:0:0:
448,192,75040,1,0,0:0:0:0:
320,192,75104,1,0,0:0:0:0:
192,192,75169,1,0,0:0:0:0:
320,192,75233,1,0,0:0:0:0:
448,192,75298,1,0,0:0:0:0:
320,192,75362,1,0,0:0:0:0:
192,192,75427,1,0,0:0:0:0:
320,192,75491,1,0,0:0:0:0:
448,192,75556,1,0,0:0:0:0:
320,192,75620,1,0,0:0:0:0:
192,192,75685,1,0,0:0:0:0:
320,192,75749,1,0,0:0:0:0:
448,192,75814,1,0,0:0:0:0:
320,192,75878,1,0,0:0:0:0:
192,192,75943,1,0,0:0:0:0:
320,192,76007,1,0,0:0:0:0:
448,192,76072,1,0,0:0:0:0:
320,192,76137,1,0,0:0:0:0:
192,192,76201,1,0,0:0:0:0:
320,192,76266,1,0,0:0:0:0:
448,192,76330,1,0,0:0:0:0:
320,192,76395,1,0,0:0:0:0:
192,192,76459,1,0,0:0:0:0:
320,192,76524,1,0,0:0:0:0:
448,192,76588,1,0,0:0:0:0:
320,192,76653,1,0,0:0:0:0:
192,192,76717,1,0,0:0:0:0:
320,192,76782,1,0,0:0:0:0:
448,192,76846,1,0,0:0:0:0:
320,192,76911,1,0,0:0:0:0:
192,192,76975,1,0,0:0:0:0:
320,192,77040,1,0,0:0:0:0:
448,192,77104,1,0,0:0:0:0:
320,192,77169,1,0,0:0:0:0:
192,192,77233,1,0,0:0:0:0:
320,192,77298,1,0,0:0:0:0:
448,192,77362,1,0,0:0:0:0:
320,192,77427,1,0,0:0:0:0:
192,192,77491,1,0,0:0:0:0:
