osu file format v14

[General]
AudioFilename: audio.mp3
AudioLeadIn: 0
PreviewTime: 247272
Countdown: 0
SampleSet: Normal
StackLeniency: 0.8
Mode: 0
LetterboxInBreaks: 0
WidescreenStoryboard: 1

[Editor]
DistanceSpacing: 0.1
BeatDivisor: 4
GridSize: 8
TimelineZoom: 2.599999

[Metadata]
Title:Spanish Sahara
TitleUnicode:Spanish Sahara
Artist:Foals
ArtistUnicode:Foals
Creator:Kazuha91
Version:Always Remember This Moment
Source:Life is Strange
Tags:
BeatmapID:1194359
BeatmapSetID:520316

[Difficulty]
HPDrainRate:5.7
CircleSize:4
OverallDifficulty:6.6
ApproachRate:8.8
SliderMultiplier:1
SliderTickRate:1

[Events]
//Background and Video events
0,0,"lis2.jpg",0,0
//Break Periods
//Storyboard Layer 0 (Background)
//Storyboard Layer 1 (Fail)
//Storyboard Layer 2 (Pass)
//Storyboard Layer 3 (Foreground)
//Storyboard Layer 4 (Overlay)
//Storyboard Sound Samples

[TimingPoints]
8650,1000,4,1,1,15,1,0
8650,-200,4,1,1,15,0,0
42400,-100,4,1,1,15,0,0
44650,-200,4,1,1,15,0,0
49650,-100,4,1,1,15,0,0
52650,-200,4,1,1,15,0,0
58400,-100,4,1,1,15,0,0
60650,-200,4,1,1,15,0,0
65650,-100,4,1,1,15,0,0
68650,-200,4,1,1,15,0,0
72650,517.241379310345,4,1,1,20,1,0
72650,-200,4,1,1,20,0,0
76658,-200,4,1,1,5,0,0
76776,508.474576271186,4,1,1,20,1,0
76776,-107.52688172043,4,1,1,20,0,0
79318,-100,4,1,1,20,0,0
80871,508.474576271186,4,1,1,20,1,0
80871,-200,4,1,1,20,0,0
82894,508.474576271186,4,1,1,20,1,0
82894,-200,4,1,1,20,0,0
83901,508.474576271186,4,1,1,20,1,0
84922,480,4,1,1,20,1,0
84922,-102.040816326531,4,1,1,20,0,0
85892,500,4,1,1,20,1,0
86517,-102.040816326531,4,1,1,5,0,0
86892,-100,4,1,1,20,0,0
88852,491.803278688525,4,1,1,20,1,0
88852,-200,4,1,1,20,0,0
89855,491.803278688525,4,1,1,20,1,0
90322,491.803278688525,4,1,1,20,1,0
90815,480,4,1,1,20,1,0
90815,-200,4,1,1,20,0,0
91775,-100,4,1,1,20,0,0
92735,-200,4,1,1,20,0,0
94668,487.80487804878,4,1,1,20,1,0
96623,500,4,1,1,20,1,0
96623,-200,4,1,1,20,0,0
97373,-200,4,1,1,5,0,0
97593,500,4,1,1,20,1,0
97593,-90.9090909090909,4,1,1,20,0,0
98562,483.870967741935,4,1,1,20,1,0
99529,-90.9090909090909,4,1,1,20,0,0
100497,487.80487804878,4,1,1,20,1,0
100497,-90.9090909090909,4,1,1,20,0,0
102434,472.44094488189,4,1,1,20,1,0
102434,-200,4,1,1,20,0,0
104087,-66.6666666666667,4,1,1,20,0,0
104205,-66.6666666666667,4,1,1,5,0,0
104337,472.44094488189,4,1,1,25,1,0
104337,-76.9230769230769,4,1,1,25,0,0
106226,472.44094488189,4,1,1,25,1,0
106708,472.44094488189,4,1,1,25,1,0
107889,-52.6315789473684,4,1,1,25,0,0
108007,-52.6315789473684,4,1,1,5,0,0
108125,-76.9230769230769,4,1,1,25,0,0
108607,472.44094488189,4,1,1,25,1,0
108607,-76.9230769230769,4,1,1,25,0,0
110025,472.44094488189,4,1,1,25,1,0
110507,472.44094488189,4,1,1,25,1,0
110999,472.44094488189,4,1,1,25,1,0
111481,472.44094488189,4,1,1,25,1,0
111960,476.190476190476,4,1,1,25,1,0
111960,-76.9230769230769,4,1,1,25,0,0
114807,476.190476190476,4,1,1,25,1,0
115521,-52.6315789473684,4,1,1,25,0,0
115640,-52.6315789473684,4,1,1,5,0,0
115759,-76.9230769230769,4,1,1,25,0,0
116225,476.190476190476,4,1,1,25,1,0
116225,-76.9230769230769,4,1,1,25,0,0
118094,468.75,4,1,1,25,1,0
118562,-76.9230769230769,4,1,1,25,0,0
120437,-74.0740740740741,4,1,1,30,0,0
122322,468.75,4,1,1,30,1,0
122322,-74.0740740740741,4,1,1,30,0,0
123025,-52.6315789473684,4,1,1,30,0,0
123142,-52.6315789473684,4,1,1,5,0,0
123259,-74.0740740740741,4,1,1,30,0,0
123718,468.75,4,1,1,30,1,0
123718,-74.0740740740741,4,1,1,30,0,0
126540,468.75,4,1,1,30,1,0
126540,-74.0740740740741,4,1,1,30,0,0
126891,-74.0740740740741,4,1,1,5,0,0
127008,-74.0740740740741,4,1,1,30,0,0
128880,465.116279069767,4,1,1,30,1,0
128880,-74.0740740740741,4,1,1,30,0,0
130507,-52.6315789473684,4,1,1,30,0,0
130624,-52.6315789473684,4,1,1,5,0,0
130740,465.116279069767,4,1,1,40,1,1
130740,-74.0740740740741,4,1,1,40,0,1
134450,465.116279069767,4,1,1,40,1,0
134926,465.116279069767,4,1,1,20,1,0
136349,468.75,4,1,1,20,1,0
137989,-55.5555555555556,4,1,1,20,0,0
140577,468.75,4,1,1,20,1,0
141748,-55.5555555555556,4,1,1,20,0,0
145947,468.75,4,1,1,20,1,0
148515,468.75,4,1,1,20,1,0
148973,468.75,4,1,1,20,1,0
149207,-55.5555555555556,4,1,1,25,0,0
149416,465.116279069767,4,1,1,25,1,0
149648,-100,4,1,1,10,0,0
149881,-100,4,1,1,25,0,0
150113,-100,4,1,1,10,0,0
150346,-100,4,1,1,25,0,0
151286,465.116279069767,4,1,1,25,1,0
151518,-100,4,1,1,10,0,0
151751,-100,4,1,1,25,0,0
151983,-100,4,1,1,25,0,0
152226,465.116279069767,4,1,1,10,1,0
152226,-100,4,1,1,25,0,0
152933,465.116279069767,4,1,1,25,1,0
152933,-55.5555555555556,4,1,1,25,0,0
153610,465.116279069767,4,1,1,25,1,0
154782,465.116279069767,4,1,1,25,1,0
155014,-76.9230769230769,4,1,1,25,0,0
157107,-76.9230769230769,4,1,1,10,0,0
157340,-76.9230769230769,4,1,1,25,0,0
157572,-76.9230769230769,4,1,1,10,0,0
157805,-76.9230769230769,4,1,1,25,0,0
158290,465.116279069767,4,1,1,25,1,0
158776,472.44094488189,4,1,1,25,1,0
159012,-100,4,1,1,10,0,0
159248,-100,4,1,1,25,0,0
159484,-100,4,1,1,10,0,0
159720,-100,4,1,1,25,0,0
160223,472.44094488189,4,1,1,30,1,0
160691,468.75,4,1,1,30,1,0
160691,-76.9230769230769,4,1,1,30,0,0
161618,468.75,4,1,1,30,1,0
161618,-62.5,4,1,1,30,0,0
162331,468.75,4,1,1,30,1,0
162556,468.75,4,1,1,30,1,0
163503,468.75,4,1,1,30,1,0
164196,468.75,4,1,1,30,1,0
164889,468.75,4,1,1,35,1,0
167935,-55.5555555555556,4,1,1,35,0,0
168387,465.116279069767,4,1,1,35,1,0
168619,-76.9230769230769,4,1,1,35,0,0
171419,465.116279069767,4,1,1,35,1,0
171419,-76.9230769230769,4,1,1,35,0,0
172116,-76.9230769230769,4,1,1,10,0,0
172349,-76.9230769230769,4,1,1,35,0,0
172581,-76.9230769230769,4,1,1,10,0,0
172814,-76.9230769230769,4,1,1,35,0,0
173295,465.116279069767,4,1,1,35,1,0
173774,480,4,1,1,35,1,0
174014,-100,4,1,1,10,0,0
174254,-100,4,1,1,35,0,0
174494,-100,4,1,1,10,0,0
174724,480,4,1,1,35,1,0
174724,-100,4,1,1,35,0,0
175224,468.75,4,1,1,35,1,0
177560,468.75,4,1,1,35,1,0
178507,468.75,4,1,1,35,1,0
179200,468.75,4,1,1,35,1,0
179913,468.75,4,1,1,35,1,0
179913,-76.9230769230769,4,1,1,35,0,0
182745,468.75,4,1,1,35,1,0
182979,-55.5555555555556,4,1,1,35,0,0
183438,468.75,4,1,1,35,1,0
183438,-76.9230769230769,4,1,1,35,0,0
186719,-55.5555555555556,4,1,1,35,0,0
187422,-76.9230769230769,4,1,1,35,0,0
187881,468.75,4,1,1,35,1,0
187881,-76.9230769230769,4,1,1,35,0,0
189277,468.75,4,1,1,35,1,0
189277,-76.9230769230769,4,1,1,35,0,0
190683,472.44094488189,4,1,1,35,1,0
190683,-76.9230769230769,4,1,1,35,0,0
192130,472.44094488189,4,1,1,35,1,0
192612,472.44094488189,4,1,1,35,1,0
192612,-125,4,1,1,35,0,0
193990,472.44094488189,4,1,1,35,1,0
193990,-50,4,1,1,35,0,0
194167,-55.5555555555556,4,1,1,5,0,0
194226,-55.5555555555556,4,1,1,35,0,0
194433,468.75,4,1,1,20,1,0
194433,-111.111111111111,4,1,1,20,0,0
198641,468.75,4,1,1,20,1,0
198641,-111.111111111111,4,1,1,20,0,0
200037,468.75,4,1,1,20,1,0
200037,-111.111111111111,4,1,1,20,0,0
201433,468.75,4,1,1,20,1,0
201915,465.116279069767,4,1,1,20,1,0
202147,-111.111111111111,4,1,1,20,0,0
203087,465.116279069767,4,1,1,20,1,0
203087,-111.111111111111,4,1,1,20,0,0
204027,465.116279069767,4,1,1,20,1,0
204734,465.116279069767,4,1,1,20,1,0
205189,465.116279069767,4,1,1,20,1,0
205654,-111.111111111111,4,1,1,20,0,0
207959,465.116279069767,4,1,1,20,1,0
208424,-111.111111111111,4,1,1,20,0,0
209386,465.116279069767,4,1,1,30,1,0
209386,-76.9230769230769,4,1,1,30,0,0
214977,465.116279069767,4,1,1,30,1,0
214977,-76.9230769230769,4,1,1,30,0,0
217070,-66.6666666666667,4,1,1,30,0,0
217545,465.116279069767,4,1,1,30,1,0
217545,-66.6666666666667,4,1,1,30,0,0
218020,465.116279069767,4,1,1,30,1,0
218020,-66.6666666666667,4,1,1,30,0,0
218950,468.75,4,1,1,30,1,0
218950,-66.6666666666667,4,1,1,30,0,0
220795,468.75,4,1,1,30,1,0
223373,-66.6666666666667,4,1,1,30,0,0
224304,461.538461538462,4,1,1,35,1,0
224304,-58.8235294117647,4,1,1,35,0,0
226140,461.538461538462,4,1,1,35,1,0
226140,-58.8235294117647,4,1,1,35,0,0
227996,461.538461538462,4,1,1,35,1,0
227996,-58.8235294117647,4,1,1,35,0,0
231698,461.538461538462,4,1,1,35,1,0
231698,-58.8235294117647,4,1,1,35,0,0
234457,461.538461538462,4,1,1,35,1,0
234457,-58.8235294117647,4,1,1,35,0,0
234908,461.538461538462,4,1,1,35,1,0
235360,458.015267175573,4,1,1,35,1,0
235360,-62.5,4,1,1,35,0,0
239940,-58.8235294117647,4,1,1,40,0,1
240870,454.545454545455,4,1,1,40,1,1
240870,-58.8235294117647,4,1,1,40,0,1
242688,-58.8235294117647,4,1,1,45,0,1
243132,454.545454545455,4,1,1,45,1,1
243586,-58.8235294117647,4,1,1,45,0,1
244061,454.545454545455,4,1,1,45,1,1
244061,-58.8235294117647,4,1,1,45,0,1
244990,454.545454545455,4,1,1,45,1,1
244990,-58.8235294117647,4,1,1,45,0,1
245909,454.545454545455,4,1,1,45,1,1
245909,-58.8235294117647,4,1,1,45,0,1
246363,-100,4,1,1,50,0,1
247272,-58.8235294117647,4,1,1,50,0,1
248161,454.545454545455,4,1,1,50,1,1
248161,-58.8235294117647,4,1,1,50,0,1
251136,454.545454545455,4,1,1,50,1,1
251373,454.545454545455,4,1,1,50,1,1
252727,454.545454545455,4,1,1,50,1,1
252727,-58.8235294117647,4,1,1,50,0,1
253646,454.545454545455,4,1,1,60,1,0
253873,-54.054054054054,4,1,1,60,0,0
254772,454.545454545455,4,1,1,60,1,0
254772,-54.054054054054,4,1,1,60,0,0
255216,454.545454545455,4,1,1,60,1,0
255670,-54.054054054054,4,1,1,60,0,0
256115,454.545454545455,4,1,1,60,1,0
256569,-54.054054054054,4,1,1,60,0,0
257239,447.761194029851,4,1,1,60,1,0
257462,-54.054054054054,4,1,1,60,0,0
260587,447.761194029851,4,1,1,60,1,0
260587,-54.054054054054,4,1,1,60,0,0
264627,447.761194029851,4,1,1,60,1,0
265960,447.761194029851,4,1,1,60,1,0
266170,444.444444444444,4,1,1,60,1,0
267058,-54.054054054054,4,1,1,60,0,0
268190,444.444444444444,4,1,1,65,1,0
268190,-54.054054054054,4,1,1,65,0,0
275088,444.444444444444,4,1,1,65,1,0
275976,-54.054054054054,4,1,1,65,0,0
278220,444.444444444444,4,1,1,65,1,0
278442,-54.054054054054,4,1,1,65,0,0
279118,444.444444444444,4,1,1,65,1,0
279562,-54.054054054054,4,1,1,65,0,0
281108,444.444444444444,4,1,1,65,1,0
281774,-54.054054054054,4,1,1,65,0,0
282673,444.444444444444,4,1,1,65,1,0
283117,-54.054054054054,4,1,1,65,0,0
284011,447.761194029851,4,1,1,65,1,0
284011,-54.054054054054,4,1,1,65,0,0
285792,447.761194029851,4,1,1,65,1,0
286239,-54.054054054054,4,1,1,65,0,0
289354,447.761194029851,4,1,1,65,1,0
290249,-54.054054054054,4,1,1,65,0,0
292910,444.444444444444,4,1,1,65,1,0
293132,-54.054054054054,4,1,1,65,0,0
296687,-51.2820512820513,4,1,1,80,0,1
300247,441.176470588235,4,1,1,80,1,1
300247,-51.2820512820513,4,1,1,80,0,1
301560,441.176470588235,4,1,1,80,1,1
302001,-51.2820512820513,4,1,1,80,0,1
303755,441.176470588235,4,1,1,80,1,1
303755,-51.2820512820513,4,1,1,80,0,1
305529,441.176470588235,4,1,1,80,1,1
305529,-51.2820512820513,4,1,1,80,0,1
306421,441.176470588235,4,1,1,80,1,1
306421,-51.2820512820513,4,1,1,80,0,1
308636,441.176470588235,4,1,1,80,1,1
308636,-51.2820512820513,4,1,1,80,0,1
310390,441.176470588235,4,1,1,80,1,1
310854,447.761194029851,4,1,1,85,1,1
310854,-50,4,1,1,85,0,1
311759,447.761194029851,4,1,1,85,1,1
311759,-50,4,1,1,85,0,1
312434,454.545454545455,4,1,1,85,1,1
312661,-50,4,1,1,85,0,1
313590,454.545454545455,4,1,1,85,1,1
313590,-50,4,1,1,85,0,1
317236,454.545454545455,4,1,1,85,1,1
317236,-50,4,1,1,85,0,1
319740,451.127819548872,4,1,1,85,1,1
319740,-50,4,1,1,85,0,1
320632,451.127819548872,4,1,1,85,1,1
320632,-50,4,1,1,85,0,1
322200,451.127819548872,4,1,1,85,1,1
322651,-50,4,1,1,85,0,1
323092,451.127819548872,4,1,1,85,1,1
323543,-50,4,1,1,85,0,1
323981,451.127819548872,4,1,1,85,1,1
324206,-50,4,1,1,85,0,1
324412,451.127819548872,4,1,1,85,1,1
324412,-50,4,1,1,85,0,1
325087,447.761194029851,4,1,1,90,1,1
325087,-47.6190476190476,4,1,1,90,0,1
325768,447.761194029851,4,1,1,90,1,1
325991,-47.6190476190476,4,1,1,90,0,1
327131,447.761194029851,4,1,1,90,1,1
327131,-47.6190476190476,4,1,1,90,0,1
331177,447.761194029851,4,1,1,90,1,1
331400,-47.6190476190476,4,1,1,90,0,1
335858,447.761194029851,4,1,1,90,1,1
335858,-47.6190476190476,4,1,1,90,0,1
337862,447.761194029851,4,1,1,90,1,1
337862,-47.6190476190476,4,1,1,90,0,1
339195,447.761194029851,4,1,1,90,1,1
339418,-45.4545454545454,4,1,1,100,0,1
343682,447.761194029851,4,1,1,100,1,1
343905,-45.4545454545454,4,1,1,100,0,1
347284,447.761194029851,4,1,1,100,1,1
347507,-45.4545454545454,4,1,1,100,0,1
350194,-35.97122302158,4,1,1,100,0,1
351669,447.761194029851,4,1,1,100,1,1
351996,454.545454545455,4,1,1,100,1,1
351996,-45.4545454545454,4,1,1,100,0,1
353463,454.545454545455,4,1,1,100,1,1
353793,454.545454545455,4,1,1,80,1,0
353793,-50,4,1,1,80,0,0
357192,454.545454545455,4,1,1,80,1,0
357419,-52.6315789473684,4,1,1,80,0,0
361520,454.545454545455,4,1,1,80,1,0
361520,-52.6315789473684,4,1,1,80,0,0
362211,454.545454545455,4,1,1,80,1,0
362211,-52.6315789473684,4,1,1,80,0,0
362675,454.545454545455,4,1,1,80,1,0
363129,-52.6315789473684,4,1,1,80,0,0
364717,458.015267175573,4,1,1,70,1,0
364717,-55.5555555555556,4,1,1,70,0,0
365414,458.015267175573,4,1,1,70,1,0
365414,-55.5555555555556,4,1,1,70,0,0
370221,461.538461538462,4,1,1,70,1,0
370221,-55.5555555555556,4,1,1,70,0,0
371711,461.538461538462,4,1,1,70,1,0
372057,-55.5555555555556,4,1,1,60,0,0
375739,461.538461538462,4,1,1,60,1,0
375739,-58.8235294117647,4,1,1,60,0,0
377812,458.015267175573,4,1,1,60,1,0
377812,-58.8235294117647,4,1,1,60,0,0
378947,458.015267175573,4,1,1,60,1,0
379405,-58.8235294117647,4,1,1,50,0,0
380102,458.015267175573,4,1,1,50,1,0
380102,-58.8235294117647,4,1,1,50,0,0
382611,458.015267175573,4,1,1,50,1,0
383069,-67.9809653297077,4,1,1,50,0,0

[HitObjects]
133,77,8650,6,0,L|146:178,1,100,2|0,2:2|2:2,2:2:0:0:
365,261,12650,6,0,L|395:162,1,100,2|0,2:2|2:2,2:2:0:0:
133,77,16650,6,0,L|147:182,1,100,2|0,2:2|2:2,2:2:0:0:
365,261,20650,6,0,P|347:244|322:235,1,50,2|0,2:2|2:2,2:2:0:0:
91,271,22650,2,0,P|116:268|138:255,1,50,2|0,2:2|2:2,2:2:0:0:
235,42,24650,6,0,P|219:61|213:86,1,50,2|0,2:2|2:2,2:2:0:0:
365,261,26650,1,0,2:2:0:0:
289,97,27650,1,0,2:2:0:0:
171,288,28650,6,0,P|149:276|136:253,1,50,2|0,2:2|2:2,2:2:0:0:
235,42,30650,1,0,2:2:0:0:
204,218,31650,1,0,2:2:0:0:
2,110,32650,6,0,L|56:113,1,50,2|0,2:2|2:2,2:2:0:0:
289,97,34650,1,0,2:2:0:0:
51,112,35650,1,0,2:2:0:0:
338,94,36650,6,0,L|279:97,1,50,2|0,2:2|2:2,2:2:0:0:
365,261,38650,6,0,L|311:264,1,50,2|0,2:2|2:2,2:2:0:0:
387,91,40650,6,0,L|335:94,1,50,2|0,2:2|2:2,2:2:0:0:
343,100,41900,1,2,2:2:0:0:
343,100,42400,2,0,P|336:138|305:160,1,75,0|0,2:2|2:2,2:2:0:0:
235,42,43650,1,2,2:2:0:0:
235,42,43900,1,2,2:2:0:0:
62,239,44650,6,0,L|57:190,1,50,2|0,2:2|2:2,2:2:0:0:
292,206,46650,6,0,L|311:150,1,50,2|0,2:2|2:2,2:2:0:0:
157,10,48650,5,2,2:2:0:0:
56,189,49650,2,0,P|77:202|104:204,1,50,2|0,2:2|2:2,2:2:0:0:
126,129,50400,2,0,P|105:116|78:114,1,50,2|0,2:2|2:2,2:2:0:0:
267,207,51650,2,0,L|303:205,1,25,2|2,2:2|2:2,2:2:0:0:
291,205,52650,6,0,P|280:226|278:251,1,50,2|0,2:2|2:2,2:2:0:0:
503,296,54650,6,0,P|502:272|491:249,1,50,2|0,2:2|2:2,2:2:0:0:
245,131,56650,6,0,L|297:126,1,50,2|0,2:2|2:2,2:2:0:0:
302,132,57900,1,2,2:2:0:0:
302,132,58400,2,0,P|309:169|353:194,1,75,0|0,2:2|2:2,2:2:0:0:
415,70,59650,1,2,2:2:0:0:
415,70,59900,1,2,2:2:0:0:
244,295,60650,6,0,L|235:240,1,50,2|0,2:2|2:2,2:2:0:0:
461,286,62650,6,0,P|479:273|490:248,1,50,2|0,2:2|2:2,2:2:0:0:
302,132,64650,5,2,2:2:0:0:
489,248,65650,2,0,P|480:270|461:286,1,50,2|0,2:2|2:2,2:2:0:0:
399,237,66400,2,0,P|408:215|428:200,1,50,2|0,2:2|2:2,2:2:0:0:
260,247,67650,2,0,L|229:245,1,25,2|2,2:2|2:2,2:2:0:0:
235,245,68650,6,0,P|245:267|245:292,1,50,2|0,2:2|2:2,2:2:0:0:
60,138,70650,6,0,P|59:113|69:90,1,50,2|0,2:2|2:2,2:2:0:0:
282,171,72650,6,0,L|227:166,1,50,2|0,2:2|2:2,2:2:0:0:
399,164,73684,2,0,L|449:151,1,50,0|0,2:2|2:2,2:2:0:0:
271,148,74718,2,0,L|233:115,1,50,2|0,2:2|2:2,2:2:0:0:
412,138,75753,2,0,P|443:105|441:54,1,87.5,0|0,2:2|2:2,2:2:0:0:
444,64,76776,2,0,B|452:88|460:96|460:96|452:120|468:120|468:120|460:144|468:144|468:144|460:144|468:168|468:168|452:168|460:192|460:192|444:200|444:216|444:216|444:200|428:192|428:192|436:168|420:168|420:168|428:144|420:144|420:144|428:144|420:120|420:120|436:120|428:96|428:96|436:88|444:120|444:48,1,371.875003546476,2|2,2:2|2:2,2:2:0:0:
64,19,79318,1,0,2:2:0:0:
188,119,79826,1,0,2:2:0:0:
360,40,80335,1,0,2:2:0:0:
64,19,80871,6,0,L|66:70,1,50,2|0,2:2|2:2,2:2:0:0:
158,199,81887,2,0,P|132:193|108:197,1,50,0|0,2:2|2:2,2:2:0:0:
96,353,82894,2,0,P|122:359|146:355,1,50,2|0,2:2|2:2,2:2:0:0:
289,263,83901,1,0,2:2:0:0:
127,276,84409,1,0,2:2:0:0:
305,181,84922,6,0,P|366:304|212:297,1,349.124996803665,2|0,2:2|2:2,2:2:0:0:
457,283,86892,2,0,P|357:363|210:294,1,300,2|0,2:2|2:2,2:2:0:0:
301,131,88852,6,0,L|305:182,1,50,2|0,2:2|2:2,2:2:0:0:
326,345,89855,1,0,2:2:0:0:
304,180,90322,1,0,2:2:0:0:
462,269,90815,2,0,L|466:219,1,50,2|0,2:2|2:2,2:2:0:0:
481,59,91775,2,0,P|455:64|422:61,1,50,2|0,2:2|2:2,2:2:0:0:
327,32,92255,1,2,2:2:0:0:
327,32,92735,6,0,P|334:55|332:86,1,50,6|0,2:2|2:2,2:2:0:0:
173,96,93695,2,0,P|166:73|168:42,1,50,0|0,2:2|2:2,2:2:0:0:
273,222,94668,1,2,2:2:0:0:
250,64,95155,1,0,2:2:0:0:
87,88,95643,1,0,2:2:0:0:
250,64,96131,1,0,2:2:0:0:
20,38,96623,6,0,P|7:61|3:86,1,50,2|0,2:2|2:2,2:2:0:0:
191,120,97373,1,2,2:2:0:0:
87,88,97593,6,0,P|80:115|92:153,1,55.0000016784668,2|0,2:2|2:2,2:2:0:0:
285,172,98093,1,0,2:2:0:0:
285,172,98343,2,0,P|301:118|282:64,1,110.000003356934,2|0,2:2|2:2,2:2:0:0:
191,120,99045,1,0,2:2:0:0:
285,68,99287,1,2,2:2:0:0:
449,131,99529,6,0,L|389:127,1,55.0000016784668,2|0,2:2|2:2,2:2:0:0:
463,289,100013,2,0,L|397:285,1,55.0000016784668,0|0,2:2|2:2,2:2:0:0:
285,172,100497,2,0,P|267:229|221:253,2,110.000003356934,2|0|0,2:2|2:2|2:2,2:2:0:0:
310,342,101960,1,0,2:2:0:0:
150,168,102434,2,0,L|202:172,1,50,2|0,2:2|2:2,2:2:0:0:
46,125,103378,2,0,P|37:149|37:176,1,50,0|0,2:2|2:2,2:2:0:0:
147,287,104087,2,0,P|154:267|154:244,1,37.5000014305115,2|0,2:2|2:2,2:2:0:0:
150,168,104337,6,0,L|217:173,1,64.9999970245363,6|0,2:2|2:2,2:2:0:0:
273,288,104809,2,0,L|352:284,1,64.9999970245363,0|0,2:2|2:2,2:2:0:0:
419,75,105281,2,0,L|338:79,1,64.9999970245363,0|0,2:2|2:2,2:2:0:0:
279,176,105754,2,0,L|209:172,1,64.9999970245363,0|0,2:2|2:2,2:2:0:0:
58,7,106226,5,2,2:2:0:0:
103,121,106462,1,0,2:2:0:0:
354,78,106708,1,0,2:2:0:0:
279,176,106944,1,0,2:2:0:0:
103,121,107180,1,0,2:2:0:0:
163,230,107416,1,0,2:2:0:0:
225,57,107652,1,0,2:2:0:0:
279,176,107889,2,0,P|297:191|321:197,1,47.4999987316132,2|0,2:2|2:2,2:2:0:0:
402,194,108125,6,0,L|398:258,1,64.9999970245363,6|0,2:2|2:2,2:2:0:0:
290,333,108607,2,0,L|281:261,1,64.9999970245363,0|0,2:2|2:2,2:2:0:0:
67,87,109079,2,0,L|76:170,1,64.9999970245363,0|0,2:2|2:2,2:2:0:0:
194,176,109551,2,0,L|199:94,1,64.9999970245363,0|0,2:2|2:2,2:2:0:0:
399,47,110025,5,2,2:2:0:0:
322,145,110261,1,0,2:2:0:0:
140,0,110507,1,0,2:2:0:0:
197,111,110743,1,0,2:2:0:0:
112,275,110999,1,0,2:2:0:0:
230,237,111235,1,0,2:2:0:0:
451,339,111481,1,0,2:2:0:0:
427,216,111717,1,2,2:2:0:0:
230,237,111960,6,0,P|261:250|300:248,1,64.9999970245363,6|0,2:2|2:2,2:2:0:0:
197,111,112436,2,0,P|166:98|127:100,1,64.9999970245363,0|0,2:2|2:2,2:2:0:0:
277,170,112912,2,0,L|281:105,1,64.9999970245363,0|0,2:2|2:2,2:2:0:0:
152,242,113388,2,0,L|148:167,1,64.9999970245363,0|0,2:2|2:2,2:2:0:0:
324,291,113864,5,2,2:2:0:0:
405,197,114102,1,0,2:2:0:0:
152,242,114340,1,0,2:2:0:0:
69,144,114579,1,0,2:2:0:0:
277,170,114807,1,0,2:2:0:0:
365,81,115045,1,0,2:2:0:0:
69,144,115283,1,0,2:2:0:0:
152,242,115521,2,0,P|142:263|123:277,1,47.4999987316132,2|0,2:2|2:2,2:2:0:0:
74,210,115759,6,0,L|152:205,1,64.9999970245363,6|0,2:2|2:2,2:2:0:0:
253,156,116225,2,0,P|244:189|248:220,1,64.9999970245363,0|2,2:2|2:2,2:2:0:0:
356,134,116701,6,0,P|328:197|353:269,1,129.999994049073,2|0,2:2|2:2,2:2:0:0:
471,268,117415,2,0,P|499:205|475:134,1,129.999994049073,2|0,2:2|2:2,2:2:0:0:
253,156,118094,1,2,2:2:0:0:
416,201,118328,1,2,2:2:0:0:
253,156,118562,2,0,P|245:225|268:290,1,129.999994049073,2|0,2:2|2:2,2:2:0:0:
416,201,119265,2,0,B|276:220|276:220|153:214,1,259.999988098145,4|0,2:2|2:2,2:2:0:0:
56,145,120437,6,0,P|74:210|57:278,1,135.000000514984,2|0,2:2|2:2,2:2:0:0:
157,214,121140,1,0,2:2:0:0:
263,281,121375,1,0,2:2:0:0:
142,298,121609,1,0,2:2:0:0:
269,155,121844,5,0,2:2:0:0:
371,219,122078,1,0,2:2:0:0:
263,281,122322,2,0,P|232:264|215:231,1,67.5000002574921,0|0,2:2|2:2,2:2:0:0:
378,94,122790,1,0,2:2:0:0:
371,219,123025,2,0,P|348:226|321:222,1,47.4999987316132,2|0,2:2|2:2,2:2:0:0:
269,155,123259,6,0,P|254:124|254:92,1,67.5000002574921,6|0,2:2|2:2,2:2:0:0:
363,30,123718,2,0,P|378:61|378:93,1,67.5000002574921,0|0,2:2|2:2,2:2:0:0:
135,52,124186,1,0,2:2:0:0:
254,91,124421,1,0,2:2:0:0:
106,136,124655,1,0,2:2:0:0:
254,91,124889,1,0,2:2:0:0:
194,224,125124,6,0,L|122:218,1,67.5000002574921,2|0,2:2|2:2,2:2:0:0:
341,240,125593,2,0,L|409:217,1,67.5000002574921,0|0,2:2|2:2,2:2:0:0:
183,247,126061,2,0,L|121:204,1,67.5000002574921,0|0,2:2|2:2,2:2:0:0:
350,264,126540,2,0,L|359:195,1,67.5000002574921,0|2,2:2|2:2,2:2:0:0:
371,113,126891,1,0,2:2:0:0:
371,113,127008,6,0,P|337:122|306:119,1,67.5000002574921,6|0,2:2|2:2,2:2:0:0:
124,96,127477,2,0,P|156:105|190:101,1,67.5000002574921,0|0,2:2|2:2,2:2:0:0:
330,41,127946,1,0,2:2:0:0:
446,73,128180,1,0,2:2:0:0:
269,236,128415,1,0,2:2:0:0:
305,118,128649,1,0,2:2:0:0:
461,283,128880,6,0,P|428:289|393:283,1,67.5000002574921,2|0,2:2|2:2,2:2:0:0:
269,236,129345,1,0,2:2:0:0:
394,283,129577,1,0,2:2:0:0:
163,306,129810,1,0,2:2:0:0:
269,236,130042,1,0,2:2:0:0:
124,96,130275,1,0,2:2:0:0:
124,96,130507,2,0,P|146:104|172:103,1,47.4999987316132,2|0,2:2|2:2,2:2:0:0:
253,85,130740,6,0,L|248:161,1,67.5000002574921,6|0,2:2|2:2,2:2:0:0:
373,123,131205,2,0,L|383:194,1,67.5000002574921,0|0,2:2|2:2,2:2:0:0:
169,103,131670,6,0,L|158:253,1,135.000000514984,2|0,2:2|2:2,2:2:0:0:
382,189,132367,2,0,P|327:221|235:195,1,135.000000514984,4|0,2:2|2:2,2:2:0:0:
264,71,133065,6,0,P|294:58|335:61,1,67.5000002574921,8|8,2:2|2:2,0:0:0:0:
115,172,133530,1,2,2:2:0:0:
310,140,133763,1,0,2:2:0:0:
115,172,133995,1,0,2:2:0:0:
251,328,134228,1,0,2:2:0:0:
388,115,134450,5,14,2:2:0:0:
392,115,134926,1,0,2:2:0:0:
397,116,135391,1,0,2:2:0:0:
402,117,135856,1,0,2:2:0:0:
455,236,136349,5,0,2:2:0:0:
450,233,136817,1,0,2:2:0:0:
446,231,137286,1,0,2:2:0:0:
310,141,137755,1,2,2:2:0:0:
310,141,137989,6,0,P|314:187|297:233,1,89.9999972534181,6|14,2:2|2:2,2:2:0:0:
296,231,138692,1,0,2:2:0:0:
291,234,139161,1,0,2:2:0:0:
286,237,139630,1,0,2:2:0:0:
169,304,140099,5,0,2:2:0:0:
170,298,140577,1,0,2:2:0:0:
171,292,141045,1,0,2:2:0:0:
143,169,141514,1,2,2:2:0:0:
143,169,141748,6,0,B|240:174,1,89.9999972534181,6|14,2:2|2:2,2:2:0:0:
359,178,142217,1,2,2:2:0:0:
235,180,142452,1,0,2:2:0:0:
236,186,142920,1,0,2:2:0:0:
237,192,143389,1,0,2:2:0:0:
216,61,143623,1,2,2:2:0:0:
235,180,143858,5,0,2:2:0:0:
236,186,144327,1,0,2:2:0:0:
237,192,144795,1,0,2:2:0:0:
361,88,145264,1,2,2:2:0:0:
361,88,145498,6,0,B|358:184,1,89.9999972534181,6|14,2:2|2:2,2:2:0:0:
358,177,145947,1,2,2:2:0:0:
355,309,146181,1,0,2:2:0:0:
355,309,146415,1,2,2:2:0:0:
486,222,146650,1,0,2:2:0:0:
486,222,146884,1,2,2:2:0:0:
437,343,147118,1,0,2:2:0:0:
437,343,147353,1,2,2:2:0:0:
250,232,147587,5,0,2:2:0:0:
250,232,147822,1,2,2:2:0:0:
276,348,148056,1,0,2:2:0:0:
276,348,148290,1,2,2:2:0:0:
358,177,148515,1,0,2:2:0:0:
358,177,148749,1,2,2:2:0:0:
413,61,148973,1,0,2:2:0:0:
413,61,149207,6,0,L|328:65,1,78.7499975967408,6|14,2:2|2:2,2:2:0:0:
194,41,149648,1,4,2:2:0:0:
328,64,149881,1,0,2:2:0:0:
188,39,150113,1,4,2:2:0:0:
323,63,150346,1,0,2:2:0:0:
318,62,150811,1,0,2:2:0:0:
198,123,151286,5,0,2:2:0:0:
102,20,151518,1,4,2:2:0:0:
202,121,151751,1,0,2:2:0:0:
99,25,151983,1,4,2:2:0:0:
207,119,152226,1,0,2:2:0:0:
316,189,152691,1,2,2:2:0:0:
316,189,152933,6,0,P|361:190|406:164,1,89.9999972534181,6|14,2:2|2:2,2:2:0:0:
400,169,153398,1,2,2:2:0:0:
490,79,153610,1,0,2:2:0:0:
490,79,153842,1,2,2:2:0:0:
405,173,154075,5,0,2:2:0:0:
405,173,154307,1,2,2:2:0:0:
331,69,154540,1,0,2:2:0:0:
331,69,154782,1,2,2:2:0:0:
405,173,155014,6,0,P|419:202|416:241,1,64.9999970245363,0|2,2:2|2:2,2:2:0:0:
297,259,155479,2,0,P|283:230|286:191,1,64.9999970245363,0|2,2:2|2:2,2:2:0:0:
331,69,155944,2,0,P|299:77|268:74,1,64.9999970245363,0|2,2:2|2:2,2:2:0:0:
143,27,156409,1,0,2:2:0:0:
143,27,156642,6,0,L|144:92,1,64.9999970245363,6|14,2:2|2:2,2:2:0:0:
164,227,157107,1,4,2:2:0:0:
143,99,157340,1,0,2:2:0:0:
167,232,157572,1,4,2:2:0:0:
141,105,157805,1,0,2:2:0:0:
140,111,158290,1,0,2:2:0:0:
83,229,158776,5,0,2:2:0:0:
227,289,159012,1,4,2:2:0:0:
87,228,159248,1,0,2:2:0:0:
232,286,159484,1,4,2:2:0:0:
92,227,159720,1,0,2:2:0:0:
222,203,160223,1,2,2:2:0:0:
311,211,160459,1,6,2:2:0:0:
386,256,160691,6,0,B|456:293|448:374|448:374|400:336,1,194.999991073609,14|0,2:2|2:2,2:2:0:0:
460,215,161618,2,0,P|453:313|378:342,1,160,2|0,2:2|2:2,2:2:0:0:
322,337,162331,1,0,2:2:0:0:
460,215,162556,5,2,2:2:0:0:
370,214,162790,1,0,2:2:0:0:
469,200,163024,1,2,2:2:0:0:
367,196,163259,1,0,2:2:0:0:
479,186,163503,1,2,2:2:0:0:
364,179,163737,1,0,2:2:0:0:
489,171,163972,1,2,2:2:0:0:
387,95,164196,1,8,2:2:0:0:
363,72,164313,1,0,2:2:0:0:
348,43,164430,5,12,2:2:0:0:
354,45,164889,1,0,2:2:0:0:
358,46,165357,1,0,2:2:0:0:
363,47,165826,1,0,2:2:0:0:
254,118,166295,5,0,2:2:0:0:
258,117,166764,1,0,2:2:0:0:
263,116,167232,1,0,2:2:0:0:
129,74,167701,1,2,2:2:0:0:
129,74,167935,6,0,P|118:117|132:162,1,89.9999972534181,6|14,2:2|2:2,2:2:0:0:
130,159,168387,1,2,2:2:0:0:
246,253,168619,2,0,L|253:188,1,64.9999970245363,0|2,2:2|2:2,2:2:0:0:
129,74,169084,1,0,2:2:0:0:
129,74,169317,1,2,2:2:0:0:
73,233,169549,2,0,L|27:156,1,64.9999970245363,0|2,2:2|2:2,2:2:0:0:
204,116,170014,5,0,2:2:0:0:
204,116,170247,1,2,2:2:0:0:
334,225,170480,2,0,L|397:195,1,64.9999970245363,0|2,2:2|2:2,2:2:0:0:
287,98,170945,1,0,2:2:0:0:
287,98,171177,1,2,2:2:0:0:
130,159,171419,1,0,2:2:0:0:
130,159,171651,6,0,L|56:155,1,64.9999970245363,6|14,2:2|2:2,2:2:0:0:
82,19,172116,1,4,2:2:0:0:
59,154,172349,1,0,2:2:0:0:
88,18,172581,1,4,2:2:0:0:
54,152,172814,1,0,2:2:0:0:
50,151,173295,1,0,2:2:0:0:
17,277,173774,5,0,2:2:0:0:
175,304,174014,1,4,2:2:0:0:
21,276,174254,1,0,2:2:0:0:
181,304,174494,1,4,2:2:0:0:
26,276,174724,1,0,2:2:0:0:
236,245,175224,1,2,2:2:0:0:
105,264,175458,1,6,2:2:0:0:
285,170,175692,5,14,2:2:0:0:
236,245,175927,1,0,2:2:0:0:
53,194,176161,1,2,2:2:0:0:
105,264,176395,1,0,2:2:0:0:
285,170,176630,1,2,2:2:0:0:
236,245,176864,1,0,2:2:0:0:
53,194,177099,1,2,2:2:0:0:
105,264,177333,1,0,2:2:0:0:
236,96,177560,5,2,2:2:0:0:
285,170,177794,1,0,2:2:0:0:
93,74,178028,1,2,2:2:0:0:
65,156,178263,1,0,2:2:0:0:
236,96,178507,1,2,2:2:0:0:
285,170,178741,1,0,2:2:0:0:
93,74,178975,1,2,2:2:0:0:
6,216,179200,1,8,2:2:0:0:
32,234,179317,1,0,2:2:0:0:
64,240,179434,5,12,2:2:0:0:
236,245,179668,1,2,2:2:0:0:
93,74,179913,2,0,L|96:150,1,64.9999970245363,0|0,2:2|2:2,2:2:0:0:
286,317,180381,2,0,P|319:264|306:191,2,129.999994049073,2|2|2,2:2|2:2|2:2,2:2:0:0:
403,261,181553,1,0,2:2:0:0:
334,116,181788,2,0,P|302:113|270:125,1,64.9999970245363,2|0,2:2|2:2,2:2:0:0:
173,253,182256,2,0,P|205:256|237:244,1,64.9999970245363,2|0,2:2|2:2,2:2:0:0:
310,199,182745,1,0,2:2:0:0:
188,83,182979,6,0,L|193:179,1,89.9999972534181,6|14,2:2|2:2,2:2:0:0:
97,104,183438,2,0,P|83:89|57:79,2,32.4999985122681,2|0|2,2:2|2:2|2:2,2:2:0:0:
188,83,183906,2,0,P|208:85|226:93,2,32.4999985122681,2|0|2,2:2|2:2|2:2,2:2:0:0:
108,190,184375,2,0,P|109:205|115:221,2,32.4999985122681,2|0|2,2:2|2:2|2:2,2:2:0:0:
199,204,184844,6,0,P|198:189|192:173,2,32.4999985122681,2|0|2,2:2|2:2|2:2,2:2:0:0:
115,221,185313,2,0,P|109:206|108:190,2,32.4999985122681,2|0|2,2:2|2:2|2:2,2:2:0:0:
156,332,185781,2,0,L|108:328,2,32.4999985122681,2|0|2,2:2|2:2|2:2,2:2:0:0:
242,336,186250,2,0,L|290:313,2,32.4999985122681,2|0|2,2:2|2:2|2:2,2:2:0:0:
156,332,186719,6,0,L|45:324,1,89.9999972534181,6|14,2:2|2:2,2:2:0:0:
115,221,187188,1,2,2:2:0:0:
237,176,187422,2,0,P|245:209|235:258,1,64.9999970245363,0|2,2:2|2:2,2:2:0:0:
309,132,187881,2,0,P|323:162|322:212,1,64.9999970245363,0|2,2:2|2:2,2:2:0:0:
115,221,188349,1,2,2:2:0:0:
115,221,188584,2,0,P|110:151|140:89,1,129.999994049073,2|0,2:2|2:2,2:2:0:0:
1,146,189277,2,0,L|74:153,1,64.9999970245363,0|0,2:2|2:2,2:2:0:0:
193,168,189745,5,2,2:2:0:0:
53,65,189980,1,2,2:2:0:0:
115,221,190214,2,0,L|204:218,1,64.9999970245363,2|0,2:2|2:2,2:2:0:0:
325,193,190683,6,0,P|300:254|316:320,2,129.999994049073,6|0|0,2:2|2:2|2:2,2:2:0:0:
413,104,192130,1,0,2:2:0:0:
463,261,192612,6,0,L|378:258,2,80,4|0|0,2:2|2:2|2:2,2:2:0:0:
463,261,193990,6,0,B|466:184,1,75,2|0,2:2|2:2,2:2:0:0:
462,188,194226,1,8,1:1:0:0:
473,48,194433,6,0,L|475:8,1,22.4999993133545,2|0,2:2|2:2,2:2:0:0:
473,48,194667,1,0,2:2:0:0:
468,148,194901,2,0,L|466:182,1,22.4999993133545,2|0,2:2|2:2,2:2:0:0:
468,148,195136,1,0,2:2:0:0:
350,82,195370,2,0,P|341:71|337:59,1,22.4999993133545,2|0,2:2|2:2,2:2:0:0:
350,82,195604,1,0,2:2:0:0:
304,158,195839,2,0,P|299:170|298:183,1,22.4999993133545,2|0,2:2|2:2,2:2:0:0:
304,158,196073,1,0,2:2:0:0:
365,254,196308,6,0,P|370:242|371:229,1,22.4999993133545,2|0,2:2|2:2,2:2:0:0:
365,254,196542,1,0,2:2:0:0:
198,216,196776,2,0,L|224:218,1,22.4999993133545,2|0,2:2|2:2,2:2:0:0:
198,216,197011,1,0,2:2:0:0:
111,247,197245,2,0,L|86:245,1,22.4999993133545,2|0,2:2|2:2,2:2:0:0:
111,247,197479,1,0,2:2:0:0:
270,321,197714,2,0,P|278:297|276:268,1,44.999998626709,2|4,2:2|2:2,2:2:0:0:
190,107,198183,6,0,P|189:119|191:129,1,22.4999993133545,2|0,2:2|2:2,2:2:0:0:
190,107,198417,1,0,2:2:0:0:
282,125,198641,2,0,P|283:113|281:103,1,22.4999993133545,2|0,2:2|2:2,2:2:0:0:
282,125,198875,1,0,2:2:0:0:
263,235,199109,2,0,P|262:223|264:213,1,22.4999993133545,2|0,2:2|2:2,2:2:0:0:
263,235,199344,1,0,2:2:0:0:
356,219,199578,2,0,P|357:231|355:241,1,22.4999993133545,2|0,2:2|2:2,2:2:0:0:
356,219,199812,1,0,2:2:0:0:
249,327,200037,6,0,L|286:329,1,22.4999993133545,2|0,2:2|2:2,2:2:0:0:
249,327,200271,1,0,2:2:0:0:
381,328,200505,2,0,L|341:326,1,22.4999993133545,2|0,2:2|2:2,2:2:0:0:
381,328,200740,1,0,2:2:0:0:
468,218,200974,2,0,L|437:220,1,22.4999993133545,2|0,2:2|2:2,2:2:0:0:
468,218,201208,1,0,2:2:0:0:
373,89,201433,2,0,L|441:91,1,50,2|4,2:2|2:2,2:2:0:0:
299,38,201915,5,2,2:2:0:0:
296,42,202031,1,0,2:2:0:0:
293,46,202147,2,0,P|286:66|283:95,1,44.999998626709,0|2,2:2|2:2,2:2:0:0:
288,177,202496,1,0,2:2:0:0:
290,180,202612,2,0,P|310:176|335:178,1,44.999998626709,0|2,2:2|2:2,2:2:0:0:
365,260,202961,1,0,2:2:0:0:
362,264,203087,2,0,P|342:268|317:266,1,44.999998626709,0|2,2:2|2:2,2:2:0:0:
231,248,203435,1,0,2:2:0:0:
234,251,203552,2,0,P|234:274|227:298,1,44.999998626709,0|2,2:2|2:2,2:2:0:0:
298,352,204027,5,0,2:2:0:0:
151,260,204259,1,0,2:2:0:0:
102,332,204492,1,2,2:2:0:0:
133,174,204734,1,2,2:2:0:0:
151,260,204966,1,0,2:2:0:0:
292,145,205189,1,2,2:2:0:0:
218,194,205421,1,2,2:2:0:0:
98,147,205654,6,0,P|120:158|137:186,1,44.999998626709,6|0,2:2|2:2,2:2:0:0:
151,260,206119,1,0,2:2:0:0:
102,332,206351,1,0,2:2:0:0:
218,194,206584,6,0,P|242:238|237:291,1,89.9999972534181,2|0,2:2|2:2,2:2:0:0:
132,173,207282,2,0,P|152:133|203:108,1,89.9999972534181,4|0,2:2|2:2,2:2:0:0:
318,122,207959,5,8,2:2:0:0:
189,110,208191,1,8,2:2:0:0:
330,209,208424,2,0,P|373:192|399:153,1,89.9999972534181,2|0,2:2|2:2,2:2:0:0:
427,32,209121,1,2,2:2:0:0:
318,122,209386,6,0,P|326:103|327:81,1,32.4999985122681,4|0,2:2|2:2,2:2:0:0:
318,122,209618,1,2,2:2:0:0:
194,63,209851,2,0,P|186:82|185:104,1,32.4999985122681,0|0,2:2|2:2,2:2:0:0:
194,63,210083,1,2,2:2:0:0:
226,242,210316,2,0,P|226:221|219:200,1,32.4999985122681,0|0,2:2|2:2,2:2:0:0:
226,242,210548,1,2,2:2:0:0:
91,218,210781,2,0,P|90:197|97:176,1,32.4999985122681,0|0,2:2|2:2,2:2:0:0:
91,218,211013,1,2,2:2:0:0:
191,326,211246,6,0,L|152:324,1,32.4999985122681,0|0,2:2|2:2,2:2:0:0:
191,326,211479,1,2,2:2:0:0:
320,335,211711,2,0,L|359:333,1,32.4999985122681,0|0,2:2|2:2,2:2:0:0:
320,335,211944,1,2,2:2:0:0:
455,216,212176,2,0,L|418:213,1,32.4999985122681,0|0,2:2|2:2,2:2:0:0:
455,216,212409,1,2,2:2:0:0:
433,94,212641,2,0,L|395:91,3,32.4999985122681,0|0|2|2,2:2|2:2|2:2|2:2,2:2:0:0:
317,76,213106,6,0,P|317:96|310:116,1,32.4999985122681,4|0,2:2|2:2,2:2:0:0:
317,76,213339,1,2,2:2:0:0:
301,223,213572,2,0,P|301:203|294:183,1,32.4999985122681,0|0,2:2|2:2,2:2:0:0:
301,223,213804,1,2,2:2:0:0:
94,186,214037,2,0,L|128:188,1,32.4999985122681,0|0,2:2|2:2,2:2:0:0:
94,186,214269,1,2,2:2:0:0:
211,197,214502,2,0,P|211:217|218:237,1,32.4999985122681,0|0,2:2|2:2,2:2:0:0:
211,197,214734,1,2,2:2:0:0:
387,218,214977,6,0,P|387:198|380:178,1,32.4999985122681,0|0,2:2|2:2,2:2:0:0:
387,218,215209,1,2,2:2:0:0:
367,99,215442,2,0,L|409:96,1,32.4999985122681,0|0,2:2|2:2,2:2:0:0:
367,99,215674,1,2,2:2:0:0:
213,74,215907,2,0,L|254:76,1,32.4999985122681,0|0,2:2|2:2,2:2:0:0:
213,74,216139,1,2,2:2:0:0:
143,133,216372,2,0,L|97:131,3,32.4999985122681,0|0|2|2,2:2|2:2|2:2|2:2,2:2:0:0:
43,80,216837,5,4,2:2:0:0:
36,87,216953,1,0,2:2:0:0:
31,97,217070,2,0,P|23:134|32:172,1,75.0000028610231,2|0,2:2|2:2,2:2:0:0:
110,211,217418,1,0,2:2:0:0:
118,205,217545,2,0,P|126:168|117:130,1,75.0000028610231,2|0,2:2|2:2,2:2:0:0:
205,104,217893,1,0,2:2:0:0:
200,95,218020,2,0,B|282:98,1,75.0000028610231,2|0,2:2|2:2,2:2:0:0:
363,119,218368,1,0,2:2:0:0:
370,127,218485,2,0,L|286:125,1,75.0000028610231,2|0,2:2|2:2,2:2:0:0:
272,211,218833,5,0,2:2:0:0:
278,219,218950,2,0,L|372:222,1,75.0000028610231,2|0,2:2|2:2,2:2:0:0:
445,206,219301,1,0,2:2:0:0:
439,214,219418,2,0,P|439:252|456:287,1,75.0000028610231,2|0,2:2|2:2,2:2:0:0:
512,350,219770,1,0,2:2:0:0:
505,356,219887,2,0,L|416:354,1,75.0000028610231,2|0,2:2|2:2,2:2:0:0:
333,348,220239,1,0,2:2:0:0:
341,343,220356,2,0,P|357:308|357:269,1,75.0000028610231,2|4,2:2|2:2,2:2:0:0:
295,125,220795,5,0,2:2:0:0:
244,51,221029,1,0,2:2:0:0:
155,36,221263,1,0,2:2:0:0:
81,87,221498,1,2,2:2:0:0:
65,175,221732,1,0,2:2:0:0:
115,250,221966,1,0,2:2:0:0:
204,266,222201,1,0,2:2:0:0:
295,125,222435,5,2,2:2:0:0:
378,93,222670,1,0,2:2:0:0:
449,149,222904,1,0,2:2:0:0:
438,237,223138,1,2,2:2:0:0:
295,125,223373,6,0,P|197:160|209:270,1,225.000008583069,2|0,2:2|2:2,2:2:0:0:
412,269,224304,6,0,P|429:255|439:233,1,42.5000008106232,4|0,2:2|2:2,2:2:0:0:
412,269,224534,1,2,2:2:0:0:
316,217,224765,2,0,P|296:211|273:212,1,42.5000008106232,2|0,2:2|2:2,2:2:0:0:
316,217,224996,1,2,2:2:0:0:
394,107,225227,2,0,P|411:96|436:92,1,42.5000008106232,2|0,2:2|2:2,2:2:0:0:
394,107,225457,1,2,2:2:0:0:
309,44,225688,2,0,P|288:37|261:39,1,42.5000008106232,2|0,2:2|2:2,2:2:0:0:
309,44,225919,1,2,2:2:0:0:
154,94,226140,6,0,P|175:101|202:99,1,42.5000008106232,2|0,2:2|2:2,2:2:0:0:
154,94,226370,1,2,2:2:0:0:
282,164,226601,2,0,P|276:144|278:120,1,42.5000008106232,2|0,2:2|2:2,2:2:0:0:
282,164,226832,1,2,2:2:0:0:
409,130,227063,2,0,L|366:133,1,42.5000008106232,2|0,2:2|2:2,2:2:0:0:
409,130,227293,1,2,2:2:0:0:
469,267,227524,2,0,P|448:270|425:265,1,42.5000008106232,2|0,2:2|2:2,2:2:0:0:
352,218,227755,2,0,P|373:215|396:220,1,42.5000008106232,2|0,2:2|2:2,2:2:0:0:
373,349,227996,6,0,P|371:328|376:304,1,42.5000008106232,4|0,2:2|2:2,2:2:0:0:
373,349,228226,1,2,2:2:0:0:
238,321,228457,2,0,L|293:324,1,42.5000008106232,2|0,2:2|2:2,2:2:0:0:
238,321,228688,1,2,2:2:0:0:
62,351,228919,2,0,L|9:348,1,42.5000008106232,2|0,2:2|2:2,2:2:0:0:
62,351,229149,1,2,2:2:0:0:
152,370,229380,2,0,P|154:350|151:328,1,42.5000008106232,2|0,2:2|2:2,2:2:0:0:
152,370,229611,1,2,2:2:0:0:
88,225,229842,6,0,P|81:244|79:266,1,42.5000008106232,2|0,2:2|2:2,2:2:0:0:
88,225,230072,1,2,2:2:0:0:
180,229,230303,2,0,P|180:208|176:187,1,42.5000008106232,2|0,2:2|2:2,2:2:0:0:
180,229,230534,1,2,2:2:0:0:
58,84,230765,2,0,L|115:86,1,42.5000008106232,2|0,2:2|2:2,2:2:0:0:
58,84,230996,1,2,2:2:0:0:
268,44,231226,2,0,L|211:47,1,42.5000008106232,2|0,2:2|2:2,2:2:0:0:
335,129,231457,2,0,L|283:128,1,42.5000008106232,2|0,2:2|2:2,2:2:0:0:
470,65,231698,6,0,L|407:62,1,42.5000008106232,4|0,2:2|2:2,2:2:0:0:
470,65,231928,1,2,2:2:0:0:
426,192,232159,2,0,P|423:172|426:151,1,42.5000008106232,2|0,2:2|2:2,2:2:0:0:
426,192,232390,1,2,2:2:0:0:
476,287,232621,2,0,L|431:284,1,42.5000008106232,2|0,2:2|2:2,2:2:0:0:
476,287,232851,1,2,2:2:0:0:
343,309,233082,2,0,L|405:312,1,42.5000008106232,2|0,2:2|2:2,2:2:0:0:
343,309,233313,1,2,2:2:0:0:
180,255,233544,6,0,L|237:251,1,42.5000008106232,2|0,2:2|2:2,2:2:0:0:
180,255,233774,1,2,2:2:0:0:
87,244,234005,2,0,P|86:268|92:289,1,42.5000008106232,2|0,2:2|2:2,2:2:0:0:
87,244,234236,1,2,2:2:0:0:
147,173,234457,2,0,P|154:150|154:128,1,42.5000008106232,2|0,2:2|2:2,2:2:0:0:
147,173,234687,1,2,2:2:0:0:
290,192,234909,1,2,2:2:0:0:
64,132,235138,1,2,2:2:0:0:
290,192,235360,6,0,P|310:268|248:338,1,160,4|0,2:2|2:2,2:2:0:0:
394,202,236047,1,2,2:2:0:0:
222,252,236276,2,0,B|334:249,1,80,2|0,2:2|2:2,2:2:0:0:
335,133,236734,2,0,B|251:132,1,80,0|0,2:2|2:2,2:2:0:0:
125,84,237192,1,4,2:2:0:0:
170,161,237421,1,2,2:2:0:0:
158,250,237650,1,2,2:2:0:0:
20,146,237879,1,0,2:2:0:0:
20,146,238108,6,0,B|43:37|149:36|149:36|109:115,1,240,2|0,2:2|2:2,2:2:0:0:
124,83,239024,2,0,B|184:46|214:122|283:80,1,160,4|0,2:2|2:2,2:2:0:0:
239,7,239711,1,0,2:2:0:0:
159,159,239940,6,0,P|149:200|154:246,1,85.0000016212464,2|0,2:2|2:2,2:2:0:0:
245,180,240398,2,0,P|241:222|253:266,1,85.0000016212464,0|0,2:2|2:2,2:2:0:0:
387,252,240870,2,0,P|390:209|378:165,1,85.0000016212464,2|0,2:2|2:2,2:2:0:0:
479,207,241324,2,0,P|475:164|455:123,1,85.0000016212464,0|0,2:2|2:2,2:2:0:0:
291,73,241779,2,0,L|393:78,1,85.0000016212464,2|0,2:2|2:2,2:2:0:0:
245,180,242233,2,0,L|334:178,1,85.0000016212464,0|0,2:2|2:2,2:2:0:0:
106,115,242688,5,4,2:2:0:0:
245,180,242915,1,0,2:2:0:0:
106,115,243132,1,0,2:2:0:0:
245,180,243359,1,0,2:2:0:0:
113,207,243586,6,0,P|70:199|34:172,1,85.0000016212464,2|0,2:2|2:2,2:2:0:0:
157,287,244061,2,0,P|114:297|70:287,1,85.0000016212464,0|0,2:2|2:2,2:2:0:0:
245,180,244515,2,0,P|287:190|331:180,1,85.0000016212464,2|0,2:2|2:2,2:2:0:0:
288,100,244990,2,0,P|331:92|367:65,1,85.0000016212464,0|0,2:2|2:2,2:2:0:0:
96,41,245444,2,0,L|99:143,1,85.0000016212464,2|0,2:2|2:2,2:2:0:0:
201,69,245909,2,0,L|199:172,1,85.0000016212464,0|0,2:2|2:2,2:2:0:0:
363,68,246363,5,4,2:2:0:0:
201,69,246590,1,0,2:2:0:0:
363,68,246818,1,0,2:2:0:0:
201,69,247045,1,0,2:2:0:0:
415,145,247272,6,0,P|375:158|325:150,1,85.0000016212464,2|0,2:2|2:2,2:2:0:0:
405,242,247727,2,0,P|363:250|315:235,1,85.0000016212464,0|0,2:2|2:2,2:2:0:0:
128,188,248161,2,0,P|169:196|217:181,1,85.0000016212464,2|0,2:2|2:2,2:2:0:0:
363,68,248615,5,8,2:2:0:0:
363,68,248842,1,8,2:2:0:0:
363,68,249070,2,0,L|361:158,1,85.0000016212464,2|0,2:2|2:2,2:2:0:0:
93,164,249524,6,0,L|113:349,1,170.000003242493,4|0,1:1|2:2,0:0:0:0:
136,320,250206,1,0,2:2:0:0:
162,311,250433,1,0,2:2:0:0:
189,311,250661,1,0,2:2:0:0:
216,315,250888,5,0,2:2:0:0:
243,319,251136,1,0,2:2:0:0:
271,320,251373,1,0,2:2:0:0:
406,252,251600,5,0,0:0:0:0:
256,226,251827,1,8,2:2:0:0:
383,133,252054,1,8,2:2:0:0:
249,227,252282,1,8,2:2:0:0:
401,246,252509,5,2,1:1:0:0:
275,103,252727,2,0,B|233:162|256:226|256:226|295:186,1,170.000003242493,8|0,2:2|1:1,2:2:0:0:
165,123,253408,1,0,2:2:0:0:
243,319,253646,5,4,2:2:0:0:
376,193,253873,2,0,L|276:197,1,92.4999996471405,0|8,2:2|2:2,2:2:0:0:
91,186,254327,1,0,2:2:0:0:
243,319,254555,1,0,2:2:0:0:
332,100,254772,2,0,L|233:104,1,92.4999996471405,0|8,2:2|2:2,2:2:0:0:
91,186,255217,1,0,2:2:0:0:
283,196,255443,5,0,2:2:0:0:
166,29,255670,2,0,P|159:75|170:123,1,92.4999996471405,0|8,2:2|2:2,2:2:0:0:
384,211,256116,1,0,2:2:0:0:
258,73,256342,1,0,2:2:0:0:
91,186,256569,2,0,P|130:213|192:222,1,92.4999996471405,0|8,2:2|2:2,2:2:0:0:
384,211,257024,1,0,2:2:0:0:
173,222,257239,5,0,2:2:0:0:
258,73,257462,2,0,P|302:83|340:109,1,92.4999996471405,0|8,2:2|2:2,2:2:0:0:
417,306,257910,1,0,2:2:0:0:
263,174,258134,1,0,2:2:0:0:
423,50,258358,2,0,P|439:92|438:138,1,92.4999996471405,0|8,2:2|2:2,2:2:0:0:
312,309,258806,1,0,2:2:0:0:
340,109,259030,5,0,2:2:0:0:
504,227,259253,2,0,L|384:221,1,92.4999996471405,0|8,2:2|2:2,2:2:0:0:
220,258,259701,1,0,2:2:0:0:
340,109,259925,1,0,2:2:0:0:
463,321,260149,2,0,L|354:316,1,92.4999996471405,0|8,2:2|2:2,2:2:0:0:
121,289,260587,1,2,2:2:0:0:
370,316,260810,5,4,2:2:0:0:
220,258,261034,2,0,P|209:213|214:160,1,92.4999996471405,0|8,2:2|2:2,2:2:0:0:
411,222,261482,1,0,2:2:0:0:
220,258,261706,1,0,2:2:0:0:
411,222,261930,2,0,P|422:177|417:124,1,92.4999996471405,0|8,2:2|2:2,2:2:0:0:
212,167,262378,1,0,2:2:0:0:
411,222,262601,5,0,2:2:0:0:
212,167,262825,2,0,P|201:122|206:69,1,92.4999996471405,0|8,2:2|2:2,2:2:0:0:
418,131,263273,1,0,2:2:0:0:
212,167,263497,1,0,2:2:0:0:
418,131,263721,2,0,P|429:86|424:33,1,92.4999996471405,0|8,2:2|2:2,2:2:0:0:
204,76,264169,1,2,2:2:0:0:
204,76,264627,5,2,2:2:0:0:
106,54,264850,1,10,2:2:0:0:
28,116,265074,1,0,2:2:0:0:
28,216,265298,1,0,2:2:0:0:
106,279,265522,1,0,2:2:0:0:
204,257,265746,1,8,2:2:0:0:
247,166,265960,1,0,2:2:0:0:
351,324,266170,5,2,2:2:0:0:
426,375,266392,1,0,2:2:0:0:
492,318,266614,1,8,2:2:0:0:
462,237,266836,1,0,2:2:0:0:
373,241,267058,6,0,P|354:198|351:144,1,92.4999996471405,4|8,2:2|2:2,2:2:0:0:
354,116,267392,1,8,2:2:0:0:
362,80,267503,1,8,2:2:0:0:
381,48,267614,1,0,2:2:0:0:
409,24,267725,1,0,2:2:0:0:
328,42,267836,1,8,2:2:0:0:
245,41,267947,1,14,2:2:0:0:
117,14,268190,6,0,L|121:118,1,92.4999996471405,2|8,2:2|2:2,2:2:0:0:
132,312,268634,1,0,2:2:0:0:
302,206,268856,2,0,P|234:192|159:224,1,138.749999470711,2|0,2:2|2:2,2:2:0:0:
132,312,269301,1,8,2:2:0:0:
243,290,269523,1,0,2:2:0:0:
112,131,269745,6,0,P|180:117|255:149,1,138.749999470711,2|0,2:2|2:2,2:2:0:0:
283,238,270190,1,8,2:2:0:0:
170,214,270412,1,0,2:2:0:0:
345,111,270634,2,0,L|339:262,2,138.749999470711,2|2|0,2:2|2:2|2:2,2:2:0:0:
345,111,271523,1,4,2:2:0:0:
164,27,271745,5,2,2:2:0:0:
40,186,271967,2,0,P|85:198|149:183,1,92.4999996471405,8|0,2:2|2:2,2:2:0:0:
164,27,272412,2,0,P|97:5|24:22,1,138.749999470711,2|0,2:2|2:2,2:2:0:0:
93,102,272856,1,8,2:2:0:0:
31,18,273078,1,0,2:2:0:0:
225,110,273301,6,0,P|157:122|92:101,1,138.749999470711,2|0,2:2|2:2,2:2:0:0:
164,27,273745,1,8,2:2:0:0:
92,101,273967,1,0,2:2:0:0:
263,200,274190,2,0,L|259:49,2,138.749999470711,2|2|0,2:2|2:2|2:2,2:2:0:0:
263,200,275088,1,4,2:2:0:0:
453,181,275310,5,0,2:2:0:0:
268,303,275532,1,8,2:2:0:0:
82,229,275754,1,0,2:2:0:0:
208,82,275976,2,0,P|218:154|290:210,1,138.749999470711,2|0,2:2|2:2,2:2:0:0:
304,108,276421,1,8,2:2:0:0:
262,199,276643,1,0,2:2:0:0:
345,18,276865,6,0,P|391:67|399:135,1,138.749999470711,2|0,2:2|2:2,2:2:0:0:
304,108,277310,1,0,2:2:0:0:
399,135,277532,1,0,2:2:0:0:
117,135,277754,2,0,L|227:139,1,92.4999996471405,2|0,2:2|2:2,2:2:0:0:
88,39,278220,1,8,2:2:0:0:
88,39,278442,6,0,B|53:91|70:153|114:170|114:170|119:109,1,184.999999294281,14|0,2:2|2:2,2:2:0:0:
116,138,279118,1,8,2:2:0:0:
74,333,279340,1,0,2:2:0:0:
257,271,279562,2,0,P|328:267|394:302,1,138.749999470711,2|0,2:2|2:2,2:2:0:0:
306,363,280006,2,0,P|284:369|260:368,1,46.2499998235703,8|0,2:2|2:2,2:2:0:0:
172,324,280229,2,0,P|190:239|259:283,1,184.999999294281,6|0,2:2|2:2,2:2:0:0:
398,136,280895,5,8,2:2:0:0:
314,185,281108,1,0,2:2:0:0:
135,95,281330,1,0,2:2:0:0:
51,144,281552,1,0,2:2:0:0:
226,226,281774,1,8,2:2:0:0:
398,136,281996,2,0,L|505:141,1,92.4999996471405,4|12,2:2|2:2,2:2:0:0:
312,276,282441,1,2,2:2:0:0:
279,69,282673,5,8,2:2:0:0:
398,136,282895,1,0,2:2:0:0:
147,85,283117,2,0,P|211:59|292:75,1,138.749999470711,2|0,2:2|2:2,2:2:0:0:
223,155,283561,1,8,2:2:0:0:
278,68,283784,1,0,2:2:0:0:
298,225,284011,6,0,P|234:251|153:235,1,138.749999470711,2|0,2:2|2:2,2:2:0:0:
245,333,284458,1,8,2:2:0:0:
166,241,284682,1,0,2:2:0:0:
345,314,284906,2,0,L|341:146,2,138.749999470711,2|2|0,2:2|2:2|2:2,2:2:0:0:
345,314,285792,1,4,2:2:0:0:
434,148,286015,5,0,2:2:0:0:
291,0,286239,2,0,L|294:103,1,92.4999996471405,8|0,2:2|2:2,2:2:0:0:
419,246,286687,2,0,P|352:218|290:231,1,138.749999470711,2|0,2:2|2:2,2:2:0:0:
345,314,287135,1,8,2:2:0:0:
419,246,287359,1,0,2:2:0:0:
200,160,287583,6,0,P|196:233|158:286,1,138.749999470711,2|0,2:2|2:2,2:2:0:0:
105,197,288030,1,8,2:2:0:0:
159,285,288254,1,2,2:2:0:0:
107,97,288478,2,0,L|255:102,2,138.749999470711,2|2|0,2:2|2:2|2:2,2:2:0:0:
107,97,289354,1,4,2:2:0:0:
230,7,289577,5,0,2:2:0:0:
157,193,289801,1,8,2:2:0:0:
214,373,290025,1,0,2:2:0:0:
288,186,290249,2,0,P|218:171|150:197,1,138.749999470711,2|0,2:2|2:2,2:2:0:0:
226,267,290697,1,8,2:2:0:0:
156,192,290921,1,0,2:2:0:0:
331,277,291145,6,0,P|378:226|378:138,1,138.749999470711,2|0,2:2|2:2,2:2:0:0:
288,186,291592,1,8,2:2:0:0:
384,159,291816,1,0,2:2:0:0:
203,81,292040,2,0,L|33:85,2,138.749999470711,2|0|2,2:2|2:2|2:2,2:2:0:0:
383,44,292910,1,2,2:2:0:0:
203,81,293132,6,0,P|190:127|197:175,2,92.4999996471405,0|8|2,2:2|2:2|1:1,2:2:0:0:
424,139,293798,2,0,L|270:132,1,138.749999470711,2|0,1:1|2:2,2:2:0:0:
97,117,294243,1,8,2:2:0:0:
285,132,294465,1,2,1:1:0:0:
88,242,294687,6,0,L|239:238,1,138.749999470711,2|0,1:1|2:2,2:2:0:0:
417,225,295132,1,8,2:2:0:0:
226,238,295354,1,2,1:1:0:0:
425,339,295576,2,0,L|301:334,1,92.4999996471405,2|8,1:1|2:2,2:2:0:0:
337,298,295910,1,8,2:2:0:0:
335,261,296021,1,8,2:2:0:0:
326,225,296132,1,0,2:2:0:0:
309,192,296243,1,0,2:2:0:0:
226,140,296354,1,8,2:2:0:0:
226,238,296465,5,14,1:1:0:0:
460,170,296687,2,0,P|450:122|417:77,1,97.500000371933,0|8,1:1|1:1,1:1:0:0:
230,0,297132,1,0,1:1:0:0:
128,191,297354,1,8,2:2:0:0:
351,165,297576,2,0,P|316:130|264:110,1,97.500000371933,0|8,1:1|1:1,1:1:0:0:
132,301,298021,1,0,1:1:0:0:
351,165,298243,5,8,2:2:0:0:
125,93,298465,2,0,L|128:204,1,97.500000371933,0|8,1:1|1:1,1:1:0:0:
292,12,298910,1,0,1:1:0:0:
127,190,299132,1,8,2:2:0:0:
273,384,299354,2,0,L|268:280,1,97.500000371933,0|8,1:1|1:1,1:1:0:0:
42,151,299798,1,8,2:2:0:0:
80,181,299910,1,0,1:1:0:0:
127,190,300021,5,12,1:1:0:0:
365,291,300247,2,0,L|244:285,1,97.500000371933,0|8,1:1|1:1,1:1:0:0:
124,83,300688,1,0,1:1:0:0:
365,291,300908,1,8,2:2:0:0:
94,280,301129,2,0,P|103:232|128:187,1,97.500000371933,0|8,1:1|1:1,1:1:0:0:
419,149,301561,1,0,1:1:0:0:
204,268,301780,5,8,2:2:0:0:
26,79,302001,2,0,L|138:83,1,97.500000371933,0|8,1:1|1:1,1:1:0:0:
94,280,302442,1,0,1:1:0:0:
223,37,302662,1,8,2:2:0:0:
314,255,302883,2,0,P|305:303|280:348,1,97.500000371933,0|8,1:1|1:1,1:1:0:0:
95,170,303324,1,8,2:2:0:0:
142,179,303435,1,0,1:1:0:0:
180,209,303545,5,12,1:1:0:0:
403,147,303755,2,0,L|296:144,1,97.500000371933,0|8,1:1|1:1,1:1:0:0:
94,280,304196,1,0,1:1:0:0:
61,30,304416,1,8,2:2:0:0:
324,50,304637,2,0,P|321:100|302:149,1,97.500000371933,0|8,1:1|1:1,1:1:0:0:
24,191,305078,1,0,1:1:0:0:
217,74,305300,5,8,2:2:0:0:
363,248,305529,2,0,L|264:245,1,97.500000371933,0|8,1:1|1:1,1:1:0:0:
85,80,305970,1,0,1:1:0:0:
265,245,306190,1,8,2:2:0:0:
32,351,306421,2,0,P|35:301|54:252,1,97.500000371933,0|8,1:1|1:1,1:1:0:0:
319,169,306862,1,8,2:2:0:0:
350,202,306972,1,0,1:1:0:0:
363,248,307082,5,12,1:1:0:0:
138,324,307303,1,0,1:1:0:0:
228,98,307523,1,8,1:1:0:0:
256,261,307744,1,10,2:2:0:0:
127,48,307965,6,0,P|173:137|230:75,1,195.000000743866,10|0,2:2|1:1,1:1:0:0:
427,77,308636,2,0,P|381:166|324:104,1,195.000000743866,10|0,2:2|1:1,1:1:0:0:
124,69,309297,1,8,1:1:0:0:
262,207,309518,1,2,2:2:0:0:
427,77,309738,6,0,P|347:43|326:126,1,195.000000743866,10|0,2:2|1:1,1:1:0:0:
460,262,310390,1,8,2:2:0:0:
428,295,310500,1,0,1:1:0:0:
384,313,310610,5,12,1:1:0:0:
162,203,310854,2,0,L|269:207,1,100,0|8,1:1|1:1,1:1:0:0:
83,287,311301,1,8,2:2:0:0:
57,248,311413,1,0,1:1:0:0:
48,203,311525,5,8,2:2:0:0:
300,103,311760,2,0,L|185:98,1,100,0|8,1:1|1:1,1:1:0:0:
449,97,312206,1,8,2:2:0:0:
445,142,312318,1,0,1:1:0:0:
426,183,312434,5,8,2:2:0:0:
176,299,312661,2,0,P|159:250|162:200,1,100,0|8,1:1|1:1,1:1:0:0:
426,183,313115,1,8,2:2:0:0:
395,215,313229,1,0,1:1:0:0:
354,236,313343,5,8,2:2:0:0:
131,100,313590,2,0,P|182:99|229:118,1,100,0|8,1:1|1:1,1:1:0:0:
329,131,313930,1,10,2:2:0:0:
291,39,314044,1,10,2:2:0:0:
287,24,314158,1,2,2:2:0:0:
288,9,314271,5,12,1:1:0:0:
463,0,314499,2,0,L|459:121,1,100,0|8,1:1|1:1,1:1:0:0:
381,336,314953,2,0,P|406:338|430:330,1,50,8|0,2:2|1:1,1:1:0:0:
393,232,315180,1,8,2:2:0:0:
178,368,315408,2,0,L|173:267,1,100,0|8,1:1|1:1,1:1:0:0:
103,99,315862,2,0,P|126:107|155:105,1,50,8|0,2:2|1:1,1:1:0:0:
143,0,316090,5,8,2:2:0:0:
2,203,316317,2,0,P|41:231|106:240,1,100,0|8,1:1|1:1,1:1:0:0:
330,226,316771,2,0,L|324:283,1,50,8|0,2:2|1:1,1:1:0:0:
264,138,316999,1,8,2:2:0:0:
473,192,317236,2,0,P|499:151|507:93,1,100,0|8,1:1|1:1,1:1:0:0:
492,0,317576,1,10,2:2:0:0:
407,59,317690,1,10,2:2:0:0:
402,73,317804,1,2,2:2:0:0:
402,88,317917,6,0,B|269:91,2,100,12|0|8,1:1|1:1|1:1,1:1:0:0:
458,282,318599,2,0,L|383:283,1,50,8|0,2:2|1:1,1:1:0:0:
229,196,318826,2,0,B|360:201,2,100,8|0|8,2:2|1:1|1:1,1:1:0:0:
157,381,319508,2,0,L|216:384,1,50,8|0,2:2|1:1,1:1:0:0:
399,307,319740,6,0,B|271:309,2,100,8|0|8,2:2|1:1|1:1,1:1:0:0:
448,107,320416,2,0,L|350:110,1,50,8|0,2:2|1:1,1:1:0:0:
220,52,320632,2,0,P|214:104|186:149,2,100,8|0|8,2:2|1:1|1:1,1:1:0:0:
118,51,321195,1,10,2:2:0:0:
22,19,321308,1,10,2:2:0:0:
30,31,321421,1,2,2:2:0:0:
35,45,321534,6,0,B|42:119|8:172|8:172|43:129|70:121,1,200,12|8,1:1|1:1,1:1:0:0:
323,83,322200,1,8,2:2:0:0:
317,126,322312,1,0,1:1:0:0:
296,168,322425,5,8,2:2:0:0:
158,330,322651,2,0,L|276:325,1,100,0|8,1:1|1:1,1:1:0:0:
60,384,323092,1,8,2:2:0:0:
44,341,323204,1,0,1:1:0:0:
45,294,323317,5,8,2:2:0:0:
213,99,323543,2,0,L|95:89,1,100,0|8,1:1|1:1,1:1:0:0:
323,83,323981,1,8,2:2:0:0:
317,126,324093,1,0,1:1:0:0:
296,168,324206,6,0,P|281:189|258:204,1,50,8|0,2:2|1:1,1:1:0:0:
384,233,324412,2,0,P|402:251|427:262,1,50,2|0,2:2|1:1,1:1:0:0:
300,300,324637,2,0,P|276:311|250:314,1,50,8|0,2:2|1:1,1:1:0:0:
462,161,324863,1,8,2:2:0:0:
465,157,324975,1,0,1:1:0:0:
468,153,325087,6,0,P|482:133|489:103,1,52.4999983978272,12|0,2:2|1:1,1:1:0:0:
275,94,325310,2,0,L|400:91,1,104.999996795654,0|8,1:1|1:1,1:1:0:0:
178,40,325768,1,8,2:2:0:0:
176,44,325879,1,0,1:1:0:0:
174,48,325991,6,0,P|166:75|168:108,1,52.4999983978272,12|0,2:2|1:1,1:1:0:0:
342,199,326215,2,0,L|232:196,1,104.999996795654,0|8,1:1|1:1,1:1:0:0:
30,281,326663,1,8,2:2:0:0:
34,277,326775,1,0,1:1:0:0:
36,272,326887,6,0,P|33:243|20:213,1,52.4999983978272,12|0,2:2|1:1,1:1:0:0:
254,298,327131,2,0,P|253:244|235:194,1,104.999996795654,0|8,1:1|1:1,1:1:0:0:
467,202,327578,1,8,2:2:0:0:
472,200,327690,1,0,1:1:0:0:
476,197,327802,6,0,L|408:199,1,52.4999983978272,12|0,2:2|1:1,1:1:0:0:
253,94,328026,2,0,P|252:148|234:198,1,104.999996795654,0|8,1:1|1:1,1:1:0:0:
38,133,328474,1,8,2:2:0:0:
34,129,328586,1,0,1:1:0:0:
31,124,328698,6,0,L|110:126,1,52.4999983978272,12|0,2:2|1:1,1:1:0:0:
197,297,328922,2,0,L|316:292,1,104.999996795654,0|8,1:1|1:1,1:1:0:0:
92,325,329369,1,8,2:2:0:0:
91,319,329481,1,0,1:1:0:0:
90,313,329593,6,0,P|90:286|97:257,1,52.4999983978272,12|0,2:2|1:1,1:1:0:0:
409,281,329817,2,0,P|404:333|379:379,1,104.999996795654,0|8,1:1|1:1,1:1:0:0:
197,297,330265,1,8,2:2:0:0:
194,292,330377,1,0,1:1:0:0:
192,286,330489,6,0,P|195:260|208:232,1,52.4999983978272,12|0,2:2|1:1,1:1:0:0:
439,182,330713,2,0,L|301:184,1,104.999996795654,0|8,1:1|1:1,1:1:0:0:
486,44,331177,1,8,2:2:0:0:
489,40,331288,1,0,1:1:0:0:
492,36,331400,6,0,L|426:38,1,52.4999983978272,12|0,2:2|1:1,1:1:0:0:
237,101,331624,2,0,P|255:54|254:-9,1,104.999996795654,0|8,1:1|1:1,1:1:0:0:
153,33,331960,1,10,2:2:0:0:
44,25,332072,1,10,2:2:0:0:
48,27,332184,1,2,2:2:0:0:
52,30,332296,6,0,L|-4:27,1,52.4999983978272,12|0,2:2|1:1,1:1:0:0:
38,200,332520,2,0,L|148:199,1,104.999996795654,0|8,1:1|1:1,1:1:0:0:
66,375,332968,1,8,2:2:0:0:
61,378,333079,1,0,1:1:0:0:
56,381,333191,6,0,L|134:379,1,52.4999983978272,12|0,2:2|1:1,1:1:0:0:
249,221,333415,2,0,P|248:273|268:328,1,104.999996795654,0|8,1:1|1:1,1:1:0:0:
142,199,333863,1,8,2:2:0:0:
136,197,333975,1,0,1:1:0:0:
130,196,334087,6,0,P|123:224|123:251,1,52.4999983978272,12|0,2:2|1:1,1:1:0:0:
372,306,334311,2,0,P|373:254|353:199,1,104.999996795654,0|8,1:1|1:1,1:1:0:0:
226,37,334759,1,8,2:2:0:0:
227,41,334871,1,0,1:1:0:0:
229,45,334982,6,0,P|256:51|290:49,1,52.4999983978272,12|0,2:2|1:1,1:1:0:0:
122,5,335206,2,0,P|121:57|141:112,1,104.999996795654,0|8,1:1|1:1,1:1:0:0:
34,70,335542,1,10,2:2:0:0:
57,171,335654,1,10,2:2:0:0:
61,174,335766,1,2,2:2:0:0:
65,175,335858,6,0,B|156:189|187:98|187:98|105:111,1,209.999993591309,12|8,1:1|1:1,1:1:0:0:
328,191,336529,1,8,2:2:0:0:
331,187,336641,1,0,1:1:0:0:
334,182,336753,6,0,L|261:183,1,52.4999983978272,12|0,2:2|1:1,1:1:0:0:
424,249,336977,2,0,P|440:201|439:146,1,104.999996795654,0|8,1:1|1:1,1:1:0:0:
183,141,337425,1,8,2:2:0:0:
180,145,337537,1,0,1:1:0:0:
178,150,337649,6,0,P|172:177|174:206,1,52.4999983978272,12|0,2:2|1:1,1:1:0:0:
249,36,337862,2,0,B|141:38,1,104.999996795654,0|8,1:1|1:1,1:1:0:0:
115,286,338309,1,8,2:2:0:0:
118,290,338421,1,0,1:1:0:0:
122,293,338533,6,0,P|148:305|179:309,1,52.4999983978272,12|0,2:2|1:1,1:1:0:0:
311,274,338757,2,0,P|285:262|254:258,1,52.4999983978272,2|0,2:2|1:1,1:1:0:0:
155,358,338981,2,0,P|167:332|171:301,1,52.4999983978272,12|0,2:2|1:1,1:1:0:0:
193,125,339195,1,8,2:2:0:0:
185,134,339306,1,0,1:1:0:0:
180,145,339418,6,0,P|172:172|174:201,1,55.0000016784668,12|0,2:2|1:1,1:1:0:0:
405,216,339642,2,0,P|407:161|384:103,1,110.000003356934,4|8,1:1|1:1,0:0:0:0:
287,66,339978,1,2,1:1:0:0:
299,177,340090,1,8,2:2:0:0:
305,185,340202,1,0,1:1:0:0:
313,191,340314,6,0,P|340:194|367:185,1,55.0000016784668,12|0,2:2|1:1,1:1:0:0:
250,328,340538,2,0,P|302:344|366:338,1,110.000003356934,4|8,1:1|1:1,0:0:0:0:
250,328,340874,1,2,1:1:0:0:
154,383,340986,1,8,2:2:0:0:
146,374,341097,1,0,1:1:0:0:
143,363,341209,6,0,P|137:335|141:306,1,55.0000016784668,12|0,2:2|1:1,1:1:0:0:
206,135,341433,2,0,L|66:137,1,110.000003356934,4|8,1:1|1:1,0:0:0:0:
161,49,341769,1,2,1:1:0:0:
271,46,341881,1,8,2:2:0:0:
280,51,341993,1,0,1:1:0:0:
287,59,342105,6,0,P|304:80|311:106,1,55.0000016784668,12|0,2:2|1:1,1:1:0:0:
242,281,342329,2,0,L|354:279,1,110.000003356934,4|8,1:1|1:1,0:0:0:0:
281,363,342665,1,2,1:1:0:0:
172,367,342777,1,8,2:2:0:0:
160,361,342889,1,0,1:1:0:0:
153,351,343000,6,0,P|139:327|133:297,1,55.0000016784668,12|0,2:2|1:1,1:1:0:0:
304,167,343224,2,0,L|173:160,1,110.000003356934,4|8,1:1|1:1,0:0:0:0:
104,100,343560,1,2,1:1:0:0:
209,63,343682,1,8,2:2:0:0:
213,72,343793,1,0,1:1:0:0:
214,82,343905,6,0,P|216:110|206:138,1,55.0000016784668,12|0,2:2|1:1,1:1:0:0:
10,161,344129,2,0,P|-7:111|4:53,1,110.000003356934,4|8,1:1|1:1,0:0:0:0:
104,100,344465,1,2,1:1:0:0:
109,211,344577,1,8,2:2:0:0:
106,221,344689,1,0,1:1:0:0:
100,230,344801,6,0,P|81:251|54:261,1,55.0000016784668,12|0,2:2|1:1,1:1:0:0:
197,353,345025,2,0,L|319:349,1,110.000003356934,4|8,1:1|1:1,0:0:0:0:
398,291,345361,1,2,1:1:0:0:
503,319,345473,1,8,2:2:0:0:
496,310,345584,1,0,1:1:0:0:
492,299,345696,6,0,P|486:273|489:244,1,55.0000016784668,12|0,2:2|1:1,1:1:0:0:
306,349,345920,2,0,P|292:297|306:233,1,110.000003356934,4|8,1:1|1:1,0:0:0:0:
384,173,346256,1,2,1:1:0:0:
408,278,346368,1,10,2:2:0:0:
405,283,346480,1,10,2:2:0:0:
402,287,346592,5,14,2:2:0:0:
398,291,346704,1,2,2:2:0:0:
394,294,346816,2,0,L|268:289,1,110.000003356934,4|8,1:1|1:1,0:0:0:0:
186,240,347152,1,2,1:1:0:0:
78,265,347284,1,8,2:2:0:0:
73,254,347395,1,0,1:1:0:0:
73,243,347507,6,0,P|74:216|85:188,1,55.0000016784668,12|0,2:2|1:1,1:1:0:0:
284,289,347731,2,0,P|291:235|271:168,1,110.000003356934,4|8,1:1|1:1,0:0:0:0:
186,240,348067,1,2,1:1:0:0:
277,181,348179,1,8,2:2:0:0:
286,175,348291,1,0,1:1:0:0:
290,164,348403,6,0,L|374:169,1,55.0000016784668,12|0,2:2|1:1,1:1:0:0:
512,80,348627,2,0,L|390:73,1,110.000003356934,4|8,1:1|1:1,0:0:0:0:
305,22,348963,1,2,1:0:0:0:
201,59,349075,1,8,2:2:0:0:
207,49,349186,1,0,1:1:0:0:
209,38,349298,6,0,L|149:41,1,55.0000016784668,12|0,2:2|1:1,1:1:0:0:
121,145,349522,1,4,1:1:0:0:
231,151,349634,1,10,2:2:0:0:
235,147,349746,1,10,2:2:0:0:
239,143,349858,1,10,2:2:0:0:
242,139,349970,1,10,2:2:0:0:
245,135,350082,1,2,2:2:0:0:
247,130,350194,6,0,B|305:122|356:171|348:249|263:325|194:229|121:286|121:286|120:175|0:199|37:29|121:35|165:60|179:95,1,694.687502650023,14|0,2:2|1:1,0:0:0:0:
452,132,351565,5,8,1:1:0:0:
458,141,351669,1,2,1:1:0:0:
461,150,351780,1,8,2:2:0:0:
463,159,351892,1,0,1:1:0:0:
463,168,351996,6,0,L|406:165,1,55.0000016784668,12|0,2:2|1:1,1:1:0:0:
235,243,352223,2,0,L|354:250,1,110.000003356934,4|8,1:1|1:1,0:0:0:0:
272,166,352564,1,2,1:1:0:0:
164,196,352677,1,8,2:2:0:0:
156,203,352791,1,0,1:1:0:0:
153,213,352905,6,0,P|147:240|153:268,1,55.0000016784668,12|0,2:2|1:1,1:1:0:0:
195,83,353132,2,0,L|65:87,1,110.000003356934,4|8,1:1|1:1,0:0:0:0:
195,83,353463,1,2,1:1:0:0:
287,10,353576,1,10,2:2:0:0:
283,6,353690,1,2,2:2:0:0:
279,3,353793,6,0,B|259:91|326:134|326:134|336:73,1,200,12|8,1:1|2:2,2:2:0:0:
238,223,354474,1,8,2:2:0:0:
240,227,354588,1,0,2:2:0:0:
243,231,354702,6,0,L|379:227,1,100,8|0,2:2|2:2,2:2:0:0:
434,79,355156,2,0,L|305:85,1,100,8|8,1:1|2:2,2:2:0:0:
337,87,355497,1,0,2:2:0:0:
341,89,355611,5,8,2:2:0:0:
488,163,355838,1,0,2:2:0:0:
249,30,356065,2,0,P|235:78|240:131,1,100,8|8,1:1|2:2,2:2:0:0:
242,130,356406,1,0,2:2:0:0:
246,132,356520,5,8,2:2:0:0:
26,96,356747,2,0,L|139:101,1,100
53,193,357088,1,2,2:2:0:0:
117,264,357192,1,10,2:2:0:0:
120,261,357305,1,10,2:2:0:0:
123,257,357419,6,0,P|119:313|133:360,1,94.9999974632264,14|0,1:1|2:2,2:2:0:0:
246,132,357873,1,8,1:1:0:0:
309,295,358101,1,8,2:2:0:0:
312,298,358214,1,0,2:2:0:0:
315,300,358328,6,0,B|199:294,1,94.9999974632264,8|0,2:2|2:2,2:2:0:0:
411,338,358782,2,0,P|415:282|401:235,1,94.9999974632264,8|8,1:1|2:2,2:2:0:0:
408,247,359123,1,0,2:2:0:0:
411,249,359237,5,8,2:2:0:0:
256,204,359464,1,0,2:2:0:0:
469,145,359692,2,0,L|360:148,1,94.9999974632264,8|8,1:1|2:2,2:2:0:0:
378,145,360032,1,0,2:2:0:0:
381,142,360146,5,8,2:2:0:0:
256,204,360373,2,0,P|245:157|251:107,1,94.9999974632264,0|2,2:2|2:2,2:2:0:0:
157,139,360714,1,2,2:2:0:0:
62,121,360828,1,10,2:2:0:0:
58,117,360942,1,10,2:2:0:0:
55,112,361055,6,0,P|44:65|50:15,1,94.9999974632264,14|0,1:1|2:2,2:2:0:0:
243,17,361520,2,0,P|254:64|248:114,1,94.9999974632264,8|8,1:1|2:2,2:2:0:0:
252,107,361860,1,0,2:2:0:0:
255,104,361974,5,8,2:2:0:0:
438,52,362211,2,0,B|316:48,1,94.9999974632264,0|8,2:2|1:1,2:2:0:0:
478,202,362675,1,8,2:2:0:0:
478,202,362788,1,0,2:2:0:0:
478,202,362902,5,8,2:2:0:0:
375,332,363129,2,0,P|370:283|385:222,1,94.9999974632264,0|8,2:2|1:1,2:2:0:0:
276,312,363584,1,8,2:2:0:0:
273,315,363697,1,0,2:2:0:0:
270,318,363811,5,8,2:2:0:0:
167,238,364038,2,0,P|175:284|170:331,1,94.9999974632264,0|8,2:2|1:1,2:2:0:0:
85,287,364379,1,2,2:2:0:0:
83,189,364493,1,10,2:2:0:0:
86,185,364606,1,10,2:2:0:0:
89,182,364717,6,0,P|122:154|174:143,1,89.9999972534181,14|0,1:1|2:2,2:2:0:0:
10,120,365175,1,8,1:1:0:0:
252,190,365414,2,0,P|261:170|264:144,1,44.999998626709,8|0,2:2|2:2,2:2:0:0:
187,45,365643,6,0,B|306:50,2,89.9999972534181,8|0|8,2:2|2:2|1:1,2:2:0:0:
409,216,366330,2,0,P|400:196|397:170,1,44.999998626709,8|0,2:2|2:2,2:2:0:0:
464,75,366559,6,0,L|344:78,2,89.9999972534181,8|0|8,2:2|2:2|1:1,2:2:0:0:
276,48,367246,2,0,P|270:70|272:97,1,44.999998626709,8|0,2:2|2:2,2:2:0:0:
187,45,367475,6,0,P|182:90|196:146,2,89.9999972534181,8|0|2,2:2|2:2|2:2,2:2:0:0:
95,64,368047,1,2,2:2:0:0:
7,33,368162,1,10,2:2:0:0:
10,35,368276,1,10,2:2:0:0:
13,38,368391,6,0,P|18:82|6:127,2,89.9999972534181,14|0|8,1:1|2:2|1:1,2:2:0:0:
96,205,369078,2,0,P|96:182|102:153,1,44.999998626709,8|0,2:2|2:2,2:2:0:0:
60,296,369307,6,0,B|185:292,2,89.9999972534181,8|0|8,2:2|2:2|1:1,2:2:0:0:
249,309,369994,2,0,P|249:286|243:257,1,44.999998626709,8|0,2:2|2:2,2:2:0:0:
344,283,370221,6,0,L|433:288,2,89.9999972534181,8|0|8,2:2|2:2|1:1,2:2:0:0:
472,129,370913,2,0,L|415:132,1,44.999998626709,8|0,2:2|2:2,2:2:0:0:
332,105,371144,6,0,P|331:150|315:191,2,89.9999972534181,8|0|2,2:2|2:2|2:2,2:2:0:0:
243,73,371711,1,2,2:2:0:0:
164,120,371826,1,10,2:2:0:0:
162,124,371941,1,10,2:2:0:0:
161,128,372057,6,0,B|259:132,1,89.9999972534181,14|0,1:1|2:2,2:2:0:0:
76,86,372518,1,8,1:1:0:0:
217,222,372749,2,0,L|294:226,1,44.999998626709,8|0,2:2|2:2,2:2:0:0:
354,193,372980,6,0,P|354:238|376:281,1,89.9999972534181,8|0,2:2|2:2,2:2:0:0:
217,222,373441,1,8,1:1:0:0:
489,211,373672,2,0,L|424:213,1,44.999998626709,8|0,2:2|2:2,2:2:0:0:
512,116,373903,6,0,L|404:120,1,89.9999972534181,8|0,2:2|2:2,2:2:0:0:
504,0,374364,1,8,1:1:0:0:
336,156,374595,2,0,P|328:134|328:104,1,44.999998626709,8|0,2:2|2:2,2:2:0:0:
381,30,374826,6,0,L|284:34,1,89.9999972534181,8|0,2:2|2:2,2:2:0:0:
110,15,375287,1,2,2:2:0:0:
113,18,375403,1,2,2:2:0:0:
115,21,375518,1,10,2:2:0:0:
117,24,375634,1,10,2:2:0:0:
118,27,375739,6,0,P|117:70|98:118,2,85.0000016212464,14|0|8,1:1|2:2|1:1,2:2:0:0:
63,193,376431,2,0,P|83:202|107:202,2,42.5000008106232,8|0|8,2:2|2:2|2:2,2:2:0:0:
193,254,376892,2,0,L|189:156,1,85.0000016212464,0|8,2:2|1:1,2:2:0:0:
367,239,377354,6,0,L|375:192,2,42.5000008106232,8|0|8,2:2|2:2|2:2,2:2:0:0:
307,354,377812,2,0,P|346:369|390:368,1,85.0000016212464,0|8,2:2|1:1,2:2:0:0:
162,362,378270,2,0,P|139:369|112:368,2,42.5000008106232,8|0|8,2:2|2:2|2:2,2:2:0:0:
281,211,378728,1,0,2:2:0:0:
465,315,378947,1,2,2:2:0:0:
469,315,379061,1,2,2:2:0:0:
474,314,379176,1,10,2:2:0:0:
478,313,379290,1,10,2:2:0:0:
481,310,379405,6,0,P|492:268|486:226,2,85.0000016212464,14|0|8,1:1|2:2|1:1,2:2:0:0:
363,282,380102,2,0,P|361:260|370:231,2,42.5000008106232,8|0|8,2:2|2:2|2:2,2:2:0:0:
481,310,380560,2,0,P|492:268|486:226,1,85.0000016212464,0|8,2:2|1:1,2:2:0:0:
422,113,381018,6,0,P|443:112|464:104,2,42.5000008106232,8|0|8,2:2|2:2|2:2,2:2:0:0:
285,90,381476,1,8,2:2:0:0:
287,93,381590,1,0,2:2:0:0:
288,97,381705,6,0,P|273:112|255:122,1,42.5000008106232,10|0,2:2|2:2,2:2:0:0:
132,132,381934,2,0,P|146:116|164:106,1,42.5000008106232,8|0,2:2|2:2,2:2:0:0:
280,155,382163,2,0,P|264:140|254:122,1,42.5000008106232,10|0,2:2|2:2,2:2:0:0:
196,0,382392,2,0,P|211:14|221:32,1,42.5000008106232,10|0,2:2|2:2,2:2:0:0:
180,218,382611,5,8,2:2:0:0:
203,182,382725,1,8,2:2:0:0:
239,160,382840,1,10,2:2:0:0:
280,155,382954,1,10,2:2:0:0:
272,252,383069,2,0,B|420:178|387:59|387:59|344:98|312:113|312:113|281:132|241:112|241:112|227:138|230:154|230:154|163:91|86:91|86:91|169:143|161:235|161:235|122:236|84:250|84:250|150:229|196:230|196:230|201:240|201:240|224:239|224:239|249:234|249:234|269:256|325:223|385:236|415:245|415:245|384:265,1,1250,14|0,1:1|0:0,0:0:0:0:
