osu file format v14

[General]
AudioFilename: Jackhammer Madness.mp3
AudioLeadIn: 0
PreviewTime: -1
Countdown: 1
SampleSet: None
StackLeniency: 0.7
Mode: 3
LetterboxInBreaks: 1
SpecialStyle: 0
WidescreenStoryboard: 1

[Editor]
DistanceSpacing: 0.8
BeatDivisor: 4
GridSize: 8
TimelineZoom: 3.799999

[Metadata]
Title:Jackhammer Madness
TitleUnicode:Jackhammer Madness
Artist:Flypie743
ArtistUnicode:Flypie743
Creator:_Gaster
Version:HEPTAGONAL PRISM
Source:Stepmania
Tags:
BeatmapID:1349269
BeatmapSetID:635844

[Difficulty]
HPDrainRate:6
CircleSize:14
OverallDifficulty:6
ApproachRate:5
SliderMultiplier:1.4
SliderTickRate:1

[Events]
//Background and Video events
0,0,"Jackhammer Madness-bg.jpg",0,0
//Break Periods
//Storyboard Layer 0 (Background)
//Storyboard Layer 1 (Fail)
//Storyboard Layer 2 (Pass)
//Storyboard Layer 3 (Foreground)
//Storyboard Sound Samples

[TimingPoints]
2,300,4,1,0,100,1,0

[HitObjects]
25,192,2,5,0,0:0:0:0:
64,192,2,5,0,0:0:0:0:
164,192,2,1,0,0:0:0:0:
347,192,2,1,0,0:0:0:0:
109,192,2,1,0,0:0:0:0:
320,192,2,1,0,0:0:0:0:
420,192,2,1,0,0:0:0:0:
128,192,2,1,0,0:0:0:0:
256,192,2,1,0,0:0:0:0:
384,192,2,1,0,0:0:0:0:
230,192,2,1,0,0:0:0:0:
192,192,2,1,0,0:0:0:0:
486,192,2,1,0,0:0:0:0:
448,192,2,1,0,0:0:0:0:
164,192,77,1,0,0:0:0:0:
347,192,77,1,0,0:0:0:0:
25,192,77,1,0,0:0:0:0:
109,192,77,1,0,0:0:0:0:
320,192,77,1,0,0:0:0:0:
420,192,77,1,0,0:0:0:0:
128,192,77,1,0,0:0:0:0:
64,192,77,1,0,0:0:0:0:
256,192,77,1,0,0:0:0:0:
384,192,77,1,0,0:0:0:0:
230,192,77,1,0,0:0:0:0:
192,192,77,1,0,0:0:0:0:
486,192,77,1,0,0:0:0:0:
448,192,77,1,0,0:0:0:0:
25,192,152,1,0,0:0:0:0:
164,192,152,1,0,0:0:0:0:
347,192,152,1,0,0:0:0:0:
109,192,152,1,0,0:0:0:0:
320,192,152,1,0,0:0:0:0:
420,192,152,1,0,0:0:0:0:
128,192,152,1,0,0:0:0:0:
64,192,152,1,0,0:0:0:0:
256,192,152,1,0,0:0:0:0:
384,192,152,1,0,0:0:0:0:
230,192,152,1,0,0:0:0:0:
192,192,152,1,0,0:0:0:0:
486,192,152,1,0,0:0:0:0:
448,192,152,1,0,0:0:0:0:
25,192,227,1,0,0:0:0:0:
164,192,227,1,0,0:0:0:0:
347,192,227,1,0,0:0:0:0:
109,192,227,1,0,0:0:0:0:
320,192,227,1,0,0:0:0:0:
420,192,227,1,0,0:0:0:0:
128,192,227,1,0,0:0:0:0:
64,192,227,1,0,0:0:0:0:
256,192,227,1,0,0:0:0:0:
384,192,227,1,0,0:0:0:0:
230,192,227,1,0,0:0:0:0:
192,192,227,1,0,0:0:0:0:
486,192,227,1,0,0:0:0:0:
448,192,227,1,0,0:0:0:0:
25,192,302,1,0,0:0:0:0:
109,192,302,1,0,0:0:0:0:
164,192,302,1,0,0:0:0:0:
347,192,302,1,0,0:0:0:0:
128,192,302,1,0,0:0:0:0:
320,192,302,1,0,0:0:0:0:
420,192,302,1,0,0:0:0:0:
64,192,302,1,0,0:0:0:0:
256,192,302,1,0,0:0:0:0:
384,192,302,1,0,0:0:0:0:
230,192,302,1,0,0:0:0:0:
192,192,302,1,0,0:0:0:0:
486,192,302,1,0,0:0:0:0:
448,192,302,1,0,0:0:0:0:
25,192,377,1,0,0:0:0:0:
109,192,377,1,0,0:0:0:0:
164,192,377,1,0,0:0:0:0:
347,192,377,1,0,0:0:0:0:
128,192,377,1,0,0:0:0:0:
320,192,377,1,0,0:0:0:0:
420,192,377,1,0,0:0:0:0:
64,192,377,1,0,0:0:0:0:
256,192,377,1,0,0:0:0:0:
384,192,377,1,0,0:0:0:0:
230,192,377,1,0,0:0:0:0:
192,192,377,1,0,0:0:0:0:
486,192,377,1,0,0:0:0:0:
448,192,377,1,0,0:0:0:0:
109,192,452,1,0,0:0:0:0:
25,192,452,1,0,0:0:0:0:
164,192,452,1,0,0:0:0:0:
347,192,452,1,0,0:0:0:0:
128,192,452,1,0,0:0:0:0:
320,192,452,1,0,0:0:0:0:
420,192,452,1,0,0:0:0:0:
64,192,452,1,0,0:0:0:0:
256,192,452,1,0,0:0:0:0:
384,192,452,1,0,0:0:0:0:
230,192,452,1,0,0:0:0:0:
192,192,452,1,0,0:0:0:0:
486,192,452,1,0,0:0:0:0:
448,192,452,1,0,0:0:0:0:
25,192,527,1,0,0:0:0:0:
164,192,527,1,0,0:0:0:0:
347,192,527,1,0,0:0:0:0:
109,192,527,1,0,0:0:0:0:
320,192,527,1,0,0:0:0:0:
420,192,527,1,0,0:0:0:0:
128,192,527,1,0,0:0:0:0:
64,192,527,1,0,0:0:0:0:
256,192,527,1,0,0:0:0:0:
384,192,527,1,0,0:0:0:0:
230,192,527,1,0,0:0:0:0:
192,192,527,1,0,0:0:0:0:
486,192,527,1,0,0:0:0:0:
448,192,527,1,0,0:0:0:0:
109,192,602,1,0,0:0:0:0:
25,192,602,1,0,0:0:0:0:
164,192,602,1,0,0:0:0:0:
347,192,602,1,0,0:0:0:0:
128,192,602,1,0,0:0:0:0:
320,192,602,1,0,0:0:0:0:
420,192,602,1,0,0:0:0:0:
64,192,602,1,0,0:0:0:0:
256,192,602,1,0,0:0:0:0:
384,192,602,1,0,0:0:0:0:
230,192,602,1,0,0:0:0:0:
192,192,602,1,0,0:0:0:0:
486,192,602,1,0,0:0:0:0:
448,192,602,1,0,0:0:0:0:
25,192,677,1,0,0:0:0:0:
164,192,677,1,0,0:0:0:0:
347,192,677,1,0,0:0:0:0:
109,192,677,1,0,0:0:0:0:
320,192,677,1,0,0:0:0:0:
420,192,677,1,0,0:0:0:0:
128,192,677,1,0,0:0:0:0:
64,192,677,1,0,0:0:0:0:
256,192,677,1,0,0:0:0:0:
384,192,677,1,0,0:0:0:0:
230,192,677,1,0,0:0:0:0:
192,192,677,1,0,0:0:0:0:
486,192,677,1,0,0:0:0:0:
448,192,677,1,0,0:0:0:0:
109,192,752,1,0,0:0:0:0:
25,192,752,1,0,0:0:0:0:
164,192,752,1,0,0:0:0:0:
347,192,752,1,0,0:0:0:0:
128,192,752,1,0,0:0:0:0:
320,192,752,1,0,0:0:0:0:
420,192,752,1,0,0:0:0:0:
64,192,752,1,0,0:0:0:0:
256,192,752,1,0,0:0:0:0:
384,192,752,1,0,0:0:0:0:
230,192,752,1,0,0:0:0:0:
192,192,752,1,0,0:0:0:0:
486,192,752,1,0,0:0:0:0:
448,192,752,1,0,0:0:0:0:
25,192,827,1,0,0:0:0:0:
109,192,827,1,0,0:0:0:0:
164,192,827,1,0,0:0:0:0:
347,192,827,1,0,0:0:0:0:
128,192,827,1,0,0:0:0:0:
320,192,827,1,0,0:0:0:0:
420,192,827,1,0,0:0:0:0:
64,192,827,1,0,0:0:0:0:
256,192,827,1,0,0:0:0:0:
384,192,827,1,0,0:0:0:0:
230,192,827,1,0,0:0:0:0:
192,192,827,1,0,0:0:0:0:
486,192,827,1,0,0:0:0:0:
448,192,827,1,0,0:0:0:0:
164,192,902,1,0,0:0:0:0:
347,192,902,1,0,0:0:0:0:
109,192,902,1,0,0:0:0:0:
25,192,902,1,0,0:0:0:0:
320,192,902,1,0,0:0:0:0:
420,192,902,1,0,0:0:0:0:
128,192,902,1,0,0:0:0:0:
64,192,902,1,0,0:0:0:0:
256,192,902,1,0,0:0:0:0:
384,192,902,1,0,0:0:0:0:
230,192,902,1,0,0:0:0:0:
192,192,902,1,0,0:0:0:0:
486,192,902,1,0,0:0:0:0:
448,192,902,1,0,0:0:0:0:
25,192,977,1,0,0:0:0:0:
109,192,977,1,0,0:0:0:0:
164,192,977,1,0,0:0:0:0:
347,192,977,1,0,0:0:0:0:
128,192,977,1,0,0:0:0:0:
320,192,977,1,0,0:0:0:0:
420,192,977,1,0,0:0:0:0:
64,192,977,1,0,0:0:0:0:
256,192,977,1,0,0:0:0:0:
384,192,977,1,0,0:0:0:0:
230,192,977,1,0,0:0:0:0:
192,192,977,1,0,0:0:0:0:
486,192,977,1,0,0:0:0:0:
448,192,977,1,0,0:0:0:0:
109,192,1052,1,0,0:0:0:0:
25,192,1052,1,0,0:0:0:0:
164,192,1052,1,0,0:0:0:0:
347,192,1052,1,0,0:0:0:0:
128,192,1052,1,0,0:0:0:0:
320,192,1052,1,0,0:0:0:0:
420,192,1052,1,0,0:0:0:0:
64,192,1052,1,0,0:0:0:0:
256,192,1052,1,0,0:0:0:0:
384,192,1052,1,0,0:0:0:0:
230,192,1052,1,0,0:0:0:0:
192,192,1052,1,0,0:0:0:0:
486,192,1052,1,0,0:0:0:0:
448,192,1052,1,0,0:0:0:0:
164,192,1127,1,0,0:0:0:0:
347,192,1127,1,0,0:0:0:0:
25,192,1127,1,0,0:0:0:0:
109,192,1127,1,0,0:0:0:0:
320,192,1127,1,0,0:0:0:0:
420,192,1127,1,0,0:0:0:0:
128,192,1127,1,0,0:0:0:0:
64,192,1127,1,0,0:0:0:0:
256,192,1127,1,0,0:0:0:0:
384,192,1127,1,0,0:0:0:0:
230,192,1127,1,0,0:0:0:0:
192,192,1127,1,0,0:0:0:0:
486,192,1127,1,0,0:0:0:0:
448,192,1127,1,0,0:0:0:0:
25,192,1202,1,0,0:0:0:0:
109,192,1202,1,0,0:0:0:0:
164,192,1202,1,0,0:0:0:0:
347,192,1202,1,0,0:0:0:0:
128,192,1202,1,0,0:0:0:0:
320,192,1202,1,0,0:0:0:0:
420,192,1202,1,0,0:0:0:0:
64,192,1202,1,0,0:0:0:0:
256,192,1202,1,0,0:0:0:0:
384,192,1202,1,0,0:0:0:0:
230,192,1202,1,0,0:0:0:0:
192,192,1202,1,0,0:0:0:0:
486,192,1202,1,0,0:0:0:0:
448,192,1202,1,0,0:0:0:0:
109,192,1277,1,0,0:0:0:0:
25,192,1277,1,0,0:0:0:0:
164,192,1277,1,0,0:0:0:0:
347,192,1277,1,0,0:0:0:0:
128,192,1277,1,0,0:0:0:0:
320,192,1277,1,0,0:0:0:0:
420,192,1277,1,0,0:0:0:0:
64,192,1277,1,0,0:0:0:0:
256,192,1277,1,0,0:0:0:0:
384,192,1277,1,0,0:0:0:0:
230,192,1277,1,0,0:0:0:0:
192,192,1277,1,0,0:0:0:0:
486,192,1277,1,0,0:0:0:0:
448,192,1277,1,0,0:0:0:0:
25,192,1352,1,0,0:0:0:0:
109,192,1352,1,0,0:0:0:0:
164,192,1352,1,0,0:0:0:0:
347,192,1352,1,0,0:0:0:0:
128,192,1352,1,0,0:0:0:0:
320,192,1352,1,0,0:0:0:0:
420,192,1352,1,0,0:0:0:0:
64,192,1352,1,0,0:0:0:0:
256,192,1352,1,0,0:0:0:0:
384,192,1352,1,0,0:0:0:0:
230,192,1352,1,0,0:0:0:0:
192,192,1352,1,0,0:0:0:0:
486,192,1352,1,0,0:0:0:0:
448,192,1352,1,0,0:0:0:0:
109,192,1427,1,0,0:0:0:0:
164,192,1427,1,0,0:0:0:0:
347,192,1427,1,0,0:0:0:0:
25,192,1427,1,0,0:0:0:0:
128,192,1427,1,0,0:0:0:0:
320,192,1427,1,0,0:0:0:0:
420,192,1427,1,0,0:0:0:0:
64,192,1427,1,0,0:0:0:0:
256,192,1427,1,0,0:0:0:0:
384,192,1427,1,0,0:0:0:0:
230,192,1427,1,0,0:0:0:0:
192,192,1427,1,0,0:0:0:0:
486,192,1427,1,0,0:0:0:0:
448,192,1427,1,0,0:0:0:0:
25,192,1502,1,0,0:0:0:0:
109,192,1502,1,0,0:0:0:0:
164,192,1502,1,0,0:0:0:0:
347,192,1502,1,0,0:0:0:0:
128,192,1502,1,0,0:0:0:0:
320,192,1502,1,0,0:0:0:0:
420,192,1502,1,0,0:0:0:0:
64,192,1502,1,0,0:0:0:0:
256,192,1502,1,0,0:0:0:0:
384,192,1502,1,0,0:0:0:0:
230,192,1502,1,0,0:0:0:0:
192,192,1502,1,0,0:0:0:0:
486,192,1502,1,0,0:0:0:0:
448,192,1502,1,0,0:0:0:0:
164,192,1577,1,0,0:0:0:0:
347,192,1577,1,0,0:0:0:0:
109,192,1577,1,0,0:0:0:0:
25,192,1577,1,0,0:0:0:0:
320,192,1577,1,0,0:0:0:0:
420,192,1577,1,0,0:0:0:0:
128,192,1577,1,0,0:0:0:0:
64,192,1577,1,0,0:0:0:0:
256,192,1577,1,0,0:0:0:0:
384,192,1577,1,0,0:0:0:0:
230,192,1577,1,0,0:0:0:0:
192,192,1577,1,0,0:0:0:0:
486,192,1577,1,0,0:0:0:0:
448,192,1577,1,0,0:0:0:0:
25,192,1652,1,0,0:0:0:0:
109,192,1652,1,0,0:0:0:0:
164,192,1652,1,0,0:0:0:0:
347,192,1652,1,0,0:0:0:0:
128,192,1652,1,0,0:0:0:0:
320,192,1652,1,0,0:0:0:0:
420,192,1652,1,0,0:0:0:0:
64,192,1652,1,0,0:0:0:0:
256,192,1652,1,0,0:0:0:0:
384,192,1652,1,0,0:0:0:0:
230,192,1652,1,0,0:0:0:0:
192,192,1652,1,0,0:0:0:0:
486,192,1652,1,0,0:0:0:0:
448,192,1652,1,0,0:0:0:0:
109,192,1727,1,0,0:0:0:0:
347,192,1727,1,0,0:0:0:0:
25,192,1727,1,0,0:0:0:0:
164,192,1727,1,0,0:0:0:0:
128,192,1727,1,0,0:0:0:0:
420,192,1727,1,0,0:0:0:0:
320,192,1727,1,0,0:0:0:0:
64,192,1727,1,0,0:0:0:0:
256,192,1727,1,0,0:0:0:0:
384,192,1727,1,0,0:0:0:0:
230,192,1727,1,0,0:0:0:0:
192,192,1727,1,0,0:0:0:0:
486,192,1727,1,0,0:0:0:0:
448,192,1727,1,0,0:0:0:0:
25,192,1802,1,0,0:0:0:0:
109,192,1802,1,0,0:0:0:0:
164,192,1802,1,0,0:0:0:0:
347,192,1802,1,0,0:0:0:0:
128,192,1802,1,0,0:0:0:0:
320,192,1802,1,0,0:0:0:0:
420,192,1802,1,0,0:0:0:0:
64,192,1802,1,0,0:0:0:0:
256,192,1802,1,0,0:0:0:0:
384,192,1802,1,0,0:0:0:0:
230,192,1802,1,0,0:0:0:0:
192,192,1802,1,0,0:0:0:0:
486,192,1802,1,0,0:0:0:0:
448,192,1802,1,0,0:0:0:0:
109,192,1877,1,0,0:0:0:0:
164,192,1877,1,0,0:0:0:0:
25,192,1877,1,0,0:0:0:0:
347,192,1877,1,0,0:0:0:0:
128,192,1877,1,0,0:0:0:0:
320,192,1877,1,0,0:0:0:0:
420,192,1877,1,0,0:0:0:0:
64,192,1877,1,0,0:0:0:0:
256,192,1877,1,0,0:0:0:0:
384,192,1877,1,0,0:0:0:0:
230,192,1877,1,0,0:0:0:0:
192,192,1877,1,0,0:0:0:0:
486,192,1877,1,0,0:0:0:0:
448,192,1877,1,0,0:0:0:0:
25,192,1952,1,0,0:0:0:0:
109,192,1952,1,0,0:0:0:0:
164,192,1952,1,0,0:0:0:0:
347,192,1952,1,0,0:0:0:0:
128,192,1952,1,0,0:0:0:0:
320,192,1952,1,0,0:0:0:0:
420,192,1952,1,0,0:0:0:0:
64,192,1952,1,0,0:0:0:0:
256,192,1952,1,0,0:0:0:0:
384,192,1952,1,0,0:0:0:0:
230,192,1952,1,0,0:0:0:0:
192,192,1952,1,0,0:0:0:0:
486,192,1952,1,0,0:0:0:0:
448,192,1952,1,0,0:0:0:0:
164,192,2027,1,0,0:0:0:0:
347,192,2027,1,0,0:0:0:0:
109,192,2027,1,0,0:0:0:0:
25,192,2027,1,0,0:0:0:0:
320,192,2027,1,0,0:0:0:0:
420,192,2027,1,0,0:0:0:0:
128,192,2027,1,0,0:0:0:0:
64,192,2027,1,0,0:0:0:0:
256,192,2027,1,0,0:0:0:0:
384,192,2027,1,0,0:0:0:0:
230,192,2027,1,0,0:0:0:0:
192,192,2027,1,0,0:0:0:0:
486,192,2027,1,0,0:0:0:0:
448,192,2027,1,0,0:0:0:0:
25,192,2102,1,0,0:0:0:0:
109,192,2102,1,0,0:0:0:0:
164,192,2102,1,0,0:0:0:0:
347,192,2102,1,0,0:0:0:0:
128,192,2102,1,0,0:0:0:0:
320,192,2102,1,0,0:0:0:0:
420,192,2102,1,0,0:0:0:0:
64,192,2102,1,0,0:0:0:0:
256,192,2102,1,0,0:0:0:0:
384,192,2102,1,0,0:0:0:0:
230,192,2102,1,0,0:0:0:0:
192,192,2102,1,0,0:0:0:0:
486,192,2102,1,0,0:0:0:0:
448,192,2102,1,0,0:0:0:0:
164,192,2177,1,0,0:0:0:0:
347,192,2177,1,0,0:0:0:0:
25,192,2177,1,0,0:0:0:0:
109,192,2177,1,0,0:0:0:0:
320,192,2177,1,0,0:0:0:0:
420,192,2177,1,0,0:0:0:0:
128,192,2177,1,0,0:0:0:0:
64,192,2177,1,0,0:0:0:0:
256,192,2177,1,0,0:0:0:0:
384,192,2177,1,0,0:0:0:0:
230,192,2177,1,0,0:0:0:0:
192,192,2177,1,0,0:0:0:0:
486,192,2177,1,0,0:0:0:0:
448,192,2177,1,0,0:0:0:0:
164,192,2252,1,0,0:0:0:0:
347,192,2252,1,0,0:0:0:0:
109,192,2252,1,0,0:0:0:0:
25,192,2252,1,0,0:0:0:0:
320,192,2252,1,0,0:0:0:0:
420,192,2252,1,0,0:0:0:0:
128,192,2252,1,0,0:0:0:0:
64,192,2252,1,0,0:0:0:0:
256,192,2252,1,0,0:0:0:0:
384,192,2252,1,0,0:0:0:0:
230,192,2252,1,0,0:0:0:0:
192,192,2252,1,0,0:0:0:0:
486,192,2252,1,0,0:0:0:0:
448,192,2252,1,0,0:0:0:0:
109,192,2327,1,0,0:0:0:0:
25,192,2327,1,0,0:0:0:0:
164,192,2327,1,0,0:0:0:0:
347,192,2327,1,0,0:0:0:0:
128,192,2327,1,0,0:0:0:0:
320,192,2327,1,0,0:0:0:0:
420,192,2327,1,0,0:0:0:0:
64,192,2327,1,0,0:0:0:0:
256,192,2327,1,0,0:0:0:0:
384,192,2327,1,0,0:0:0:0:
230,192,2327,1,0,0:0:0:0:
192,192,2327,1,0,0:0:0:0:
486,192,2327,1,0,0:0:0:0:
448,192,2327,1,0,0:0:0:0:
25,192,2402,1,0,0:0:0:0:
109,192,2402,1,0,0:0:0:0:
164,192,2402,1,0,0:0:0:0:
347,192,2402,1,0,0:0:0:0:
128,192,2402,1,0,0:0:0:0:
320,192,2402,1,0,0:0:0:0:
420,192,2402,1,0,0:0:0:0:
64,192,2402,1,0,0:0:0:0:
256,192,2402,1,0,0:0:0:0:
384,192,2402,1,0,0:0:0:0:
230,192,2402,1,0,0:0:0:0:
192,192,2402,1,0,0:0:0:0:
486,192,2402,1,0,0:0:0:0:
448,192,2402,1,0,0:0:0:0:
25,192,2477,1,0,0:0:0:0:
109,192,2477,1,0,0:0:0:0:
164,192,2477,1,0,0:0:0:0:
347,192,2477,1,0,0:0:0:0:
128,192,2477,1,0,0:0:0:0:
320,192,2477,1,0,0:0:0:0:
420,192,2477,1,0,0:0:0:0:
64,192,2477,1,0,0:0:0:0:
256,192,2477,1,0,0:0:0:0:
384,192,2477,1,0,0:0:0:0:
230,192,2477,1,0,0:0:0:0:
192,192,2477,1,0,0:0:0:0:
486,192,2477,1,0,0:0:0:0:
448,192,2477,1,0,0:0:0:0:
109,192,2552,1,0,0:0:0:0:
25,192,2552,1,0,0:0:0:0:
164,192,2552,1,0,0:0:0:0:
347,192,2552,1,0,0:0:0:0:
128,192,2552,1,0,0:0:0:0:
320,192,2552,1,0,0:0:0:0:
420,192,2552,1,0,0:0:0:0:
64,192,2552,1,0,0:0:0:0:
256,192,2552,1,0,0:0:0:0:
384,192,2552,1,0,0:0:0:0:
230,192,2552,1,0,0:0:0:0:
192,192,2552,1,0,0:0:0:0:
486,192,2552,1,0,0:0:0:0:
448,192,2552,1,0,0:0:0:0:
164,192,2627,1,0,0:0:0:0:
347,192,2627,1,0,0:0:0:0:
25,192,2627,1,0,0:0:0:0:
109,192,2627,1,0,0:0:0:0:
320,192,2627,1,0,0:0:0:0:
420,192,2627,1,0,0:0:0:0:
128,192,2627,1,0,0:0:0:0:
64,192,2627,1,0,0:0:0:0:
256,192,2627,1,0,0:0:0:0:
384,192,2627,1,0,0:0:0:0:
230,192,2627,1,0,0:0:0:0:
192,192,2627,1,0,0:0:0:0:
486,192,2627,1,0,0:0:0:0:
448,192,2627,1,0,0:0:0:0:
25,192,2702,1,0,0:0:0:0:
109,192,2702,1,0,0:0:0:0:
164,192,2702,1,0,0:0:0:0:
347,192,2702,1,0,0:0:0:0:
128,192,2702,1,0,0:0:0:0:
320,192,2702,1,0,0:0:0:0:
420,192,2702,1,0,0:0:0:0:
64,192,2702,1,0,0:0:0:0:
256,192,2702,1,0,0:0:0:0:
384,192,2702,1,0,0:0:0:0:
230,192,2702,1,0,0:0:0:0:
192,192,2702,1,0,0:0:0:0:
486,192,2702,1,0,0:0:0:0:
448,192,2702,1,0,0:0:0:0:
164,192,2777,1,0,0:0:0:0:
347,192,2777,1,0,0:0:0:0:
25,192,2777,1,0,0:0:0:0:
109,192,2777,1,0,0:0:0:0:
320,192,2777,1,0,0:0:0:0:
420,192,2777,1,0,0:0:0:0:
128,192,2777,1,0,0:0:0:0:
64,192,2777,1,0,0:0:0:0:
256,192,2777,1,0,0:0:0:0:
384,192,2777,1,0,0:0:0:0:
230,192,2777,1,0,0:0:0:0:
192,192,2777,1,0,0:0:0:0:
486,192,2777,1,0,0:0:0:0:
448,192,2777,1,0,0:0:0:0:
25,192,2852,1,0,0:0:0:0:
109,192,2852,1,0,0:0:0:0:
164,192,2852,1,0,0:0:0:0:
347,192,2852,1,0,0:0:0:0:
128,192,2852,1,0,0:0:0:0:
320,192,2852,1,0,0:0:0:0:
420,192,2852,1,0,0:0:0:0:
64,192,2852,1,0,0:0:0:0:
256,192,2852,1,0,0:0:0:0:
384,192,2852,1,0,0:0:0:0:
230,192,2852,1,0,0:0:0:0:
192,192,2852,1,0,0:0:0:0:
486,192,2852,1,0,0:0:0:0:
448,192,2852,1,0,0:0:0:0:
164,192,2927,1,0,0:0:0:0:
347,192,2927,1,0,0:0:0:0:
109,192,2927,1,0,0:0:0:0:
25,192,2927,1,0,0:0:0:0:
320,192,2927,1,0,0:0:0:0:
420,192,2927,1,0,0:0:0:0:
128,192,2927,1,0,0:0:0:0:
64,192,2927,1,0,0:0:0:0:
256,192,2927,1,0,0:0:0:0:
384,192,2927,1,0,0:0:0:0:
230,192,2927,1,0,0:0:0:0:
192,192,2927,1,0,0:0:0:0:
486,192,2927,1,0,0:0:0:0:
448,192,2927,1,0,0:0:0:0:
25,192,3002,1,0,0:0:0:0:
109,192,3002,1,0,0:0:0:0:
164,192,3002,1,0,0:0:0:0:
347,192,3002,1,0,0:0:0:0:
128,192,3002,1,0,0:0:0:0:
320,192,3002,1,0,0:0:0:0:
420,192,3002,1,0,0:0:0:0:
64,192,3002,1,0,0:0:0:0:
256,192,3002,1,0,0:0:0:0:
384,192,3002,1,0,0:0:0:0:
230,192,3002,1,0,0:0:0:0:
192,192,3002,1,0,0:0:0:0:
486,192,3002,1,0,0:0:0:0:
448,192,3002,1,0,0:0:0:0:
25,192,3077,1,0,0:0:0:0:
109,192,3077,1,0,0:0:0:0:
164,192,3077,1,0,0:0:0:0:
347,192,3077,1,0,0:0:0:0:
128,192,3077,1,0,0:0:0:0:
320,192,3077,1,0,0:0:0:0:
420,192,3077,1,0,0:0:0:0:
64,192,3077,1,0,0:0:0:0:
256,192,3077,1,0,0:0:0:0:
384,192,3077,1,0,0:0:0:0:
230,192,3077,1,0,0:0:0:0:
192,192,3077,1,0,0:0:0:0:
486,192,3077,1,0,0:0:0:0:
448,192,3077,1,0,0:0:0:0:
164,192,3152,1,0,0:0:0:0:
347,192,3152,1,0,0:0:0:0:
25,192,3152,1,0,0:0:0:0:
109,192,3152,1,0,0:0:0:0:
320,192,3152,1,0,0:0:0:0:
420,192,3152,1,0,0:0:0:0:
128,192,3152,1,0,0:0:0:0:
64,192,3152,1,0,0:0:0:0:
256,192,3152,1,0,0:0:0:0:
384,192,3152,1,0,0:0:0:0:
230,192,3152,1,0,0:0:0:0:
192,192,3152,1,0,0:0:0:0:
486,192,3152,1,0,0:0:0:0:
448,192,3152,1,0,0:0:0:0:
25,192,3227,1,0,0:0:0:0:
109,192,3227,1,0,0:0:0:0:
164,192,3227,1,0,0:0:0:0:
347,192,3227,1,0,0:0:0:0:
128,192,3227,1,0,0:0:0:0:
320,192,3227,1,0,0:0:0:0:
420,192,3227,1,0,0:0:0:0:
64,192,3227,1,0,0:0:0:0:
256,192,3227,1,0,0:0:0:0:
384,192,3227,1,0,0:0:0:0:
230,192,3227,1,0,0:0:0:0:
192,192,3227,1,0,0:0:0:0:
486,192,3227,1,0,0:0:0:0:
448,192,3227,1,0,0:0:0:0:
164,192,3302,1,0,0:0:0:0:
347,192,3302,1,0,0:0:0:0:
25,192,3302,1,0,0:0:0:0:
109,192,3302,1,0,0:0:0:0:
320,192,3302,1,0,0:0:0:0:
420,192,3302,1,0,0:0:0:0:
128,192,3302,1,0,0:0:0:0:
64,192,3302,1,0,0:0:0:0:
256,192,3302,1,0,0:0:0:0:
384,192,3302,1,0,0:0:0:0:
230,192,3302,1,0,0:0:0:0:
192,192,3302,1,0,0:0:0:0:
486,192,3302,1,0,0:0:0:0:
448,192,3302,1,0,0:0:0:0:
25,192,3377,1,0,0:0:0:0:
164,192,3377,1,0,0:0:0:0:
347,192,3377,1,0,0:0:0:0:
109,192,3377,1,0,0:0:0:0:
320,192,3377,1,0,0:0:0:0:
420,192,3377,1,0,0:0:0:0:
128,192,3377,1,0,0:0:0:0:
64,192,3377,1,0,0:0:0:0:
256,192,3377,1,0,0:0:0:0:
384,192,3377,1,0,0:0:0:0:
230,192,3377,1,0,0:0:0:0:
192,192,3377,1,0,0:0:0:0:
486,192,3377,1,0,0:0:0:0:
448,192,3377,1,0,0:0:0:0:
25,192,3452,1,0,0:0:0:0:
109,192,3452,1,0,0:0:0:0:
347,192,3452,1,0,0:0:0:0:
164,192,3452,1,0,0:0:0:0:
128,192,3452,1,0,0:0:0:0:
420,192,3452,1,0,0:0:0:0:
320,192,3452,1,0,0:0:0:0:
64,192,3452,1,0,0:0:0:0:
256,192,3452,1,0,0:0:0:0:
384,192,3452,1,0,0:0:0:0:
230,192,3452,1,0,0:0:0:0:
192,192,3452,1,0,0:0:0:0:
486,192,3452,1,0,0:0:0:0:
448,192,3452,1,0,0:0:0:0:
164,192,3527,1,0,0:0:0:0:
347,192,3527,1,0,0:0:0:0:
25,192,3527,1,0,0:0:0:0:
109,192,3527,1,0,0:0:0:0:
320,192,3527,1,0,0:0:0:0:
420,192,3527,1,0,0:0:0:0:
128,192,3527,1,0,0:0:0:0:
64,192,3527,1,0,0:0:0:0:
256,192,3527,1,0,0:0:0:0:
384,192,3527,1,0,0:0:0:0:
230,192,3527,1,0,0:0:0:0:
192,192,3527,1,0,0:0:0:0:
486,192,3527,1,0,0:0:0:0:
448,192,3527,1,0,0:0:0:0:
109,192,3602,1,0,0:0:0:0:
25,192,3602,1,0,0:0:0:0:
164,192,3602,1,0,0:0:0:0:
347,192,3602,1,0,0:0:0:0:
128,192,3602,1,0,0:0:0:0:
320,192,3602,1,0,0:0:0:0:
420,192,3602,1,0,0:0:0:0:
64,192,3602,1,0,0:0:0:0:
256,192,3602,1,0,0:0:0:0:
384,192,3602,1,0,0:0:0:0:
230,192,3602,1,0,0:0:0:0:
192,192,3602,1,0,0:0:0:0:
486,192,3602,1,0,0:0:0:0:
448,192,3602,1,0,0:0:0:0:
25,192,3677,1,0,0:0:0:0:
109,192,3677,1,0,0:0:0:0:
164,192,3677,1,0,0:0:0:0:
347,192,3677,1,0,0:0:0:0:
128,192,3677,1,0,0:0:0:0:
320,192,3677,1,0,0:0:0:0:
420,192,3677,1,0,0:0:0:0:
64,192,3677,1,0,0:0:0:0:
256,192,3677,1,0,0:0:0:0:
384,192,3677,1,0,0:0:0:0:
230,192,3677,1,0,0:0:0:0:
192,192,3677,1,0,0:0:0:0:
486,192,3677,1,0,0:0:0:0:
448,192,3677,1,0,0:0:0:0:
164,192,3752,1,0,0:0:0:0:
347,192,3752,1,0,0:0:0:0:
25,192,3752,1,0,0:0:0:0:
109,192,3752,1,0,0:0:0:0:
320,192,3752,1,0,0:0:0:0:
420,192,3752,1,0,0:0:0:0:
128,192,3752,1,0,0:0:0:0:
64,192,3752,1,0,0:0:0:0:
256,192,3752,1,0,0:0:0:0:
384,192,3752,1,0,0:0:0:0:
230,192,3752,1,0,0:0:0:0:
192,192,3752,1,0,0:0:0:0:
486,192,3752,1,0,0:0:0:0:
448,192,3752,1,0,0:0:0:0:
25,192,3827,1,0,0:0:0:0:
109,192,3827,1,0,0:0:0:0:
164,192,3827,1,0,0:0:0:0:
347,192,3827,1,0,0:0:0:0:
128,192,3827,1,0,0:0:0:0:
320,192,3827,1,0,0:0:0:0:
420,192,3827,1,0,0:0:0:0:
64,192,3827,1,0,0:0:0:0:
256,192,3827,1,0,0:0:0:0:
384,192,3827,1,0,0:0:0:0:
230,192,3827,1,0,0:0:0:0:
192,192,3827,1,0,0:0:0:0:
486,192,3827,1,0,0:0:0:0:
448,192,3827,1,0,0:0:0:0:
25,192,3902,1,0,0:0:0:0:
109,192,3902,1,0,0:0:0:0:
164,192,3902,1,0,0:0:0:0:
347,192,3902,1,0,0:0:0:0:
128,192,3902,1,0,0:0:0:0:
320,192,3902,1,0,0:0:0:0:
420,192,3902,1,0,0:0:0:0:
64,192,3902,1,0,0:0:0:0:
256,192,3902,1,0,0:0:0:0:
384,192,3902,1,0,0:0:0:0:
230,192,3902,1,0,0:0:0:0:
192,192,3902,1,0,0:0:0:0:
486,192,3902,1,0,0:0:0:0:
448,192,3902,1,0,0:0:0:0:
164,192,3977,1,0,0:0:0:0:
347,192,3977,1,0,0:0:0:0:
25,192,3977,1,0,0:0:0:0:
109,192,3977,1,0,0:0:0:0:
320,192,3977,1,0,0:0:0:0:
420,192,3977,1,0,0:0:0:0:
128,192,3977,1,0,0:0:0:0:
64,192,3977,1,0,0:0:0:0:
256,192,3977,1,0,0:0:0:0:
384,192,3977,1,0,0:0:0:0:
230,192,3977,1,0,0:0:0:0:
192,192,3977,1,0,0:0:0:0:
486,192,3977,1,0,0:0:0:0:
448,192,3977,1,0,0:0:0:0:
164,192,4052,1,0,0:0:0:0:
25,192,4052,1,0,0:0:0:0:
109,192,4052,1,0,0:0:0:0:
347,192,4052,1,0,0:0:0:0:
320,192,4052,1,0,0:0:0:0:
128,192,4052,1,0,0:0:0:0:
420,192,4052,1,0,0:0:0:0:
64,192,4052,1,0,0:0:0:0:
256,192,4052,1,0,0:0:0:0:
384,192,4052,1,0,0:0:0:0:
230,192,4052,1,0,0:0:0:0:
192,192,4052,1,0,0:0:0:0:
486,192,4052,1,0,0:0:0:0:
448,192,4052,1,0,0:0:0:0:
164,192,4127,1,0,0:0:0:0:
347,192,4127,1,0,0:0:0:0:
25,192,4127,1,0,0:0:0:0:
109,192,4127,1,0,0:0:0:0:
320,192,4127,1,0,0:0:0:0:
420,192,4127,1,0,0:0:0:0:
128,192,4127,1,0,0:0:0:0:
64,192,4127,1,0,0:0:0:0:
256,192,4127,1,0,0:0:0:0:
384,192,4127,1,0,0:0:0:0:
230,192,4127,1,0,0:0:0:0:
192,192,4127,1,0,0:0:0:0:
486,192,4127,1,0,0:0:0:0:
448,192,4127,1,0,0:0:0:0:
25,192,4202,1,0,0:0:0:0:
109,192,4202,1,0,0:0:0:0:
164,192,4202,1,0,0:0:0:0:
347,192,4202,1,0,0:0:0:0:
128,192,4202,1,0,0:0:0:0:
320,192,4202,1,0,0:0:0:0:
420,192,4202,1,0,0:0:0:0:
64,192,4202,1,0,0:0:0:0:
256,192,4202,1,0,0:0:0:0:
384,192,4202,1,0,0:0:0:0:
230,192,4202,1,0,0:0:0:0:
192,192,4202,1,0,0:0:0:0:
486,192,4202,1,0,0:0:0:0:
448,192,4202,1,0,0:0:0:0:
347,192,4277,1,0,0:0:0:0:
164,192,4277,1,0,0:0:0:0:
25,192,4277,1,0,0:0:0:0:
109,192,4277,1,0,0:0:0:0:
420,192,4277,1,0,0:0:0:0:
320,192,4277,1,0,0:0:0:0:
128,192,4277,1,0,0:0:0:0:
64,192,4277,1,0,0:0:0:0:
256,192,4277,1,0,0:0:0:0:
384,192,4277,1,0,0:0:0:0:
230,192,4277,1,0,0:0:0:0:
192,192,4277,1,0,0:0:0:0:
486,192,4277,1,0,0:0:0:0:
448,192,4277,1,0,0:0:0:0:
164,192,4352,1,0,0:0:0:0:
25,192,4352,1,0,0:0:0:0:
109,192,4352,1,0,0:0:0:0:
347,192,4352,1,0,0:0:0:0:
320,192,4352,1,0,0:0:0:0:
128,192,4352,1,0,0:0:0:0:
420,192,4352,1,0,0:0:0:0:
64,192,4352,1,0,0:0:0:0:
256,192,4352,1,0,0:0:0:0:
384,192,4352,1,0,0:0:0:0:
230,192,4352,1,0,0:0:0:0:
192,192,4352,1,0,0:0:0:0:
486,192,4352,1,0,0:0:0:0:
448,192,4352,1,0,0:0:0:0:
25,192,4427,1,0,0:0:0:0:
109,192,4427,1,0,0:0:0:0:
164,192,4427,1,0,0:0:0:0:
347,192,4427,1,0,0:0:0:0:
128,192,4427,1,0,0:0:0:0:
320,192,4427,1,0,0:0:0:0:
420,192,4427,1,0,0:0:0:0:
64,192,4427,1,0,0:0:0:0:
256,192,4427,1,0,0:0:0:0:
384,192,4427,1,0,0:0:0:0:
230,192,4427,1,0,0:0:0:0:
192,192,4427,1,0,0:0:0:0:
486,192,4427,1,0,0:0:0:0:
448,192,4427,1,0,0:0:0:0:
25,192,4502,1,0,0:0:0:0:
109,192,4502,1,0,0:0:0:0:
164,192,4502,1,0,0:0:0:0:
347,192,4502,1,0,0:0:0:0:
128,192,4502,1,0,0:0:0:0:
320,192,4502,1,0,0:0:0:0:
420,192,4502,1,0,0:0:0:0:
64,192,4502,1,0,0:0:0:0:
256,192,4502,1,0,0:0:0:0:
384,192,4502,1,0,0:0:0:0:
230,192,4502,1,0,0:0:0:0:
192,192,4502,1,0,0:0:0:0:
486,192,4502,1,0,0:0:0:0:
448,192,4502,1,0,0:0:0:0:
25,192,4577,1,0,0:0:0:0:
164,192,4577,1,0,0:0:0:0:
347,192,4577,1,0,0:0:0:0:
109,192,4577,1,0,0:0:0:0:
320,192,4577,1,0,0:0:0:0:
420,192,4577,1,0,0:0:0:0:
128,192,4577,1,0,0:0:0:0:
64,192,4577,1,0,0:0:0:0:
256,192,4577,1,0,0:0:0:0:
384,192,4577,1,0,0:0:0:0:
230,192,4577,1,0,0:0:0:0:
192,192,4577,1,0,0:0:0:0:
486,192,4577,1,0,0:0:0:0:
448,192,4577,1,0,0:0:0:0:
164,192,4652,1,0,0:0:0:0:
347,192,4652,1,0,0:0:0:0:
25,192,4652,1,0,0:0:0:0:
109,192,4652,1,0,0:0:0:0:
320,192,4652,1,0,0:0:0:0:
420,192,4652,1,0,0:0:0:0:
128,192,4652,1,0,0:0:0:0:
64,192,4652,1,0,0:0:0:0:
256,192,4652,1,0,0:0:0:0:
384,192,4652,1,0,0:0:0:0:
230,192,4652,1,0,0:0:0:0:
192,192,4652,1,0,0:0:0:0:
486,192,4652,1,0,0:0:0:0:
448,192,4652,1,0,0:0:0:0:
25,192,4727,1,0,0:0:0:0:
109,192,4727,1,0,0:0:0:0:
164,192,4727,1,0,0:0:0:0:
347,192,4727,1,0,0:0:0:0:
128,192,4727,1,0,0:0:0:0:
320,192,4727,1,0,0:0:0:0:
420,192,4727,1,0,0:0:0:0:
64,192,4727,1,0,0:0:0:0:
256,192,4727,1,0,0:0:0:0:
384,192,4727,1,0,0:0:0:0:
230,192,4727,1,0,0:0:0:0:
192,192,4727,1,0,0:0:0:0:
486,192,4727,1,0,0:0:0:0:
448,192,4727,1,0,0:0:0:0:
347,192,4802,1,0,0:0:0:0:
164,192,4802,1,0,0:0:0:0:
25,192,4802,1,0,0:0:0:0:
109,192,4802,1,0,0:0:0:0:
420,192,4802,1,0,0:0:0:0:
320,192,4802,1,0,0:0:0:0:
128,192,4802,1,0,0:0:0:0:
64,192,4802,1,0,0:0:0:0:
256,192,4802,1,0,0:0:0:0:
384,192,4802,1,0,0:0:0:0:
230,192,4802,1,0,0:0:0:0:
192,192,4802,1,0,0:0:0:0:
486,192,4802,1,0,0:0:0:0:
448,192,4802,1,0,0:0:0:0:
164,192,4877,1,0,0:0:0:0:
347,192,4877,1,0,0:0:0:0:
109,192,4877,1,0,0:0:0:0:
25,192,4877,1,0,0:0:0:0:
320,192,4877,1,0,0:0:0:0:
420,192,4877,1,0,0:0:0:0:
128,192,4877,1,0,0:0:0:0:
64,192,4877,1,0,0:0:0:0:
256,192,4877,1,0,0:0:0:0:
384,192,4877,1,0,0:0:0:0:
230,192,4877,1,0,0:0:0:0:
192,192,4877,1,0,0:0:0:0:
486,192,4877,1,0,0:0:0:0:
448,192,4877,1,0,0:0:0:0:
109,192,4952,1,0,0:0:0:0:
164,192,4952,1,0,0:0:0:0:
347,192,4952,1,0,0:0:0:0:
25,192,4952,1,0,0:0:0:0:
128,192,4952,1,0,0:0:0:0:
320,192,4952,1,0,0:0:0:0:
420,192,4952,1,0,0:0:0:0:
64,192,4952,1,0,0:0:0:0:
256,192,4952,1,0,0:0:0:0:
384,192,4952,1,0,0:0:0:0:
230,192,4952,1,0,0:0:0:0:
192,192,4952,1,0,0:0:0:0:
486,192,4952,1,0,0:0:0:0:
448,192,4952,1,0,0:0:0:0:
347,192,5027,1,0,0:0:0:0:
164,192,5027,1,0,0:0:0:0:
109,192,5027,1,0,0:0:0:0:
25,192,5027,1,0,0:0:0:0:
420,192,5027,1,0,0:0:0:0:
320,192,5027,1,0,0:0:0:0:
128,192,5027,1,0,0:0:0:0:
64,192,5027,1,0,0:0:0:0:
256,192,5027,1,0,0:0:0:0:
384,192,5027,1,0,0:0:0:0:
230,192,5027,1,0,0:0:0:0:
192,192,5027,1,0,0:0:0:0:
486,192,5027,1,0,0:0:0:0:
448,192,5027,1,0,0:0:0:0:
25,192,5102,1,0,0:0:0:0:
109,192,5102,1,0,0:0:0:0:
164,192,5102,1,0,0:0:0:0:
347,192,5102,1,0,0:0:0:0:
128,192,5102,1,0,0:0:0:0:
320,192,5102,1,0,0:0:0:0:
420,192,5102,1,0,0:0:0:0:
64,192,5102,1,0,0:0:0:0:
256,192,5102,1,0,0:0:0:0:
384,192,5102,1,0,0:0:0:0:
230,192,5102,1,0,0:0:0:0:
192,192,5102,1,0,0:0:0:0:
486,192,5102,1,0,0:0:0:0:
448,192,5102,1,0,0:0:0:0:
164,192,5177,1,0,0:0:0:0:
347,192,5177,1,0,0:0:0:0:
109,192,5177,1,0,0:0:0:0:
25,192,5177,1,0,0:0:0:0:
320,192,5177,1,0,0:0:0:0:
420,192,5177,1,0,0:0:0:0:
128,192,5177,1,0,0:0:0:0:
64,192,5177,1,0,0:0:0:0:
256,192,5177,1,0,0:0:0:0:
384,192,5177,1,0,0:0:0:0:
230,192,5177,1,0,0:0:0:0:
192,192,5177,1,0,0:0:0:0:
486,192,5177,1,0,0:0:0:0:
448,192,5177,1,0,0:0:0:0:
164,192,5252,1,0,0:0:0:0:
25,192,5252,1,0,0:0:0:0:
109,192,5252,1,0,0:0:0:0:
347,192,5252,1,0,0:0:0:0:
320,192,5252,1,0,0:0:0:0:
128,192,5252,1,0,0:0:0:0:
420,192,5252,1,0,0:0:0:0:
64,192,5252,1,0,0:0:0:0:
256,192,5252,1,0,0:0:0:0:
384,192,5252,1,0,0:0:0:0:
230,192,5252,1,0,0:0:0:0:
192,192,5252,1,0,0:0:0:0:
486,192,5252,1,0,0:0:0:0:
448,192,5252,1,0,0:0:0:0:
164,192,5327,1,0,0:0:0:0:
347,192,5327,1,0,0:0:0:0:
25,192,5327,1,0,0:0:0:0:
109,192,5327,1,0,0:0:0:0:
320,192,5327,1,0,0:0:0:0:
420,192,5327,1,0,0:0:0:0:
128,192,5327,1,0,0:0:0:0:
64,192,5327,1,0,0:0:0:0:
256,192,5327,1,0,0:0:0:0:
384,192,5327,1,0,0:0:0:0:
230,192,5327,1,0,0:0:0:0:
192,192,5327,1,0,0:0:0:0:
486,192,5327,1,0,0:0:0:0:
448,192,5327,1,0,0:0:0:0:
25,192,5402,1,0,0:0:0:0:
109,192,5402,1,0,0:0:0:0:
164,192,5402,1,0,0:0:0:0:
347,192,5402,1,0,0:0:0:0:
128,192,5402,1,0,0:0:0:0:
320,192,5402,1,0,0:0:0:0:
420,192,5402,1,0,0:0:0:0:
64,192,5402,1,0,0:0:0:0:
256,192,5402,1,0,0:0:0:0:
384,192,5402,1,0,0:0:0:0:
230,192,5402,1,0,0:0:0:0:
192,192,5402,1,0,0:0:0:0:
486,192,5402,1,0,0:0:0:0:
448,192,5402,1,0,0:0:0:0:
109,192,5477,1,0,0:0:0:0:
25,192,5477,1,0,0:0:0:0:
164,192,5477,1,0,0:0:0:0:
347,192,5477,1,0,0:0:0:0:
128,192,5477,1,0,0:0:0:0:
320,192,5477,1,0,0:0:0:0:
420,192,5477,1,0,0:0:0:0:
64,192,5477,1,0,0:0:0:0:
256,192,5477,1,0,0:0:0:0:
384,192,5477,1,0,0:0:0:0:
230,192,5477,1,0,0:0:0:0:
192,192,5477,1,0,0:0:0:0:
486,192,5477,1,0,0:0:0:0:
448,192,5477,1,0,0:0:0:0:
109,192,5552,1,0,0:0:0:0:
25,192,5552,1,0,0:0:0:0:
164,192,5552,1,0,0:0:0:0:
347,192,5552,1,0,0:0:0:0:
128,192,5552,1,0,0:0:0:0:
320,192,5552,1,0,0:0:0:0:
420,192,5552,1,0,0:0:0:0:
64,192,5552,1,0,0:0:0:0:
256,192,5552,1,0,0:0:0:0:
384,192,5552,1,0,0:0:0:0:
230,192,5552,1,0,0:0:0:0:
192,192,5552,1,0,0:0:0:0:
486,192,5552,1,0,0:0:0:0:
448,192,5552,1,0,0:0:0:0:
164,192,5627,1,0,0:0:0:0:
347,192,5627,1,0,0:0:0:0:
109,192,5627,1,0,0:0:0:0:
25,192,5627,1,0,0:0:0:0:
320,192,5627,1,0,0:0:0:0:
420,192,5627,1,0,0:0:0:0:
128,192,5627,1,0,0:0:0:0:
64,192,5627,1,0,0:0:0:0:
256,192,5627,1,0,0:0:0:0:
384,192,5627,1,0,0:0:0:0:
230,192,5627,1,0,0:0:0:0:
192,192,5627,1,0,0:0:0:0:
486,192,5627,1,0,0:0:0:0:
448,192,5627,1,0,0:0:0:0:
25,192,5702,1,0,0:0:0:0:
109,192,5702,1,0,0:0:0:0:
164,192,5702,1,0,0:0:0:0:
347,192,5702,1,0,0:0:0:0:
128,192,5702,1,0,0:0:0:0:
320,192,5702,1,0,0:0:0:0:
420,192,5702,1,0,0:0:0:0:
64,192,5702,1,0,0:0:0:0:
256,192,5702,1,0,0:0:0:0:
384,192,5702,1,0,0:0:0:0:
230,192,5702,1,0,0:0:0:0:
192,192,5702,1,0,0:0:0:0:
486,192,5702,1,0,0:0:0:0:
448,192,5702,1,0,0:0:0:0:
109,192,5777,1,0,0:0:0:0:
25,192,5777,1,0,0:0:0:0:
164,192,5777,1,0,0:0:0:0:
347,192,5777,1,0,0:0:0:0:
128,192,5777,1,0,0:0:0:0:
320,192,5777,1,0,0:0:0:0:
420,192,5777,1,0,0:0:0:0:
64,192,5777,1,0,0:0:0:0:
256,192,5777,1,0,0:0:0:0:
384,192,5777,1,0,0:0:0:0:
230,192,5777,1,0,0:0:0:0:
192,192,5777,1,0,0:0:0:0:
486,192,5777,1,0,0:0:0:0:
448,192,5777,1,0,0:0:0:0:
164,192,5852,1,0,0:0:0:0:
347,192,5852,1,0,0:0:0:0:
25,192,5852,1,0,0:0:0:0:
109,192,5852,1,0,0:0:0:0:
320,192,5852,1,0,0:0:0:0:
420,192,5852,1,0,0:0:0:0:
128,192,5852,1,0,0:0:0:0:
64,192,5852,1,0,0:0:0:0:
256,192,5852,1,0,0:0:0:0:
384,192,5852,1,0,0:0:0:0:
230,192,5852,1,0,0:0:0:0:
192,192,5852,1,0,0:0:0:0:
486,192,5852,1,0,0:0:0:0:
448,192,5852,1,0,0:0:0:0:
164,192,5927,1,0,0:0:0:0:
347,192,5927,1,0,0:0:0:0:
25,192,5927,1,0,0:0:0:0:
109,192,5927,1,0,0:0:0:0:
320,192,5927,1,0,0:0:0:0:
420,192,5927,1,0,0:0:0:0:
128,192,5927,1,0,0:0:0:0:
64,192,5927,1,0,0:0:0:0:
256,192,5927,1,0,0:0:0:0:
384,192,5927,1,0,0:0:0:0:
230,192,5927,1,0,0:0:0:0:
192,192,5927,1,0,0:0:0:0:
486,192,5927,1,0,0:0:0:0:
448,192,5927,1,0,0:0:0:0:
25,192,6002,1,0,0:0:0:0:
109,192,6002,1,0,0:0:0:0:
164,192,6002,1,0,0:0:0:0:
347,192,6002,1,0,0:0:0:0:
128,192,6002,1,0,0:0:0:0:
320,192,6002,1,0,0:0:0:0:
420,192,6002,1,0,0:0:0:0:
64,192,6002,1,0,0:0:0:0:
256,192,6002,1,0,0:0:0:0:
384,192,6002,1,0,0:0:0:0:
230,192,6002,1,0,0:0:0:0:
192,192,6002,1,0,0:0:0:0:
486,192,6002,1,0,0:0:0:0:
448,192,6002,1,0,0:0:0:0:
164,192,6077,1,0,0:0:0:0:
347,192,6077,1,0,0:0:0:0:
25,192,6077,1,0,0:0:0:0:
109,192,6077,1,0,0:0:0:0:
320,192,6077,1,0,0:0:0:0:
420,192,6077,1,0,0:0:0:0:
128,192,6077,1,0,0:0:0:0:
64,192,6077,1,0,0:0:0:0:
256,192,6077,1,0,0:0:0:0:
384,192,6077,1,0,0:0:0:0:
230,192,6077,1,0,0:0:0:0:
192,192,6077,1,0,0:0:0:0:
486,192,6077,1,0,0:0:0:0:
448,192,6077,1,0,0:0:0:0:
109,192,6152,1,0,0:0:0:0:
25,192,6152,1,0,0:0:0:0:
164,192,6152,1,0,0:0:0:0:
347,192,6152,1,0,0:0:0:0:
128,192,6152,1,0,0:0:0:0:
320,192,6152,1,0,0:0:0:0:
420,192,6152,1,0,0:0:0:0:
64,192,6152,1,0,0:0:0:0:
256,192,6152,1,0,0:0:0:0:
384,192,6152,1,0,0:0:0:0:
230,192,6152,1,0,0:0:0:0:
192,192,6152,1,0,0:0:0:0:
486,192,6152,1,0,0:0:0:0:
448,192,6152,1,0,0:0:0:0:
164,192,6227,1,0,0:0:0:0:
25,192,6227,1,0,0:0:0:0:
109,192,6227,1,0,0:0:0:0:
347,192,6227,1,0,0:0:0:0:
320,192,6227,1,0,0:0:0:0:
128,192,6227,1,0,0:0:0:0:
420,192,6227,1,0,0:0:0:0:
64,192,6227,1,0,0:0:0:0:
256,192,6227,1,0,0:0:0:0:
384,192,6227,1,0,0:0:0:0:
230,192,6227,1,0,0:0:0:0:
192,192,6227,1,0,0:0:0:0:
486,192,6227,1,0,0:0:0:0:
448,192,6227,1,0,0:0:0:0:
25,192,6302,1,0,0:0:0:0:
109,192,6302,1,0,0:0:0:0:
164,192,6302,1,0,0:0:0:0:
347,192,6302,1,0,0:0:0:0:
128,192,6302,1,0,0:0:0:0:
320,192,6302,1,0,0:0:0:0:
420,192,6302,1,0,0:0:0:0:
64,192,6302,1,0,0:0:0:0:
256,192,6302,1,0,0:0:0:0:
384,192,6302,1,0,0:0:0:0:
230,192,6302,1,0,0:0:0:0:
192,192,6302,1,0,0:0:0:0:
486,192,6302,1,0,0:0:0:0:
448,192,6302,1,0,0:0:0:0:
347,192,6377,1,0,0:0:0:0:
164,192,6377,1,0,0:0:0:0:
25,192,6377,1,0,0:0:0:0:
109,192,6377,1,0,0:0:0:0:
420,192,6377,1,0,0:0:0:0:
320,192,6377,1,0,0:0:0:0:
128,192,6377,1,0,0:0:0:0:
64,192,6377,1,0,0:0:0:0:
256,192,6377,1,0,0:0:0:0:
384,192,6377,1,0,0:0:0:0:
230,192,6377,1,0,0:0:0:0:
192,192,6377,1,0,0:0:0:0:
486,192,6377,1,0,0:0:0:0:
448,192,6377,1,0,0:0:0:0:
164,192,6452,1,0,0:0:0:0:
347,192,6452,1,0,0:0:0:0:
25,192,6452,1,0,0:0:0:0:
109,192,6452,1,0,0:0:0:0:
320,192,6452,1,0,0:0:0:0:
420,192,6452,1,0,0:0:0:0:
128,192,6452,1,0,0:0:0:0:
64,192,6452,1,0,0:0:0:0:
256,192,6452,1,0,0:0:0:0:
384,192,6452,1,0,0:0:0:0:
230,192,6452,1,0,0:0:0:0:
192,192,6452,1,0,0:0:0:0:
486,192,6452,1,0,0:0:0:0:
448,192,6452,1,0,0:0:0:0:
164,192,6527,1,0,0:0:0:0:
347,192,6527,1,0,0:0:0:0:
109,192,6527,1,0,0:0:0:0:
25,192,6527,1,0,0:0:0:0:
320,192,6527,1,0,0:0:0:0:
420,192,6527,1,0,0:0:0:0:
128,192,6527,1,0,0:0:0:0:
64,192,6527,1,0,0:0:0:0:
256,192,6527,1,0,0:0:0:0:
384,192,6527,1,0,0:0:0:0:
230,192,6527,1,0,0:0:0:0:
192,192,6527,1,0,0:0:0:0:
486,192,6527,1,0,0:0:0:0:
448,192,6527,1,0,0:0:0:0:
25,192,6602,1,0,0:0:0:0:
109,192,6602,1,0,0:0:0:0:
164,192,6602,1,0,0:0:0:0:
347,192,6602,1,0,0:0:0:0:
128,192,6602,1,0,0:0:0:0:
320,192,6602,1,0,0:0:0:0:
420,192,6602,1,0,0:0:0:0:
64,192,6602,1,0,0:0:0:0:
256,192,6602,1,0,0:0:0:0:
384,192,6602,1,0,0:0:0:0:
230,192,6602,1,0,0:0:0:0:
192,192,6602,1,0,0:0:0:0:
486,192,6602,1,0,0:0:0:0:
448,192,6602,1,0,0:0:0:0:
164,192,6677,1,0,0:0:0:0:
347,192,6677,1,0,0:0:0:0:
109,192,6677,1,0,0:0:0:0:
25,192,6677,1,0,0:0:0:0:
320,192,6677,1,0,0:0:0:0:
420,192,6677,1,0,0:0:0:0:
128,192,6677,1,0,0:0:0:0:
64,192,6677,1,0,0:0:0:0:
256,192,6677,1,0,0:0:0:0:
384,192,6677,1,0,0:0:0:0:
230,192,6677,1,0,0:0:0:0:
192,192,6677,1,0,0:0:0:0:
486,192,6677,1,0,0:0:0:0:
448,192,6677,1,0,0:0:0:0:
164,192,6752,1,0,0:0:0:0:
347,192,6752,1,0,0:0:0:0:
109,192,6752,1,0,0:0:0:0:
25,192,6752,1,0,0:0:0:0:
320,192,6752,1,0,0:0:0:0:
420,192,6752,1,0,0:0:0:0:
128,192,6752,1,0,0:0:0:0:
64,192,6752,1,0,0:0:0:0:
256,192,6752,1,0,0:0:0:0:
384,192,6752,1,0,0:0:0:0:
230,192,6752,1,0,0:0:0:0:
192,192,6752,1,0,0:0:0:0:
486,192,6752,1,0,0:0:0:0:
448,192,6752,1,0,0:0:0:0:
164,192,6827,1,0,0:0:0:0:
347,192,6827,1,0,0:0:0:0:
25,192,6827,1,0,0:0:0:0:
109,192,6827,1,0,0:0:0:0:
320,192,6827,1,0,0:0:0:0:
420,192,6827,1,0,0:0:0:0:
128,192,6827,1,0,0:0:0:0:
64,192,6827,1,0,0:0:0:0:
256,192,6827,1,0,0:0:0:0:
384,192,6827,1,0,0:0:0:0:
230,192,6827,1,0,0:0:0:0:
192,192,6827,1,0,0:0:0:0:
486,192,6827,1,0,0:0:0:0:
448,192,6827,1,0,0:0:0:0:
25,192,6902,1,0,0:0:0:0:
109,192,6902,1,0,0:0:0:0:
164,192,6902,1,0,0:0:0:0:
347,192,6902,1,0,0:0:0:0:
128,192,6902,1,0,0:0:0:0:
320,192,6902,1,0,0:0:0:0:
420,192,6902,1,0,0:0:0:0:
64,192,6902,1,0,0:0:0:0:
256,192,6902,1,0,0:0:0:0:
384,192,6902,1,0,0:0:0:0:
230,192,6902,1,0,0:0:0:0:
192,192,6902,1,0,0:0:0:0:
486,192,6902,1,0,0:0:0:0:
448,192,6902,1,0,0:0:0:0:
164,192,6977,1,0,0:0:0:0:
347,192,6977,1,0,0:0:0:0:
25,192,6977,1,0,0:0:0:0:
109,192,6977,1,0,0:0:0:0:
320,192,6977,1,0,0:0:0:0:
420,192,6977,1,0,0:0:0:0:
128,192,6977,1,0,0:0:0:0:
64,192,6977,1,0,0:0:0:0:
256,192,6977,1,0,0:0:0:0:
384,192,6977,1,0,0:0:0:0:
230,192,6977,1,0,0:0:0:0:
192,192,6977,1,0,0:0:0:0:
486,192,6977,1,0,0:0:0:0:
448,192,6977,1,0,0:0:0:0:
109,192,7052,1,0,0:0:0:0:
25,192,7052,1,0,0:0:0:0:
164,192,7052,1,0,0:0:0:0:
347,192,7052,1,0,0:0:0:0:
128,192,7052,1,0,0:0:0:0:
320,192,7052,1,0,0:0:0:0:
420,192,7052,1,0,0:0:0:0:
64,192,7052,1,0,0:0:0:0:
256,192,7052,1,0,0:0:0:0:
384,192,7052,1,0,0:0:0:0:
230,192,7052,1,0,0:0:0:0:
192,192,7052,1,0,0:0:0:0:
486,192,7052,1,0,0:0:0:0:
448,192,7052,1,0,0:0:0:0:
164,192,7127,1,0,0:0:0:0:
347,192,7127,1,0,0:0:0:0:
25,192,7127,1,0,0:0:0:0:
109,192,7127,1,0,0:0:0:0:
320,192,7127,1,0,0:0:0:0:
420,192,7127,1,0,0:0:0:0:
128,192,7127,1,0,0:0:0:0:
64,192,7127,1,0,0:0:0:0:
256,192,7127,1,0,0:0:0:0:
384,192,7127,1,0,0:0:0:0:
230,192,7127,1,0,0:0:0:0:
192,192,7127,1,0,0:0:0:0:
486,192,7127,1,0,0:0:0:0:
448,192,7127,1,0,0:0:0:0:
25,192,7202,1,0,0:0:0:0:
109,192,7202,1,0,0:0:0:0:
164,192,7202,1,0,0:0:0:0:
347,192,7202,1,0,0:0:0:0:
128,192,7202,1,0,0:0:0:0:
320,192,7202,1,0,0:0:0:0:
420,192,7202,1,0,0:0:0:0:
64,192,7202,1,0,0:0:0:0:
256,192,7202,1,0,0:0:0:0:
384,192,7202,1,0,0:0:0:0:
230,192,7202,1,0,0:0:0:0:
192,192,7202,1,0,0:0:0:0:
486,192,7202,1,0,0:0:0:0:
448,192,7202,1,0,0:0:0:0:
164,192,7277,1,0,0:0:0:0:
347,192,7277,1,0,0:0:0:0:
25,192,7277,1,0,0:0:0:0:
109,192,7277,1,0,0:0:0:0:
320,192,7277,1,0,0:0:0:0:
420,192,7277,1,0,0:0:0:0:
128,192,7277,1,0,0:0:0:0:
64,192,7277,1,0,0:0:0:0:
256,192,7277,1,0,0:0:0:0:
384,192,7277,1,0,0:0:0:0:
230,192,7277,1,0,0:0:0:0:
192,192,7277,1,0,0:0:0:0:
486,192,7277,1,0,0:0:0:0:
448,192,7277,1,0,0:0:0:0:
109,192,7352,1,0,0:0:0:0:
25,192,7352,1,0,0:0:0:0:
164,192,7352,1,0,0:0:0:0:
347,192,7352,1,0,0:0:0:0:
128,192,7352,1,0,0:0:0:0:
320,192,7352,1,0,0:0:0:0:
420,192,7352,1,0,0:0:0:0:
64,192,7352,1,0,0:0:0:0:
256,192,7352,1,0,0:0:0:0:
384,192,7352,1,0,0:0:0:0:
230,192,7352,1,0,0:0:0:0:
192,192,7352,1,0,0:0:0:0:
486,192,7352,1,0,0:0:0:0:
448,192,7352,1,0,0:0:0:0:
25,192,7427,1,0,0:0:0:0:
109,192,7427,1,0,0:0:0:0:
164,192,7427,1,0,0:0:0:0:
347,192,7427,1,0,0:0:0:0:
128,192,7427,1,0,0:0:0:0:
320,192,7427,1,0,0:0:0:0:
420,192,7427,1,0,0:0:0:0:
64,192,7427,1,0,0:0:0:0:
256,192,7427,1,0,0:0:0:0:
384,192,7427,1,0,0:0:0:0:
230,192,7427,1,0,0:0:0:0:
192,192,7427,1,0,0:0:0:0:
486,192,7427,1,0,0:0:0:0:
448,192,7427,1,0,0:0:0:0:
164,192,7502,1,0,0:0:0:0:
347,192,7502,1,0,0:0:0:0:
109,192,7502,1,0,0:0:0:0:
25,192,7502,1,0,0:0:0:0:
320,192,7502,1,0,0:0:0:0:
420,192,7502,1,0,0:0:0:0:
128,192,7502,1,0,0:0:0:0:
64,192,7502,1,0,0:0:0:0:
256,192,7502,1,0,0:0:0:0:
384,192,7502,1,0,0:0:0:0:
230,192,7502,1,0,0:0:0:0:
192,192,7502,1,0,0:0:0:0:
486,192,7502,1,0,0:0:0:0:
448,192,7502,1,0,0:0:0:0:
164,192,7577,1,0,0:0:0:0:
347,192,7577,1,0,0:0:0:0:
25,192,7577,1,0,0:0:0:0:
109,192,7577,1,0,0:0:0:0:
320,192,7577,1,0,0:0:0:0:
420,192,7577,1,0,0:0:0:0:
128,192,7577,1,0,0:0:0:0:
64,192,7577,1,0,0:0:0:0:
256,192,7577,1,0,0:0:0:0:
384,192,7577,1,0,0:0:0:0:
230,192,7577,1,0,0:0:0:0:
192,192,7577,1,0,0:0:0:0:
486,192,7577,1,0,0:0:0:0:
448,192,7577,1,0,0:0:0:0:
25,192,7652,1,0,0:0:0:0:
109,192,7652,1,0,0:0:0:0:
164,192,7652,1,0,0:0:0:0:
347,192,7652,1,0,0:0:0:0:
128,192,7652,1,0,0:0:0:0:
320,192,7652,1,0,0:0:0:0:
420,192,7652,1,0,0:0:0:0:
64,192,7652,1,0,0:0:0:0:
256,192,7652,1,0,0:0:0:0:
384,192,7652,1,0,0:0:0:0:
230,192,7652,1,0,0:0:0:0:
192,192,7652,1,0,0:0:0:0:
486,192,7652,1,0,0:0:0:0:
448,192,7652,1,0,0:0:0:0:
25,192,7727,1,0,0:0:0:0:
109,192,7727,1,0,0:0:0:0:
164,192,7727,1,0,0:0:0:0:
347,192,7727,1,0,0:0:0:0:
128,192,7727,1,0,0:0:0:0:
320,192,7727,1,0,0:0:0:0:
420,192,7727,1,0,0:0:0:0:
64,192,7727,1,0,0:0:0:0:
256,192,7727,1,0,0:0:0:0:
384,192,7727,1,0,0:0:0:0:
230,192,7727,1,0,0:0:0:0:
192,192,7727,1,0,0:0:0:0:
486,192,7727,1,0,0:0:0:0:
448,192,7727,1,0,0:0:0:0:
164,192,7802,1,0,0:0:0:0:
109,192,7802,1,0,0:0:0:0:
347,192,7802,1,0,0:0:0:0:
25,192,7802,1,0,0:0:0:0:
320,192,7802,1,0,0:0:0:0:
128,192,7802,1,0,0:0:0:0:
420,192,7802,1,0,0:0:0:0:
64,192,7802,1,0,0:0:0:0:
256,192,7802,1,0,0:0:0:0:
384,192,7802,1,0,0:0:0:0:
230,192,7802,1,0,0:0:0:0:
192,192,7802,1,0,0:0:0:0:
486,192,7802,1,0,0:0:0:0:
448,192,7802,1,0,0:0:0:0:
25,192,7877,1,0,0:0:0:0:
109,192,7877,1,0,0:0:0:0:
164,192,7877,1,0,0:0:0:0:
347,192,7877,1,0,0:0:0:0:
128,192,7877,1,0,0:0:0:0:
320,192,7877,1,0,0:0:0:0:
420,192,7877,1,0,0:0:0:0:
64,192,7877,1,0,0:0:0:0:
256,192,7877,1,0,0:0:0:0:
384,192,7877,1,0,0:0:0:0:
230,192,7877,1,0,0:0:0:0:
192,192,7877,1,0,0:0:0:0:
486,192,7877,1,0,0:0:0:0:
448,192,7877,1,0,0:0:0:0:
347,192,7952,1,0,0:0:0:0:
164,192,7952,1,0,0:0:0:0:
25,192,7952,1,0,0:0:0:0:
109,192,7952,1,0,0:0:0:0:
420,192,7952,1,0,0:0:0:0:
320,192,7952,1,0,0:0:0:0:
128,192,7952,1,0,0:0:0:0:
64,192,7952,1,0,0:0:0:0:
256,192,7952,1,0,0:0:0:0:
384,192,7952,1,0,0:0:0:0:
230,192,7952,1,0,0:0:0:0:
192,192,7952,1,0,0:0:0:0:
486,192,7952,1,0,0:0:0:0:
448,192,7952,1,0,0:0:0:0:
164,192,8027,1,0,0:0:0:0:
347,192,8027,1,0,0:0:0:0:
109,192,8027,1,0,0:0:0:0:
25,192,8027,1,0,0:0:0:0:
320,192,8027,1,0,0:0:0:0:
420,192,8027,1,0,0:0:0:0:
128,192,8027,1,0,0:0:0:0:
64,192,8027,1,0,0:0:0:0:
256,192,8027,1,0,0:0:0:0:
384,192,8027,1,0,0:0:0:0:
230,192,8027,1,0,0:0:0:0:
192,192,8027,1,0,0:0:0:0:
486,192,8027,1,0,0:0:0:0:
448,192,8027,1,0,0:0:0:0:
25,192,8102,1,0,0:0:0:0:
109,192,8102,1,0,0:0:0:0:
164,192,8102,1,0,0:0:0:0:
347,192,8102,1,0,0:0:0:0:
128,192,8102,1,0,0:0:0:0:
320,192,8102,1,0,0:0:0:0:
420,192,8102,1,0,0:0:0:0:
64,192,8102,1,0,0:0:0:0:
256,192,8102,1,0,0:0:0:0:
384,192,8102,1,0,0:0:0:0:
230,192,8102,1,0,0:0:0:0:
192,192,8102,1,0,0:0:0:0:
486,192,8102,1,0,0:0:0:0:
448,192,8102,1,0,0:0:0:0:
25,192,8177,1,0,0:0:0:0:
109,192,8177,1,0,0:0:0:0:
164,192,8177,1,0,0:0:0:0:
347,192,8177,1,0,0:0:0:0:
128,192,8177,1,0,0:0:0:0:
320,192,8177,1,0,0:0:0:0:
420,192,8177,1,0,0:0:0:0:
64,192,8177,1,0,0:0:0:0:
256,192,8177,1,0,0:0:0:0:
384,192,8177,1,0,0:0:0:0:
230,192,8177,1,0,0:0:0:0:
192,192,8177,1,0,0:0:0:0:
486,192,8177,1,0,0:0:0:0:
448,192,8177,1,0,0:0:0:0:
109,192,8252,1,0,0:0:0:0:
164,192,8252,1,0,0:0:0:0:
25,192,8252,1,0,0:0:0:0:
347,192,8252,1,0,0:0:0:0:
128,192,8252,1,0,0:0:0:0:
320,192,8252,1,0,0:0:0:0:
420,192,8252,1,0,0:0:0:0:
64,192,8252,1,0,0:0:0:0:
256,192,8252,1,0,0:0:0:0:
384,192,8252,1,0,0:0:0:0:
230,192,8252,1,0,0:0:0:0:
192,192,8252,1,0,0:0:0:0:
486,192,8252,1,0,0:0:0:0:
448,192,8252,1,0,0:0:0:0:
347,192,8327,1,0,0:0:0:0:
164,192,8327,1,0,0:0:0:0:
25,192,8327,1,0,0:0:0:0:
109,192,8327,1,0,0:0:0:0:
420,192,8327,1,0,0:0:0:0:
320,192,8327,1,0,0:0:0:0:
128,192,8327,1,0,0:0:0:0:
64,192,8327,1,0,0:0:0:0:
256,192,8327,1,0,0:0:0:0:
384,192,8327,1,0,0:0:0:0:
230,192,8327,1,0,0:0:0:0:
192,192,8327,1,0,0:0:0:0:
486,192,8327,1,0,0:0:0:0:
448,192,8327,1,0,0:0:0:0:
25,192,8402,128,0,10727:0:0:0:0:
109,192,8402,128,0,10727:0:0:0:0:
164,192,8402,128,0,10727:0:0:0:0:
347,192,8402,128,0,10727:0:0:0:0:
128,192,8402,128,0,10727:0:0:0:0:
320,192,8402,128,0,10727:0:0:0:0:
420,192,8402,128,0,10727:0:0:0:0:
64,192,8402,128,0,10727:0:0:0:0:
256,192,8402,128,0,10727:0:0:0:0:
384,192,8402,128,0,10727:0:0:0:0:
230,192,8402,128,0,10727:0:0:0:0:
192,192,8402,128,0,10727:0:0:0:0:
486,192,8402,128,0,10727:0:0:0:0:
448,192,8402,128,0,10727:0:0:0:0:
109,192,10802,1,0,0:0:0:0:
164,192,10802,1,0,0:0:0:0:
347,192,10802,1,0,0:0:0:0:
25,192,10802,1,0,0:0:0:0:
128,192,10802,1,0,0:0:0:0:
320,192,10802,1,0,0:0:0:0:
420,192,10802,1,0,0:0:0:0:
64,192,10802,1,0,0:0:0:0:
256,192,10802,1,0,0:0:0:0:
384,192,10802,1,0,0:0:0:0:
230,192,10802,1,0,0:0:0:0:
192,192,10802,1,0,0:0:0:0:
486,192,10802,1,0,0:0:0:0:
448,192,10802,1,0,0:0:0:0:
347,192,10877,1,0,0:0:0:0:
25,192,10877,1,0,0:0:0:0:
109,192,10877,1,0,0:0:0:0:
164,192,10877,1,0,0:0:0:0:
420,192,10877,1,0,0:0:0:0:
128,192,10877,1,0,0:0:0:0:
320,192,10877,1,0,0:0:0:0:
64,192,10877,1,0,0:0:0:0:
256,192,10877,1,0,0:0:0:0:
384,192,10877,1,0,0:0:0:0:
230,192,10877,1,0,0:0:0:0:
192,192,10877,1,0,0:0:0:0:
486,192,10877,1,0,0:0:0:0:
448,192,10877,1,0,0:0:0:0:
109,192,10952,1,0,0:0:0:0:
164,192,10952,1,0,0:0:0:0:
347,192,10952,1,0,0:0:0:0:
25,192,10952,1,0,0:0:0:0:
128,192,10952,1,0,0:0:0:0:
320,192,10952,1,0,0:0:0:0:
420,192,10952,1,0,0:0:0:0:
64,192,10952,1,0,0:0:0:0:
256,192,10952,1,0,0:0:0:0:
384,192,10952,1,0,0:0:0:0:
230,192,10952,1,0,0:0:0:0:
192,192,10952,1,0,0:0:0:0:
486,192,10952,1,0,0:0:0:0:
448,192,10952,1,0,0:0:0:0:
347,192,11027,1,0,0:0:0:0:
25,192,11027,1,0,0:0:0:0:
109,192,11027,1,0,0:0:0:0:
164,192,11027,1,0,0:0:0:0:
420,192,11027,1,0,0:0:0:0:
128,192,11027,1,0,0:0:0:0:
320,192,11027,1,0,0:0:0:0:
64,192,11027,1,0,0:0:0:0:
256,192,11027,1,0,0:0:0:0:
384,192,11027,1,0,0:0:0:0:
230,192,11027,1,0,0:0:0:0:
192,192,11027,1,0,0:0:0:0:
486,192,11027,1,0,0:0:0:0:
448,192,11027,1,0,0:0:0:0:
109,192,11102,1,0,0:0:0:0:
164,192,11102,1,0,0:0:0:0:
347,192,11102,1,0,0:0:0:0:
25,192,11102,1,0,0:0:0:0:
128,192,11102,1,0,0:0:0:0:
320,192,11102,1,0,0:0:0:0:
420,192,11102,1,0,0:0:0:0:
64,192,11102,1,0,0:0:0:0:
256,192,11102,1,0,0:0:0:0:
384,192,11102,1,0,0:0:0:0:
230,192,11102,1,0,0:0:0:0:
192,192,11102,1,0,0:0:0:0:
486,192,11102,1,0,0:0:0:0:
448,192,11102,1,0,0:0:0:0:
347,192,11177,1,0,0:0:0:0:
25,192,11177,1,0,0:0:0:0:
109,192,11177,1,0,0:0:0:0:
164,192,11177,1,0,0:0:0:0:
420,192,11177,1,0,0:0:0:0:
128,192,11177,1,0,0:0:0:0:
320,192,11177,1,0,0:0:0:0:
64,192,11177,1,0,0:0:0:0:
256,192,11177,1,0,0:0:0:0:
384,192,11177,1,0,0:0:0:0:
230,192,11177,1,0,0:0:0:0:
192,192,11177,1,0,0:0:0:0:
486,192,11177,1,0,0:0:0:0:
448,192,11177,1,0,0:0:0:0:
109,192,11252,1,0,0:0:0:0:
164,192,11252,1,0,0:0:0:0:
347,192,11252,1,0,0:0:0:0:
25,192,11252,1,0,0:0:0:0:
128,192,11252,1,0,0:0:0:0:
320,192,11252,1,0,0:0:0:0:
420,192,11252,1,0,0:0:0:0:
64,192,11252,1,0,0:0:0:0:
256,192,11252,1,0,0:0:0:0:
384,192,11252,1,0,0:0:0:0:
230,192,11252,1,0,0:0:0:0:
192,192,11252,1,0,0:0:0:0:
486,192,11252,1,0,0:0:0:0:
448,192,11252,1,0,0:0:0:0:
347,192,11327,1,0,0:0:0:0:
25,192,11327,1,0,0:0:0:0:
109,192,11327,1,0,0:0:0:0:
164,192,11327,1,0,0:0:0:0:
420,192,11327,1,0,0:0:0:0:
128,192,11327,1,0,0:0:0:0:
320,192,11327,1,0,0:0:0:0:
64,192,11327,1,0,0:0:0:0:
256,192,11327,1,0,0:0:0:0:
384,192,11327,1,0,0:0:0:0:
230,192,11327,1,0,0:0:0:0:
192,192,11327,1,0,0:0:0:0:
486,192,11327,1,0,0:0:0:0:
448,192,11327,1,0,0:0:0:0:
109,192,11402,1,0,0:0:0:0:
164,192,11402,1,0,0:0:0:0:
347,192,11402,1,0,0:0:0:0:
25,192,11402,1,0,0:0:0:0:
128,192,11402,1,0,0:0:0:0:
320,192,11402,1,0,0:0:0:0:
420,192,11402,1,0,0:0:0:0:
64,192,11402,1,0,0:0:0:0:
256,192,11402,1,0,0:0:0:0:
384,192,11402,1,0,0:0:0:0:
230,192,11402,1,0,0:0:0:0:
192,192,11402,1,0,0:0:0:0:
486,192,11402,1,0,0:0:0:0:
448,192,11402,1,0,0:0:0:0:
347,192,11477,1,0,0:0:0:0:
25,192,11477,1,0,0:0:0:0:
109,192,11477,1,0,0:0:0:0:
164,192,11477,1,0,0:0:0:0:
420,192,11477,1,0,0:0:0:0:
128,192,11477,1,0,0:0:0:0:
320,192,11477,1,0,0:0:0:0:
64,192,11477,1,0,0:0:0:0:
256,192,11477,1,0,0:0:0:0:
384,192,11477,1,0,0:0:0:0:
230,192,11477,1,0,0:0:0:0:
192,192,11477,1,0,0:0:0:0:
486,192,11477,1,0,0:0:0:0:
448,192,11477,1,0,0:0:0:0:
347,192,11552,1,0,0:0:0:0:
25,192,11552,1,0,0:0:0:0:
109,192,11552,1,0,0:0:0:0:
164,192,11552,1,0,0:0:0:0:
420,192,11552,1,0,0:0:0:0:
128,192,11552,1,0,0:0:0:0:
320,192,11552,1,0,0:0:0:0:
64,192,11552,1,0,0:0:0:0:
256,192,11552,1,0,0:0:0:0:
384,192,11552,1,0,0:0:0:0:
230,192,11552,1,0,0:0:0:0:
192,192,11552,1,0,0:0:0:0:
486,192,11552,1,0,0:0:0:0:
448,192,11552,1,0,0:0:0:0:
109,192,11627,1,0,0:0:0:0:
164,192,11627,1,0,0:0:0:0:
347,192,11627,1,0,0:0:0:0:
25,192,11627,1,0,0:0:0:0:
128,192,11627,1,0,0:0:0:0:
320,192,11627,1,0,0:0:0:0:
420,192,11627,1,0,0:0:0:0:
64,192,11627,1,0,0:0:0:0:
256,192,11627,1,0,0:0:0:0:
384,192,11627,1,0,0:0:0:0:
230,192,11627,1,0,0:0:0:0:
192,192,11627,1,0,0:0:0:0:
486,192,11627,1,0,0:0:0:0:
448,192,11627,1,0,0:0:0:0:
347,192,11702,1,0,0:0:0:0:
25,192,11702,1,0,0:0:0:0:
109,192,11702,1,0,0:0:0:0:
164,192,11702,1,0,0:0:0:0:
420,192,11702,1,0,0:0:0:0:
128,192,11702,1,0,0:0:0:0:
320,192,11702,1,0,0:0:0:0:
64,192,11702,1,0,0:0:0:0:
256,192,11702,1,0,0:0:0:0:
384,192,11702,1,0,0:0:0:0:
230,192,11702,1,0,0:0:0:0:
192,192,11702,1,0,0:0:0:0:
486,192,11702,1,0,0:0:0:0:
448,192,11702,1,0,0:0:0:0:
109,192,11777,1,0,0:0:0:0:
164,192,11777,1,0,0:0:0:0:
347,192,11777,1,0,0:0:0:0:
25,192,11777,1,0,0:0:0:0:
128,192,11777,1,0,0:0:0:0:
320,192,11777,1,0,0:0:0:0:
420,192,11777,1,0,0:0:0:0:
64,192,11777,1,0,0:0:0:0:
256,192,11777,1,0,0:0:0:0:
384,192,11777,1,0,0:0:0:0:
230,192,11777,1,0,0:0:0:0:
192,192,11777,1,0,0:0:0:0:
486,192,11777,1,0,0:0:0:0:
448,192,11777,1,0,0:0:0:0:
347,192,11852,1,0,0:0:0:0:
25,192,11852,1,0,0:0:0:0:
109,192,11852,1,0,0:0:0:0:
164,192,11852,1,0,0:0:0:0:
420,192,11852,1,0,0:0:0:0:
128,192,11852,1,0,0:0:0:0:
320,192,11852,1,0,0:0:0:0:
64,192,11852,1,0,0:0:0:0:
256,192,11852,1,0,0:0:0:0:
384,192,11852,1,0,0:0:0:0:
230,192,11852,1,0,0:0:0:0:
192,192,11852,1,0,0:0:0:0:
486,192,11852,1,0,0:0:0:0:
448,192,11852,1,0,0:0:0:0:
347,192,11927,1,0,0:0:0:0:
25,192,11927,1,0,0:0:0:0:
109,192,11927,1,0,0:0:0:0:
164,192,11927,1,0,0:0:0:0:
420,192,11927,1,0,0:0:0:0:
128,192,11927,1,0,0:0:0:0:
320,192,11927,1,0,0:0:0:0:
64,192,11927,1,0,0:0:0:0:
256,192,11927,1,0,0:0:0:0:
384,192,11927,1,0,0:0:0:0:
230,192,11927,1,0,0:0:0:0:
192,192,11927,1,0,0:0:0:0:
486,192,11927,1,0,0:0:0:0:
448,192,11927,1,0,0:0:0:0:
347,192,12002,1,0,0:0:0:0:
25,192,12002,1,0,0:0:0:0:
109,192,12002,1,0,0:0:0:0:
164,192,12002,1,0,0:0:0:0:
420,192,12002,1,0,0:0:0:0:
128,192,12002,1,0,0:0:0:0:
320,192,12002,1,0,0:0:0:0:
64,192,12002,1,0,0:0:0:0:
256,192,12002,1,0,0:0:0:0:
384,192,12002,1,0,0:0:0:0:
230,192,12002,1,0,0:0:0:0:
192,192,12002,1,0,0:0:0:0:
486,192,12002,1,0,0:0:0:0:
448,192,12002,1,0,0:0:0:0:
109,192,12077,1,0,0:0:0:0:
164,192,12077,1,0,0:0:0:0:
347,192,12077,1,0,0:0:0:0:
25,192,12077,1,0,0:0:0:0:
128,192,12077,1,0,0:0:0:0:
320,192,12077,1,0,0:0:0:0:
420,192,12077,1,0,0:0:0:0:
64,192,12077,1,0,0:0:0:0:
256,192,12077,1,0,0:0:0:0:
384,192,12077,1,0,0:0:0:0:
230,192,12077,1,0,0:0:0:0:
192,192,12077,1,0,0:0:0:0:
486,192,12077,1,0,0:0:0:0:
448,192,12077,1,0,0:0:0:0:
109,192,12152,1,0,0:0:0:0:
164,192,12152,1,0,0:0:0:0:
347,192,12152,1,0,0:0:0:0:
25,192,12152,1,0,0:0:0:0:
128,192,12152,1,0,0:0:0:0:
320,192,12152,1,0,0:0:0:0:
420,192,12152,1,0,0:0:0:0:
64,192,12152,1,0,0:0:0:0:
256,192,12152,1,0,0:0:0:0:
384,192,12152,1,0,0:0:0:0:
230,192,12152,1,0,0:0:0:0:
192,192,12152,1,0,0:0:0:0:
486,192,12152,1,0,0:0:0:0:
448,192,12152,1,0,0:0:0:0:
347,192,12227,1,0,0:0:0:0:
25,192,12227,1,0,0:0:0:0:
109,192,12227,1,0,0:0:0:0:
164,192,12227,1,0,0:0:0:0:
420,192,12227,1,0,0:0:0:0:
128,192,12227,1,0,0:0:0:0:
320,192,12227,1,0,0:0:0:0:
64,192,12227,1,0,0:0:0:0:
256,192,12227,1,0,0:0:0:0:
384,192,12227,1,0,0:0:0:0:
230,192,12227,1,0,0:0:0:0:
192,192,12227,1,0,0:0:0:0:
486,192,12227,1,0,0:0:0:0:
448,192,12227,1,0,0:0:0:0:
347,192,12302,1,0,0:0:0:0:
25,192,12302,1,0,0:0:0:0:
109,192,12302,1,0,0:0:0:0:
164,192,12302,1,0,0:0:0:0:
420,192,12302,1,0,0:0:0:0:
128,192,12302,1,0,0:0:0:0:
320,192,12302,1,0,0:0:0:0:
64,192,12302,1,0,0:0:0:0:
256,192,12302,1,0,0:0:0:0:
384,192,12302,1,0,0:0:0:0:
230,192,12302,1,0,0:0:0:0:
192,192,12302,1,0,0:0:0:0:
486,192,12302,1,0,0:0:0:0:
448,192,12302,1,0,0:0:0:0:
109,192,12377,1,0,0:0:0:0:
164,192,12377,1,0,0:0:0:0:
347,192,12377,1,0,0:0:0:0:
25,192,12377,1,0,0:0:0:0:
128,192,12377,1,0,0:0:0:0:
320,192,12377,1,0,0:0:0:0:
420,192,12377,1,0,0:0:0:0:
64,192,12377,1,0,0:0:0:0:
256,192,12377,1,0,0:0:0:0:
384,192,12377,1,0,0:0:0:0:
230,192,12377,1,0,0:0:0:0:
192,192,12377,1,0,0:0:0:0:
486,192,12377,1,0,0:0:0:0:
448,192,12377,1,0,0:0:0:0:
109,192,12452,1,0,0:0:0:0:
164,192,12452,1,0,0:0:0:0:
347,192,12452,1,0,0:0:0:0:
25,192,12452,1,0,0:0:0:0:
128,192,12452,1,0,0:0:0:0:
320,192,12452,1,0,0:0:0:0:
420,192,12452,1,0,0:0:0:0:
64,192,12452,1,0,0:0:0:0:
256,192,12452,1,0,0:0:0:0:
384,192,12452,1,0,0:0:0:0:
230,192,12452,1,0,0:0:0:0:
192,192,12452,1,0,0:0:0:0:
486,192,12452,1,0,0:0:0:0:
448,192,12452,1,0,0:0:0:0:
347,192,12527,1,0,0:0:0:0:
25,192,12527,1,0,0:0:0:0:
109,192,12527,1,0,0:0:0:0:
164,192,12527,1,0,0:0:0:0:
420,192,12527,1,0,0:0:0:0:
128,192,12527,1,0,0:0:0:0:
320,192,12527,1,0,0:0:0:0:
64,192,12527,1,0,0:0:0:0:
256,192,12527,1,0,0:0:0:0:
384,192,12527,1,0,0:0:0:0:
230,192,12527,1,0,0:0:0:0:
192,192,12527,1,0,0:0:0:0:
486,192,12527,1,0,0:0:0:0:
448,192,12527,1,0,0:0:0:0:
347,192,12602,1,0,0:0:0:0:
25,192,12602,1,0,0:0:0:0:
109,192,12602,1,0,0:0:0:0:
164,192,12602,1,0,0:0:0:0:
420,192,12602,1,0,0:0:0:0:
128,192,12602,1,0,0:0:0:0:
320,192,12602,1,0,0:0:0:0:
64,192,12602,1,0,0:0:0:0:
256,192,12602,1,0,0:0:0:0:
384,192,12602,1,0,0:0:0:0:
230,192,12602,1,0,0:0:0:0:
192,192,12602,1,0,0:0:0:0:
486,192,12602,1,0,0:0:0:0:
448,192,12602,1,0,0:0:0:0:
109,192,12677,1,0,0:0:0:0:
164,192,12677,1,0,0:0:0:0:
347,192,12677,1,0,0:0:0:0:
25,192,12677,1,0,0:0:0:0:
128,192,12677,1,0,0:0:0:0:
320,192,12677,1,0,0:0:0:0:
420,192,12677,1,0,0:0:0:0:
64,192,12677,1,0,0:0:0:0:
256,192,12677,1,0,0:0:0:0:
384,192,12677,1,0,0:0:0:0:
230,192,12677,1,0,0:0:0:0:
192,192,12677,1,0,0:0:0:0:
486,192,12677,1,0,0:0:0:0:
448,192,12677,1,0,0:0:0:0:
347,192,12752,1,0,0:0:0:0:
25,192,12752,1,0,0:0:0:0:
109,192,12752,1,0,0:0:0:0:
164,192,12752,1,0,0:0:0:0:
420,192,12752,1,0,0:0:0:0:
128,192,12752,1,0,0:0:0:0:
320,192,12752,1,0,0:0:0:0:
64,192,12752,1,0,0:0:0:0:
256,192,12752,1,0,0:0:0:0:
384,192,12752,1,0,0:0:0:0:
230,192,12752,1,0,0:0:0:0:
192,192,12752,1,0,0:0:0:0:
486,192,12752,1,0,0:0:0:0:
448,192,12752,1,0,0:0:0:0:
347,192,12827,1,0,0:0:0:0:
25,192,12827,1,0,0:0:0:0:
109,192,12827,1,0,0:0:0:0:
164,192,12827,1,0,0:0:0:0:
420,192,12827,1,0,0:0:0:0:
128,192,12827,1,0,0:0:0:0:
320,192,12827,1,0,0:0:0:0:
64,192,12827,1,0,0:0:0:0:
256,192,12827,1,0,0:0:0:0:
384,192,12827,1,0,0:0:0:0:
230,192,12827,1,0,0:0:0:0:
192,192,12827,1,0,0:0:0:0:
486,192,12827,1,0,0:0:0:0:
448,192,12827,1,0,0:0:0:0:
109,192,12902,1,0,0:0:0:0:
164,192,12902,1,0,0:0:0:0:
347,192,12902,1,0,0:0:0:0:
25,192,12902,1,0,0:0:0:0:
128,192,12902,1,0,0:0:0:0:
320,192,12902,1,0,0:0:0:0:
420,192,12902,1,0,0:0:0:0:
64,192,12902,1,0,0:0:0:0:
256,192,12902,1,0,0:0:0:0:
384,192,12902,1,0,0:0:0:0:
230,192,12902,1,0,0:0:0:0:
192,192,12902,1,0,0:0:0:0:
486,192,12902,1,0,0:0:0:0:
448,192,12902,1,0,0:0:0:0:
109,192,12977,1,0,0:0:0:0:
164,192,12977,1,0,0:0:0:0:
347,192,12977,1,0,0:0:0:0:
25,192,12977,1,0,0:0:0:0:
128,192,12977,1,0,0:0:0:0:
320,192,12977,1,0,0:0:0:0:
420,192,12977,1,0,0:0:0:0:
64,192,12977,1,0,0:0:0:0:
256,192,12977,1,0,0:0:0:0:
384,192,12977,1,0,0:0:0:0:
230,192,12977,1,0,0:0:0:0:
192,192,12977,1,0,0:0:0:0:
486,192,12977,1,0,0:0:0:0:
448,192,12977,1,0,0:0:0:0:
347,192,13052,1,0,0:0:0:0:
25,192,13052,1,0,0:0:0:0:
109,192,13052,1,0,0:0:0:0:
164,192,13052,1,0,0:0:0:0:
420,192,13052,1,0,0:0:0:0:
128,192,13052,1,0,0:0:0:0:
320,192,13052,1,0,0:0:0:0:
64,192,13052,1,0,0:0:0:0:
256,192,13052,1,0,0:0:0:0:
384,192,13052,1,0,0:0:0:0:
230,192,13052,1,0,0:0:0:0:
192,192,13052,1,0,0:0:0:0:
486,192,13052,1,0,0:0:0:0:
448,192,13052,1,0,0:0:0:0:
109,192,13127,1,0,0:0:0:0:
164,192,13127,1,0,0:0:0:0:
347,192,13127,1,0,0:0:0:0:
25,192,13127,1,0,0:0:0:0:
128,192,13127,1,0,0:0:0:0:
320,192,13127,1,0,0:0:0:0:
420,192,13127,1,0,0:0:0:0:
64,192,13127,1,0,0:0:0:0:
256,192,13127,1,0,0:0:0:0:
384,192,13127,1,0,0:0:0:0:
230,192,13127,1,0,0:0:0:0:
192,192,13127,1,0,0:0:0:0:
486,192,13127,1,0,0:0:0:0:
448,192,13127,1,0,0:0:0:0:
109,192,13202,1,0,0:0:0:0:
164,192,13202,1,0,0:0:0:0:
347,192,13202,1,0,0:0:0:0:
25,192,13202,1,0,0:0:0:0:
128,192,13202,1,0,0:0:0:0:
320,192,13202,1,0,0:0:0:0:
420,192,13202,1,0,0:0:0:0:
64,192,13202,1,0,0:0:0:0:
256,192,13202,1,0,0:0:0:0:
384,192,13202,1,0,0:0:0:0:
230,192,13202,1,0,0:0:0:0:
192,192,13202,1,0,0:0:0:0:
486,192,13202,1,0,0:0:0:0:
448,192,13202,1,0,0:0:0:0:
109,192,13277,1,0,0:0:0:0:
164,192,13277,1,0,0:0:0:0:
347,192,13277,1,0,0:0:0:0:
25,192,13277,1,0,0:0:0:0:
128,192,13277,1,0,0:0:0:0:
320,192,13277,1,0,0:0:0:0:
420,192,13277,1,0,0:0:0:0:
64,192,13277,1,0,0:0:0:0:
256,192,13277,1,0,0:0:0:0:
384,192,13277,1,0,0:0:0:0:
230,192,13277,1,0,0:0:0:0:
192,192,13277,1,0,0:0:0:0:
486,192,13277,1,0,0:0:0:0:
448,192,13277,1,0,0:0:0:0:
347,192,13352,1,0,0:0:0:0:
25,192,13352,1,0,0:0:0:0:
109,192,13352,1,0,0:0:0:0:
164,192,13352,1,0,0:0:0:0:
420,192,13352,1,0,0:0:0:0:
128,192,13352,1,0,0:0:0:0:
320,192,13352,1,0,0:0:0:0:
64,192,13352,1,0,0:0:0:0:
256,192,13352,1,0,0:0:0:0:
384,192,13352,1,0,0:0:0:0:
230,192,13352,1,0,0:0:0:0:
192,192,13352,1,0,0:0:0:0:
486,192,13352,1,0,0:0:0:0:
448,192,13352,1,0,0:0:0:0:
347,192,13427,1,0,0:0:0:0:
25,192,13427,1,0,0:0:0:0:
109,192,13427,1,0,0:0:0:0:
164,192,13427,1,0,0:0:0:0:
420,192,13427,1,0,0:0:0:0:
128,192,13427,1,0,0:0:0:0:
320,192,13427,1,0,0:0:0:0:
64,192,13427,1,0,0:0:0:0:
256,192,13427,1,0,0:0:0:0:
384,192,13427,1,0,0:0:0:0:
230,192,13427,1,0,0:0:0:0:
192,192,13427,1,0,0:0:0:0:
486,192,13427,1,0,0:0:0:0:
448,192,13427,1,0,0:0:0:0:
109,192,13502,1,0,0:0:0:0:
164,192,13502,1,0,0:0:0:0:
347,192,13502,1,0,0:0:0:0:
25,192,13502,1,0,0:0:0:0:
128,192,13502,1,0,0:0:0:0:
320,192,13502,1,0,0:0:0:0:
420,192,13502,1,0,0:0:0:0:
64,192,13502,1,0,0:0:0:0:
256,192,13502,1,0,0:0:0:0:
384,192,13502,1,0,0:0:0:0:
230,192,13502,1,0,0:0:0:0:
192,192,13502,1,0,0:0:0:0:
486,192,13502,1,0,0:0:0:0:
448,192,13502,1,0,0:0:0:0:
109,192,13577,1,0,0:0:0:0:
164,192,13577,1,0,0:0:0:0:
347,192,13577,1,0,0:0:0:0:
25,192,13577,1,0,0:0:0:0:
128,192,13577,1,0,0:0:0:0:
320,192,13577,1,0,0:0:0:0:
420,192,13577,1,0,0:0:0:0:
64,192,13577,1,0,0:0:0:0:
256,192,13577,1,0,0:0:0:0:
384,192,13577,1,0,0:0:0:0:
230,192,13577,1,0,0:0:0:0:
192,192,13577,1,0,0:0:0:0:
486,192,13577,1,0,0:0:0:0:
448,192,13577,1,0,0:0:0:0:
109,192,13652,1,0,0:0:0:0:
164,192,13652,1,0,0:0:0:0:
347,192,13652,1,0,0:0:0:0:
25,192,13652,1,0,0:0:0:0:
128,192,13652,1,0,0:0:0:0:
320,192,13652,1,0,0:0:0:0:
420,192,13652,1,0,0:0:0:0:
64,192,13652,1,0,0:0:0:0:
256,192,13652,1,0,0:0:0:0:
384,192,13652,1,0,0:0:0:0:
230,192,13652,1,0,0:0:0:0:
192,192,13652,1,0,0:0:0:0:
486,192,13652,1,0,0:0:0:0:
448,192,13652,1,0,0:0:0:0:
347,192,13727,1,0,0:0:0:0:
25,192,13727,1,0,0:0:0:0:
109,192,13727,1,0,0:0:0:0:
164,192,13727,1,0,0:0:0:0:
420,192,13727,1,0,0:0:0:0:
128,192,13727,1,0,0:0:0:0:
320,192,13727,1,0,0:0:0:0:
64,192,13727,1,0,0:0:0:0:
256,192,13727,1,0,0:0:0:0:
384,192,13727,1,0,0:0:0:0:
230,192,13727,1,0,0:0:0:0:
192,192,13727,1,0,0:0:0:0:
486,192,13727,1,0,0:0:0:0:
448,192,13727,1,0,0:0:0:0:
347,192,13802,1,0,0:0:0:0:
25,192,13802,1,0,0:0:0:0:
109,192,13802,1,0,0:0:0:0:
164,192,13802,1,0,0:0:0:0:
420,192,13802,1,0,0:0:0:0:
128,192,13802,1,0,0:0:0:0:
320,192,13802,1,0,0:0:0:0:
64,192,13802,1,0,0:0:0:0:
256,192,13802,1,0,0:0:0:0:
384,192,13802,1,0,0:0:0:0:
230,192,13802,1,0,0:0:0:0:
192,192,13802,1,0,0:0:0:0:
486,192,13802,1,0,0:0:0:0:
448,192,13802,1,0,0:0:0:0:
109,192,13877,1,0,0:0:0:0:
164,192,13877,1,0,0:0:0:0:
347,192,13877,1,0,0:0:0:0:
25,192,13877,1,0,0:0:0:0:
128,192,13877,1,0,0:0:0:0:
320,192,13877,1,0,0:0:0:0:
420,192,13877,1,0,0:0:0:0:
64,192,13877,1,0,0:0:0:0:
256,192,13877,1,0,0:0:0:0:
384,192,13877,1,0,0:0:0:0:
230,192,13877,1,0,0:0:0:0:
192,192,13877,1,0,0:0:0:0:
486,192,13877,1,0,0:0:0:0:
448,192,13877,1,0,0:0:0:0:
109,192,13952,1,0,0:0:0:0:
164,192,13952,1,0,0:0:0:0:
347,192,13952,1,0,0:0:0:0:
25,192,13952,1,0,0:0:0:0:
128,192,13952,1,0,0:0:0:0:
320,192,13952,1,0,0:0:0:0:
420,192,13952,1,0,0:0:0:0:
64,192,13952,1,0,0:0:0:0:
256,192,13952,1,0,0:0:0:0:
384,192,13952,1,0,0:0:0:0:
230,192,13952,1,0,0:0:0:0:
192,192,13952,1,0,0:0:0:0:
486,192,13952,1,0,0:0:0:0:
448,192,13952,1,0,0:0:0:0:
347,192,14027,1,0,0:0:0:0:
25,192,14027,1,0,0:0:0:0:
109,192,14027,1,0,0:0:0:0:
164,192,14027,1,0,0:0:0:0:
420,192,14027,1,0,0:0:0:0:
128,192,14027,1,0,0:0:0:0:
320,192,14027,1,0,0:0:0:0:
64,192,14027,1,0,0:0:0:0:
256,192,14027,1,0,0:0:0:0:
384,192,14027,1,0,0:0:0:0:
230,192,14027,1,0,0:0:0:0:
192,192,14027,1,0,0:0:0:0:
486,192,14027,1,0,0:0:0:0:
448,192,14027,1,0,0:0:0:0:
347,192,14102,1,0,0:0:0:0:
25,192,14102,1,0,0:0:0:0:
109,192,14102,1,0,0:0:0:0:
164,192,14102,1,0,0:0:0:0:
420,192,14102,1,0,0:0:0:0:
128,192,14102,1,0,0:0:0:0:
320,192,14102,1,0,0:0:0:0:
64,192,14102,1,0,0:0:0:0:
256,192,14102,1,0,0:0:0:0:
384,192,14102,1,0,0:0:0:0:
230,192,14102,1,0,0:0:0:0:
192,192,14102,1,0,0:0:0:0:
486,192,14102,1,0,0:0:0:0:
448,192,14102,1,0,0:0:0:0:
109,192,14177,1,0,0:0:0:0:
164,192,14177,1,0,0:0:0:0:
347,192,14177,1,0,0:0:0:0:
25,192,14177,1,0,0:0:0:0:
128,192,14177,1,0,0:0:0:0:
320,192,14177,1,0,0:0:0:0:
420,192,14177,1,0,0:0:0:0:
64,192,14177,1,0,0:0:0:0:
256,192,14177,1,0,0:0:0:0:
384,192,14177,1,0,0:0:0:0:
230,192,14177,1,0,0:0:0:0:
192,192,14177,1,0,0:0:0:0:
486,192,14177,1,0,0:0:0:0:
448,192,14177,1,0,0:0:0:0:
347,192,14252,1,0,0:0:0:0:
25,192,14252,1,0,0:0:0:0:
109,192,14252,1,0,0:0:0:0:
164,192,14252,1,0,0:0:0:0:
420,192,14252,1,0,0:0:0:0:
128,192,14252,1,0,0:0:0:0:
320,192,14252,1,0,0:0:0:0:
64,192,14252,1,0,0:0:0:0:
256,192,14252,1,0,0:0:0:0:
384,192,14252,1,0,0:0:0:0:
230,192,14252,1,0,0:0:0:0:
192,192,14252,1,0,0:0:0:0:
486,192,14252,1,0,0:0:0:0:
448,192,14252,1,0,0:0:0:0:
109,192,14327,1,0,0:0:0:0:
164,192,14327,1,0,0:0:0:0:
347,192,14327,1,0,0:0:0:0:
25,192,14327,1,0,0:0:0:0:
128,192,14327,1,0,0:0:0:0:
320,192,14327,1,0,0:0:0:0:
420,192,14327,1,0,0:0:0:0:
64,192,14327,1,0,0:0:0:0:
256,192,14327,1,0,0:0:0:0:
384,192,14327,1,0,0:0:0:0:
230,192,14327,1,0,0:0:0:0:
192,192,14327,1,0,0:0:0:0:
486,192,14327,1,0,0:0:0:0:
448,192,14327,1,0,0:0:0:0:
109,192,14402,1,0,0:0:0:0:
164,192,14402,1,0,0:0:0:0:
347,192,14402,1,0,0:0:0:0:
25,192,14402,1,0,0:0:0:0:
128,192,14402,1,0,0:0:0:0:
320,192,14402,1,0,0:0:0:0:
420,192,14402,1,0,0:0:0:0:
64,192,14402,1,0,0:0:0:0:
256,192,14402,1,0,0:0:0:0:
384,192,14402,1,0,0:0:0:0:
230,192,14402,1,0,0:0:0:0:
192,192,14402,1,0,0:0:0:0:
486,192,14402,1,0,0:0:0:0:
448,192,14402,1,0,0:0:0:0:
347,192,14477,1,0,0:0:0:0:
25,192,14477,1,0,0:0:0:0:
109,192,14477,1,0,0:0:0:0:
164,192,14477,1,0,0:0:0:0:
420,192,14477,1,0,0:0:0:0:
128,192,14477,1,0,0:0:0:0:
320,192,14477,1,0,0:0:0:0:
64,192,14477,1,0,0:0:0:0:
256,192,14477,1,0,0:0:0:0:
384,192,14477,1,0,0:0:0:0:
230,192,14477,1,0,0:0:0:0:
192,192,14477,1,0,0:0:0:0:
486,192,14477,1,0,0:0:0:0:
448,192,14477,1,0,0:0:0:0:
109,192,14552,1,0,0:0:0:0:
164,192,14552,1,0,0:0:0:0:
347,192,14552,1,0,0:0:0:0:
25,192,14552,1,0,0:0:0:0:
128,192,14552,1,0,0:0:0:0:
320,192,14552,1,0,0:0:0:0:
420,192,14552,1,0,0:0:0:0:
64,192,14552,1,0,0:0:0:0:
256,192,14552,1,0,0:0:0:0:
384,192,14552,1,0,0:0:0:0:
230,192,14552,1,0,0:0:0:0:
192,192,14552,1,0,0:0:0:0:
486,192,14552,1,0,0:0:0:0:
448,192,14552,1,0,0:0:0:0:
109,192,14627,1,0,0:0:0:0:
164,192,14627,1,0,0:0:0:0:
347,192,14627,1,0,0:0:0:0:
25,192,14627,1,0,0:0:0:0:
128,192,14627,1,0,0:0:0:0:
320,192,14627,1,0,0:0:0:0:
420,192,14627,1,0,0:0:0:0:
64,192,14627,1,0,0:0:0:0:
256,192,14627,1,0,0:0:0:0:
384,192,14627,1,0,0:0:0:0:
230,192,14627,1,0,0:0:0:0:
192,192,14627,1,0,0:0:0:0:
486,192,14627,1,0,0:0:0:0:
448,192,14627,1,0,0:0:0:0:
109,192,14702,1,0,0:0:0:0:
164,192,14702,1,0,0:0:0:0:
347,192,14702,1,0,0:0:0:0:
25,192,14702,1,0,0:0:0:0:
128,192,14702,1,0,0:0:0:0:
320,192,14702,1,0,0:0:0:0:
420,192,14702,1,0,0:0:0:0:
64,192,14702,1,0,0:0:0:0:
256,192,14702,1,0,0:0:0:0:
384,192,14702,1,0,0:0:0:0:
230,192,14702,1,0,0:0:0:0:
192,192,14702,1,0,0:0:0:0:
486,192,14702,1,0,0:0:0:0:
448,192,14702,1,0,0:0:0:0:
109,192,14777,1,0,0:0:0:0:
164,192,14777,1,0,0:0:0:0:
347,192,14777,1,0,0:0:0:0:
25,192,14777,1,0,0:0:0:0:
128,192,14777,1,0,0:0:0:0:
320,192,14777,1,0,0:0:0:0:
420,192,14777,1,0,0:0:0:0:
64,192,14777,1,0,0:0:0:0:
256,192,14777,1,0,0:0:0:0:
384,192,14777,1,0,0:0:0:0:
230,192,14777,1,0,0:0:0:0:
192,192,14777,1,0,0:0:0:0:
486,192,14777,1,0,0:0:0:0:
448,192,14777,1,0,0:0:0:0:
347,192,14852,1,0,0:0:0:0:
25,192,14852,1,0,0:0:0:0:
109,192,14852,1,0,0:0:0:0:
164,192,14852,1,0,0:0:0:0:
420,192,14852,1,0,0:0:0:0:
128,192,14852,1,0,0:0:0:0:
320,192,14852,1,0,0:0:0:0:
64,192,14852,1,0,0:0:0:0:
256,192,14852,1,0,0:0:0:0:
384,192,14852,1,0,0:0:0:0:
230,192,14852,1,0,0:0:0:0:
192,192,14852,1,0,0:0:0:0:
486,192,14852,1,0,0:0:0:0:
448,192,14852,1,0,0:0:0:0:
347,192,14927,1,0,0:0:0:0:
25,192,14927,1,0,0:0:0:0:
109,192,14927,1,0,0:0:0:0:
164,192,14927,1,0,0:0:0:0:
420,192,14927,1,0,0:0:0:0:
128,192,14927,1,0,0:0:0:0:
320,192,14927,1,0,0:0:0:0:
64,192,14927,1,0,0:0:0:0:
256,192,14927,1,0,0:0:0:0:
384,192,14927,1,0,0:0:0:0:
230,192,14927,1,0,0:0:0:0:
192,192,14927,1,0,0:0:0:0:
486,192,14927,1,0,0:0:0:0:
448,192,14927,1,0,0:0:0:0:
347,192,15002,1,0,0:0:0:0:
25,192,15002,1,0,0:0:0:0:
109,192,15002,1,0,0:0:0:0:
164,192,15002,1,0,0:0:0:0:
420,192,15002,1,0,0:0:0:0:
128,192,15002,1,0,0:0:0:0:
320,192,15002,1,0,0:0:0:0:
64,192,15002,1,0,0:0:0:0:
256,192,15002,1,0,0:0:0:0:
384,192,15002,1,0,0:0:0:0:
230,192,15002,1,0,0:0:0:0:
192,192,15002,1,0,0:0:0:0:
486,192,15002,1,0,0:0:0:0:
448,192,15002,1,0,0:0:0:0:
109,192,15077,1,0,0:0:0:0:
164,192,15077,1,0,0:0:0:0:
347,192,15077,1,0,0:0:0:0:
25,192,15077,1,0,0:0:0:0:
128,192,15077,1,0,0:0:0:0:
320,192,15077,1,0,0:0:0:0:
420,192,15077,1,0,0:0:0:0:
64,192,15077,1,0,0:0:0:0:
256,192,15077,1,0,0:0:0:0:
384,192,15077,1,0,0:0:0:0:
230,192,15077,1,0,0:0:0:0:
192,192,15077,1,0,0:0:0:0:
486,192,15077,1,0,0:0:0:0:
448,192,15077,1,0,0:0:0:0:
109,192,15152,1,0,0:0:0:0:
164,192,15152,1,0,0:0:0:0:
347,192,15152,1,0,0:0:0:0:
25,192,15152,1,0,0:0:0:0:
128,192,15152,1,0,0:0:0:0:
320,192,15152,1,0,0:0:0:0:
420,192,15152,1,0,0:0:0:0:
64,192,15152,1,0,0:0:0:0:
256,192,15152,1,0,0:0:0:0:
384,192,15152,1,0,0:0:0:0:
230,192,15152,1,0,0:0:0:0:
192,192,15152,1,0,0:0:0:0:
486,192,15152,1,0,0:0:0:0:
448,192,15152,1,0,0:0:0:0:
109,192,15227,1,0,0:0:0:0:
164,192,15227,1,0,0:0:0:0:
347,192,15227,1,0,0:0:0:0:
25,192,15227,1,0,0:0:0:0:
128,192,15227,1,0,0:0:0:0:
320,192,15227,1,0,0:0:0:0:
420,192,15227,1,0,0:0:0:0:
64,192,15227,1,0,0:0:0:0:
256,192,15227,1,0,0:0:0:0:
384,192,15227,1,0,0:0:0:0:
230,192,15227,1,0,0:0:0:0:
192,192,15227,1,0,0:0:0:0:
486,192,15227,1,0,0:0:0:0:
448,192,15227,1,0,0:0:0:0:
109,192,15302,1,0,0:0:0:0:
164,192,15302,1,0,0:0:0:0:
347,192,15302,1,0,0:0:0:0:
25,192,15302,1,0,0:0:0:0:
128,192,15302,1,0,0:0:0:0:
320,192,15302,1,0,0:0:0:0:
420,192,15302,1,0,0:0:0:0:
64,192,15302,1,0,0:0:0:0:
256,192,15302,1,0,0:0:0:0:
384,192,15302,1,0,0:0:0:0:
230,192,15302,1,0,0:0:0:0:
192,192,15302,1,0,0:0:0:0:
486,192,15302,1,0,0:0:0:0:
448,192,15302,1,0,0:0:0:0:
347,192,15377,1,0,0:0:0:0:
25,192,15377,1,0,0:0:0:0:
109,192,15377,1,0,0:0:0:0:
164,192,15377,1,0,0:0:0:0:
420,192,15377,1,0,0:0:0:0:
128,192,15377,1,0,0:0:0:0:
320,192,15377,1,0,0:0:0:0:
64,192,15377,1,0,0:0:0:0:
256,192,15377,1,0,0:0:0:0:
384,192,15377,1,0,0:0:0:0:
230,192,15377,1,0,0:0:0:0:
192,192,15377,1,0,0:0:0:0:
486,192,15377,1,0,0:0:0:0:
448,192,15377,1,0,0:0:0:0:
109,192,15452,1,0,0:0:0:0:
164,192,15452,1,0,0:0:0:0:
347,192,15452,1,0,0:0:0:0:
25,192,15452,1,0,0:0:0:0:
128,192,15452,1,0,0:0:0:0:
320,192,15452,1,0,0:0:0:0:
420,192,15452,1,0,0:0:0:0:
64,192,15452,1,0,0:0:0:0:
256,192,15452,1,0,0:0:0:0:
384,192,15452,1,0,0:0:0:0:
230,192,15452,1,0,0:0:0:0:
192,192,15452,1,0,0:0:0:0:
486,192,15452,1,0,0:0:0:0:
448,192,15452,1,0,0:0:0:0:
347,192,15527,1,0,0:0:0:0:
25,192,15527,1,0,0:0:0:0:
109,192,15527,1,0,0:0:0:0:
164,192,15527,1,0,0:0:0:0:
420,192,15527,1,0,0:0:0:0:
128,192,15527,1,0,0:0:0:0:
320,192,15527,1,0,0:0:0:0:
64,192,15527,1,0,0:0:0:0:
256,192,15527,1,0,0:0:0:0:
384,192,15527,1,0,0:0:0:0:
230,192,15527,1,0,0:0:0:0:
192,192,15527,1,0,0:0:0:0:
486,192,15527,1,0,0:0:0:0:
448,192,15527,1,0,0:0:0:0:
109,192,15602,1,0,0:0:0:0:
164,192,15602,1,0,0:0:0:0:
347,192,15602,1,0,0:0:0:0:
25,192,15602,1,0,0:0:0:0:
128,192,15602,1,0,0:0:0:0:
320,192,15602,1,0,0:0:0:0:
420,192,15602,1,0,0:0:0:0:
64,192,15602,1,0,0:0:0:0:
256,192,15602,1,0,0:0:0:0:
384,192,15602,1,0,0:0:0:0:
230,192,15602,1,0,0:0:0:0:
192,192,15602,1,0,0:0:0:0:
486,192,15602,1,0,0:0:0:0:
448,192,15602,1,0,0:0:0:0:
347,192,15677,1,0,0:0:0:0:
25,192,15677,1,0,0:0:0:0:
109,192,15677,1,0,0:0:0:0:
164,192,15677,1,0,0:0:0:0:
420,192,15677,1,0,0:0:0:0:
128,192,15677,1,0,0:0:0:0:
320,192,15677,1,0,0:0:0:0:
64,192,15677,1,0,0:0:0:0:
256,192,15677,1,0,0:0:0:0:
384,192,15677,1,0,0:0:0:0:
230,192,15677,1,0,0:0:0:0:
192,192,15677,1,0,0:0:0:0:
486,192,15677,1,0,0:0:0:0:
448,192,15677,1,0,0:0:0:0:
347,192,15752,1,0,0:0:0:0:
25,192,15752,1,0,0:0:0:0:
109,192,15752,1,0,0:0:0:0:
164,192,15752,1,0,0:0:0:0:
420,192,15752,1,0,0:0:0:0:
128,192,15752,1,0,0:0:0:0:
320,192,15752,1,0,0:0:0:0:
64,192,15752,1,0,0:0:0:0:
256,192,15752,1,0,0:0:0:0:
384,192,15752,1,0,0:0:0:0:
230,192,15752,1,0,0:0:0:0:
192,192,15752,1,0,0:0:0:0:
486,192,15752,1,0,0:0:0:0:
448,192,15752,1,0,0:0:0:0:
109,192,15827,1,0,0:0:0:0:
164,192,15827,1,0,0:0:0:0:
347,192,15827,1,0,0:0:0:0:
25,192,15827,1,0,0:0:0:0:
128,192,15827,1,0,0:0:0:0:
320,192,15827,1,0,0:0:0:0:
420,192,15827,1,0,0:0:0:0:
64,192,15827,1,0,0:0:0:0:
256,192,15827,1,0,0:0:0:0:
384,192,15827,1,0,0:0:0:0:
230,192,15827,1,0,0:0:0:0:
192,192,15827,1,0,0:0:0:0:
486,192,15827,1,0,0:0:0:0:
448,192,15827,1,0,0:0:0:0:
347,192,15902,1,0,0:0:0:0:
25,192,15902,1,0,0:0:0:0:
109,192,15902,1,0,0:0:0:0:
164,192,15902,1,0,0:0:0:0:
420,192,15902,1,0,0:0:0:0:
128,192,15902,1,0,0:0:0:0:
320,192,15902,1,0,0:0:0:0:
64,192,15902,1,0,0:0:0:0:
256,192,15902,1,0,0:0:0:0:
384,192,15902,1,0,0:0:0:0:
230,192,15902,1,0,0:0:0:0:
192,192,15902,1,0,0:0:0:0:
486,192,15902,1,0,0:0:0:0:
448,192,15902,1,0,0:0:0:0:
109,192,15977,1,0,0:0:0:0:
164,192,15977,1,0,0:0:0:0:
347,192,15977,1,0,0:0:0:0:
25,192,15977,1,0,0:0:0:0:
128,192,15977,1,0,0:0:0:0:
320,192,15977,1,0,0:0:0:0:
420,192,15977,1,0,0:0:0:0:
64,192,15977,1,0,0:0:0:0:
256,192,15977,1,0,0:0:0:0:
384,192,15977,1,0,0:0:0:0:
230,192,15977,1,0,0:0:0:0:
192,192,15977,1,0,0:0:0:0:
486,192,15977,1,0,0:0:0:0:
448,192,15977,1,0,0:0:0:0:
347,192,16052,1,0,0:0:0:0:
25,192,16052,1,0,0:0:0:0:
109,192,16052,1,0,0:0:0:0:
164,192,16052,1,0,0:0:0:0:
420,192,16052,1,0,0:0:0:0:
128,192,16052,1,0,0:0:0:0:
320,192,16052,1,0,0:0:0:0:
64,192,16052,1,0,0:0:0:0:
256,192,16052,1,0,0:0:0:0:
384,192,16052,1,0,0:0:0:0:
230,192,16052,1,0,0:0:0:0:
192,192,16052,1,0,0:0:0:0:
486,192,16052,1,0,0:0:0:0:
448,192,16052,1,0,0:0:0:0:
109,192,16127,1,0,0:0:0:0:
164,192,16127,1,0,0:0:0:0:
347,192,16127,1,0,0:0:0:0:
25,192,16127,1,0,0:0:0:0:
128,192,16127,1,0,0:0:0:0:
320,192,16127,1,0,0:0:0:0:
420,192,16127,1,0,0:0:0:0:
64,192,16127,1,0,0:0:0:0:
256,192,16127,1,0,0:0:0:0:
384,192,16127,1,0,0:0:0:0:
230,192,16127,1,0,0:0:0:0:
192,192,16127,1,0,0:0:0:0:
486,192,16127,1,0,0:0:0:0:
448,192,16127,1,0,0:0:0:0:
347,192,16202,1,0,0:0:0:0:
25,192,16202,1,0,0:0:0:0:
109,192,16202,1,0,0:0:0:0:
164,192,16202,1,0,0:0:0:0:
420,192,16202,1,0,0:0:0:0:
128,192,16202,1,0,0:0:0:0:
320,192,16202,1,0,0:0:0:0:
64,192,16202,1,0,0:0:0:0:
256,192,16202,1,0,0:0:0:0:
384,192,16202,1,0,0:0:0:0:
230,192,16202,1,0,0:0:0:0:
192,192,16202,1,0,0:0:0:0:
486,192,16202,1,0,0:0:0:0:
448,192,16202,1,0,0:0:0:0:
109,192,16277,1,0,0:0:0:0:
164,192,16277,1,0,0:0:0:0:
347,192,16277,1,0,0:0:0:0:
25,192,16277,1,0,0:0:0:0:
128,192,16277,1,0,0:0:0:0:
320,192,16277,1,0,0:0:0:0:
420,192,16277,1,0,0:0:0:0:
64,192,16277,1,0,0:0:0:0:
256,192,16277,1,0,0:0:0:0:
384,192,16277,1,0,0:0:0:0:
230,192,16277,1,0,0:0:0:0:
192,192,16277,1,0,0:0:0:0:
486,192,16277,1,0,0:0:0:0:
448,192,16277,1,0,0:0:0:0:
109,192,16352,1,0,0:0:0:0:
164,192,16352,1,0,0:0:0:0:
347,192,16352,1,0,0:0:0:0:
25,192,16352,1,0,0:0:0:0:
128,192,16352,1,0,0:0:0:0:
320,192,16352,1,0,0:0:0:0:
420,192,16352,1,0,0:0:0:0:
64,192,16352,1,0,0:0:0:0:
256,192,16352,1,0,0:0:0:0:
384,192,16352,1,0,0:0:0:0:
230,192,16352,1,0,0:0:0:0:
192,192,16352,1,0,0:0:0:0:
486,192,16352,1,0,0:0:0:0:
448,192,16352,1,0,0:0:0:0:
347,192,16427,1,0,0:0:0:0:
25,192,16427,1,0,0:0:0:0:
109,192,16427,1,0,0:0:0:0:
164,192,16427,1,0,0:0:0:0:
420,192,16427,1,0,0:0:0:0:
128,192,16427,1,0,0:0:0:0:
320,192,16427,1,0,0:0:0:0:
64,192,16427,1,0,0:0:0:0:
256,192,16427,1,0,0:0:0:0:
384,192,16427,1,0,0:0:0:0:
230,192,16427,1,0,0:0:0:0:
192,192,16427,1,0,0:0:0:0:
486,192,16427,1,0,0:0:0:0:
448,192,16427,1,0,0:0:0:0:
109,192,16502,1,0,0:0:0:0:
164,192,16502,1,0,0:0:0:0:
347,192,16502,1,0,0:0:0:0:
25,192,16502,1,0,0:0:0:0:
128,192,16502,1,0,0:0:0:0:
320,192,16502,1,0,0:0:0:0:
420,192,16502,1,0,0:0:0:0:
64,192,16502,1,0,0:0:0:0:
256,192,16502,1,0,0:0:0:0:
384,192,16502,1,0,0:0:0:0:
230,192,16502,1,0,0:0:0:0:
192,192,16502,1,0,0:0:0:0:
486,192,16502,1,0,0:0:0:0:
448,192,16502,1,0,0:0:0:0:
347,192,16577,1,0,0:0:0:0:
25,192,16577,1,0,0:0:0:0:
109,192,16577,1,0,0:0:0:0:
164,192,16577,1,0,0:0:0:0:
420,192,16577,1,0,0:0:0:0:
128,192,16577,1,0,0:0:0:0:
320,192,16577,1,0,0:0:0:0:
64,192,16577,1,0,0:0:0:0:
256,192,16577,1,0,0:0:0:0:
384,192,16577,1,0,0:0:0:0:
230,192,16577,1,0,0:0:0:0:
192,192,16577,1,0,0:0:0:0:
486,192,16577,1,0,0:0:0:0:
448,192,16577,1,0,0:0:0:0:
347,192,16652,1,0,0:0:0:0:
25,192,16652,1,0,0:0:0:0:
109,192,16652,1,0,0:0:0:0:
164,192,16652,1,0,0:0:0:0:
420,192,16652,1,0,0:0:0:0:
128,192,16652,1,0,0:0:0:0:
320,192,16652,1,0,0:0:0:0:
64,192,16652,1,0,0:0:0:0:
256,192,16652,1,0,0:0:0:0:
384,192,16652,1,0,0:0:0:0:
230,192,16652,1,0,0:0:0:0:
192,192,16652,1,0,0:0:0:0:
486,192,16652,1,0,0:0:0:0:
448,192,16652,1,0,0:0:0:0:
109,192,16727,1,0,0:0:0:0:
164,192,16727,1,0,0:0:0:0:
347,192,16727,1,0,0:0:0:0:
25,192,16727,1,0,0:0:0:0:
128,192,16727,1,0,0:0:0:0:
320,192,16727,1,0,0:0:0:0:
420,192,16727,1,0,0:0:0:0:
64,192,16727,1,0,0:0:0:0:
256,192,16727,1,0,0:0:0:0:
384,192,16727,1,0,0:0:0:0:
230,192,16727,1,0,0:0:0:0:
192,192,16727,1,0,0:0:0:0:
486,192,16727,1,0,0:0:0:0:
448,192,16727,1,0,0:0:0:0:
25,192,16802,128,0,19127:0:0:0:0:
109,192,16802,128,0,19127:0:0:0:0:
164,192,16802,128,0,19127:0:0:0:0:
347,192,16802,128,0,19127:0:0:0:0:
128,192,16802,128,0,19127:0:0:0:0:
320,192,16802,128,0,19127:0:0:0:0:
420,192,16802,128,0,19127:0:0:0:0:
64,192,16802,128,0,19127:0:0:0:0:
256,192,16802,128,0,19127:0:0:0:0:
384,192,16802,128,0,19127:0:0:0:0:
230,192,16802,128,0,19127:0:0:0:0:
192,192,16802,128,0,19127:0:0:0:0:
486,192,16802,128,0,19127:0:0:0:0:
448,192,16802,128,0,19127:0:0:0:0:
347,192,19202,1,0,0:0:0:0:
25,192,19202,1,0,0:0:0:0:
109,192,19202,1,0,0:0:0:0:
164,192,19202,1,0,0:0:0:0:
420,192,19202,1,0,0:0:0:0:
128,192,19202,1,0,0:0:0:0:
320,192,19202,1,0,0:0:0:0:
64,192,19202,1,0,0:0:0:0:
256,192,19202,1,0,0:0:0:0:
384,192,19202,1,0,0:0:0:0:
230,192,19202,1,0,0:0:0:0:
192,192,19202,1,0,0:0:0:0:
486,192,19202,1,0,0:0:0:0:
448,192,19202,1,0,0:0:0:0:
109,192,19277,1,0,0:0:0:0:
164,192,19277,1,0,0:0:0:0:
347,192,19277,1,0,0:0:0:0:
25,192,19277,1,0,0:0:0:0:
128,192,19277,1,0,0:0:0:0:
320,192,19277,1,0,0:0:0:0:
420,192,19277,1,0,0:0:0:0:
64,192,19277,1,0,0:0:0:0:
256,192,19277,1,0,0:0:0:0:
384,192,19277,1,0,0:0:0:0:
230,192,19277,1,0,0:0:0:0:
192,192,19277,1,0,0:0:0:0:
486,192,19277,1,0,0:0:0:0:
448,192,19277,1,0,0:0:0:0:
347,192,19352,1,0,0:0:0:0:
25,192,19352,1,0,0:0:0:0:
109,192,19352,1,0,0:0:0:0:
164,192,19352,1,0,0:0:0:0:
420,192,19352,1,0,0:0:0:0:
128,192,19352,1,0,0:0:0:0:
320,192,19352,1,0,0:0:0:0:
64,192,19352,1,0,0:0:0:0:
256,192,19352,1,0,0:0:0:0:
384,192,19352,1,0,0:0:0:0:
230,192,19352,1,0,0:0:0:0:
192,192,19352,1,0,0:0:0:0:
486,192,19352,1,0,0:0:0:0:
448,192,19352,1,0,0:0:0:0:
109,192,19427,1,0,0:0:0:0:
164,192,19427,1,0,0:0:0:0:
347,192,19427,1,0,0:0:0:0:
25,192,19427,1,0,0:0:0:0:
128,192,19427,1,0,0:0:0:0:
320,192,19427,1,0,0:0:0:0:
420,192,19427,1,0,0:0:0:0:
64,192,19427,1,0,0:0:0:0:
256,192,19427,1,0,0:0:0:0:
384,192,19427,1,0,0:0:0:0:
230,192,19427,1,0,0:0:0:0:
192,192,19427,1,0,0:0:0:0:
486,192,19427,1,0,0:0:0:0:
448,192,19427,1,0,0:0:0:0:
347,192,19502,1,0,0:0:0:0:
25,192,19502,1,0,0:0:0:0:
109,192,19502,1,0,0:0:0:0:
164,192,19502,1,0,0:0:0:0:
420,192,19502,1,0,0:0:0:0:
128,192,19502,1,0,0:0:0:0:
320,192,19502,1,0,0:0:0:0:
64,192,19502,1,0,0:0:0:0:
256,192,19502,1,0,0:0:0:0:
384,192,19502,1,0,0:0:0:0:
230,192,19502,1,0,0:0:0:0:
192,192,19502,1,0,0:0:0:0:
486,192,19502,1,0,0:0:0:0:
448,192,19502,1,0,0:0:0:0:
109,192,19577,1,0,0:0:0:0:
164,192,19577,1,0,0:0:0:0:
347,192,19577,1,0,0:0:0:0:
25,192,19577,1,0,0:0:0:0:
128,192,19577,1,0,0:0:0:0:
320,192,19577,1,0,0:0:0:0:
420,192,19577,1,0,0:0:0:0:
64,192,19577,1,0,0:0:0:0:
256,192,19577,1,0,0:0:0:0:
384,192,19577,1,0,0:0:0:0:
230,192,19577,1,0,0:0:0:0:
192,192,19577,1,0,0:0:0:0:
486,192,19577,1,0,0:0:0:0:
448,192,19577,1,0,0:0:0:0:
347,192,19652,1,0,0:0:0:0:
25,192,19652,1,0,0:0:0:0:
109,192,19652,1,0,0:0:0:0:
164,192,19652,1,0,0:0:0:0:
420,192,19652,1,0,0:0:0:0:
128,192,19652,1,0,0:0:0:0:
320,192,19652,1,0,0:0:0:0:
64,192,19652,1,0,0:0:0:0:
256,192,19652,1,0,0:0:0:0:
384,192,19652,1,0,0:0:0:0:
230,192,19652,1,0,0:0:0:0:
192,192,19652,1,0,0:0:0:0:
486,192,19652,1,0,0:0:0:0:
448,192,19652,1,0,0:0:0:0:
347,192,19727,1,0,0:0:0:0:
25,192,19727,1,0,0:0:0:0:
109,192,19727,1,0,0:0:0:0:
164,192,19727,1,0,0:0:0:0:
420,192,19727,1,0,0:0:0:0:
128,192,19727,1,0,0:0:0:0:
320,192,19727,1,0,0:0:0:0:
64,192,19727,1,0,0:0:0:0:
256,192,19727,1,0,0:0:0:0:
384,192,19727,1,0,0:0:0:0:
230,192,19727,1,0,0:0:0:0:
192,192,19727,1,0,0:0:0:0:
486,192,19727,1,0,0:0:0:0:
448,192,19727,1,0,0:0:0:0:
109,192,19802,1,0,0:0:0:0:
164,192,19802,1,0,0:0:0:0:
347,192,19802,1,0,0:0:0:0:
25,192,19802,1,0,0:0:0:0:
128,192,19802,1,0,0:0:0:0:
320,192,19802,1,0,0:0:0:0:
420,192,19802,1,0,0:0:0:0:
64,192,19802,1,0,0:0:0:0:
256,192,19802,1,0,0:0:0:0:
384,192,19802,1,0,0:0:0:0:
230,192,19802,1,0,0:0:0:0:
192,192,19802,1,0,0:0:0:0:
486,192,19802,1,0,0:0:0:0:
448,192,19802,1,0,0:0:0:0:
347,192,19877,1,0,0:0:0:0:
25,192,19877,1,0,0:0:0:0:
109,192,19877,1,0,0:0:0:0:
164,192,19877,1,0,0:0:0:0:
420,192,19877,1,0,0:0:0:0:
128,192,19877,1,0,0:0:0:0:
320,192,19877,1,0,0:0:0:0:
64,192,19877,1,0,0:0:0:0:
256,192,19877,1,0,0:0:0:0:
384,192,19877,1,0,0:0:0:0:
230,192,19877,1,0,0:0:0:0:
192,192,19877,1,0,0:0:0:0:
486,192,19877,1,0,0:0:0:0:
448,192,19877,1,0,0:0:0:0:
109,192,19952,1,0,0:0:0:0:
164,192,19952,1,0,0:0:0:0:
347,192,19952,1,0,0:0:0:0:
25,192,19952,1,0,0:0:0:0:
128,192,19952,1,0,0:0:0:0:
320,192,19952,1,0,0:0:0:0:
420,192,19952,1,0,0:0:0:0:
64,192,19952,1,0,0:0:0:0:
256,192,19952,1,0,0:0:0:0:
384,192,19952,1,0,0:0:0:0:
230,192,19952,1,0,0:0:0:0:
192,192,19952,1,0,0:0:0:0:
486,192,19952,1,0,0:0:0:0:
448,192,19952,1,0,0:0:0:0:
347,192,20027,1,0,0:0:0:0:
25,192,20027,1,0,0:0:0:0:
109,192,20027,1,0,0:0:0:0:
164,192,20027,1,0,0:0:0:0:
420,192,20027,1,0,0:0:0:0:
128,192,20027,1,0,0:0:0:0:
320,192,20027,1,0,0:0:0:0:
64,192,20027,1,0,0:0:0:0:
256,192,20027,1,0,0:0:0:0:
384,192,20027,1,0,0:0:0:0:
230,192,20027,1,0,0:0:0:0:
192,192,20027,1,0,0:0:0:0:
486,192,20027,1,0,0:0:0:0:
448,192,20027,1,0,0:0:0:0:
109,192,20102,1,0,0:0:0:0:
164,192,20102,1,0,0:0:0:0:
347,192,20102,1,0,0:0:0:0:
25,192,20102,1,0,0:0:0:0:
128,192,20102,1,0,0:0:0:0:
320,192,20102,1,0,0:0:0:0:
420,192,20102,1,0,0:0:0:0:
64,192,20102,1,0,0:0:0:0:
256,192,20102,1,0,0:0:0:0:
384,192,20102,1,0,0:0:0:0:
230,192,20102,1,0,0:0:0:0:
192,192,20102,1,0,0:0:0:0:
486,192,20102,1,0,0:0:0:0:
448,192,20102,1,0,0:0:0:0:
347,192,20177,1,0,0:0:0:0:
25,192,20177,1,0,0:0:0:0:
109,192,20177,1,0,0:0:0:0:
164,192,20177,1,0,0:0:0:0:
420,192,20177,1,0,0:0:0:0:
128,192,20177,1,0,0:0:0:0:
320,192,20177,1,0,0:0:0:0:
64,192,20177,1,0,0:0:0:0:
256,192,20177,1,0,0:0:0:0:
384,192,20177,1,0,0:0:0:0:
230,192,20177,1,0,0:0:0:0:
192,192,20177,1,0,0:0:0:0:
486,192,20177,1,0,0:0:0:0:
448,192,20177,1,0,0:0:0:0:
347,192,20252,1,0,0:0:0:0:
25,192,20252,1,0,0:0:0:0:
109,192,20252,1,0,0:0:0:0:
164,192,20252,1,0,0:0:0:0:
420,192,20252,1,0,0:0:0:0:
128,192,20252,1,0,0:0:0:0:
320,192,20252,1,0,0:0:0:0:
64,192,20252,1,0,0:0:0:0:
256,192,20252,1,0,0:0:0:0:
384,192,20252,1,0,0:0:0:0:
230,192,20252,1,0,0:0:0:0:
192,192,20252,1,0,0:0:0:0:
486,192,20252,1,0,0:0:0:0:
448,192,20252,1,0,0:0:0:0:
109,192,20327,1,0,0:0:0:0:
164,192,20327,1,0,0:0:0:0:
347,192,20327,1,0,0:0:0:0:
25,192,20327,1,0,0:0:0:0:
128,192,20327,1,0,0:0:0:0:
320,192,20327,1,0,0:0:0:0:
420,192,20327,1,0,0:0:0:0:
64,192,20327,1,0,0:0:0:0:
256,192,20327,1,0,0:0:0:0:
384,192,20327,1,0,0:0:0:0:
230,192,20327,1,0,0:0:0:0:
192,192,20327,1,0,0:0:0:0:
486,192,20327,1,0,0:0:0:0:
448,192,20327,1,0,0:0:0:0:
347,192,20402,1,0,0:0:0:0:
25,192,20402,1,0,0:0:0:0:
109,192,20402,1,0,0:0:0:0:
164,192,20402,1,0,0:0:0:0:
420,192,20402,1,0,0:0:0:0:
128,192,20402,1,0,0:0:0:0:
320,192,20402,1,0,0:0:0:0:
64,192,20402,1,0,0:0:0:0:
256,192,20402,1,0,0:0:0:0:
384,192,20402,1,0,0:0:0:0:
230,192,20402,1,0,0:0:0:0:
192,192,20402,1,0,0:0:0:0:
486,192,20402,1,0,0:0:0:0:
448,192,20402,1,0,0:0:0:0:
109,192,20477,1,0,0:0:0:0:
164,192,20477,1,0,0:0:0:0:
347,192,20477,1,0,0:0:0:0:
25,192,20477,1,0,0:0:0:0:
128,192,20477,1,0,0:0:0:0:
320,192,20477,1,0,0:0:0:0:
420,192,20477,1,0,0:0:0:0:
64,192,20477,1,0,0:0:0:0:
256,192,20477,1,0,0:0:0:0:
384,192,20477,1,0,0:0:0:0:
230,192,20477,1,0,0:0:0:0:
192,192,20477,1,0,0:0:0:0:
486,192,20477,1,0,0:0:0:0:
448,192,20477,1,0,0:0:0:0:
347,192,20552,1,0,0:0:0:0:
25,192,20552,1,0,0:0:0:0:
109,192,20552,1,0,0:0:0:0:
164,192,20552,1,0,0:0:0:0:
420,192,20552,1,0,0:0:0:0:
128,192,20552,1,0,0:0:0:0:
320,192,20552,1,0,0:0:0:0:
64,192,20552,1,0,0:0:0:0:
256,192,20552,1,0,0:0:0:0:
384,192,20552,1,0,0:0:0:0:
230,192,20552,1,0,0:0:0:0:
192,192,20552,1,0,0:0:0:0:
486,192,20552,1,0,0:0:0:0:
448,192,20552,1,0,0:0:0:0:
109,192,20627,1,0,0:0:0:0:
164,192,20627,1,0,0:0:0:0:
347,192,20627,1,0,0:0:0:0:
25,192,20627,1,0,0:0:0:0:
128,192,20627,1,0,0:0:0:0:
320,192,20627,1,0,0:0:0:0:
420,192,20627,1,0,0:0:0:0:
64,192,20627,1,0,0:0:0:0:
256,192,20627,1,0,0:0:0:0:
384,192,20627,1,0,0:0:0:0:
230,192,20627,1,0,0:0:0:0:
192,192,20627,1,0,0:0:0:0:
486,192,20627,1,0,0:0:0:0:
448,192,20627,1,0,0:0:0:0:
347,192,20702,1,0,0:0:0:0:
25,192,20702,1,0,0:0:0:0:
109,192,20702,1,0,0:0:0:0:
164,192,20702,1,0,0:0:0:0:
420,192,20702,1,0,0:0:0:0:
128,192,20702,1,0,0:0:0:0:
320,192,20702,1,0,0:0:0:0:
64,192,20702,1,0,0:0:0:0:
256,192,20702,1,0,0:0:0:0:
384,192,20702,1,0,0:0:0:0:
230,192,20702,1,0,0:0:0:0:
192,192,20702,1,0,0:0:0:0:
486,192,20702,1,0,0:0:0:0:
448,192,20702,1,0,0:0:0:0:
109,192,20777,1,0,0:0:0:0:
164,192,20777,1,0,0:0:0:0:
347,192,20777,1,0,0:0:0:0:
25,192,20777,1,0,0:0:0:0:
128,192,20777,1,0,0:0:0:0:
320,192,20777,1,0,0:0:0:0:
420,192,20777,1,0,0:0:0:0:
64,192,20777,1,0,0:0:0:0:
256,192,20777,1,0,0:0:0:0:
384,192,20777,1,0,0:0:0:0:
230,192,20777,1,0,0:0:0:0:
192,192,20777,1,0,0:0:0:0:
486,192,20777,1,0,0:0:0:0:
448,192,20777,1,0,0:0:0:0:
347,192,20852,1,0,0:0:0:0:
25,192,20852,1,0,0:0:0:0:
109,192,20852,1,0,0:0:0:0:
164,192,20852,1,0,0:0:0:0:
420,192,20852,1,0,0:0:0:0:
128,192,20852,1,0,0:0:0:0:
320,192,20852,1,0,0:0:0:0:
64,192,20852,1,0,0:0:0:0:
256,192,20852,1,0,0:0:0:0:
384,192,20852,1,0,0:0:0:0:
230,192,20852,1,0,0:0:0:0:
192,192,20852,1,0,0:0:0:0:
486,192,20852,1,0,0:0:0:0:
448,192,20852,1,0,0:0:0:0:
347,192,20927,1,0,0:0:0:0:
25,192,20927,1,0,0:0:0:0:
109,192,20927,1,0,0:0:0:0:
164,192,20927,1,0,0:0:0:0:
420,192,20927,1,0,0:0:0:0:
128,192,20927,1,0,0:0:0:0:
320,192,20927,1,0,0:0:0:0:
64,192,20927,1,0,0:0:0:0:
256,192,20927,1,0,0:0:0:0:
384,192,20927,1,0,0:0:0:0:
230,192,20927,1,0,0:0:0:0:
192,192,20927,1,0,0:0:0:0:
486,192,20927,1,0,0:0:0:0:
448,192,20927,1,0,0:0:0:0:
109,192,21002,1,0,0:0:0:0:
164,192,21002,1,0,0:0:0:0:
347,192,21002,1,0,0:0:0:0:
25,192,21002,1,0,0:0:0:0:
128,192,21002,1,0,0:0:0:0:
320,192,21002,1,0,0:0:0:0:
420,192,21002,1,0,0:0:0:0:
64,192,21002,1,0,0:0:0:0:
256,192,21002,1,0,0:0:0:0:
384,192,21002,1,0,0:0:0:0:
230,192,21002,1,0,0:0:0:0:
192,192,21002,1,0,0:0:0:0:
486,192,21002,1,0,0:0:0:0:
448,192,21002,1,0,0:0:0:0:
347,192,21077,1,0,0:0:0:0:
25,192,21077,1,0,0:0:0:0:
109,192,21077,1,0,0:0:0:0:
164,192,21077,1,0,0:0:0:0:
420,192,21077,1,0,0:0:0:0:
128,192,21077,1,0,0:0:0:0:
320,192,21077,1,0,0:0:0:0:
64,192,21077,1,0,0:0:0:0:
256,192,21077,1,0,0:0:0:0:
384,192,21077,1,0,0:0:0:0:
230,192,21077,1,0,0:0:0:0:
192,192,21077,1,0,0:0:0:0:
486,192,21077,1,0,0:0:0:0:
448,192,21077,1,0,0:0:0:0:
109,192,21152,1,0,0:0:0:0:
164,192,21152,1,0,0:0:0:0:
347,192,21152,1,0,0:0:0:0:
25,192,21152,1,0,0:0:0:0:
128,192,21152,1,0,0:0:0:0:
320,192,21152,1,0,0:0:0:0:
420,192,21152,1,0,0:0:0:0:
64,192,21152,1,0,0:0:0:0:
256,192,21152,1,0,0:0:0:0:
384,192,21152,1,0,0:0:0:0:
230,192,21152,1,0,0:0:0:0:
192,192,21152,1,0,0:0:0:0:
486,192,21152,1,0,0:0:0:0:
448,192,21152,1,0,0:0:0:0:
347,192,21227,1,0,0:0:0:0:
25,192,21227,1,0,0:0:0:0:
109,192,21227,1,0,0:0:0:0:
164,192,21227,1,0,0:0:0:0:
420,192,21227,1,0,0:0:0:0:
128,192,21227,1,0,0:0:0:0:
320,192,21227,1,0,0:0:0:0:
64,192,21227,1,0,0:0:0:0:
256,192,21227,1,0,0:0:0:0:
384,192,21227,1,0,0:0:0:0:
230,192,21227,1,0,0:0:0:0:
192,192,21227,1,0,0:0:0:0:
486,192,21227,1,0,0:0:0:0:
448,192,21227,1,0,0:0:0:0:
109,192,21302,1,0,0:0:0:0:
164,192,21302,1,0,0:0:0:0:
347,192,21302,1,0,0:0:0:0:
25,192,21302,1,0,0:0:0:0:
128,192,21302,1,0,0:0:0:0:
320,192,21302,1,0,0:0:0:0:
420,192,21302,1,0,0:0:0:0:
64,192,21302,1,0,0:0:0:0:
256,192,21302,1,0,0:0:0:0:
384,192,21302,1,0,0:0:0:0:
230,192,21302,1,0,0:0:0:0:
192,192,21302,1,0,0:0:0:0:
486,192,21302,1,0,0:0:0:0:
448,192,21302,1,0,0:0:0:0:
347,192,21377,1,0,0:0:0:0:
25,192,21377,1,0,0:0:0:0:
109,192,21377,1,0,0:0:0:0:
164,192,21377,1,0,0:0:0:0:
420,192,21377,1,0,0:0:0:0:
128,192,21377,1,0,0:0:0:0:
320,192,21377,1,0,0:0:0:0:
64,192,21377,1,0,0:0:0:0:
256,192,21377,1,0,0:0:0:0:
384,192,21377,1,0,0:0:0:0:
230,192,21377,1,0,0:0:0:0:
192,192,21377,1,0,0:0:0:0:
486,192,21377,1,0,0:0:0:0:
448,192,21377,1,0,0:0:0:0:
109,192,21452,1,0,0:0:0:0:
164,192,21452,1,0,0:0:0:0:
347,192,21452,1,0,0:0:0:0:
25,192,21452,1,0,0:0:0:0:
128,192,21452,1,0,0:0:0:0:
320,192,21452,1,0,0:0:0:0:
420,192,21452,1,0,0:0:0:0:
64,192,21452,1,0,0:0:0:0:
256,192,21452,1,0,0:0:0:0:
384,192,21452,1,0,0:0:0:0:
230,192,21452,1,0,0:0:0:0:
192,192,21452,1,0,0:0:0:0:
486,192,21452,1,0,0:0:0:0:
448,192,21452,1,0,0:0:0:0:
347,192,21527,1,0,0:0:0:0:
25,192,21527,1,0,0:0:0:0:
109,192,21527,1,0,0:0:0:0:
164,192,21527,1,0,0:0:0:0:
420,192,21527,1,0,0:0:0:0:
128,192,21527,1,0,0:0:0:0:
320,192,21527,1,0,0:0:0:0:
64,192,21527,1,0,0:0:0:0:
256,192,21527,1,0,0:0:0:0:
384,192,21527,1,0,0:0:0:0:
230,192,21527,1,0,0:0:0:0:
192,192,21527,1,0,0:0:0:0:
486,192,21527,1,0,0:0:0:0:
448,192,21527,1,0,0:0:0:0:
25,192,21602,128,0,23927:0:0:0:0:
109,192,21602,128,0,23927:0:0:0:0:
164,192,21602,128,0,23927:0:0:0:0:
347,192,21602,128,0,23927:0:0:0:0:
128,192,21602,128,0,23927:0:0:0:0:
320,192,21602,128,0,23927:0:0:0:0:
420,192,21602,128,0,23927:0:0:0:0:
64,192,21602,128,0,23927:0:0:0:0:
256,192,21602,128,0,23927:0:0:0:0:
384,192,21602,128,0,23927:0:0:0:0:
230,192,21602,128,0,23927:0:0:0:0:
192,192,21602,128,0,23927:0:0:0:0:
486,192,21602,128,0,23927:0:0:0:0:
448,192,21602,128,0,23927:0:0:0:0:
347,192,24002,1,0,0:0:0:0:
25,192,24002,1,0,0:0:0:0:
109,192,24002,1,0,0:0:0:0:
164,192,24002,1,0,0:0:0:0:
420,192,24002,1,0,0:0:0:0:
128,192,24002,1,0,0:0:0:0:
320,192,24002,1,0,0:0:0:0:
64,192,24002,1,0,0:0:0:0:
256,192,24002,1,0,0:0:0:0:
384,192,24002,1,0,0:0:0:0:
230,192,24002,1,0,0:0:0:0:
192,192,24002,1,0,0:0:0:0:
486,192,24002,1,0,0:0:0:0:
448,192,24002,1,0,0:0:0:0:
109,192,24077,1,0,0:0:0:0:
164,192,24077,1,0,0:0:0:0:
347,192,24077,1,0,0:0:0:0:
25,192,24077,1,0,0:0:0:0:
128,192,24077,1,0,0:0:0:0:
320,192,24077,1,0,0:0:0:0:
420,192,24077,1,0,0:0:0:0:
64,192,24077,1,0,0:0:0:0:
256,192,24077,1,0,0:0:0:0:
384,192,24077,1,0,0:0:0:0:
230,192,24077,1,0,0:0:0:0:
192,192,24077,1,0,0:0:0:0:
486,192,24077,1,0,0:0:0:0:
448,192,24077,1,0,0:0:0:0:
347,192,24152,1,0,0:0:0:0:
25,192,24152,1,0,0:0:0:0:
109,192,24152,1,0,0:0:0:0:
164,192,24152,1,0,0:0:0:0:
420,192,24152,1,0,0:0:0:0:
128,192,24152,1,0,0:0:0:0:
320,192,24152,1,0,0:0:0:0:
64,192,24152,1,0,0:0:0:0:
256,192,24152,1,0,0:0:0:0:
384,192,24152,1,0,0:0:0:0:
230,192,24152,1,0,0:0:0:0:
192,192,24152,1,0,0:0:0:0:
486,192,24152,1,0,0:0:0:0:
448,192,24152,1,0,0:0:0:0:
347,192,24227,1,0,0:0:0:0:
25,192,24227,1,0,0:0:0:0:
109,192,24227,1,0,0:0:0:0:
164,192,24227,1,0,0:0:0:0:
420,192,24227,1,0,0:0:0:0:
128,192,24227,1,0,0:0:0:0:
320,192,24227,1,0,0:0:0:0:
64,192,24227,1,0,0:0:0:0:
256,192,24227,1,0,0:0:0:0:
384,192,24227,1,0,0:0:0:0:
230,192,24227,1,0,0:0:0:0:
192,192,24227,1,0,0:0:0:0:
486,192,24227,1,0,0:0:0:0:
448,192,24227,1,0,0:0:0:0:
109,192,24302,1,0,0:0:0:0:
164,192,24302,1,0,0:0:0:0:
347,192,24302,1,0,0:0:0:0:
25,192,24302,1,0,0:0:0:0:
128,192,24302,1,0,0:0:0:0:
320,192,24302,1,0,0:0:0:0:
420,192,24302,1,0,0:0:0:0:
64,192,24302,1,0,0:0:0:0:
256,192,24302,1,0,0:0:0:0:
384,192,24302,1,0,0:0:0:0:
230,192,24302,1,0,0:0:0:0:
192,192,24302,1,0,0:0:0:0:
486,192,24302,1,0,0:0:0:0:
448,192,24302,1,0,0:0:0:0:
347,192,24377,1,0,0:0:0:0:
25,192,24377,1,0,0:0:0:0:
109,192,24377,1,0,0:0:0:0:
164,192,24377,1,0,0:0:0:0:
420,192,24377,1,0,0:0:0:0:
128,192,24377,1,0,0:0:0:0:
320,192,24377,1,0,0:0:0:0:
64,192,24377,1,0,0:0:0:0:
256,192,24377,1,0,0:0:0:0:
384,192,24377,1,0,0:0:0:0:
230,192,24377,1,0,0:0:0:0:
192,192,24377,1,0,0:0:0:0:
486,192,24377,1,0,0:0:0:0:
448,192,24377,1,0,0:0:0:0:
109,192,24452,1,0,0:0:0:0:
164,192,24452,1,0,0:0:0:0:
347,192,24452,1,0,0:0:0:0:
25,192,24452,1,0,0:0:0:0:
128,192,24452,1,0,0:0:0:0:
320,192,24452,1,0,0:0:0:0:
420,192,24452,1,0,0:0:0:0:
64,192,24452,1,0,0:0:0:0:
256,192,24452,1,0,0:0:0:0:
384,192,24452,1,0,0:0:0:0:
230,192,24452,1,0,0:0:0:0:
192,192,24452,1,0,0:0:0:0:
486,192,24452,1,0,0:0:0:0:
448,192,24452,1,0,0:0:0:0:
347,192,24527,1,0,0:0:0:0:
25,192,24527,1,0,0:0:0:0:
109,192,24527,1,0,0:0:0:0:
164,192,24527,1,0,0:0:0:0:
420,192,24527,1,0,0:0:0:0:
128,192,24527,1,0,0:0:0:0:
320,192,24527,1,0,0:0:0:0:
64,192,24527,1,0,0:0:0:0:
256,192,24527,1,0,0:0:0:0:
384,192,24527,1,0,0:0:0:0:
230,192,24527,1,0,0:0:0:0:
192,192,24527,1,0,0:0:0:0:
486,192,24527,1,0,0:0:0:0:
448,192,24527,1,0,0:0:0:0:
347,192,24602,1,0,0:0:0:0:
25,192,24602,1,0,0:0:0:0:
109,192,24602,1,0,0:0:0:0:
164,192,24602,1,0,0:0:0:0:
420,192,24602,1,0,0:0:0:0:
128,192,24602,1,0,0:0:0:0:
320,192,24602,1,0,0:0:0:0:
64,192,24602,1,0,0:0:0:0:
256,192,24602,1,0,0:0:0:0:
384,192,24602,1,0,0:0:0:0:
230,192,24602,1,0,0:0:0:0:
192,192,24602,1,0,0:0:0:0:
486,192,24602,1,0,0:0:0:0:
448,192,24602,1,0,0:0:0:0:
109,192,24677,1,0,0:0:0:0:
164,192,24677,1,0,0:0:0:0:
347,192,24677,1,0,0:0:0:0:
25,192,24677,1,0,0:0:0:0:
128,192,24677,1,0,0:0:0:0:
320,192,24677,1,0,0:0:0:0:
420,192,24677,1,0,0:0:0:0:
64,192,24677,1,0,0:0:0:0:
256,192,24677,1,0,0:0:0:0:
384,192,24677,1,0,0:0:0:0:
230,192,24677,1,0,0:0:0:0:
192,192,24677,1,0,0:0:0:0:
486,192,24677,1,0,0:0:0:0:
448,192,24677,1,0,0:0:0:0:
347,192,24752,1,0,0:0:0:0:
25,192,24752,1,0,0:0:0:0:
109,192,24752,1,0,0:0:0:0:
164,192,24752,1,0,0:0:0:0:
420,192,24752,1,0,0:0:0:0:
128,192,24752,1,0,0:0:0:0:
320,192,24752,1,0,0:0:0:0:
64,192,24752,1,0,0:0:0:0:
256,192,24752,1,0,0:0:0:0:
384,192,24752,1,0,0:0:0:0:
230,192,24752,1,0,0:0:0:0:
192,192,24752,1,0,0:0:0:0:
486,192,24752,1,0,0:0:0:0:
448,192,24752,1,0,0:0:0:0:
109,192,24827,1,0,0:0:0:0:
164,192,24827,1,0,0:0:0:0:
347,192,24827,1,0,0:0:0:0:
25,192,24827,1,0,0:0:0:0:
128,192,24827,1,0,0:0:0:0:
320,192,24827,1,0,0:0:0:0:
420,192,24827,1,0,0:0:0:0:
64,192,24827,1,0,0:0:0:0:
256,192,24827,1,0,0:0:0:0:
384,192,24827,1,0,0:0:0:0:
230,192,24827,1,0,0:0:0:0:
192,192,24827,1,0,0:0:0:0:
486,192,24827,1,0,0:0:0:0:
448,192,24827,1,0,0:0:0:0:
347,192,24902,1,0,0:0:0:0:
25,192,24902,1,0,0:0:0:0:
109,192,24902,1,0,0:0:0:0:
164,192,24902,1,0,0:0:0:0:
420,192,24902,1,0,0:0:0:0:
128,192,24902,1,0,0:0:0:0:
320,192,24902,1,0,0:0:0:0:
64,192,24902,1,0,0:0:0:0:
256,192,24902,1,0,0:0:0:0:
384,192,24902,1,0,0:0:0:0:
230,192,24902,1,0,0:0:0:0:
192,192,24902,1,0,0:0:0:0:
486,192,24902,1,0,0:0:0:0:
448,192,24902,1,0,0:0:0:0:
109,192,24977,1,0,0:0:0:0:
164,192,24977,1,0,0:0:0:0:
347,192,24977,1,0,0:0:0:0:
25,192,24977,1,0,0:0:0:0:
128,192,24977,1,0,0:0:0:0:
320,192,24977,1,0,0:0:0:0:
420,192,24977,1,0,0:0:0:0:
64,192,24977,1,0,0:0:0:0:
256,192,24977,1,0,0:0:0:0:
384,192,24977,1,0,0:0:0:0:
230,192,24977,1,0,0:0:0:0:
192,192,24977,1,0,0:0:0:0:
486,192,24977,1,0,0:0:0:0:
448,192,24977,1,0,0:0:0:0:
347,192,25052,1,0,0:0:0:0:
25,192,25052,1,0,0:0:0:0:
109,192,25052,1,0,0:0:0:0:
164,192,25052,1,0,0:0:0:0:
420,192,25052,1,0,0:0:0:0:
128,192,25052,1,0,0:0:0:0:
320,192,25052,1,0,0:0:0:0:
64,192,25052,1,0,0:0:0:0:
256,192,25052,1,0,0:0:0:0:
384,192,25052,1,0,0:0:0:0:
230,192,25052,1,0,0:0:0:0:
192,192,25052,1,0,0:0:0:0:
486,192,25052,1,0,0:0:0:0:
448,192,25052,1,0,0:0:0:0:
109,192,25127,1,0,0:0:0:0:
164,192,25127,1,0,0:0:0:0:
347,192,25127,1,0,0:0:0:0:
25,192,25127,1,0,0:0:0:0:
128,192,25127,1,0,0:0:0:0:
320,192,25127,1,0,0:0:0:0:
420,192,25127,1,0,0:0:0:0:
64,192,25127,1,0,0:0:0:0:
256,192,25127,1,0,0:0:0:0:
384,192,25127,1,0,0:0:0:0:
230,192,25127,1,0,0:0:0:0:
192,192,25127,1,0,0:0:0:0:
486,192,25127,1,0,0:0:0:0:
448,192,25127,1,0,0:0:0:0:
109,192,25202,1,0,0:0:0:0:
164,192,25202,1,0,0:0:0:0:
347,192,25202,1,0,0:0:0:0:
25,192,25202,1,0,0:0:0:0:
128,192,25202,1,0,0:0:0:0:
320,192,25202,1,0,0:0:0:0:
420,192,25202,1,0,0:0:0:0:
64,192,25202,1,0,0:0:0:0:
256,192,25202,1,0,0:0:0:0:
384,192,25202,1,0,0:0:0:0:
230,192,25202,1,0,0:0:0:0:
192,192,25202,1,0,0:0:0:0:
486,192,25202,1,0,0:0:0:0:
448,192,25202,1,0,0:0:0:0:
347,192,25277,1,0,0:0:0:0:
25,192,25277,1,0,0:0:0:0:
109,192,25277,1,0,0:0:0:0:
164,192,25277,1,0,0:0:0:0:
420,192,25277,1,0,0:0:0:0:
128,192,25277,1,0,0:0:0:0:
320,192,25277,1,0,0:0:0:0:
64,192,25277,1,0,0:0:0:0:
256,192,25277,1,0,0:0:0:0:
384,192,25277,1,0,0:0:0:0:
230,192,25277,1,0,0:0:0:0:
192,192,25277,1,0,0:0:0:0:
486,192,25277,1,0,0:0:0:0:
448,192,25277,1,0,0:0:0:0:
109,192,25352,1,0,0:0:0:0:
164,192,25352,1,0,0:0:0:0:
347,192,25352,1,0,0:0:0:0:
25,192,25352,1,0,0:0:0:0:
128,192,25352,1,0,0:0:0:0:
320,192,25352,1,0,0:0:0:0:
420,192,25352,1,0,0:0:0:0:
64,192,25352,1,0,0:0:0:0:
256,192,25352,1,0,0:0:0:0:
384,192,25352,1,0,0:0:0:0:
230,192,25352,1,0,0:0:0:0:
192,192,25352,1,0,0:0:0:0:
486,192,25352,1,0,0:0:0:0:
448,192,25352,1,0,0:0:0:0:
347,192,25427,1,0,0:0:0:0:
25,192,25427,1,0,0:0:0:0:
109,192,25427,1,0,0:0:0:0:
164,192,25427,1,0,0:0:0:0:
420,192,25427,1,0,0:0:0:0:
128,192,25427,1,0,0:0:0:0:
320,192,25427,1,0,0:0:0:0:
64,192,25427,1,0,0:0:0:0:
256,192,25427,1,0,0:0:0:0:
384,192,25427,1,0,0:0:0:0:
230,192,25427,1,0,0:0:0:0:
192,192,25427,1,0,0:0:0:0:
486,192,25427,1,0,0:0:0:0:
448,192,25427,1,0,0:0:0:0:
109,192,25502,1,0,0:0:0:0:
164,192,25502,1,0,0:0:0:0:
347,192,25502,1,0,0:0:0:0:
25,192,25502,1,0,0:0:0:0:
128,192,25502,1,0,0:0:0:0:
320,192,25502,1,0,0:0:0:0:
420,192,25502,1,0,0:0:0:0:
64,192,25502,1,0,0:0:0:0:
256,192,25502,1,0,0:0:0:0:
384,192,25502,1,0,0:0:0:0:
230,192,25502,1,0,0:0:0:0:
192,192,25502,1,0,0:0:0:0:
486,192,25502,1,0,0:0:0:0:
448,192,25502,1,0,0:0:0:0:
347,192,25577,1,0,0:0:0:0:
25,192,25577,1,0,0:0:0:0:
109,192,25577,1,0,0:0:0:0:
164,192,25577,1,0,0:0:0:0:
420,192,25577,1,0,0:0:0:0:
128,192,25577,1,0,0:0:0:0:
320,192,25577,1,0,0:0:0:0:
64,192,25577,1,0,0:0:0:0:
256,192,25577,1,0,0:0:0:0:
384,192,25577,1,0,0:0:0:0:
230,192,25577,1,0,0:0:0:0:
192,192,25577,1,0,0:0:0:0:
486,192,25577,1,0,0:0:0:0:
448,192,25577,1,0,0:0:0:0:
109,192,25652,1,0,0:0:0:0:
164,192,25652,1,0,0:0:0:0:
347,192,25652,1,0,0:0:0:0:
25,192,25652,1,0,0:0:0:0:
128,192,25652,1,0,0:0:0:0:
320,192,25652,1,0,0:0:0:0:
420,192,25652,1,0,0:0:0:0:
64,192,25652,1,0,0:0:0:0:
256,192,25652,1,0,0:0:0:0:
384,192,25652,1,0,0:0:0:0:
230,192,25652,1,0,0:0:0:0:
192,192,25652,1,0,0:0:0:0:
486,192,25652,1,0,0:0:0:0:
448,192,25652,1,0,0:0:0:0:
347,192,25727,1,0,0:0:0:0:
25,192,25727,1,0,0:0:0:0:
109,192,25727,1,0,0:0:0:0:
164,192,25727,1,0,0:0:0:0:
420,192,25727,1,0,0:0:0:0:
128,192,25727,1,0,0:0:0:0:
320,192,25727,1,0,0:0:0:0:
64,192,25727,1,0,0:0:0:0:
256,192,25727,1,0,0:0:0:0:
384,192,25727,1,0,0:0:0:0:
230,192,25727,1,0,0:0:0:0:
192,192,25727,1,0,0:0:0:0:
486,192,25727,1,0,0:0:0:0:
448,192,25727,1,0,0:0:0:0:
109,192,25802,1,0,0:0:0:0:
164,192,25802,1,0,0:0:0:0:
347,192,25802,1,0,0:0:0:0:
25,192,25802,1,0,0:0:0:0:
128,192,25802,1,0,0:0:0:0:
320,192,25802,1,0,0:0:0:0:
420,192,25802,1,0,0:0:0:0:
64,192,25802,1,0,0:0:0:0:
256,192,25802,1,0,0:0:0:0:
384,192,25802,1,0,0:0:0:0:
230,192,25802,1,0,0:0:0:0:
192,192,25802,1,0,0:0:0:0:
486,192,25802,1,0,0:0:0:0:
448,192,25802,1,0,0:0:0:0:
109,192,25877,1,0,0:0:0:0:
164,192,25877,1,0,0:0:0:0:
347,192,25877,1,0,0:0:0:0:
25,192,25877,1,0,0:0:0:0:
128,192,25877,1,0,0:0:0:0:
320,192,25877,1,0,0:0:0:0:
420,192,25877,1,0,0:0:0:0:
64,192,25877,1,0,0:0:0:0:
256,192,25877,1,0,0:0:0:0:
384,192,25877,1,0,0:0:0:0:
230,192,25877,1,0,0:0:0:0:
192,192,25877,1,0,0:0:0:0:
486,192,25877,1,0,0:0:0:0:
448,192,25877,1,0,0:0:0:0:
347,192,25952,1,0,0:0:0:0:
25,192,25952,1,0,0:0:0:0:
109,192,25952,1,0,0:0:0:0:
164,192,25952,1,0,0:0:0:0:
420,192,25952,1,0,0:0:0:0:
128,192,25952,1,0,0:0:0:0:
320,192,25952,1,0,0:0:0:0:
64,192,25952,1,0,0:0:0:0:
256,192,25952,1,0,0:0:0:0:
384,192,25952,1,0,0:0:0:0:
230,192,25952,1,0,0:0:0:0:
192,192,25952,1,0,0:0:0:0:
486,192,25952,1,0,0:0:0:0:
448,192,25952,1,0,0:0:0:0:
109,192,26027,1,0,0:0:0:0:
164,192,26027,1,0,0:0:0:0:
347,192,26027,1,0,0:0:0:0:
25,192,26027,1,0,0:0:0:0:
128,192,26027,1,0,0:0:0:0:
320,192,26027,1,0,0:0:0:0:
420,192,26027,1,0,0:0:0:0:
64,192,26027,1,0,0:0:0:0:
256,192,26027,1,0,0:0:0:0:
384,192,26027,1,0,0:0:0:0:
230,192,26027,1,0,0:0:0:0:
192,192,26027,1,0,0:0:0:0:
486,192,26027,1,0,0:0:0:0:
448,192,26027,1,0,0:0:0:0:
347,192,26102,1,0,0:0:0:0:
25,192,26102,1,0,0:0:0:0:
109,192,26102,1,0,0:0:0:0:
164,192,26102,1,0,0:0:0:0:
420,192,26102,1,0,0:0:0:0:
128,192,26102,1,0,0:0:0:0:
320,192,26102,1,0,0:0:0:0:
64,192,26102,1,0,0:0:0:0:
256,192,26102,1,0,0:0:0:0:
384,192,26102,1,0,0:0:0:0:
230,192,26102,1,0,0:0:0:0:
192,192,26102,1,0,0:0:0:0:
486,192,26102,1,0,0:0:0:0:
448,192,26102,1,0,0:0:0:0:
109,192,26177,1,0,0:0:0:0:
164,192,26177,1,0,0:0:0:0:
347,192,26177,1,0,0:0:0:0:
25,192,26177,1,0,0:0:0:0:
128,192,26177,1,0,0:0:0:0:
320,192,26177,1,0,0:0:0:0:
420,192,26177,1,0,0:0:0:0:
64,192,26177,1,0,0:0:0:0:
256,192,26177,1,0,0:0:0:0:
384,192,26177,1,0,0:0:0:0:
230,192,26177,1,0,0:0:0:0:
192,192,26177,1,0,0:0:0:0:
486,192,26177,1,0,0:0:0:0:
448,192,26177,1,0,0:0:0:0:
347,192,26252,1,0,0:0:0:0:
25,192,26252,1,0,0:0:0:0:
109,192,26252,1,0,0:0:0:0:
164,192,26252,1,0,0:0:0:0:
420,192,26252,1,0,0:0:0:0:
128,192,26252,1,0,0:0:0:0:
320,192,26252,1,0,0:0:0:0:
64,192,26252,1,0,0:0:0:0:
256,192,26252,1,0,0:0:0:0:
384,192,26252,1,0,0:0:0:0:
230,192,26252,1,0,0:0:0:0:
192,192,26252,1,0,0:0:0:0:
486,192,26252,1,0,0:0:0:0:
448,192,26252,1,0,0:0:0:0:
109,192,26327,1,0,0:0:0:0:
164,192,26327,1,0,0:0:0:0:
347,192,26327,1,0,0:0:0:0:
25,192,26327,1,0,0:0:0:0:
128,192,26327,1,0,0:0:0:0:
320,192,26327,1,0,0:0:0:0:
420,192,26327,1,0,0:0:0:0:
64,192,26327,1,0,0:0:0:0:
256,192,26327,1,0,0:0:0:0:
384,192,26327,1,0,0:0:0:0:
230,192,26327,1,0,0:0:0:0:
192,192,26327,1,0,0:0:0:0:
486,192,26327,1,0,0:0:0:0:
448,192,26327,1,0,0:0:0:0:
109,192,26402,1,0,0:0:0:0:
164,192,26402,1,0,0:0:0:0:
347,192,26402,1,0,0:0:0:0:
25,192,26402,1,0,0:0:0:0:
128,192,26402,1,0,0:0:0:0:
320,192,26402,1,0,0:0:0:0:
420,192,26402,1,0,0:0:0:0:
64,192,26402,1,0,0:0:0:0:
256,192,26402,1,0,0:0:0:0:
384,192,26402,1,0,0:0:0:0:
230,192,26402,1,0,0:0:0:0:
192,192,26402,1,0,0:0:0:0:
486,192,26402,1,0,0:0:0:0:
448,192,26402,1,0,0:0:0:0:
347,192,26477,1,0,0:0:0:0:
25,192,26477,1,0,0:0:0:0:
109,192,26477,1,0,0:0:0:0:
164,192,26477,1,0,0:0:0:0:
420,192,26477,1,0,0:0:0:0:
128,192,26477,1,0,0:0:0:0:
320,192,26477,1,0,0:0:0:0:
64,192,26477,1,0,0:0:0:0:
256,192,26477,1,0,0:0:0:0:
384,192,26477,1,0,0:0:0:0:
230,192,26477,1,0,0:0:0:0:
192,192,26477,1,0,0:0:0:0:
486,192,26477,1,0,0:0:0:0:
448,192,26477,1,0,0:0:0:0:
109,192,26552,1,0,0:0:0:0:
164,192,26552,1,0,0:0:0:0:
347,192,26552,1,0,0:0:0:0:
25,192,26552,1,0,0:0:0:0:
128,192,26552,1,0,0:0:0:0:
320,192,26552,1,0,0:0:0:0:
420,192,26552,1,0,0:0:0:0:
64,192,26552,1,0,0:0:0:0:
256,192,26552,1,0,0:0:0:0:
384,192,26552,1,0,0:0:0:0:
230,192,26552,1,0,0:0:0:0:
192,192,26552,1,0,0:0:0:0:
486,192,26552,1,0,0:0:0:0:
448,192,26552,1,0,0:0:0:0:
347,192,26627,1,0,0:0:0:0:
25,192,26627,1,0,0:0:0:0:
109,192,26627,1,0,0:0:0:0:
164,192,26627,1,0,0:0:0:0:
420,192,26627,1,0,0:0:0:0:
128,192,26627,1,0,0:0:0:0:
320,192,26627,1,0,0:0:0:0:
64,192,26627,1,0,0:0:0:0:
256,192,26627,1,0,0:0:0:0:
384,192,26627,1,0,0:0:0:0:
230,192,26627,1,0,0:0:0:0:
192,192,26627,1,0,0:0:0:0:
486,192,26627,1,0,0:0:0:0:
448,192,26627,1,0,0:0:0:0:
109,192,26702,1,0,0:0:0:0:
164,192,26702,1,0,0:0:0:0:
347,192,26702,1,0,0:0:0:0:
25,192,26702,1,0,0:0:0:0:
128,192,26702,1,0,0:0:0:0:
320,192,26702,1,0,0:0:0:0:
420,192,26702,1,0,0:0:0:0:
64,192,26702,1,0,0:0:0:0:
256,192,26702,1,0,0:0:0:0:
384,192,26702,1,0,0:0:0:0:
230,192,26702,1,0,0:0:0:0:
192,192,26702,1,0,0:0:0:0:
486,192,26702,1,0,0:0:0:0:
448,192,26702,1,0,0:0:0:0:
347,192,26777,1,0,0:0:0:0:
25,192,26777,1,0,0:0:0:0:
109,192,26777,1,0,0:0:0:0:
164,192,26777,1,0,0:0:0:0:
420,192,26777,1,0,0:0:0:0:
128,192,26777,1,0,0:0:0:0:
320,192,26777,1,0,0:0:0:0:
64,192,26777,1,0,0:0:0:0:
256,192,26777,1,0,0:0:0:0:
384,192,26777,1,0,0:0:0:0:
230,192,26777,1,0,0:0:0:0:
192,192,26777,1,0,0:0:0:0:
486,192,26777,1,0,0:0:0:0:
448,192,26777,1,0,0:0:0:0:
347,192,26852,1,0,0:0:0:0:
25,192,26852,1,0,0:0:0:0:
109,192,26852,1,0,0:0:0:0:
164,192,26852,1,0,0:0:0:0:
420,192,26852,1,0,0:0:0:0:
128,192,26852,1,0,0:0:0:0:
320,192,26852,1,0,0:0:0:0:
64,192,26852,1,0,0:0:0:0:
256,192,26852,1,0,0:0:0:0:
384,192,26852,1,0,0:0:0:0:
230,192,26852,1,0,0:0:0:0:
192,192,26852,1,0,0:0:0:0:
486,192,26852,1,0,0:0:0:0:
448,192,26852,1,0,0:0:0:0:
109,192,26927,1,0,0:0:0:0:
164,192,26927,1,0,0:0:0:0:
347,192,26927,1,0,0:0:0:0:
25,192,26927,1,0,0:0:0:0:
128,192,26927,1,0,0:0:0:0:
320,192,26927,1,0,0:0:0:0:
420,192,26927,1,0,0:0:0:0:
64,192,26927,1,0,0:0:0:0:
256,192,26927,1,0,0:0:0:0:
384,192,26927,1,0,0:0:0:0:
230,192,26927,1,0,0:0:0:0:
192,192,26927,1,0,0:0:0:0:
486,192,26927,1,0,0:0:0:0:
448,192,26927,1,0,0:0:0:0:
347,192,27002,1,0,0:0:0:0:
25,192,27002,1,0,0:0:0:0:
109,192,27002,1,0,0:0:0:0:
164,192,27002,1,0,0:0:0:0:
420,192,27002,1,0,0:0:0:0:
128,192,27002,1,0,0:0:0:0:
320,192,27002,1,0,0:0:0:0:
64,192,27002,1,0,0:0:0:0:
256,192,27002,1,0,0:0:0:0:
384,192,27002,1,0,0:0:0:0:
230,192,27002,1,0,0:0:0:0:
192,192,27002,1,0,0:0:0:0:
486,192,27002,1,0,0:0:0:0:
448,192,27002,1,0,0:0:0:0:
109,192,27077,1,0,0:0:0:0:
164,192,27077,1,0,0:0:0:0:
347,192,27077,1,0,0:0:0:0:
25,192,27077,1,0,0:0:0:0:
128,192,27077,1,0,0:0:0:0:
320,192,27077,1,0,0:0:0:0:
420,192,27077,1,0,0:0:0:0:
64,192,27077,1,0,0:0:0:0:
256,192,27077,1,0,0:0:0:0:
384,192,27077,1,0,0:0:0:0:
230,192,27077,1,0,0:0:0:0:
192,192,27077,1,0,0:0:0:0:
486,192,27077,1,0,0:0:0:0:
448,192,27077,1,0,0:0:0:0:
347,192,27152,1,0,0:0:0:0:
25,192,27152,1,0,0:0:0:0:
109,192,27152,1,0,0:0:0:0:
164,192,27152,1,0,0:0:0:0:
420,192,27152,1,0,0:0:0:0:
128,192,27152,1,0,0:0:0:0:
320,192,27152,1,0,0:0:0:0:
64,192,27152,1,0,0:0:0:0:
256,192,27152,1,0,0:0:0:0:
384,192,27152,1,0,0:0:0:0:
230,192,27152,1,0,0:0:0:0:
192,192,27152,1,0,0:0:0:0:
486,192,27152,1,0,0:0:0:0:
448,192,27152,1,0,0:0:0:0:
109,192,27227,1,0,0:0:0:0:
164,192,27227,1,0,0:0:0:0:
347,192,27227,1,0,0:0:0:0:
25,192,27227,1,0,0:0:0:0:
128,192,27227,1,0,0:0:0:0:
320,192,27227,1,0,0:0:0:0:
420,192,27227,1,0,0:0:0:0:
64,192,27227,1,0,0:0:0:0:
256,192,27227,1,0,0:0:0:0:
384,192,27227,1,0,0:0:0:0:
230,192,27227,1,0,0:0:0:0:
192,192,27227,1,0,0:0:0:0:
486,192,27227,1,0,0:0:0:0:
448,192,27227,1,0,0:0:0:0:
347,192,27302,1,0,0:0:0:0:
25,192,27302,1,0,0:0:0:0:
109,192,27302,1,0,0:0:0:0:
164,192,27302,1,0,0:0:0:0:
420,192,27302,1,0,0:0:0:0:
128,192,27302,1,0,0:0:0:0:
320,192,27302,1,0,0:0:0:0:
64,192,27302,1,0,0:0:0:0:
256,192,27302,1,0,0:0:0:0:
384,192,27302,1,0,0:0:0:0:
230,192,27302,1,0,0:0:0:0:
192,192,27302,1,0,0:0:0:0:
486,192,27302,1,0,0:0:0:0:
448,192,27302,1,0,0:0:0:0:
109,192,27377,1,0,0:0:0:0:
164,192,27377,1,0,0:0:0:0:
347,192,27377,1,0,0:0:0:0:
25,192,27377,1,0,0:0:0:0:
128,192,27377,1,0,0:0:0:0:
320,192,27377,1,0,0:0:0:0:
420,192,27377,1,0,0:0:0:0:
64,192,27377,1,0,0:0:0:0:
256,192,27377,1,0,0:0:0:0:
384,192,27377,1,0,0:0:0:0:
230,192,27377,1,0,0:0:0:0:
192,192,27377,1,0,0:0:0:0:
486,192,27377,1,0,0:0:0:0:
448,192,27377,1,0,0:0:0:0:
109,192,27452,1,0,0:0:0:0:
164,192,27452,1,0,0:0:0:0:
347,192,27452,1,0,0:0:0:0:
25,192,27452,1,0,0:0:0:0:
128,192,27452,1,0,0:0:0:0:
320,192,27452,1,0,0:0:0:0:
420,192,27452,1,0,0:0:0:0:
64,192,27452,1,0,0:0:0:0:
256,192,27452,1,0,0:0:0:0:
384,192,27452,1,0,0:0:0:0:
230,192,27452,1,0,0:0:0:0:
192,192,27452,1,0,0:0:0:0:
486,192,27452,1,0,0:0:0:0:
448,192,27452,1,0,0:0:0:0:
109,192,27527,1,0,0:0:0:0:
164,192,27527,1,0,0:0:0:0:
347,192,27527,1,0,0:0:0:0:
25,192,27527,1,0,0:0:0:0:
128,192,27527,1,0,0:0:0:0:
320,192,27527,1,0,0:0:0:0:
420,192,27527,1,0,0:0:0:0:
64,192,27527,1,0,0:0:0:0:
256,192,27527,1,0,0:0:0:0:
384,192,27527,1,0,0:0:0:0:
230,192,27527,1,0,0:0:0:0:
192,192,27527,1,0,0:0:0:0:
486,192,27527,1,0,0:0:0:0:
448,192,27527,1,0,0:0:0:0:
347,192,27602,1,0,0:0:0:0:
25,192,27602,1,0,0:0:0:0:
109,192,27602,1,0,0:0:0:0:
164,192,27602,1,0,0:0:0:0:
420,192,27602,1,0,0:0:0:0:
128,192,27602,1,0,0:0:0:0:
320,192,27602,1,0,0:0:0:0:
64,192,27602,1,0,0:0:0:0:
256,192,27602,1,0,0:0:0:0:
384,192,27602,1,0,0:0:0:0:
230,192,27602,1,0,0:0:0:0:
192,192,27602,1,0,0:0:0:0:
486,192,27602,1,0,0:0:0:0:
448,192,27602,1,0,0:0:0:0:
109,192,27677,1,0,0:0:0:0:
164,192,27677,1,0,0:0:0:0:
347,192,27677,1,0,0:0:0:0:
25,192,27677,1,0,0:0:0:0:
128,192,27677,1,0,0:0:0:0:
320,192,27677,1,0,0:0:0:0:
420,192,27677,1,0,0:0:0:0:
64,192,27677,1,0,0:0:0:0:
256,192,27677,1,0,0:0:0:0:
384,192,27677,1,0,0:0:0:0:
230,192,27677,1,0,0:0:0:0:
192,192,27677,1,0,0:0:0:0:
486,192,27677,1,0,0:0:0:0:
448,192,27677,1,0,0:0:0:0:
347,192,27752,1,0,0:0:0:0:
25,192,27752,1,0,0:0:0:0:
109,192,27752,1,0,0:0:0:0:
164,192,27752,1,0,0:0:0:0:
420,192,27752,1,0,0:0:0:0:
128,192,27752,1,0,0:0:0:0:
320,192,27752,1,0,0:0:0:0:
64,192,27752,1,0,0:0:0:0:
256,192,27752,1,0,0:0:0:0:
384,192,27752,1,0,0:0:0:0:
230,192,27752,1,0,0:0:0:0:
192,192,27752,1,0,0:0:0:0:
486,192,27752,1,0,0:0:0:0:
448,192,27752,1,0,0:0:0:0:
109,192,27827,1,0,0:0:0:0:
164,192,27827,1,0,0:0:0:0:
347,192,27827,1,0,0:0:0:0:
25,192,27827,1,0,0:0:0:0:
128,192,27827,1,0,0:0:0:0:
320,192,27827,1,0,0:0:0:0:
420,192,27827,1,0,0:0:0:0:
64,192,27827,1,0,0:0:0:0:
256,192,27827,1,0,0:0:0:0:
384,192,27827,1,0,0:0:0:0:
230,192,27827,1,0,0:0:0:0:
192,192,27827,1,0,0:0:0:0:
486,192,27827,1,0,0:0:0:0:
448,192,27827,1,0,0:0:0:0:
347,192,27902,1,0,0:0:0:0:
25,192,27902,1,0,0:0:0:0:
109,192,27902,1,0,0:0:0:0:
164,192,27902,1,0,0:0:0:0:
420,192,27902,1,0,0:0:0:0:
128,192,27902,1,0,0:0:0:0:
320,192,27902,1,0,0:0:0:0:
64,192,27902,1,0,0:0:0:0:
256,192,27902,1,0,0:0:0:0:
384,192,27902,1,0,0:0:0:0:
230,192,27902,1,0,0:0:0:0:
192,192,27902,1,0,0:0:0:0:
486,192,27902,1,0,0:0:0:0:
448,192,27902,1,0,0:0:0:0:
109,192,27977,1,0,0:0:0:0:
164,192,27977,1,0,0:0:0:0:
347,192,27977,1,0,0:0:0:0:
25,192,27977,1,0,0:0:0:0:
128,192,27977,1,0,0:0:0:0:
320,192,27977,1,0,0:0:0:0:
420,192,27977,1,0,0:0:0:0:
64,192,27977,1,0,0:0:0:0:
256,192,27977,1,0,0:0:0:0:
384,192,27977,1,0,0:0:0:0:
230,192,27977,1,0,0:0:0:0:
192,192,27977,1,0,0:0:0:0:
486,192,27977,1,0,0:0:0:0:
448,192,27977,1,0,0:0:0:0:
109,192,28052,1,0,0:0:0:0:
164,192,28052,1,0,0:0:0:0:
347,192,28052,1,0,0:0:0:0:
25,192,28052,1,0,0:0:0:0:
128,192,28052,1,0,0:0:0:0:
320,192,28052,1,0,0:0:0:0:
420,192,28052,1,0,0:0:0:0:
64,192,28052,1,0,0:0:0:0:
256,192,28052,1,0,0:0:0:0:
384,192,28052,1,0,0:0:0:0:
230,192,28052,1,0,0:0:0:0:
192,192,28052,1,0,0:0:0:0:
486,192,28052,1,0,0:0:0:0:
448,192,28052,1,0,0:0:0:0:
347,192,28127,1,0,0:0:0:0:
25,192,28127,1,0,0:0:0:0:
109,192,28127,1,0,0:0:0:0:
164,192,28127,1,0,0:0:0:0:
420,192,28127,1,0,0:0:0:0:
128,192,28127,1,0,0:0:0:0:
320,192,28127,1,0,0:0:0:0:
64,192,28127,1,0,0:0:0:0:
256,192,28127,1,0,0:0:0:0:
384,192,28127,1,0,0:0:0:0:
230,192,28127,1,0,0:0:0:0:
192,192,28127,1,0,0:0:0:0:
486,192,28127,1,0,0:0:0:0:
448,192,28127,1,0,0:0:0:0:
109,192,28202,1,0,0:0:0:0:
164,192,28202,1,0,0:0:0:0:
347,192,28202,1,0,0:0:0:0:
25,192,28202,1,0,0:0:0:0:
128,192,28202,1,0,0:0:0:0:
320,192,28202,1,0,0:0:0:0:
420,192,28202,1,0,0:0:0:0:
64,192,28202,1,0,0:0:0:0:
256,192,28202,1,0,0:0:0:0:
384,192,28202,1,0,0:0:0:0:
230,192,28202,1,0,0:0:0:0:
192,192,28202,1,0,0:0:0:0:
486,192,28202,1,0,0:0:0:0:
448,192,28202,1,0,0:0:0:0:
347,192,28277,1,0,0:0:0:0:
25,192,28277,1,0,0:0:0:0:
109,192,28277,1,0,0:0:0:0:
164,192,28277,1,0,0:0:0:0:
420,192,28277,1,0,0:0:0:0:
128,192,28277,1,0,0:0:0:0:
320,192,28277,1,0,0:0:0:0:
64,192,28277,1,0,0:0:0:0:
256,192,28277,1,0,0:0:0:0:
384,192,28277,1,0,0:0:0:0:
230,192,28277,1,0,0:0:0:0:
192,192,28277,1,0,0:0:0:0:
486,192,28277,1,0,0:0:0:0:
448,192,28277,1,0,0:0:0:0:
109,192,28352,1,0,0:0:0:0:
164,192,28352,1,0,0:0:0:0:
347,192,28352,1,0,0:0:0:0:
25,192,28352,1,0,0:0:0:0:
128,192,28352,1,0,0:0:0:0:
320,192,28352,1,0,0:0:0:0:
420,192,28352,1,0,0:0:0:0:
64,192,28352,1,0,0:0:0:0:
256,192,28352,1,0,0:0:0:0:
384,192,28352,1,0,0:0:0:0:
230,192,28352,1,0,0:0:0:0:
192,192,28352,1,0,0:0:0:0:
486,192,28352,1,0,0:0:0:0:
448,192,28352,1,0,0:0:0:0:
347,192,28427,1,0,0:0:0:0:
25,192,28427,1,0,0:0:0:0:
109,192,28427,1,0,0:0:0:0:
164,192,28427,1,0,0:0:0:0:
420,192,28427,1,0,0:0:0:0:
128,192,28427,1,0,0:0:0:0:
320,192,28427,1,0,0:0:0:0:
64,192,28427,1,0,0:0:0:0:
256,192,28427,1,0,0:0:0:0:
384,192,28427,1,0,0:0:0:0:
230,192,28427,1,0,0:0:0:0:
192,192,28427,1,0,0:0:0:0:
486,192,28427,1,0,0:0:0:0:
448,192,28427,1,0,0:0:0:0:
109,192,28502,1,0,0:0:0:0:
164,192,28502,1,0,0:0:0:0:
347,192,28502,1,0,0:0:0:0:
25,192,28502,1,0,0:0:0:0:
128,192,28502,1,0,0:0:0:0:
320,192,28502,1,0,0:0:0:0:
420,192,28502,1,0,0:0:0:0:
64,192,28502,1,0,0:0:0:0:
256,192,28502,1,0,0:0:0:0:
384,192,28502,1,0,0:0:0:0:
230,192,28502,1,0,0:0:0:0:
192,192,28502,1,0,0:0:0:0:
486,192,28502,1,0,0:0:0:0:
448,192,28502,1,0,0:0:0:0:
347,192,28577,1,0,0:0:0:0:
25,192,28577,1,0,0:0:0:0:
109,192,28577,1,0,0:0:0:0:
164,192,28577,1,0,0:0:0:0:
420,192,28577,1,0,0:0:0:0:
128,192,28577,1,0,0:0:0:0:
320,192,28577,1,0,0:0:0:0:
64,192,28577,1,0,0:0:0:0:
256,192,28577,1,0,0:0:0:0:
384,192,28577,1,0,0:0:0:0:
230,192,28577,1,0,0:0:0:0:
192,192,28577,1,0,0:0:0:0:
486,192,28577,1,0,0:0:0:0:
448,192,28577,1,0,0:0:0:0:
109,192,28652,1,0,0:0:0:0:
164,192,28652,1,0,0:0:0:0:
347,192,28652,1,0,0:0:0:0:
25,192,28652,1,0,0:0:0:0:
128,192,28652,1,0,0:0:0:0:
320,192,28652,1,0,0:0:0:0:
420,192,28652,1,0,0:0:0:0:
64,192,28652,1,0,0:0:0:0:
256,192,28652,1,0,0:0:0:0:
384,192,28652,1,0,0:0:0:0:
230,192,28652,1,0,0:0:0:0:
192,192,28652,1,0,0:0:0:0:
486,192,28652,1,0,0:0:0:0:
448,192,28652,1,0,0:0:0:0:
347,192,28727,1,0,0:0:0:0:
25,192,28727,1,0,0:0:0:0:
109,192,28727,1,0,0:0:0:0:
164,192,28727,1,0,0:0:0:0:
420,192,28727,1,0,0:0:0:0:
128,192,28727,1,0,0:0:0:0:
320,192,28727,1,0,0:0:0:0:
64,192,28727,1,0,0:0:0:0:
256,192,28727,1,0,0:0:0:0:
384,192,28727,1,0,0:0:0:0:
230,192,28727,1,0,0:0:0:0:
192,192,28727,1,0,0:0:0:0:
486,192,28727,1,0,0:0:0:0:
448,192,28727,1,0,0:0:0:0:
109,192,28802,1,0,0:0:0:0:
164,192,28802,1,0,0:0:0:0:
347,192,28802,1,0,0:0:0:0:
25,192,28802,1,0,0:0:0:0:
128,192,28802,1,0,0:0:0:0:
320,192,28802,1,0,0:0:0:0:
420,192,28802,1,0,0:0:0:0:
64,192,28802,1,0,0:0:0:0:
256,192,28802,1,0,0:0:0:0:
384,192,28802,1,0,0:0:0:0:
230,192,28802,1,0,0:0:0:0:
192,192,28802,1,0,0:0:0:0:
486,192,28802,1,0,0:0:0:0:
448,192,28802,1,0,0:0:0:0:
347,192,28877,1,0,0:0:0:0:
25,192,28877,1,0,0:0:0:0:
109,192,28877,1,0,0:0:0:0:
164,192,28877,1,0,0:0:0:0:
420,192,28877,1,0,0:0:0:0:
128,192,28877,1,0,0:0:0:0:
320,192,28877,1,0,0:0:0:0:
64,192,28877,1,0,0:0:0:0:
256,192,28877,1,0,0:0:0:0:
384,192,28877,1,0,0:0:0:0:
230,192,28877,1,0,0:0:0:0:
192,192,28877,1,0,0:0:0:0:
486,192,28877,1,0,0:0:0:0:
448,192,28877,1,0,0:0:0:0:
109,192,28952,1,0,0:0:0:0:
164,192,28952,1,0,0:0:0:0:
347,192,28952,1,0,0:0:0:0:
25,192,28952,1,0,0:0:0:0:
128,192,28952,1,0,0:0:0:0:
320,192,28952,1,0,0:0:0:0:
420,192,28952,1,0,0:0:0:0:
64,192,28952,1,0,0:0:0:0:
256,192,28952,1,0,0:0:0:0:
384,192,28952,1,0,0:0:0:0:
230,192,28952,1,0,0:0:0:0:
192,192,28952,1,0,0:0:0:0:
486,192,28952,1,0,0:0:0:0:
448,192,28952,1,0,0:0:0:0:
347,192,29027,1,0,0:0:0:0:
25,192,29027,1,0,0:0:0:0:
109,192,29027,1,0,0:0:0:0:
164,192,29027,1,0,0:0:0:0:
420,192,29027,1,0,0:0:0:0:
128,192,29027,1,0,0:0:0:0:
320,192,29027,1,0,0:0:0:0:
64,192,29027,1,0,0:0:0:0:
256,192,29027,1,0,0:0:0:0:
384,192,29027,1,0,0:0:0:0:
230,192,29027,1,0,0:0:0:0:
192,192,29027,1,0,0:0:0:0:
486,192,29027,1,0,0:0:0:0:
448,192,29027,1,0,0:0:0:0:
109,192,29102,1,0,0:0:0:0:
164,192,29102,1,0,0:0:0:0:
347,192,29102,1,0,0:0:0:0:
25,192,29102,1,0,0:0:0:0:
128,192,29102,1,0,0:0:0:0:
320,192,29102,1,0,0:0:0:0:
420,192,29102,1,0,0:0:0:0:
64,192,29102,1,0,0:0:0:0:
256,192,29102,1,0,0:0:0:0:
384,192,29102,1,0,0:0:0:0:
230,192,29102,1,0,0:0:0:0:
192,192,29102,1,0,0:0:0:0:
486,192,29102,1,0,0:0:0:0:
448,192,29102,1,0,0:0:0:0:
347,192,29177,1,0,0:0:0:0:
25,192,29177,1,0,0:0:0:0:
109,192,29177,1,0,0:0:0:0:
164,192,29177,1,0,0:0:0:0:
420,192,29177,1,0,0:0:0:0:
128,192,29177,1,0,0:0:0:0:
320,192,29177,1,0,0:0:0:0:
64,192,29177,1,0,0:0:0:0:
256,192,29177,1,0,0:0:0:0:
384,192,29177,1,0,0:0:0:0:
230,192,29177,1,0,0:0:0:0:
192,192,29177,1,0,0:0:0:0:
486,192,29177,1,0,0:0:0:0:
448,192,29177,1,0,0:0:0:0:
109,192,29252,1,0,0:0:0:0:
164,192,29252,1,0,0:0:0:0:
347,192,29252,1,0,0:0:0:0:
25,192,29252,1,0,0:0:0:0:
128,192,29252,1,0,0:0:0:0:
320,192,29252,1,0,0:0:0:0:
420,192,29252,1,0,0:0:0:0:
64,192,29252,1,0,0:0:0:0:
256,192,29252,1,0,0:0:0:0:
384,192,29252,1,0,0:0:0:0:
230,192,29252,1,0,0:0:0:0:
192,192,29252,1,0,0:0:0:0:
486,192,29252,1,0,0:0:0:0:
448,192,29252,1,0,0:0:0:0:
347,192,29327,1,0,0:0:0:0:
25,192,29327,1,0,0:0:0:0:
109,192,29327,1,0,0:0:0:0:
164,192,29327,1,0,0:0:0:0:
420,192,29327,1,0,0:0:0:0:
128,192,29327,1,0,0:0:0:0:
320,192,29327,1,0,0:0:0:0:
64,192,29327,1,0,0:0:0:0:
256,192,29327,1,0,0:0:0:0:
384,192,29327,1,0,0:0:0:0:
230,192,29327,1,0,0:0:0:0:
192,192,29327,1,0,0:0:0:0:
486,192,29327,1,0,0:0:0:0:
448,192,29327,1,0,0:0:0:0:
109,192,29402,1,0,0:0:0:0:
164,192,29402,1,0,0:0:0:0:
347,192,29402,1,0,0:0:0:0:
25,192,29402,1,0,0:0:0:0:
128,192,29402,1,0,0:0:0:0:
320,192,29402,1,0,0:0:0:0:
420,192,29402,1,0,0:0:0:0:
64,192,29402,1,0,0:0:0:0:
256,192,29402,1,0,0:0:0:0:
384,192,29402,1,0,0:0:0:0:
230,192,29402,1,0,0:0:0:0:
192,192,29402,1,0,0:0:0:0:
486,192,29402,1,0,0:0:0:0:
448,192,29402,1,0,0:0:0:0:
347,192,29477,1,0,0:0:0:0:
25,192,29477,1,0,0:0:0:0:
109,192,29477,1,0,0:0:0:0:
164,192,29477,1,0,0:0:0:0:
420,192,29477,1,0,0:0:0:0:
128,192,29477,1,0,0:0:0:0:
320,192,29477,1,0,0:0:0:0:
64,192,29477,1,0,0:0:0:0:
256,192,29477,1,0,0:0:0:0:
384,192,29477,1,0,0:0:0:0:
230,192,29477,1,0,0:0:0:0:
192,192,29477,1,0,0:0:0:0:
486,192,29477,1,0,0:0:0:0:
448,192,29477,1,0,0:0:0:0:
109,192,29552,1,0,0:0:0:0:
164,192,29552,1,0,0:0:0:0:
347,192,29552,1,0,0:0:0:0:
25,192,29552,1,0,0:0:0:0:
128,192,29552,1,0,0:0:0:0:
320,192,29552,1,0,0:0:0:0:
420,192,29552,1,0,0:0:0:0:
64,192,29552,1,0,0:0:0:0:
256,192,29552,1,0,0:0:0:0:
384,192,29552,1,0,0:0:0:0:
230,192,29552,1,0,0:0:0:0:
192,192,29552,1,0,0:0:0:0:
486,192,29552,1,0,0:0:0:0:
448,192,29552,1,0,0:0:0:0:
347,192,29627,1,0,0:0:0:0:
25,192,29627,1,0,0:0:0:0:
109,192,29627,1,0,0:0:0:0:
164,192,29627,1,0,0:0:0:0:
420,192,29627,1,0,0:0:0:0:
128,192,29627,1,0,0:0:0:0:
320,192,29627,1,0,0:0:0:0:
64,192,29627,1,0,0:0:0:0:
256,192,29627,1,0,0:0:0:0:
384,192,29627,1,0,0:0:0:0:
230,192,29627,1,0,0:0:0:0:
192,192,29627,1,0,0:0:0:0:
486,192,29627,1,0,0:0:0:0:
448,192,29627,1,0,0:0:0:0:
347,192,29702,1,0,0:0:0:0:
25,192,29702,1,0,0:0:0:0:
109,192,29702,1,0,0:0:0:0:
164,192,29702,1,0,0:0:0:0:
420,192,29702,1,0,0:0:0:0:
128,192,29702,1,0,0:0:0:0:
320,192,29702,1,0,0:0:0:0:
64,192,29702,1,0,0:0:0:0:
256,192,29702,1,0,0:0:0:0:
384,192,29702,1,0,0:0:0:0:
230,192,29702,1,0,0:0:0:0:
192,192,29702,1,0,0:0:0:0:
486,192,29702,1,0,0:0:0:0:
448,192,29702,1,0,0:0:0:0:
109,192,29777,1,0,0:0:0:0:
164,192,29777,1,0,0:0:0:0:
347,192,29777,1,0,0:0:0:0:
25,192,29777,1,0,0:0:0:0:
128,192,29777,1,0,0:0:0:0:
320,192,29777,1,0,0:0:0:0:
420,192,29777,1,0,0:0:0:0:
64,192,29777,1,0,0:0:0:0:
256,192,29777,1,0,0:0:0:0:
384,192,29777,1,0,0:0:0:0:
230,192,29777,1,0,0:0:0:0:
192,192,29777,1,0,0:0:0:0:
486,192,29777,1,0,0:0:0:0:
448,192,29777,1,0,0:0:0:0:
347,192,29852,1,0,0:0:0:0:
25,192,29852,1,0,0:0:0:0:
109,192,29852,1,0,0:0:0:0:
164,192,29852,1,0,0:0:0:0:
420,192,29852,1,0,0:0:0:0:
128,192,29852,1,0,0:0:0:0:
320,192,29852,1,0,0:0:0:0:
64,192,29852,1,0,0:0:0:0:
256,192,29852,1,0,0:0:0:0:
384,192,29852,1,0,0:0:0:0:
230,192,29852,1,0,0:0:0:0:
192,192,29852,1,0,0:0:0:0:
486,192,29852,1,0,0:0:0:0:
448,192,29852,1,0,0:0:0:0:
109,192,29927,1,0,0:0:0:0:
164,192,29927,1,0,0:0:0:0:
347,192,29927,1,0,0:0:0:0:
25,192,29927,1,0,0:0:0:0:
128,192,29927,1,0,0:0:0:0:
320,192,29927,1,0,0:0:0:0:
420,192,29927,1,0,0:0:0:0:
64,192,29927,1,0,0:0:0:0:
256,192,29927,1,0,0:0:0:0:
384,192,29927,1,0,0:0:0:0:
230,192,29927,1,0,0:0:0:0:
192,192,29927,1,0,0:0:0:0:
486,192,29927,1,0,0:0:0:0:
448,192,29927,1,0,0:0:0:0:
25,192,30002,128,0,32327:0:0:0:0:
109,192,30002,128,0,32327:0:0:0:0:
164,192,30002,128,0,32327:0:0:0:0:
347,192,30002,128,0,32327:0:0:0:0:
128,192,30002,128,0,32327:0:0:0:0:
320,192,30002,128,0,32327:0:0:0:0:
420,192,30002,128,0,32327:0:0:0:0:
64,192,30002,128,0,32327:0:0:0:0:
256,192,30002,128,0,32327:0:0:0:0:
384,192,30002,128,0,32327:0:0:0:0:
230,192,30002,128,0,32327:0:0:0:0:
192,192,30002,128,0,32327:0:0:0:0:
486,192,30002,128,0,32327:0:0:0:0:
448,192,30002,128,0,32327:0:0:0:0:
109,192,32402,1,0,0:0:0:0:
164,192,32402,1,0,0:0:0:0:
347,192,32402,1,0,0:0:0:0:
25,192,32402,1,0,0:0:0:0:
128,192,32402,1,0,0:0:0:0:
320,192,32402,1,0,0:0:0:0:
420,192,32402,1,0,0:0:0:0:
64,192,32402,1,0,0:0:0:0:
256,192,32402,1,0,0:0:0:0:
384,192,32402,1,0,0:0:0:0:
230,192,32402,1,0,0:0:0:0:
192,192,32402,1,0,0:0:0:0:
486,192,32402,1,0,0:0:0:0:
448,192,32402,1,0,0:0:0:0:
347,192,32477,1,0,0:0:0:0:
25,192,32477,1,0,0:0:0:0:
109,192,32477,1,0,0:0:0:0:
164,192,32477,1,0,0:0:0:0:
420,192,32477,1,0,0:0:0:0:
128,192,32477,1,0,0:0:0:0:
320,192,32477,1,0,0:0:0:0:
64,192,32477,1,0,0:0:0:0:
256,192,32477,1,0,0:0:0:0:
384,192,32477,1,0,0:0:0:0:
230,192,32477,1,0,0:0:0:0:
192,192,32477,1,0,0:0:0:0:
486,192,32477,1,0,0:0:0:0:
448,192,32477,1,0,0:0:0:0:
109,192,32552,1,0,0:0:0:0:
164,192,32552,1,0,0:0:0:0:
347,192,32552,1,0,0:0:0:0:
25,192,32552,1,0,0:0:0:0:
128,192,32552,1,0,0:0:0:0:
320,192,32552,1,0,0:0:0:0:
420,192,32552,1,0,0:0:0:0:
64,192,32552,1,0,0:0:0:0:
256,192,32552,1,0,0:0:0:0:
384,192,32552,1,0,0:0:0:0:
230,192,32552,1,0,0:0:0:0:
192,192,32552,1,0,0:0:0:0:
486,192,32552,1,0,0:0:0:0:
448,192,32552,1,0,0:0:0:0:
347,192,32627,1,0,0:0:0:0:
25,192,32627,1,0,0:0:0:0:
109,192,32627,1,0,0:0:0:0:
164,192,32627,1,0,0:0:0:0:
420,192,32627,1,0,0:0:0:0:
128,192,32627,1,0,0:0:0:0:
320,192,32627,1,0,0:0:0:0:
64,192,32627,1,0,0:0:0:0:
256,192,32627,1,0,0:0:0:0:
384,192,32627,1,0,0:0:0:0:
230,192,32627,1,0,0:0:0:0:
192,192,32627,1,0,0:0:0:0:
486,192,32627,1,0,0:0:0:0:
448,192,32627,1,0,0:0:0:0:
109,192,32702,1,0,0:0:0:0:
164,192,32702,1,0,0:0:0:0:
347,192,32702,1,0,0:0:0:0:
25,192,32702,1,0,0:0:0:0:
128,192,32702,1,0,0:0:0:0:
320,192,32702,1,0,0:0:0:0:
420,192,32702,1,0,0:0:0:0:
64,192,32702,1,0,0:0:0:0:
256,192,32702,1,0,0:0:0:0:
384,192,32702,1,0,0:0:0:0:
230,192,32702,1,0,0:0:0:0:
192,192,32702,1,0,0:0:0:0:
486,192,32702,1,0,0:0:0:0:
448,192,32702,1,0,0:0:0:0:
347,192,32777,1,0,0:0:0:0:
25,192,32777,1,0,0:0:0:0:
109,192,32777,1,0,0:0:0:0:
164,192,32777,1,0,0:0:0:0:
420,192,32777,1,0,0:0:0:0:
128,192,32777,1,0,0:0:0:0:
320,192,32777,1,0,0:0:0:0:
64,192,32777,1,0,0:0:0:0:
256,192,32777,1,0,0:0:0:0:
384,192,32777,1,0,0:0:0:0:
230,192,32777,1,0,0:0:0:0:
192,192,32777,1,0,0:0:0:0:
486,192,32777,1,0,0:0:0:0:
448,192,32777,1,0,0:0:0:0:
109,192,32852,1,0,0:0:0:0:
164,192,32852,1,0,0:0:0:0:
347,192,32852,1,0,0:0:0:0:
25,192,32852,1,0,0:0:0:0:
128,192,32852,1,0,0:0:0:0:
320,192,32852,1,0,0:0:0:0:
420,192,32852,1,0,0:0:0:0:
64,192,32852,1,0,0:0:0:0:
256,192,32852,1,0,0:0:0:0:
384,192,32852,1,0,0:0:0:0:
230,192,32852,1,0,0:0:0:0:
192,192,32852,1,0,0:0:0:0:
486,192,32852,1,0,0:0:0:0:
448,192,32852,1,0,0:0:0:0:
109,192,32927,1,0,0:0:0:0:
164,192,32927,1,0,0:0:0:0:
347,192,32927,1,0,0:0:0:0:
25,192,32927,1,0,0:0:0:0:
128,192,32927,1,0,0:0:0:0:
320,192,32927,1,0,0:0:0:0:
420,192,32927,1,0,0:0:0:0:
64,192,32927,1,0,0:0:0:0:
256,192,32927,1,0,0:0:0:0:
384,192,32927,1,0,0:0:0:0:
230,192,32927,1,0,0:0:0:0:
192,192,32927,1,0,0:0:0:0:
486,192,32927,1,0,0:0:0:0:
448,192,32927,1,0,0:0:0:0:
347,192,33002,1,0,0:0:0:0:
25,192,33002,1,0,0:0:0:0:
109,192,33002,1,0,0:0:0:0:
164,192,33002,1,0,0:0:0:0:
420,192,33002,1,0,0:0:0:0:
128,192,33002,1,0,0:0:0:0:
320,192,33002,1,0,0:0:0:0:
64,192,33002,1,0,0:0:0:0:
256,192,33002,1,0,0:0:0:0:
384,192,33002,1,0,0:0:0:0:
230,192,33002,1,0,0:0:0:0:
192,192,33002,1,0,0:0:0:0:
486,192,33002,1,0,0:0:0:0:
448,192,33002,1,0,0:0:0:0:
109,192,33077,1,0,0:0:0:0:
164,192,33077,1,0,0:0:0:0:
347,192,33077,1,0,0:0:0:0:
25,192,33077,1,0,0:0:0:0:
128,192,33077,1,0,0:0:0:0:
320,192,33077,1,0,0:0:0:0:
420,192,33077,1,0,0:0:0:0:
64,192,33077,1,0,0:0:0:0:
256,192,33077,1,0,0:0:0:0:
384,192,33077,1,0,0:0:0:0:
230,192,33077,1,0,0:0:0:0:
192,192,33077,1,0,0:0:0:0:
486,192,33077,1,0,0:0:0:0:
448,192,33077,1,0,0:0:0:0:
347,192,33152,1,0,0:0:0:0:
25,192,33152,1,0,0:0:0:0:
109,192,33152,1,0,0:0:0:0:
164,192,33152,1,0,0:0:0:0:
420,192,33152,1,0,0:0:0:0:
128,192,33152,1,0,0:0:0:0:
320,192,33152,1,0,0:0:0:0:
64,192,33152,1,0,0:0:0:0:
256,192,33152,1,0,0:0:0:0:
384,192,33152,1,0,0:0:0:0:
230,192,33152,1,0,0:0:0:0:
192,192,33152,1,0,0:0:0:0:
486,192,33152,1,0,0:0:0:0:
448,192,33152,1,0,0:0:0:0:
109,192,33227,1,0,0:0:0:0:
164,192,33227,1,0,0:0:0:0:
347,192,33227,1,0,0:0:0:0:
25,192,33227,1,0,0:0:0:0:
128,192,33227,1,0,0:0:0:0:
320,192,33227,1,0,0:0:0:0:
420,192,33227,1,0,0:0:0:0:
64,192,33227,1,0,0:0:0:0:
256,192,33227,1,0,0:0:0:0:
384,192,33227,1,0,0:0:0:0:
230,192,33227,1,0,0:0:0:0:
192,192,33227,1,0,0:0:0:0:
486,192,33227,1,0,0:0:0:0:
448,192,33227,1,0,0:0:0:0:
347,192,33302,1,0,0:0:0:0:
109,192,33302,1,0,0:0:0:0:
164,192,33302,1,0,0:0:0:0:
25,192,33302,1,0,0:0:0:0:
420,192,33302,1,0,0:0:0:0:
128,192,33302,1,0,0:0:0:0:
320,192,33302,1,0,0:0:0:0:
64,192,33302,1,0,0:0:0:0:
256,192,33302,1,0,0:0:0:0:
384,192,33302,1,0,0:0:0:0:
230,192,33302,1,0,0:0:0:0:
192,192,33302,1,0,0:0:0:0:
486,192,33302,1,0,0:0:0:0:
448,192,33302,1,0,0:0:0:0:
347,192,33377,1,0,0:0:0:0:
25,192,33377,1,0,0:0:0:0:
109,192,33377,1,0,0:0:0:0:
164,192,33377,1,0,0:0:0:0:
420,192,33377,1,0,0:0:0:0:
128,192,33377,1,0,0:0:0:0:
320,192,33377,1,0,0:0:0:0:
64,192,33377,1,0,0:0:0:0:
256,192,33377,1,0,0:0:0:0:
384,192,33377,1,0,0:0:0:0:
230,192,33377,1,0,0:0:0:0:
192,192,33377,1,0,0:0:0:0:
486,192,33377,1,0,0:0:0:0:
448,192,33377,1,0,0:0:0:0:
109,192,33452,1,0,0:0:0:0:
164,192,33452,1,0,0:0:0:0:
347,192,33452,1,0,0:0:0:0:
25,192,33452,1,0,0:0:0:0:
128,192,33452,1,0,0:0:0:0:
320,192,33452,1,0,0:0:0:0:
420,192,33452,1,0,0:0:0:0:
64,192,33452,1,0,0:0:0:0:
256,192,33452,1,0,0:0:0:0:
384,192,33452,1,0,0:0:0:0:
230,192,33452,1,0,0:0:0:0:
192,192,33452,1,0,0:0:0:0:
486,192,33452,1,0,0:0:0:0:
448,192,33452,1,0,0:0:0:0:
347,192,33527,1,0,0:0:0:0:
25,192,33527,1,0,0:0:0:0:
109,192,33527,1,0,0:0:0:0:
164,192,33527,1,0,0:0:0:0:
420,192,33527,1,0,0:0:0:0:
128,192,33527,1,0,0:0:0:0:
320,192,33527,1,0,0:0:0:0:
64,192,33527,1,0,0:0:0:0:
256,192,33527,1,0,0:0:0:0:
384,192,33527,1,0,0:0:0:0:
230,192,33527,1,0,0:0:0:0:
192,192,33527,1,0,0:0:0:0:
486,192,33527,1,0,0:0:0:0:
448,192,33527,1,0,0:0:0:0:
347,192,33602,1,0,0:0:0:0:
25,192,33602,1,0,0:0:0:0:
109,192,33602,1,0,0:0:0:0:
164,192,33602,1,0,0:0:0:0:
420,192,33602,1,0,0:0:0:0:
128,192,33602,1,0,0:0:0:0:
320,192,33602,1,0,0:0:0:0:
64,192,33602,1,0,0:0:0:0:
256,192,33602,1,0,0:0:0:0:
384,192,33602,1,0,0:0:0:0:
230,192,33602,1,0,0:0:0:0:
192,192,33602,1,0,0:0:0:0:
486,192,33602,1,0,0:0:0:0:
448,192,33602,1,0,0:0:0:0:
109,192,33677,1,0,0:0:0:0:
164,192,33677,1,0,0:0:0:0:
347,192,33677,1,0,0:0:0:0:
25,192,33677,1,0,0:0:0:0:
128,192,33677,1,0,0:0:0:0:
320,192,33677,1,0,0:0:0:0:
420,192,33677,1,0,0:0:0:0:
64,192,33677,1,0,0:0:0:0:
256,192,33677,1,0,0:0:0:0:
384,192,33677,1,0,0:0:0:0:
230,192,33677,1,0,0:0:0:0:
192,192,33677,1,0,0:0:0:0:
486,192,33677,1,0,0:0:0:0:
448,192,33677,1,0,0:0:0:0:
347,192,33752,1,0,0:0:0:0:
25,192,33752,1,0,0:0:0:0:
109,192,33752,1,0,0:0:0:0:
164,192,33752,1,0,0:0:0:0:
420,192,33752,1,0,0:0:0:0:
128,192,33752,1,0,0:0:0:0:
320,192,33752,1,0,0:0:0:0:
64,192,33752,1,0,0:0:0:0:
256,192,33752,1,0,0:0:0:0:
384,192,33752,1,0,0:0:0:0:
230,192,33752,1,0,0:0:0:0:
192,192,33752,1,0,0:0:0:0:
486,192,33752,1,0,0:0:0:0:
448,192,33752,1,0,0:0:0:0:
109,192,33827,1,0,0:0:0:0:
164,192,33827,1,0,0:0:0:0:
347,192,33827,1,0,0:0:0:0:
25,192,33827,1,0,0:0:0:0:
128,192,33827,1,0,0:0:0:0:
320,192,33827,1,0,0:0:0:0:
420,192,33827,1,0,0:0:0:0:
64,192,33827,1,0,0:0:0:0:
256,192,33827,1,0,0:0:0:0:
384,192,33827,1,0,0:0:0:0:
230,192,33827,1,0,0:0:0:0:
192,192,33827,1,0,0:0:0:0:
486,192,33827,1,0,0:0:0:0:
448,192,33827,1,0,0:0:0:0:
347,192,33902,1,0,0:0:0:0:
25,192,33902,1,0,0:0:0:0:
109,192,33902,1,0,0:0:0:0:
164,192,33902,1,0,0:0:0:0:
420,192,33902,1,0,0:0:0:0:
128,192,33902,1,0,0:0:0:0:
320,192,33902,1,0,0:0:0:0:
64,192,33902,1,0,0:0:0:0:
256,192,33902,1,0,0:0:0:0:
384,192,33902,1,0,0:0:0:0:
230,192,33902,1,0,0:0:0:0:
192,192,33902,1,0,0:0:0:0:
486,192,33902,1,0,0:0:0:0:
448,192,33902,1,0,0:0:0:0:
109,192,33977,1,0,0:0:0:0:
164,192,33977,1,0,0:0:0:0:
347,192,33977,1,0,0:0:0:0:
25,192,33977,1,0,0:0:0:0:
128,192,33977,1,0,0:0:0:0:
320,192,33977,1,0,0:0:0:0:
420,192,33977,1,0,0:0:0:0:
64,192,33977,1,0,0:0:0:0:
256,192,33977,1,0,0:0:0:0:
384,192,33977,1,0,0:0:0:0:
230,192,33977,1,0,0:0:0:0:
192,192,33977,1,0,0:0:0:0:
486,192,33977,1,0,0:0:0:0:
448,192,33977,1,0,0:0:0:0:
347,192,34052,1,0,0:0:0:0:
25,192,34052,1,0,0:0:0:0:
109,192,34052,1,0,0:0:0:0:
164,192,34052,1,0,0:0:0:0:
420,192,34052,1,0,0:0:0:0:
128,192,34052,1,0,0:0:0:0:
320,192,34052,1,0,0:0:0:0:
64,192,34052,1,0,0:0:0:0:
256,192,34052,1,0,0:0:0:0:
384,192,34052,1,0,0:0:0:0:
230,192,34052,1,0,0:0:0:0:
192,192,34052,1,0,0:0:0:0:
486,192,34052,1,0,0:0:0:0:
448,192,34052,1,0,0:0:0:0:
109,192,34127,1,0,0:0:0:0:
164,192,34127,1,0,0:0:0:0:
347,192,34127,1,0,0:0:0:0:
25,192,34127,1,0,0:0:0:0:
128,192,34127,1,0,0:0:0:0:
320,192,34127,1,0,0:0:0:0:
420,192,34127,1,0,0:0:0:0:
64,192,34127,1,0,0:0:0:0:
256,192,34127,1,0,0:0:0:0:
384,192,34127,1,0,0:0:0:0:
230,192,34127,1,0,0:0:0:0:
192,192,34127,1,0,0:0:0:0:
486,192,34127,1,0,0:0:0:0:
448,192,34127,1,0,0:0:0:0:
347,192,34202,1,0,0:0:0:0:
25,192,34202,1,0,0:0:0:0:
109,192,34202,1,0,0:0:0:0:
164,192,34202,1,0,0:0:0:0:
420,192,34202,1,0,0:0:0:0:
128,192,34202,1,0,0:0:0:0:
320,192,34202,1,0,0:0:0:0:
64,192,34202,1,0,0:0:0:0:
256,192,34202,1,0,0:0:0:0:
384,192,34202,1,0,0:0:0:0:
230,192,34202,1,0,0:0:0:0:
192,192,34202,1,0,0:0:0:0:
486,192,34202,1,0,0:0:0:0:
448,192,34202,1,0,0:0:0:0:
109,192,34277,1,0,0:0:0:0:
164,192,34277,1,0,0:0:0:0:
347,192,34277,1,0,0:0:0:0:
25,192,34277,1,0,0:0:0:0:
128,192,34277,1,0,0:0:0:0:
320,192,34277,1,0,0:0:0:0:
420,192,34277,1,0,0:0:0:0:
64,192,34277,1,0,0:0:0:0:
256,192,34277,1,0,0:0:0:0:
384,192,34277,1,0,0:0:0:0:
230,192,34277,1,0,0:0:0:0:
192,192,34277,1,0,0:0:0:0:
486,192,34277,1,0,0:0:0:0:
448,192,34277,1,0,0:0:0:0:
347,192,34352,1,0,0:0:0:0:
25,192,34352,1,0,0:0:0:0:
109,192,34352,1,0,0:0:0:0:
164,192,34352,1,0,0:0:0:0:
420,192,34352,1,0,0:0:0:0:
128,192,34352,1,0,0:0:0:0:
320,192,34352,1,0,0:0:0:0:
64,192,34352,1,0,0:0:0:0:
256,192,34352,1,0,0:0:0:0:
384,192,34352,1,0,0:0:0:0:
230,192,34352,1,0,0:0:0:0:
192,192,34352,1,0,0:0:0:0:
486,192,34352,1,0,0:0:0:0:
448,192,34352,1,0,0:0:0:0:
109,192,34427,1,0,0:0:0:0:
164,192,34427,1,0,0:0:0:0:
347,192,34427,1,0,0:0:0:0:
25,192,34427,1,0,0:0:0:0:
128,192,34427,1,0,0:0:0:0:
320,192,34427,1,0,0:0:0:0:
420,192,34427,1,0,0:0:0:0:
64,192,34427,1,0,0:0:0:0:
256,192,34427,1,0,0:0:0:0:
384,192,34427,1,0,0:0:0:0:
230,192,34427,1,0,0:0:0:0:
192,192,34427,1,0,0:0:0:0:
486,192,34427,1,0,0:0:0:0:
448,192,34427,1,0,0:0:0:0:
347,192,34502,1,0,0:0:0:0:
25,192,34502,1,0,0:0:0:0:
109,192,34502,1,0,0:0:0:0:
164,192,34502,1,0,0:0:0:0:
420,192,34502,1,0,0:0:0:0:
128,192,34502,1,0,0:0:0:0:
320,192,34502,1,0,0:0:0:0:
64,192,34502,1,0,0:0:0:0:
256,192,34502,1,0,0:0:0:0:
384,192,34502,1,0,0:0:0:0:
230,192,34502,1,0,0:0:0:0:
192,192,34502,1,0,0:0:0:0:
486,192,34502,1,0,0:0:0:0:
448,192,34502,1,0,0:0:0:0:
109,192,34577,1,0,0:0:0:0:
164,192,34577,1,0,0:0:0:0:
347,192,34577,1,0,0:0:0:0:
25,192,34577,1,0,0:0:0:0:
128,192,34577,1,0,0:0:0:0:
320,192,34577,1,0,0:0:0:0:
420,192,34577,1,0,0:0:0:0:
64,192,34577,1,0,0:0:0:0:
256,192,34577,1,0,0:0:0:0:
384,192,34577,1,0,0:0:0:0:
230,192,34577,1,0,0:0:0:0:
192,192,34577,1,0,0:0:0:0:
486,192,34577,1,0,0:0:0:0:
448,192,34577,1,0,0:0:0:0:
347,192,34652,1,0,0:0:0:0:
25,192,34652,1,0,0:0:0:0:
109,192,34652,1,0,0:0:0:0:
164,192,34652,1,0,0:0:0:0:
420,192,34652,1,0,0:0:0:0:
128,192,34652,1,0,0:0:0:0:
320,192,34652,1,0,0:0:0:0:
64,192,34652,1,0,0:0:0:0:
256,192,34652,1,0,0:0:0:0:
384,192,34652,1,0,0:0:0:0:
230,192,34652,1,0,0:0:0:0:
192,192,34652,1,0,0:0:0:0:
486,192,34652,1,0,0:0:0:0:
448,192,34652,1,0,0:0:0:0:
109,192,34727,1,0,0:0:0:0:
164,192,34727,1,0,0:0:0:0:
347,192,34727,1,0,0:0:0:0:
25,192,34727,1,0,0:0:0:0:
128,192,34727,1,0,0:0:0:0:
320,192,34727,1,0,0:0:0:0:
420,192,34727,1,0,0:0:0:0:
64,192,34727,1,0,0:0:0:0:
256,192,34727,1,0,0:0:0:0:
384,192,34727,1,0,0:0:0:0:
230,192,34727,1,0,0:0:0:0:
192,192,34727,1,0,0:0:0:0:
486,192,34727,1,0,0:0:0:0:
448,192,34727,1,0,0:0:0:0:
347,192,34802,1,0,0:0:0:0:
25,192,34802,1,0,0:0:0:0:
109,192,34802,1,0,0:0:0:0:
164,192,34802,1,0,0:0:0:0:
420,192,34802,1,0,0:0:0:0:
128,192,34802,1,0,0:0:0:0:
320,192,34802,1,0,0:0:0:0:
64,192,34802,1,0,0:0:0:0:
256,192,34802,1,0,0:0:0:0:
384,192,34802,1,0,0:0:0:0:
230,192,34802,1,0,0:0:0:0:
192,192,34802,1,0,0:0:0:0:
486,192,34802,1,0,0:0:0:0:
448,192,34802,1,0,0:0:0:0:
109,192,34877,1,0,0:0:0:0:
164,192,34877,1,0,0:0:0:0:
347,192,34877,1,0,0:0:0:0:
25,192,34877,1,0,0:0:0:0:
128,192,34877,1,0,0:0:0:0:
320,192,34877,1,0,0:0:0:0:
420,192,34877,1,0,0:0:0:0:
64,192,34877,1,0,0:0:0:0:
256,192,34877,1,0,0:0:0:0:
384,192,34877,1,0,0:0:0:0:
230,192,34877,1,0,0:0:0:0:
192,192,34877,1,0,0:0:0:0:
486,192,34877,1,0,0:0:0:0:
448,192,34877,1,0,0:0:0:0:
347,192,34952,1,0,0:0:0:0:
25,192,34952,1,0,0:0:0:0:
109,192,34952,1,0,0:0:0:0:
164,192,34952,1,0,0:0:0:0:
420,192,34952,1,0,0:0:0:0:
128,192,34952,1,0,0:0:0:0:
320,192,34952,1,0,0:0:0:0:
64,192,34952,1,0,0:0:0:0:
256,192,34952,1,0,0:0:0:0:
384,192,34952,1,0,0:0:0:0:
230,192,34952,1,0,0:0:0:0:
192,192,34952,1,0,0:0:0:0:
486,192,34952,1,0,0:0:0:0:
448,192,34952,1,0,0:0:0:0:
109,192,35027,1,0,0:0:0:0:
164,192,35027,1,0,0:0:0:0:
347,192,35027,1,0,0:0:0:0:
25,192,35027,1,0,0:0:0:0:
128,192,35027,1,0,0:0:0:0:
320,192,35027,1,0,0:0:0:0:
420,192,35027,1,0,0:0:0:0:
64,192,35027,1,0,0:0:0:0:
256,192,35027,1,0,0:0:0:0:
384,192,35027,1,0,0:0:0:0:
230,192,35027,1,0,0:0:0:0:
192,192,35027,1,0,0:0:0:0:
486,192,35027,1,0,0:0:0:0:
448,192,35027,1,0,0:0:0:0:
347,192,35102,1,0,0:0:0:0:
25,192,35102,1,0,0:0:0:0:
109,192,35102,1,0,0:0:0:0:
164,192,35102,1,0,0:0:0:0:
420,192,35102,1,0,0:0:0:0:
128,192,35102,1,0,0:0:0:0:
320,192,35102,1,0,0:0:0:0:
64,192,35102,1,0,0:0:0:0:
256,192,35102,1,0,0:0:0:0:
384,192,35102,1,0,0:0:0:0:
230,192,35102,1,0,0:0:0:0:
192,192,35102,1,0,0:0:0:0:
486,192,35102,1,0,0:0:0:0:
448,192,35102,1,0,0:0:0:0:
109,192,35177,1,0,0:0:0:0:
164,192,35177,1,0,0:0:0:0:
347,192,35177,1,0,0:0:0:0:
25,192,35177,1,0,0:0:0:0:
128,192,35177,1,0,0:0:0:0:
320,192,35177,1,0,0:0:0:0:
420,192,35177,1,0,0:0:0:0:
64,192,35177,1,0,0:0:0:0:
256,192,35177,1,0,0:0:0:0:
384,192,35177,1,0,0:0:0:0:
230,192,35177,1,0,0:0:0:0:
192,192,35177,1,0,0:0:0:0:
486,192,35177,1,0,0:0:0:0:
448,192,35177,1,0,0:0:0:0:
109,192,35252,1,0,0:0:0:0:
164,192,35252,1,0,0:0:0:0:
347,192,35252,1,0,0:0:0:0:
25,192,35252,1,0,0:0:0:0:
128,192,35252,1,0,0:0:0:0:
320,192,35252,1,0,0:0:0:0:
420,192,35252,1,0,0:0:0:0:
64,192,35252,1,0,0:0:0:0:
256,192,35252,1,0,0:0:0:0:
384,192,35252,1,0,0:0:0:0:
230,192,35252,1,0,0:0:0:0:
192,192,35252,1,0,0:0:0:0:
486,192,35252,1,0,0:0:0:0:
448,192,35252,1,0,0:0:0:0:
347,192,35327,1,0,0:0:0:0:
25,192,35327,1,0,0:0:0:0:
109,192,35327,1,0,0:0:0:0:
164,192,35327,1,0,0:0:0:0:
420,192,35327,1,0,0:0:0:0:
128,192,35327,1,0,0:0:0:0:
320,192,35327,1,0,0:0:0:0:
64,192,35327,1,0,0:0:0:0:
256,192,35327,1,0,0:0:0:0:
384,192,35327,1,0,0:0:0:0:
230,192,35327,1,0,0:0:0:0:
192,192,35327,1,0,0:0:0:0:
486,192,35327,1,0,0:0:0:0:
448,192,35327,1,0,0:0:0:0:
109,192,35402,1,0,0:0:0:0:
164,192,35402,1,0,0:0:0:0:
347,192,35402,1,0,0:0:0:0:
25,192,35402,1,0,0:0:0:0:
128,192,35402,1,0,0:0:0:0:
320,192,35402,1,0,0:0:0:0:
420,192,35402,1,0,0:0:0:0:
64,192,35402,1,0,0:0:0:0:
256,192,35402,1,0,0:0:0:0:
384,192,35402,1,0,0:0:0:0:
230,192,35402,1,0,0:0:0:0:
192,192,35402,1,0,0:0:0:0:
486,192,35402,1,0,0:0:0:0:
448,192,35402,1,0,0:0:0:0:
347,192,35477,1,0,0:0:0:0:
25,192,35477,1,0,0:0:0:0:
109,192,35477,1,0,0:0:0:0:
164,192,35477,1,0,0:0:0:0:
420,192,35477,1,0,0:0:0:0:
128,192,35477,1,0,0:0:0:0:
320,192,35477,1,0,0:0:0:0:
64,192,35477,1,0,0:0:0:0:
256,192,35477,1,0,0:0:0:0:
384,192,35477,1,0,0:0:0:0:
230,192,35477,1,0,0:0:0:0:
192,192,35477,1,0,0:0:0:0:
486,192,35477,1,0,0:0:0:0:
448,192,35477,1,0,0:0:0:0:
109,192,35552,1,0,0:0:0:0:
164,192,35552,1,0,0:0:0:0:
347,192,35552,1,0,0:0:0:0:
25,192,35552,1,0,0:0:0:0:
128,192,35552,1,0,0:0:0:0:
320,192,35552,1,0,0:0:0:0:
420,192,35552,1,0,0:0:0:0:
64,192,35552,1,0,0:0:0:0:
256,192,35552,1,0,0:0:0:0:
384,192,35552,1,0,0:0:0:0:
230,192,35552,1,0,0:0:0:0:
192,192,35552,1,0,0:0:0:0:
486,192,35552,1,0,0:0:0:0:
448,192,35552,1,0,0:0:0:0:
347,192,35627,1,0,0:0:0:0:
25,192,35627,1,0,0:0:0:0:
109,192,35627,1,0,0:0:0:0:
164,192,35627,1,0,0:0:0:0:
420,192,35627,1,0,0:0:0:0:
128,192,35627,1,0,0:0:0:0:
320,192,35627,1,0,0:0:0:0:
64,192,35627,1,0,0:0:0:0:
256,192,35627,1,0,0:0:0:0:
384,192,35627,1,0,0:0:0:0:
230,192,35627,1,0,0:0:0:0:
192,192,35627,1,0,0:0:0:0:
486,192,35627,1,0,0:0:0:0:
448,192,35627,1,0,0:0:0:0:
109,192,35702,1,0,0:0:0:0:
164,192,35702,1,0,0:0:0:0:
347,192,35702,1,0,0:0:0:0:
25,192,35702,1,0,0:0:0:0:
128,192,35702,1,0,0:0:0:0:
320,192,35702,1,0,0:0:0:0:
420,192,35702,1,0,0:0:0:0:
64,192,35702,1,0,0:0:0:0:
256,192,35702,1,0,0:0:0:0:
384,192,35702,1,0,0:0:0:0:
230,192,35702,1,0,0:0:0:0:
192,192,35702,1,0,0:0:0:0:
486,192,35702,1,0,0:0:0:0:
448,192,35702,1,0,0:0:0:0:
347,192,35777,1,0,0:0:0:0:
25,192,35777,1,0,0:0:0:0:
109,192,35777,1,0,0:0:0:0:
164,192,35777,1,0,0:0:0:0:
420,192,35777,1,0,0:0:0:0:
128,192,35777,1,0,0:0:0:0:
320,192,35777,1,0,0:0:0:0:
64,192,35777,1,0,0:0:0:0:
256,192,35777,1,0,0:0:0:0:
384,192,35777,1,0,0:0:0:0:
230,192,35777,1,0,0:0:0:0:
192,192,35777,1,0,0:0:0:0:
486,192,35777,1,0,0:0:0:0:
448,192,35777,1,0,0:0:0:0:
109,192,35852,1,0,0:0:0:0:
164,192,35852,1,0,0:0:0:0:
347,192,35852,1,0,0:0:0:0:
25,192,35852,1,0,0:0:0:0:
128,192,35852,1,0,0:0:0:0:
320,192,35852,1,0,0:0:0:0:
420,192,35852,1,0,0:0:0:0:
64,192,35852,1,0,0:0:0:0:
256,192,35852,1,0,0:0:0:0:
384,192,35852,1,0,0:0:0:0:
230,192,35852,1,0,0:0:0:0:
192,192,35852,1,0,0:0:0:0:
486,192,35852,1,0,0:0:0:0:
448,192,35852,1,0,0:0:0:0:
347,192,35927,1,0,0:0:0:0:
25,192,35927,1,0,0:0:0:0:
109,192,35927,1,0,0:0:0:0:
164,192,35927,1,0,0:0:0:0:
420,192,35927,1,0,0:0:0:0:
128,192,35927,1,0,0:0:0:0:
320,192,35927,1,0,0:0:0:0:
64,192,35927,1,0,0:0:0:0:
256,192,35927,1,0,0:0:0:0:
384,192,35927,1,0,0:0:0:0:
230,192,35927,1,0,0:0:0:0:
192,192,35927,1,0,0:0:0:0:
486,192,35927,1,0,0:0:0:0:
448,192,35927,1,0,0:0:0:0:
109,192,36002,1,0,0:0:0:0:
164,192,36002,1,0,0:0:0:0:
347,192,36002,1,0,0:0:0:0:
25,192,36002,1,0,0:0:0:0:
128,192,36002,1,0,0:0:0:0:
320,192,36002,1,0,0:0:0:0:
420,192,36002,1,0,0:0:0:0:
64,192,36002,1,0,0:0:0:0:
256,192,36002,1,0,0:0:0:0:
384,192,36002,1,0,0:0:0:0:
230,192,36002,1,0,0:0:0:0:
192,192,36002,1,0,0:0:0:0:
486,192,36002,1,0,0:0:0:0:
448,192,36002,1,0,0:0:0:0:
347,192,36077,1,0,0:0:0:0:
25,192,36077,1,0,0:0:0:0:
109,192,36077,1,0,0:0:0:0:
164,192,36077,1,0,0:0:0:0:
420,192,36077,1,0,0:0:0:0:
128,192,36077,1,0,0:0:0:0:
320,192,36077,1,0,0:0:0:0:
64,192,36077,1,0,0:0:0:0:
256,192,36077,1,0,0:0:0:0:
384,192,36077,1,0,0:0:0:0:
230,192,36077,1,0,0:0:0:0:
192,192,36077,1,0,0:0:0:0:
486,192,36077,1,0,0:0:0:0:
448,192,36077,1,0,0:0:0:0:
109,192,36152,1,0,0:0:0:0:
164,192,36152,1,0,0:0:0:0:
347,192,36152,1,0,0:0:0:0:
25,192,36152,1,0,0:0:0:0:
128,192,36152,1,0,0:0:0:0:
320,192,36152,1,0,0:0:0:0:
420,192,36152,1,0,0:0:0:0:
64,192,36152,1,0,0:0:0:0:
256,192,36152,1,0,0:0:0:0:
384,192,36152,1,0,0:0:0:0:
230,192,36152,1,0,0:0:0:0:
192,192,36152,1,0,0:0:0:0:
486,192,36152,1,0,0:0:0:0:
448,192,36152,1,0,0:0:0:0:
347,192,36227,1,0,0:0:0:0:
25,192,36227,1,0,0:0:0:0:
109,192,36227,1,0,0:0:0:0:
164,192,36227,1,0,0:0:0:0:
420,192,36227,1,0,0:0:0:0:
128,192,36227,1,0,0:0:0:0:
320,192,36227,1,0,0:0:0:0:
64,192,36227,1,0,0:0:0:0:
256,192,36227,1,0,0:0:0:0:
384,192,36227,1,0,0:0:0:0:
230,192,36227,1,0,0:0:0:0:
192,192,36227,1,0,0:0:0:0:
486,192,36227,1,0,0:0:0:0:
448,192,36227,1,0,0:0:0:0:
109,192,36302,1,0,0:0:0:0:
164,192,36302,1,0,0:0:0:0:
347,192,36302,1,0,0:0:0:0:
25,192,36302,1,0,0:0:0:0:
128,192,36302,1,0,0:0:0:0:
320,192,36302,1,0,0:0:0:0:
420,192,36302,1,0,0:0:0:0:
64,192,36302,1,0,0:0:0:0:
256,192,36302,1,0,0:0:0:0:
384,192,36302,1,0,0:0:0:0:
230,192,36302,1,0,0:0:0:0:
192,192,36302,1,0,0:0:0:0:
486,192,36302,1,0,0:0:0:0:
448,192,36302,1,0,0:0:0:0:
347,192,36377,1,0,0:0:0:0:
25,192,36377,1,0,0:0:0:0:
109,192,36377,1,0,0:0:0:0:
164,192,36377,1,0,0:0:0:0:
420,192,36377,1,0,0:0:0:0:
128,192,36377,1,0,0:0:0:0:
320,192,36377,1,0,0:0:0:0:
64,192,36377,1,0,0:0:0:0:
256,192,36377,1,0,0:0:0:0:
384,192,36377,1,0,0:0:0:0:
230,192,36377,1,0,0:0:0:0:
192,192,36377,1,0,0:0:0:0:
486,192,36377,1,0,0:0:0:0:
448,192,36377,1,0,0:0:0:0:
109,192,36452,1,0,0:0:0:0:
164,192,36452,1,0,0:0:0:0:
347,192,36452,1,0,0:0:0:0:
25,192,36452,1,0,0:0:0:0:
128,192,36452,1,0,0:0:0:0:
320,192,36452,1,0,0:0:0:0:
420,192,36452,1,0,0:0:0:0:
64,192,36452,1,0,0:0:0:0:
256,192,36452,1,0,0:0:0:0:
384,192,36452,1,0,0:0:0:0:
230,192,36452,1,0,0:0:0:0:
192,192,36452,1,0,0:0:0:0:
486,192,36452,1,0,0:0:0:0:
448,192,36452,1,0,0:0:0:0:
347,192,36527,1,0,0:0:0:0:
25,192,36527,1,0,0:0:0:0:
109,192,36527,1,0,0:0:0:0:
164,192,36527,1,0,0:0:0:0:
420,192,36527,1,0,0:0:0:0:
128,192,36527,1,0,0:0:0:0:
320,192,36527,1,0,0:0:0:0:
64,192,36527,1,0,0:0:0:0:
256,192,36527,1,0,0:0:0:0:
384,192,36527,1,0,0:0:0:0:
230,192,36527,1,0,0:0:0:0:
192,192,36527,1,0,0:0:0:0:
486,192,36527,1,0,0:0:0:0:
448,192,36527,1,0,0:0:0:0:
109,192,36602,1,0,0:0:0:0:
164,192,36602,1,0,0:0:0:0:
347,192,36602,1,0,0:0:0:0:
25,192,36602,1,0,0:0:0:0:
128,192,36602,1,0,0:0:0:0:
320,192,36602,1,0,0:0:0:0:
420,192,36602,1,0,0:0:0:0:
64,192,36602,1,0,0:0:0:0:
256,192,36602,1,0,0:0:0:0:
384,192,36602,1,0,0:0:0:0:
230,192,36602,1,0,0:0:0:0:
192,192,36602,1,0,0:0:0:0:
486,192,36602,1,0,0:0:0:0:
448,192,36602,1,0,0:0:0:0:
347,192,36677,1,0,0:0:0:0:
25,192,36677,1,0,0:0:0:0:
109,192,36677,1,0,0:0:0:0:
164,192,36677,1,0,0:0:0:0:
420,192,36677,1,0,0:0:0:0:
128,192,36677,1,0,0:0:0:0:
320,192,36677,1,0,0:0:0:0:
64,192,36677,1,0,0:0:0:0:
256,192,36677,1,0,0:0:0:0:
384,192,36677,1,0,0:0:0:0:
230,192,36677,1,0,0:0:0:0:
192,192,36677,1,0,0:0:0:0:
486,192,36677,1,0,0:0:0:0:
448,192,36677,1,0,0:0:0:0:
109,192,36752,1,0,0:0:0:0:
164,192,36752,1,0,0:0:0:0:
347,192,36752,1,0,0:0:0:0:
25,192,36752,1,0,0:0:0:0:
128,192,36752,1,0,0:0:0:0:
320,192,36752,1,0,0:0:0:0:
420,192,36752,1,0,0:0:0:0:
64,192,36752,1,0,0:0:0:0:
256,192,36752,1,0,0:0:0:0:
384,192,36752,1,0,0:0:0:0:
230,192,36752,1,0,0:0:0:0:
192,192,36752,1,0,0:0:0:0:
486,192,36752,1,0,0:0:0:0:
448,192,36752,1,0,0:0:0:0:
347,192,36827,1,0,0:0:0:0:
25,192,36827,1,0,0:0:0:0:
109,192,36827,1,0,0:0:0:0:
164,192,36827,1,0,0:0:0:0:
420,192,36827,1,0,0:0:0:0:
128,192,36827,1,0,0:0:0:0:
320,192,36827,1,0,0:0:0:0:
64,192,36827,1,0,0:0:0:0:
256,192,36827,1,0,0:0:0:0:
384,192,36827,1,0,0:0:0:0:
230,192,36827,1,0,0:0:0:0:
192,192,36827,1,0,0:0:0:0:
486,192,36827,1,0,0:0:0:0:
448,192,36827,1,0,0:0:0:0:
347,192,36902,1,0,0:0:0:0:
25,192,36902,1,0,0:0:0:0:
109,192,36902,1,0,0:0:0:0:
164,192,36902,1,0,0:0:0:0:
420,192,36902,1,0,0:0:0:0:
128,192,36902,1,0,0:0:0:0:
320,192,36902,1,0,0:0:0:0:
64,192,36902,1,0,0:0:0:0:
256,192,36902,1,0,0:0:0:0:
384,192,36902,1,0,0:0:0:0:
230,192,36902,1,0,0:0:0:0:
192,192,36902,1,0,0:0:0:0:
486,192,36902,1,0,0:0:0:0:
448,192,36902,1,0,0:0:0:0:
109,192,36977,1,0,0:0:0:0:
164,192,36977,1,0,0:0:0:0:
347,192,36977,1,0,0:0:0:0:
25,192,36977,1,0,0:0:0:0:
128,192,36977,1,0,0:0:0:0:
320,192,36977,1,0,0:0:0:0:
420,192,36977,1,0,0:0:0:0:
64,192,36977,1,0,0:0:0:0:
256,192,36977,1,0,0:0:0:0:
384,192,36977,1,0,0:0:0:0:
230,192,36977,1,0,0:0:0:0:
192,192,36977,1,0,0:0:0:0:
486,192,36977,1,0,0:0:0:0:
448,192,36977,1,0,0:0:0:0:
347,192,37052,1,0,0:0:0:0:
25,192,37052,1,0,0:0:0:0:
109,192,37052,1,0,0:0:0:0:
164,192,37052,1,0,0:0:0:0:
420,192,37052,1,0,0:0:0:0:
128,192,37052,1,0,0:0:0:0:
320,192,37052,1,0,0:0:0:0:
64,192,37052,1,0,0:0:0:0:
256,192,37052,1,0,0:0:0:0:
384,192,37052,1,0,0:0:0:0:
230,192,37052,1,0,0:0:0:0:
192,192,37052,1,0,0:0:0:0:
486,192,37052,1,0,0:0:0:0:
448,192,37052,1,0,0:0:0:0:
109,192,37127,1,0,0:0:0:0:
164,192,37127,1,0,0:0:0:0:
347,192,37127,1,0,0:0:0:0:
25,192,37127,1,0,0:0:0:0:
128,192,37127,1,0,0:0:0:0:
320,192,37127,1,0,0:0:0:0:
420,192,37127,1,0,0:0:0:0:
64,192,37127,1,0,0:0:0:0:
256,192,37127,1,0,0:0:0:0:
384,192,37127,1,0,0:0:0:0:
230,192,37127,1,0,0:0:0:0:
192,192,37127,1,0,0:0:0:0:
486,192,37127,1,0,0:0:0:0:
448,192,37127,1,0,0:0:0:0:
25,192,37202,128,0,39527:0:0:0:0:
109,192,37202,128,0,39527:0:0:0:0:
164,192,37202,128,0,39527:0:0:0:0:
347,192,37202,128,0,39527:0:0:0:0:
128,192,37202,128,0,39527:0:0:0:0:
320,192,37202,128,0,39527:0:0:0:0:
420,192,37202,128,0,39527:0:0:0:0:
64,192,37202,128,0,39527:0:0:0:0:
256,192,37202,128,0,39527:0:0:0:0:
384,192,37202,128,0,39527:0:0:0:0:
230,192,37202,128,0,39527:0:0:0:0:
192,192,37202,128,0,39527:0:0:0:0:
486,192,37202,128,0,39527:0:0:0:0:
448,192,37202,128,0,39527:0:0:0:0:
347,192,39602,1,0,0:0:0:0:
25,192,39602,1,0,0:0:0:0:
109,192,39602,1,0,0:0:0:0:
164,192,39602,1,0,0:0:0:0:
420,192,39602,1,0,0:0:0:0:
128,192,39602,1,0,0:0:0:0:
320,192,39602,1,0,0:0:0:0:
64,192,39602,1,0,0:0:0:0:
256,192,39602,1,0,0:0:0:0:
384,192,39602,1,0,0:0:0:0:
230,192,39602,1,0,0:0:0:0:
192,192,39602,1,0,0:0:0:0:
486,192,39602,1,0,0:0:0:0:
448,192,39602,1,0,0:0:0:0:
109,192,39677,1,0,0:0:0:0:
164,192,39677,1,0,0:0:0:0:
347,192,39677,1,0,0:0:0:0:
25,192,39677,1,0,0:0:0:0:
128,192,39677,1,0,0:0:0:0:
320,192,39677,1,0,0:0:0:0:
420,192,39677,1,0,0:0:0:0:
64,192,39677,1,0,0:0:0:0:
256,192,39677,1,0,0:0:0:0:
384,192,39677,1,0,0:0:0:0:
230,192,39677,1,0,0:0:0:0:
192,192,39677,1,0,0:0:0:0:
486,192,39677,1,0,0:0:0:0:
448,192,39677,1,0,0:0:0:0:
347,192,39752,1,0,0:0:0:0:
25,192,39752,1,0,0:0:0:0:
109,192,39752,1,0,0:0:0:0:
164,192,39752,1,0,0:0:0:0:
420,192,39752,1,0,0:0:0:0:
128,192,39752,1,0,0:0:0:0:
320,192,39752,1,0,0:0:0:0:
64,192,39752,1,0,0:0:0:0:
256,192,39752,1,0,0:0:0:0:
384,192,39752,1,0,0:0:0:0:
230,192,39752,1,0,0:0:0:0:
192,192,39752,1,0,0:0:0:0:
486,192,39752,1,0,0:0:0:0:
448,192,39752,1,0,0:0:0:0:
109,192,39827,1,0,0:0:0:0:
164,192,39827,1,0,0:0:0:0:
347,192,39827,1,0,0:0:0:0:
25,192,39827,1,0,0:0:0:0:
128,192,39827,1,0,0:0:0:0:
320,192,39827,1,0,0:0:0:0:
420,192,39827,1,0,0:0:0:0:
64,192,39827,1,0,0:0:0:0:
256,192,39827,1,0,0:0:0:0:
384,192,39827,1,0,0:0:0:0:
230,192,39827,1,0,0:0:0:0:
192,192,39827,1,0,0:0:0:0:
486,192,39827,1,0,0:0:0:0:
448,192,39827,1,0,0:0:0:0:
347,192,39902,1,0,0:0:0:0:
25,192,39902,1,0,0:0:0:0:
109,192,39902,1,0,0:0:0:0:
164,192,39902,1,0,0:0:0:0:
420,192,39902,1,0,0:0:0:0:
128,192,39902,1,0,0:0:0:0:
320,192,39902,1,0,0:0:0:0:
64,192,39902,1,0,0:0:0:0:
256,192,39902,1,0,0:0:0:0:
384,192,39902,1,0,0:0:0:0:
230,192,39902,1,0,0:0:0:0:
192,192,39902,1,0,0:0:0:0:
486,192,39902,1,0,0:0:0:0:
448,192,39902,1,0,0:0:0:0:
109,192,39977,1,0,0:0:0:0:
164,192,39977,1,0,0:0:0:0:
347,192,39977,1,0,0:0:0:0:
25,192,39977,1,0,0:0:0:0:
128,192,39977,1,0,0:0:0:0:
320,192,39977,1,0,0:0:0:0:
420,192,39977,1,0,0:0:0:0:
64,192,39977,1,0,0:0:0:0:
256,192,39977,1,0,0:0:0:0:
384,192,39977,1,0,0:0:0:0:
230,192,39977,1,0,0:0:0:0:
192,192,39977,1,0,0:0:0:0:
486,192,39977,1,0,0:0:0:0:
448,192,39977,1,0,0:0:0:0:
109,192,40052,1,0,0:0:0:0:
164,192,40052,1,0,0:0:0:0:
347,192,40052,1,0,0:0:0:0:
25,192,40052,1,0,0:0:0:0:
128,192,40052,1,0,0:0:0:0:
320,192,40052,1,0,0:0:0:0:
420,192,40052,1,0,0:0:0:0:
64,192,40052,1,0,0:0:0:0:
256,192,40052,1,0,0:0:0:0:
384,192,40052,1,0,0:0:0:0:
230,192,40052,1,0,0:0:0:0:
192,192,40052,1,0,0:0:0:0:
486,192,40052,1,0,0:0:0:0:
448,192,40052,1,0,0:0:0:0:
347,192,40127,1,0,0:0:0:0:
25,192,40127,1,0,0:0:0:0:
109,192,40127,1,0,0:0:0:0:
164,192,40127,1,0,0:0:0:0:
420,192,40127,1,0,0:0:0:0:
128,192,40127,1,0,0:0:0:0:
320,192,40127,1,0,0:0:0:0:
64,192,40127,1,0,0:0:0:0:
256,192,40127,1,0,0:0:0:0:
384,192,40127,1,0,0:0:0:0:
230,192,40127,1,0,0:0:0:0:
192,192,40127,1,0,0:0:0:0:
486,192,40127,1,0,0:0:0:0:
448,192,40127,1,0,0:0:0:0:
109,192,40202,1,0,0:0:0:0:
164,192,40202,1,0,0:0:0:0:
347,192,40202,1,0,0:0:0:0:
25,192,40202,1,0,0:0:0:0:
128,192,40202,1,0,0:0:0:0:
320,192,40202,1,0,0:0:0:0:
420,192,40202,1,0,0:0:0:0:
64,192,40202,1,0,0:0:0:0:
256,192,40202,1,0,0:0:0:0:
384,192,40202,1,0,0:0:0:0:
230,192,40202,1,0,0:0:0:0:
192,192,40202,1,0,0:0:0:0:
486,192,40202,1,0,0:0:0:0:
448,192,40202,1,0,0:0:0:0:
347,192,40277,1,0,0:0:0:0:
25,192,40277,1,0,0:0:0:0:
109,192,40277,1,0,0:0:0:0:
164,192,40277,1,0,0:0:0:0:
420,192,40277,1,0,0:0:0:0:
128,192,40277,1,0,0:0:0:0:
320,192,40277,1,0,0:0:0:0:
64,192,40277,1,0,0:0:0:0:
256,192,40277,1,0,0:0:0:0:
384,192,40277,1,0,0:0:0:0:
230,192,40277,1,0,0:0:0:0:
192,192,40277,1,0,0:0:0:0:
486,192,40277,1,0,0:0:0:0:
448,192,40277,1,0,0:0:0:0:
109,192,40352,1,0,0:0:0:0:
164,192,40352,1,0,0:0:0:0:
347,192,40352,1,0,0:0:0:0:
25,192,40352,1,0,0:0:0:0:
128,192,40352,1,0,0:0:0:0:
320,192,40352,1,0,0:0:0:0:
420,192,40352,1,0,0:0:0:0:
64,192,40352,1,0,0:0:0:0:
256,192,40352,1,0,0:0:0:0:
384,192,40352,1,0,0:0:0:0:
230,192,40352,1,0,0:0:0:0:
192,192,40352,1,0,0:0:0:0:
486,192,40352,1,0,0:0:0:0:
448,192,40352,1,0,0:0:0:0:
347,192,40427,1,0,0:0:0:0:
25,192,40427,1,0,0:0:0:0:
109,192,40427,1,0,0:0:0:0:
164,192,40427,1,0,0:0:0:0:
420,192,40427,1,0,0:0:0:0:
128,192,40427,1,0,0:0:0:0:
320,192,40427,1,0,0:0:0:0:
64,192,40427,1,0,0:0:0:0:
256,192,40427,1,0,0:0:0:0:
384,192,40427,1,0,0:0:0:0:
230,192,40427,1,0,0:0:0:0:
192,192,40427,1,0,0:0:0:0:
486,192,40427,1,0,0:0:0:0:
448,192,40427,1,0,0:0:0:0:
109,192,40502,1,0,0:0:0:0:
164,192,40502,1,0,0:0:0:0:
347,192,40502,1,0,0:0:0:0:
25,192,40502,1,0,0:0:0:0:
128,192,40502,1,0,0:0:0:0:
320,192,40502,1,0,0:0:0:0:
420,192,40502,1,0,0:0:0:0:
64,192,40502,1,0,0:0:0:0:
256,192,40502,1,0,0:0:0:0:
384,192,40502,1,0,0:0:0:0:
230,192,40502,1,0,0:0:0:0:
192,192,40502,1,0,0:0:0:0:
486,192,40502,1,0,0:0:0:0:
448,192,40502,1,0,0:0:0:0:
109,192,40577,1,0,0:0:0:0:
164,192,40577,1,0,0:0:0:0:
347,192,40577,1,0,0:0:0:0:
25,192,40577,1,0,0:0:0:0:
128,192,40577,1,0,0:0:0:0:
320,192,40577,1,0,0:0:0:0:
420,192,40577,1,0,0:0:0:0:
64,192,40577,1,0,0:0:0:0:
256,192,40577,1,0,0:0:0:0:
384,192,40577,1,0,0:0:0:0:
230,192,40577,1,0,0:0:0:0:
192,192,40577,1,0,0:0:0:0:
486,192,40577,1,0,0:0:0:0:
448,192,40577,1,0,0:0:0:0:
347,192,40652,1,0,0:0:0:0:
25,192,40652,1,0,0:0:0:0:
109,192,40652,1,0,0:0:0:0:
164,192,40652,1,0,0:0:0:0:
420,192,40652,1,0,0:0:0:0:
128,192,40652,1,0,0:0:0:0:
320,192,40652,1,0,0:0:0:0:
64,192,40652,1,0,0:0:0:0:
256,192,40652,1,0,0:0:0:0:
384,192,40652,1,0,0:0:0:0:
230,192,40652,1,0,0:0:0:0:
192,192,40652,1,0,0:0:0:0:
486,192,40652,1,0,0:0:0:0:
448,192,40652,1,0,0:0:0:0:
109,192,40727,1,0,0:0:0:0:
164,192,40727,1,0,0:0:0:0:
347,192,40727,1,0,0:0:0:0:
25,192,40727,1,0,0:0:0:0:
128,192,40727,1,0,0:0:0:0:
320,192,40727,1,0,0:0:0:0:
420,192,40727,1,0,0:0:0:0:
64,192,40727,1,0,0:0:0:0:
256,192,40727,1,0,0:0:0:0:
384,192,40727,1,0,0:0:0:0:
230,192,40727,1,0,0:0:0:0:
192,192,40727,1,0,0:0:0:0:
486,192,40727,1,0,0:0:0:0:
448,192,40727,1,0,0:0:0:0:
347,192,40802,1,0,0:0:0:0:
25,192,40802,1,0,0:0:0:0:
109,192,40802,1,0,0:0:0:0:
164,192,40802,1,0,0:0:0:0:
420,192,40802,1,0,0:0:0:0:
128,192,40802,1,0,0:0:0:0:
320,192,40802,1,0,0:0:0:0:
64,192,40802,1,0,0:0:0:0:
256,192,40802,1,0,0:0:0:0:
384,192,40802,1,0,0:0:0:0:
230,192,40802,1,0,0:0:0:0:
192,192,40802,1,0,0:0:0:0:
486,192,40802,1,0,0:0:0:0:
448,192,40802,1,0,0:0:0:0:
109,192,40877,1,0,0:0:0:0:
164,192,40877,1,0,0:0:0:0:
347,192,40877,1,0,0:0:0:0:
25,192,40877,1,0,0:0:0:0:
128,192,40877,1,0,0:0:0:0:
320,192,40877,1,0,0:0:0:0:
420,192,40877,1,0,0:0:0:0:
64,192,40877,1,0,0:0:0:0:
256,192,40877,1,0,0:0:0:0:
384,192,40877,1,0,0:0:0:0:
230,192,40877,1,0,0:0:0:0:
192,192,40877,1,0,0:0:0:0:
486,192,40877,1,0,0:0:0:0:
448,192,40877,1,0,0:0:0:0:
347,192,40952,1,0,0:0:0:0:
25,192,40952,1,0,0:0:0:0:
109,192,40952,1,0,0:0:0:0:
164,192,40952,1,0,0:0:0:0:
420,192,40952,1,0,0:0:0:0:
128,192,40952,1,0,0:0:0:0:
320,192,40952,1,0,0:0:0:0:
64,192,40952,1,0,0:0:0:0:
256,192,40952,1,0,0:0:0:0:
384,192,40952,1,0,0:0:0:0:
230,192,40952,1,0,0:0:0:0:
192,192,40952,1,0,0:0:0:0:
486,192,40952,1,0,0:0:0:0:
448,192,40952,1,0,0:0:0:0:
109,192,41027,1,0,0:0:0:0:
164,192,41027,1,0,0:0:0:0:
347,192,41027,1,0,0:0:0:0:
25,192,41027,1,0,0:0:0:0:
128,192,41027,1,0,0:0:0:0:
320,192,41027,1,0,0:0:0:0:
420,192,41027,1,0,0:0:0:0:
64,192,41027,1,0,0:0:0:0:
256,192,41027,1,0,0:0:0:0:
384,192,41027,1,0,0:0:0:0:
230,192,41027,1,0,0:0:0:0:
192,192,41027,1,0,0:0:0:0:
486,192,41027,1,0,0:0:0:0:
448,192,41027,1,0,0:0:0:0:
347,192,41102,1,0,0:0:0:0:
25,192,41102,1,0,0:0:0:0:
109,192,41102,1,0,0:0:0:0:
164,192,41102,1,0,0:0:0:0:
420,192,41102,1,0,0:0:0:0:
128,192,41102,1,0,0:0:0:0:
320,192,41102,1,0,0:0:0:0:
64,192,41102,1,0,0:0:0:0:
256,192,41102,1,0,0:0:0:0:
384,192,41102,1,0,0:0:0:0:
230,192,41102,1,0,0:0:0:0:
192,192,41102,1,0,0:0:0:0:
486,192,41102,1,0,0:0:0:0:
448,192,41102,1,0,0:0:0:0:
109,192,41177,1,0,0:0:0:0:
164,192,41177,1,0,0:0:0:0:
347,192,41177,1,0,0:0:0:0:
25,192,41177,1,0,0:0:0:0:
128,192,41177,1,0,0:0:0:0:
320,192,41177,1,0,0:0:0:0:
420,192,41177,1,0,0:0:0:0:
64,192,41177,1,0,0:0:0:0:
256,192,41177,1,0,0:0:0:0:
384,192,41177,1,0,0:0:0:0:
230,192,41177,1,0,0:0:0:0:
192,192,41177,1,0,0:0:0:0:
486,192,41177,1,0,0:0:0:0:
448,192,41177,1,0,0:0:0:0:
347,192,41252,1,0,0:0:0:0:
25,192,41252,1,0,0:0:0:0:
109,192,41252,1,0,0:0:0:0:
164,192,41252,1,0,0:0:0:0:
420,192,41252,1,0,0:0:0:0:
128,192,41252,1,0,0:0:0:0:
320,192,41252,1,0,0:0:0:0:
64,192,41252,1,0,0:0:0:0:
256,192,41252,1,0,0:0:0:0:
384,192,41252,1,0,0:0:0:0:
230,192,41252,1,0,0:0:0:0:
192,192,41252,1,0,0:0:0:0:
486,192,41252,1,0,0:0:0:0:
448,192,41252,1,0,0:0:0:0:
109,192,41327,1,0,0:0:0:0:
164,192,41327,1,0,0:0:0:0:
347,192,41327,1,0,0:0:0:0:
25,192,41327,1,0,0:0:0:0:
128,192,41327,1,0,0:0:0:0:
320,192,41327,1,0,0:0:0:0:
420,192,41327,1,0,0:0:0:0:
64,192,41327,1,0,0:0:0:0:
256,192,41327,1,0,0:0:0:0:
384,192,41327,1,0,0:0:0:0:
230,192,41327,1,0,0:0:0:0:
192,192,41327,1,0,0:0:0:0:
486,192,41327,1,0,0:0:0:0:
448,192,41327,1,0,0:0:0:0:
109,192,41402,1,0,0:0:0:0:
164,192,41402,1,0,0:0:0:0:
347,192,41402,1,0,0:0:0:0:
25,192,41402,1,0,0:0:0:0:
128,192,41402,1,0,0:0:0:0:
320,192,41402,1,0,0:0:0:0:
420,192,41402,1,0,0:0:0:0:
64,192,41402,1,0,0:0:0:0:
256,192,41402,1,0,0:0:0:0:
384,192,41402,1,0,0:0:0:0:
230,192,41402,1,0,0:0:0:0:
192,192,41402,1,0,0:0:0:0:
486,192,41402,1,0,0:0:0:0:
448,192,41402,1,0,0:0:0:0:
347,192,41477,1,0,0:0:0:0:
25,192,41477,1,0,0:0:0:0:
109,192,41477,1,0,0:0:0:0:
164,192,41477,1,0,0:0:0:0:
420,192,41477,1,0,0:0:0:0:
128,192,41477,1,0,0:0:0:0:
320,192,41477,1,0,0:0:0:0:
64,192,41477,1,0,0:0:0:0:
256,192,41477,1,0,0:0:0:0:
384,192,41477,1,0,0:0:0:0:
230,192,41477,1,0,0:0:0:0:
192,192,41477,1,0,0:0:0:0:
486,192,41477,1,0,0:0:0:0:
448,192,41477,1,0,0:0:0:0:
109,192,41552,1,0,0:0:0:0:
164,192,41552,1,0,0:0:0:0:
347,192,41552,1,0,0:0:0:0:
25,192,41552,1,0,0:0:0:0:
128,192,41552,1,0,0:0:0:0:
320,192,41552,1,0,0:0:0:0:
420,192,41552,1,0,0:0:0:0:
64,192,41552,1,0,0:0:0:0:
256,192,41552,1,0,0:0:0:0:
384,192,41552,1,0,0:0:0:0:
230,192,41552,1,0,0:0:0:0:
192,192,41552,1,0,0:0:0:0:
486,192,41552,1,0,0:0:0:0:
448,192,41552,1,0,0:0:0:0:
347,192,41627,1,0,0:0:0:0:
25,192,41627,1,0,0:0:0:0:
109,192,41627,1,0,0:0:0:0:
164,192,41627,1,0,0:0:0:0:
420,192,41627,1,0,0:0:0:0:
128,192,41627,1,0,0:0:0:0:
320,192,41627,1,0,0:0:0:0:
64,192,41627,1,0,0:0:0:0:
256,192,41627,1,0,0:0:0:0:
384,192,41627,1,0,0:0:0:0:
230,192,41627,1,0,0:0:0:0:
192,192,41627,1,0,0:0:0:0:
486,192,41627,1,0,0:0:0:0:
448,192,41627,1,0,0:0:0:0:
109,192,41702,1,0,0:0:0:0:
164,192,41702,1,0,0:0:0:0:
347,192,41702,1,0,0:0:0:0:
25,192,41702,1,0,0:0:0:0:
128,192,41702,1,0,0:0:0:0:
320,192,41702,1,0,0:0:0:0:
420,192,41702,1,0,0:0:0:0:
64,192,41702,1,0,0:0:0:0:
256,192,41702,1,0,0:0:0:0:
384,192,41702,1,0,0:0:0:0:
230,192,41702,1,0,0:0:0:0:
192,192,41702,1,0,0:0:0:0:
486,192,41702,1,0,0:0:0:0:
448,192,41702,1,0,0:0:0:0:
347,192,41777,1,0,0:0:0:0:
25,192,41777,1,0,0:0:0:0:
109,192,41777,1,0,0:0:0:0:
164,192,41777,1,0,0:0:0:0:
420,192,41777,1,0,0:0:0:0:
128,192,41777,1,0,0:0:0:0:
320,192,41777,1,0,0:0:0:0:
64,192,41777,1,0,0:0:0:0:
256,192,41777,1,0,0:0:0:0:
384,192,41777,1,0,0:0:0:0:
230,192,41777,1,0,0:0:0:0:
192,192,41777,1,0,0:0:0:0:
486,192,41777,1,0,0:0:0:0:
448,192,41777,1,0,0:0:0:0:
109,192,41852,1,0,0:0:0:0:
164,192,41852,1,0,0:0:0:0:
347,192,41852,1,0,0:0:0:0:
25,192,41852,1,0,0:0:0:0:
128,192,41852,1,0,0:0:0:0:
320,192,41852,1,0,0:0:0:0:
420,192,41852,1,0,0:0:0:0:
64,192,41852,1,0,0:0:0:0:
256,192,41852,1,0,0:0:0:0:
384,192,41852,1,0,0:0:0:0:
230,192,41852,1,0,0:0:0:0:
192,192,41852,1,0,0:0:0:0:
486,192,41852,1,0,0:0:0:0:
448,192,41852,1,0,0:0:0:0:
347,192,41927,1,0,0:0:0:0:
25,192,41927,1,0,0:0:0:0:
109,192,41927,1,0,0:0:0:0:
164,192,41927,1,0,0:0:0:0:
420,192,41927,1,0,0:0:0:0:
128,192,41927,1,0,0:0:0:0:
320,192,41927,1,0,0:0:0:0:
64,192,41927,1,0,0:0:0:0:
256,192,41927,1,0,0:0:0:0:
384,192,41927,1,0,0:0:0:0:
230,192,41927,1,0,0:0:0:0:
192,192,41927,1,0,0:0:0:0:
486,192,41927,1,0,0:0:0:0:
448,192,41927,1,0,0:0:0:0:
109,192,42002,1,0,0:0:0:0:
164,192,42002,1,0,0:0:0:0:
347,192,42002,1,0,0:0:0:0:
25,192,42002,1,0,0:0:0:0:
128,192,42002,1,0,0:0:0:0:
320,192,42002,1,0,0:0:0:0:
420,192,42002,1,0,0:0:0:0:
64,192,42002,1,0,0:0:0:0:
256,192,42002,1,0,0:0:0:0:
384,192,42002,1,0,0:0:0:0:
230,192,42002,1,0,0:0:0:0:
192,192,42002,1,0,0:0:0:0:
486,192,42002,1,0,0:0:0:0:
448,192,42002,1,0,0:0:0:0:
347,192,42077,1,0,0:0:0:0:
25,192,42077,1,0,0:0:0:0:
109,192,42077,1,0,0:0:0:0:
164,192,42077,1,0,0:0:0:0:
420,192,42077,1,0,0:0:0:0:
128,192,42077,1,0,0:0:0:0:
320,192,42077,1,0,0:0:0:0:
64,192,42077,1,0,0:0:0:0:
256,192,42077,1,0,0:0:0:0:
384,192,42077,1,0,0:0:0:0:
230,192,42077,1,0,0:0:0:0:
192,192,42077,1,0,0:0:0:0:
486,192,42077,1,0,0:0:0:0:
448,192,42077,1,0,0:0:0:0:
109,192,42152,1,0,0:0:0:0:
164,192,42152,1,0,0:0:0:0:
347,192,42152,1,0,0:0:0:0:
25,192,42152,1,0,0:0:0:0:
128,192,42152,1,0,0:0:0:0:
320,192,42152,1,0,0:0:0:0:
420,192,42152,1,0,0:0:0:0:
64,192,42152,1,0,0:0:0:0:
256,192,42152,1,0,0:0:0:0:
384,192,42152,1,0,0:0:0:0:
230,192,42152,1,0,0:0:0:0:
192,192,42152,1,0,0:0:0:0:
486,192,42152,1,0,0:0:0:0:
448,192,42152,1,0,0:0:0:0:
347,192,42227,1,0,0:0:0:0:
25,192,42227,1,0,0:0:0:0:
109,192,42227,1,0,0:0:0:0:
164,192,42227,1,0,0:0:0:0:
420,192,42227,1,0,0:0:0:0:
128,192,42227,1,0,0:0:0:0:
320,192,42227,1,0,0:0:0:0:
64,192,42227,1,0,0:0:0:0:
256,192,42227,1,0,0:0:0:0:
384,192,42227,1,0,0:0:0:0:
230,192,42227,1,0,0:0:0:0:
192,192,42227,1,0,0:0:0:0:
486,192,42227,1,0,0:0:0:0:
448,192,42227,1,0,0:0:0:0:
109,192,42302,1,0,0:0:0:0:
164,192,42302,1,0,0:0:0:0:
347,192,42302,1,0,0:0:0:0:
25,192,42302,1,0,0:0:0:0:
128,192,42302,1,0,0:0:0:0:
320,192,42302,1,0,0:0:0:0:
420,192,42302,1,0,0:0:0:0:
64,192,42302,1,0,0:0:0:0:
256,192,42302,1,0,0:0:0:0:
384,192,42302,1,0,0:0:0:0:
230,192,42302,1,0,0:0:0:0:
192,192,42302,1,0,0:0:0:0:
486,192,42302,1,0,0:0:0:0:
448,192,42302,1,0,0:0:0:0:
347,192,42377,1,0,0:0:0:0:
25,192,42377,1,0,0:0:0:0:
109,192,42377,1,0,0:0:0:0:
164,192,42377,1,0,0:0:0:0:
420,192,42377,1,0,0:0:0:0:
128,192,42377,1,0,0:0:0:0:
320,192,42377,1,0,0:0:0:0:
64,192,42377,1,0,0:0:0:0:
256,192,42377,1,0,0:0:0:0:
384,192,42377,1,0,0:0:0:0:
230,192,42377,1,0,0:0:0:0:
192,192,42377,1,0,0:0:0:0:
486,192,42377,1,0,0:0:0:0:
448,192,42377,1,0,0:0:0:0:
109,192,42452,1,0,0:0:0:0:
164,192,42452,1,0,0:0:0:0:
347,192,42452,1,0,0:0:0:0:
25,192,42452,1,0,0:0:0:0:
128,192,42452,1,0,0:0:0:0:
320,192,42452,1,0,0:0:0:0:
420,192,42452,1,0,0:0:0:0:
64,192,42452,1,0,0:0:0:0:
256,192,42452,1,0,0:0:0:0:
384,192,42452,1,0,0:0:0:0:
230,192,42452,1,0,0:0:0:0:
192,192,42452,1,0,0:0:0:0:
486,192,42452,1,0,0:0:0:0:
448,192,42452,1,0,0:0:0:0:
109,192,42527,1,0,0:0:0:0:
164,192,42527,1,0,0:0:0:0:
347,192,42527,1,0,0:0:0:0:
25,192,42527,1,0,0:0:0:0:
128,192,42527,1,0,0:0:0:0:
320,192,42527,1,0,0:0:0:0:
420,192,42527,1,0,0:0:0:0:
64,192,42527,1,0,0:0:0:0:
256,192,42527,1,0,0:0:0:0:
384,192,42527,1,0,0:0:0:0:
230,192,42527,1,0,0:0:0:0:
192,192,42527,1,0,0:0:0:0:
486,192,42527,1,0,0:0:0:0:
448,192,42527,1,0,0:0:0:0:
347,192,42602,1,0,0:0:0:0:
25,192,42602,1,0,0:0:0:0:
109,192,42602,1,0,0:0:0:0:
164,192,42602,1,0,0:0:0:0:
420,192,42602,1,0,0:0:0:0:
128,192,42602,1,0,0:0:0:0:
320,192,42602,1,0,0:0:0:0:
64,192,42602,1,0,0:0:0:0:
256,192,42602,1,0,0:0:0:0:
384,192,42602,1,0,0:0:0:0:
230,192,42602,1,0,0:0:0:0:
192,192,42602,1,0,0:0:0:0:
486,192,42602,1,0,0:0:0:0:
448,192,42602,1,0,0:0:0:0:
109,192,42677,1,0,0:0:0:0:
164,192,42677,1,0,0:0:0:0:
347,192,42677,1,0,0:0:0:0:
25,192,42677,1,0,0:0:0:0:
128,192,42677,1,0,0:0:0:0:
320,192,42677,1,0,0:0:0:0:
420,192,42677,1,0,0:0:0:0:
64,192,42677,1,0,0:0:0:0:
256,192,42677,1,0,0:0:0:0:
384,192,42677,1,0,0:0:0:0:
230,192,42677,1,0,0:0:0:0:
192,192,42677,1,0,0:0:0:0:
486,192,42677,1,0,0:0:0:0:
448,192,42677,1,0,0:0:0:0:
347,192,42752,1,0,0:0:0:0:
25,192,42752,1,0,0:0:0:0:
109,192,42752,1,0,0:0:0:0:
164,192,42752,1,0,0:0:0:0:
420,192,42752,1,0,0:0:0:0:
128,192,42752,1,0,0:0:0:0:
320,192,42752,1,0,0:0:0:0:
64,192,42752,1,0,0:0:0:0:
256,192,42752,1,0,0:0:0:0:
384,192,42752,1,0,0:0:0:0:
230,192,42752,1,0,0:0:0:0:
192,192,42752,1,0,0:0:0:0:
486,192,42752,1,0,0:0:0:0:
448,192,42752,1,0,0:0:0:0:
109,192,42827,1,0,0:0:0:0:
164,192,42827,1,0,0:0:0:0:
347,192,42827,1,0,0:0:0:0:
25,192,42827,1,0,0:0:0:0:
128,192,42827,1,0,0:0:0:0:
320,192,42827,1,0,0:0:0:0:
420,192,42827,1,0,0:0:0:0:
64,192,42827,1,0,0:0:0:0:
256,192,42827,1,0,0:0:0:0:
384,192,42827,1,0,0:0:0:0:
230,192,42827,1,0,0:0:0:0:
192,192,42827,1,0,0:0:0:0:
486,192,42827,1,0,0:0:0:0:
448,192,42827,1,0,0:0:0:0:
347,192,42902,1,0,0:0:0:0:
25,192,42902,1,0,0:0:0:0:
109,192,42902,1,0,0:0:0:0:
164,192,42902,1,0,0:0:0:0:
420,192,42902,1,0,0:0:0:0:
128,192,42902,1,0,0:0:0:0:
320,192,42902,1,0,0:0:0:0:
64,192,42902,1,0,0:0:0:0:
256,192,42902,1,0,0:0:0:0:
384,192,42902,1,0,0:0:0:0:
230,192,42902,1,0,0:0:0:0:
192,192,42902,1,0,0:0:0:0:
486,192,42902,1,0,0:0:0:0:
448,192,42902,1,0,0:0:0:0:
109,192,42977,1,0,0:0:0:0:
164,192,42977,1,0,0:0:0:0:
347,192,42977,1,0,0:0:0:0:
25,192,42977,1,0,0:0:0:0:
128,192,42977,1,0,0:0:0:0:
320,192,42977,1,0,0:0:0:0:
420,192,42977,1,0,0:0:0:0:
64,192,42977,1,0,0:0:0:0:
256,192,42977,1,0,0:0:0:0:
384,192,42977,1,0,0:0:0:0:
230,192,42977,1,0,0:0:0:0:
192,192,42977,1,0,0:0:0:0:
486,192,42977,1,0,0:0:0:0:
448,192,42977,1,0,0:0:0:0:
347,192,43052,1,0,0:0:0:0:
25,192,43052,1,0,0:0:0:0:
109,192,43052,1,0,0:0:0:0:
164,192,43052,1,0,0:0:0:0:
420,192,43052,1,0,0:0:0:0:
128,192,43052,1,0,0:0:0:0:
320,192,43052,1,0,0:0:0:0:
64,192,43052,1,0,0:0:0:0:
256,192,43052,1,0,0:0:0:0:
384,192,43052,1,0,0:0:0:0:
230,192,43052,1,0,0:0:0:0:
192,192,43052,1,0,0:0:0:0:
486,192,43052,1,0,0:0:0:0:
448,192,43052,1,0,0:0:0:0:
109,192,43127,1,0,0:0:0:0:
164,192,43127,1,0,0:0:0:0:
347,192,43127,1,0,0:0:0:0:
25,192,43127,1,0,0:0:0:0:
128,192,43127,1,0,0:0:0:0:
320,192,43127,1,0,0:0:0:0:
420,192,43127,1,0,0:0:0:0:
64,192,43127,1,0,0:0:0:0:
256,192,43127,1,0,0:0:0:0:
384,192,43127,1,0,0:0:0:0:
230,192,43127,1,0,0:0:0:0:
192,192,43127,1,0,0:0:0:0:
486,192,43127,1,0,0:0:0:0:
448,192,43127,1,0,0:0:0:0:
109,192,43202,1,0,0:0:0:0:
164,192,43202,1,0,0:0:0:0:
347,192,43202,1,0,0:0:0:0:
25,192,43202,1,0,0:0:0:0:
128,192,43202,1,0,0:0:0:0:
320,192,43202,1,0,0:0:0:0:
420,192,43202,1,0,0:0:0:0:
64,192,43202,1,0,0:0:0:0:
256,192,43202,1,0,0:0:0:0:
384,192,43202,1,0,0:0:0:0:
230,192,43202,1,0,0:0:0:0:
192,192,43202,1,0,0:0:0:0:
486,192,43202,1,0,0:0:0:0:
448,192,43202,1,0,0:0:0:0:
347,192,43277,1,0,0:0:0:0:
25,192,43277,1,0,0:0:0:0:
109,192,43277,1,0,0:0:0:0:
164,192,43277,1,0,0:0:0:0:
420,192,43277,1,0,0:0:0:0:
128,192,43277,1,0,0:0:0:0:
320,192,43277,1,0,0:0:0:0:
64,192,43277,1,0,0:0:0:0:
256,192,43277,1,0,0:0:0:0:
384,192,43277,1,0,0:0:0:0:
230,192,43277,1,0,0:0:0:0:
192,192,43277,1,0,0:0:0:0:
486,192,43277,1,0,0:0:0:0:
448,192,43277,1,0,0:0:0:0:
347,192,43352,1,0,0:0:0:0:
25,192,43352,1,0,0:0:0:0:
109,192,43352,1,0,0:0:0:0:
164,192,43352,1,0,0:0:0:0:
420,192,43352,1,0,0:0:0:0:
128,192,43352,1,0,0:0:0:0:
320,192,43352,1,0,0:0:0:0:
64,192,43352,1,0,0:0:0:0:
256,192,43352,1,0,0:0:0:0:
384,192,43352,1,0,0:0:0:0:
230,192,43352,1,0,0:0:0:0:
192,192,43352,1,0,0:0:0:0:
486,192,43352,1,0,0:0:0:0:
448,192,43352,1,0,0:0:0:0:
347,192,43427,1,0,0:0:0:0:
25,192,43427,1,0,0:0:0:0:
109,192,43427,1,0,0:0:0:0:
164,192,43427,1,0,0:0:0:0:
420,192,43427,1,0,0:0:0:0:
128,192,43427,1,0,0:0:0:0:
320,192,43427,1,0,0:0:0:0:
64,192,43427,1,0,0:0:0:0:
256,192,43427,1,0,0:0:0:0:
384,192,43427,1,0,0:0:0:0:
230,192,43427,1,0,0:0:0:0:
192,192,43427,1,0,0:0:0:0:
486,192,43427,1,0,0:0:0:0:
448,192,43427,1,0,0:0:0:0:
109,192,43502,1,0,0:0:0:0:
164,192,43502,1,0,0:0:0:0:
347,192,43502,1,0,0:0:0:0:
25,192,43502,1,0,0:0:0:0:
128,192,43502,1,0,0:0:0:0:
320,192,43502,1,0,0:0:0:0:
420,192,43502,1,0,0:0:0:0:
64,192,43502,1,0,0:0:0:0:
256,192,43502,1,0,0:0:0:0:
384,192,43502,1,0,0:0:0:0:
230,192,43502,1,0,0:0:0:0:
192,192,43502,1,0,0:0:0:0:
486,192,43502,1,0,0:0:0:0:
448,192,43502,1,0,0:0:0:0:
109,192,43577,1,0,0:0:0:0:
164,192,43577,1,0,0:0:0:0:
347,192,43577,1,0,0:0:0:0:
25,192,43577,1,0,0:0:0:0:
128,192,43577,1,0,0:0:0:0:
320,192,43577,1,0,0:0:0:0:
420,192,43577,1,0,0:0:0:0:
64,192,43577,1,0,0:0:0:0:
256,192,43577,1,0,0:0:0:0:
384,192,43577,1,0,0:0:0:0:
230,192,43577,1,0,0:0:0:0:
192,192,43577,1,0,0:0:0:0:
486,192,43577,1,0,0:0:0:0:
448,192,43577,1,0,0:0:0:0:
109,192,43652,1,0,0:0:0:0:
164,192,43652,1,0,0:0:0:0:
347,192,43652,1,0,0:0:0:0:
25,192,43652,1,0,0:0:0:0:
128,192,43652,1,0,0:0:0:0:
320,192,43652,1,0,0:0:0:0:
420,192,43652,1,0,0:0:0:0:
64,192,43652,1,0,0:0:0:0:
256,192,43652,1,0,0:0:0:0:
384,192,43652,1,0,0:0:0:0:
230,192,43652,1,0,0:0:0:0:
192,192,43652,1,0,0:0:0:0:
486,192,43652,1,0,0:0:0:0:
448,192,43652,1,0,0:0:0:0:
347,192,43727,1,0,0:0:0:0:
25,192,43727,1,0,0:0:0:0:
109,192,43727,1,0,0:0:0:0:
164,192,43727,1,0,0:0:0:0:
420,192,43727,1,0,0:0:0:0:
128,192,43727,1,0,0:0:0:0:
320,192,43727,1,0,0:0:0:0:
64,192,43727,1,0,0:0:0:0:
256,192,43727,1,0,0:0:0:0:
384,192,43727,1,0,0:0:0:0:
230,192,43727,1,0,0:0:0:0:
192,192,43727,1,0,0:0:0:0:
486,192,43727,1,0,0:0:0:0:
448,192,43727,1,0,0:0:0:0:
109,192,43802,1,0,0:0:0:0:
164,192,43802,1,0,0:0:0:0:
347,192,43802,1,0,0:0:0:0:
25,192,43802,1,0,0:0:0:0:
128,192,43802,1,0,0:0:0:0:
320,192,43802,1,0,0:0:0:0:
420,192,43802,1,0,0:0:0:0:
64,192,43802,1,0,0:0:0:0:
256,192,43802,1,0,0:0:0:0:
384,192,43802,1,0,0:0:0:0:
230,192,43802,1,0,0:0:0:0:
192,192,43802,1,0,0:0:0:0:
486,192,43802,1,0,0:0:0:0:
448,192,43802,1,0,0:0:0:0:
347,192,43877,1,0,0:0:0:0:
25,192,43877,1,0,0:0:0:0:
109,192,43877,1,0,0:0:0:0:
164,192,43877,1,0,0:0:0:0:
420,192,43877,1,0,0:0:0:0:
128,192,43877,1,0,0:0:0:0:
320,192,43877,1,0,0:0:0:0:
64,192,43877,1,0,0:0:0:0:
256,192,43877,1,0,0:0:0:0:
384,192,43877,1,0,0:0:0:0:
230,192,43877,1,0,0:0:0:0:
192,192,43877,1,0,0:0:0:0:
486,192,43877,1,0,0:0:0:0:
448,192,43877,1,0,0:0:0:0:
109,192,43952,1,0,0:0:0:0:
164,192,43952,1,0,0:0:0:0:
347,192,43952,1,0,0:0:0:0:
25,192,43952,1,0,0:0:0:0:
128,192,43952,1,0,0:0:0:0:
320,192,43952,1,0,0:0:0:0:
420,192,43952,1,0,0:0:0:0:
64,192,43952,1,0,0:0:0:0:
256,192,43952,1,0,0:0:0:0:
384,192,43952,1,0,0:0:0:0:
230,192,43952,1,0,0:0:0:0:
192,192,43952,1,0,0:0:0:0:
486,192,43952,1,0,0:0:0:0:
448,192,43952,1,0,0:0:0:0:
347,192,44027,1,0,0:0:0:0:
25,192,44027,1,0,0:0:0:0:
109,192,44027,1,0,0:0:0:0:
164,192,44027,1,0,0:0:0:0:
420,192,44027,1,0,0:0:0:0:
128,192,44027,1,0,0:0:0:0:
320,192,44027,1,0,0:0:0:0:
64,192,44027,1,0,0:0:0:0:
256,192,44027,1,0,0:0:0:0:
384,192,44027,1,0,0:0:0:0:
230,192,44027,1,0,0:0:0:0:
192,192,44027,1,0,0:0:0:0:
486,192,44027,1,0,0:0:0:0:
448,192,44027,1,0,0:0:0:0:
109,192,44102,1,0,0:0:0:0:
164,192,44102,1,0,0:0:0:0:
347,192,44102,1,0,0:0:0:0:
25,192,44102,1,0,0:0:0:0:
128,192,44102,1,0,0:0:0:0:
320,192,44102,1,0,0:0:0:0:
420,192,44102,1,0,0:0:0:0:
64,192,44102,1,0,0:0:0:0:
256,192,44102,1,0,0:0:0:0:
384,192,44102,1,0,0:0:0:0:
230,192,44102,1,0,0:0:0:0:
192,192,44102,1,0,0:0:0:0:
486,192,44102,1,0,0:0:0:0:
448,192,44102,1,0,0:0:0:0:
347,192,44177,1,0,0:0:0:0:
25,192,44177,1,0,0:0:0:0:
109,192,44177,1,0,0:0:0:0:
164,192,44177,1,0,0:0:0:0:
420,192,44177,1,0,0:0:0:0:
128,192,44177,1,0,0:0:0:0:
320,192,44177,1,0,0:0:0:0:
64,192,44177,1,0,0:0:0:0:
256,192,44177,1,0,0:0:0:0:
384,192,44177,1,0,0:0:0:0:
230,192,44177,1,0,0:0:0:0:
192,192,44177,1,0,0:0:0:0:
486,192,44177,1,0,0:0:0:0:
448,192,44177,1,0,0:0:0:0:
109,192,44252,1,0,0:0:0:0:
164,192,44252,1,0,0:0:0:0:
347,192,44252,1,0,0:0:0:0:
25,192,44252,1,0,0:0:0:0:
128,192,44252,1,0,0:0:0:0:
320,192,44252,1,0,0:0:0:0:
420,192,44252,1,0,0:0:0:0:
64,192,44252,1,0,0:0:0:0:
256,192,44252,1,0,0:0:0:0:
384,192,44252,1,0,0:0:0:0:
230,192,44252,1,0,0:0:0:0:
192,192,44252,1,0,0:0:0:0:
486,192,44252,1,0,0:0:0:0:
448,192,44252,1,0,0:0:0:0:
347,192,44327,1,0,0:0:0:0:
25,192,44327,1,0,0:0:0:0:
109,192,44327,1,0,0:0:0:0:
164,192,44327,1,0,0:0:0:0:
420,192,44327,1,0,0:0:0:0:
128,192,44327,1,0,0:0:0:0:
320,192,44327,1,0,0:0:0:0:
64,192,44327,1,0,0:0:0:0:
256,192,44327,1,0,0:0:0:0:
384,192,44327,1,0,0:0:0:0:
230,192,44327,1,0,0:0:0:0:
192,192,44327,1,0,0:0:0:0:
486,192,44327,1,0,0:0:0:0:
448,192,44327,1,0,0:0:0:0:
109,192,44402,1,0,0:0:0:0:
164,192,44402,1,0,0:0:0:0:
347,192,44402,1,0,0:0:0:0:
25,192,44402,1,0,0:0:0:0:
128,192,44402,1,0,0:0:0:0:
320,192,44402,1,0,0:0:0:0:
420,192,44402,1,0,0:0:0:0:
64,192,44402,1,0,0:0:0:0:
256,192,44402,1,0,0:0:0:0:
384,192,44402,1,0,0:0:0:0:
230,192,44402,1,0,0:0:0:0:
192,192,44402,1,0,0:0:0:0:
486,192,44402,1,0,0:0:0:0:
448,192,44402,1,0,0:0:0:0:
347,192,44477,1,0,0:0:0:0:
25,192,44477,1,0,0:0:0:0:
109,192,44477,1,0,0:0:0:0:
164,192,44477,1,0,0:0:0:0:
420,192,44477,1,0,0:0:0:0:
128,192,44477,1,0,0:0:0:0:
320,192,44477,1,0,0:0:0:0:
64,192,44477,1,0,0:0:0:0:
256,192,44477,1,0,0:0:0:0:
384,192,44477,1,0,0:0:0:0:
230,192,44477,1,0,0:0:0:0:
192,192,44477,1,0,0:0:0:0:
486,192,44477,1,0,0:0:0:0:
448,192,44477,1,0,0:0:0:0:
109,192,44552,1,0,0:0:0:0:
164,192,44552,1,0,0:0:0:0:
347,192,44552,1,0,0:0:0:0:
25,192,44552,1,0,0:0:0:0:
128,192,44552,1,0,0:0:0:0:
320,192,44552,1,0,0:0:0:0:
420,192,44552,1,0,0:0:0:0:
64,192,44552,1,0,0:0:0:0:
256,192,44552,1,0,0:0:0:0:
384,192,44552,1,0,0:0:0:0:
230,192,44552,1,0,0:0:0:0:
192,192,44552,1,0,0:0:0:0:
486,192,44552,1,0,0:0:0:0:
448,192,44552,1,0,0:0:0:0:
347,192,44627,1,0,0:0:0:0:
25,192,44627,1,0,0:0:0:0:
109,192,44627,1,0,0:0:0:0:
164,192,44627,1,0,0:0:0:0:
420,192,44627,1,0,0:0:0:0:
128,192,44627,1,0,0:0:0:0:
320,192,44627,1,0,0:0:0:0:
64,192,44627,1,0,0:0:0:0:
256,192,44627,1,0,0:0:0:0:
384,192,44627,1,0,0:0:0:0:
230,192,44627,1,0,0:0:0:0:
192,192,44627,1,0,0:0:0:0:
486,192,44627,1,0,0:0:0:0:
448,192,44627,1,0,0:0:0:0:
109,192,44702,1,0,0:0:0:0:
164,192,44702,1,0,0:0:0:0:
347,192,44702,1,0,0:0:0:0:
25,192,44702,1,0,0:0:0:0:
128,192,44702,1,0,0:0:0:0:
320,192,44702,1,0,0:0:0:0:
420,192,44702,1,0,0:0:0:0:
64,192,44702,1,0,0:0:0:0:
256,192,44702,1,0,0:0:0:0:
384,192,44702,1,0,0:0:0:0:
230,192,44702,1,0,0:0:0:0:
192,192,44702,1,0,0:0:0:0:
486,192,44702,1,0,0:0:0:0:
448,192,44702,1,0,0:0:0:0:
109,192,44777,1,0,0:0:0:0:
164,192,44777,1,0,0:0:0:0:
347,192,44777,1,0,0:0:0:0:
25,192,44777,1,0,0:0:0:0:
128,192,44777,1,0,0:0:0:0:
320,192,44777,1,0,0:0:0:0:
420,192,44777,1,0,0:0:0:0:
64,192,44777,1,0,0:0:0:0:
256,192,44777,1,0,0:0:0:0:
384,192,44777,1,0,0:0:0:0:
230,192,44777,1,0,0:0:0:0:
192,192,44777,1,0,0:0:0:0:
486,192,44777,1,0,0:0:0:0:
448,192,44777,1,0,0:0:0:0:
347,192,44852,1,0,0:0:0:0:
25,192,44852,1,0,0:0:0:0:
109,192,44852,1,0,0:0:0:0:
164,192,44852,1,0,0:0:0:0:
420,192,44852,1,0,0:0:0:0:
128,192,44852,1,0,0:0:0:0:
320,192,44852,1,0,0:0:0:0:
64,192,44852,1,0,0:0:0:0:
256,192,44852,1,0,0:0:0:0:
384,192,44852,1,0,0:0:0:0:
230,192,44852,1,0,0:0:0:0:
192,192,44852,1,0,0:0:0:0:
486,192,44852,1,0,0:0:0:0:
448,192,44852,1,0,0:0:0:0:
109,192,44927,1,0,0:0:0:0:
164,192,44927,1,0,0:0:0:0:
347,192,44927,1,0,0:0:0:0:
25,192,44927,1,0,0:0:0:0:
128,192,44927,1,0,0:0:0:0:
320,192,44927,1,0,0:0:0:0:
420,192,44927,1,0,0:0:0:0:
64,192,44927,1,0,0:0:0:0:
256,192,44927,1,0,0:0:0:0:
384,192,44927,1,0,0:0:0:0:
230,192,44927,1,0,0:0:0:0:
192,192,44927,1,0,0:0:0:0:
486,192,44927,1,0,0:0:0:0:
448,192,44927,1,0,0:0:0:0:
347,192,45002,1,0,0:0:0:0:
25,192,45002,1,0,0:0:0:0:
109,192,45002,1,0,0:0:0:0:
164,192,45002,1,0,0:0:0:0:
420,192,45002,1,0,0:0:0:0:
128,192,45002,1,0,0:0:0:0:
320,192,45002,1,0,0:0:0:0:
64,192,45002,1,0,0:0:0:0:
256,192,45002,1,0,0:0:0:0:
384,192,45002,1,0,0:0:0:0:
230,192,45002,1,0,0:0:0:0:
192,192,45002,1,0,0:0:0:0:
486,192,45002,1,0,0:0:0:0:
448,192,45002,1,0,0:0:0:0:
109,192,45077,1,0,0:0:0:0:
164,192,45077,1,0,0:0:0:0:
347,192,45077,1,0,0:0:0:0:
25,192,45077,1,0,0:0:0:0:
128,192,45077,1,0,0:0:0:0:
320,192,45077,1,0,0:0:0:0:
420,192,45077,1,0,0:0:0:0:
64,192,45077,1,0,0:0:0:0:
256,192,45077,1,0,0:0:0:0:
384,192,45077,1,0,0:0:0:0:
230,192,45077,1,0,0:0:0:0:
192,192,45077,1,0,0:0:0:0:
486,192,45077,1,0,0:0:0:0:
448,192,45077,1,0,0:0:0:0:
347,192,45152,1,0,0:0:0:0:
25,192,45152,1,0,0:0:0:0:
109,192,45152,1,0,0:0:0:0:
164,192,45152,1,0,0:0:0:0:
420,192,45152,1,0,0:0:0:0:
128,192,45152,1,0,0:0:0:0:
320,192,45152,1,0,0:0:0:0:
64,192,45152,1,0,0:0:0:0:
256,192,45152,1,0,0:0:0:0:
384,192,45152,1,0,0:0:0:0:
230,192,45152,1,0,0:0:0:0:
192,192,45152,1,0,0:0:0:0:
486,192,45152,1,0,0:0:0:0:
448,192,45152,1,0,0:0:0:0:
109,192,45227,1,0,0:0:0:0:
164,192,45227,1,0,0:0:0:0:
347,192,45227,1,0,0:0:0:0:
25,192,45227,1,0,0:0:0:0:
128,192,45227,1,0,0:0:0:0:
320,192,45227,1,0,0:0:0:0:
420,192,45227,1,0,0:0:0:0:
64,192,45227,1,0,0:0:0:0:
256,192,45227,1,0,0:0:0:0:
384,192,45227,1,0,0:0:0:0:
230,192,45227,1,0,0:0:0:0:
192,192,45227,1,0,0:0:0:0:
486,192,45227,1,0,0:0:0:0:
448,192,45227,1,0,0:0:0:0:
347,192,45302,1,0,0:0:0:0:
25,192,45302,1,0,0:0:0:0:
109,192,45302,1,0,0:0:0:0:
164,192,45302,1,0,0:0:0:0:
420,192,45302,1,0,0:0:0:0:
128,192,45302,1,0,0:0:0:0:
320,192,45302,1,0,0:0:0:0:
64,192,45302,1,0,0:0:0:0:
256,192,45302,1,0,0:0:0:0:
384,192,45302,1,0,0:0:0:0:
230,192,45302,1,0,0:0:0:0:
192,192,45302,1,0,0:0:0:0:
486,192,45302,1,0,0:0:0:0:
448,192,45302,1,0,0:0:0:0:
109,192,45377,1,0,0:0:0:0:
164,192,45377,1,0,0:0:0:0:
347,192,45377,1,0,0:0:0:0:
25,192,45377,1,0,0:0:0:0:
128,192,45377,1,0,0:0:0:0:
320,192,45377,1,0,0:0:0:0:
420,192,45377,1,0,0:0:0:0:
64,192,45377,1,0,0:0:0:0:
256,192,45377,1,0,0:0:0:0:
384,192,45377,1,0,0:0:0:0:
230,192,45377,1,0,0:0:0:0:
192,192,45377,1,0,0:0:0:0:
486,192,45377,1,0,0:0:0:0:
448,192,45377,1,0,0:0:0:0:
347,192,45452,1,0,0:0:0:0:
25,192,45452,1,0,0:0:0:0:
109,192,45452,1,0,0:0:0:0:
164,192,45452,1,0,0:0:0:0:
420,192,45452,1,0,0:0:0:0:
128,192,45452,1,0,0:0:0:0:
320,192,45452,1,0,0:0:0:0:
64,192,45452,1,0,0:0:0:0:
256,192,45452,1,0,0:0:0:0:
384,192,45452,1,0,0:0:0:0:
230,192,45452,1,0,0:0:0:0:
192,192,45452,1,0,0:0:0:0:
486,192,45452,1,0,0:0:0:0:
448,192,45452,1,0,0:0:0:0:
109,192,45527,1,0,0:0:0:0:
164,192,45527,1,0,0:0:0:0:
347,192,45527,1,0,0:0:0:0:
25,192,45527,1,0,0:0:0:0:
128,192,45527,1,0,0:0:0:0:
320,192,45527,1,0,0:0:0:0:
420,192,45527,1,0,0:0:0:0:
64,192,45527,1,0,0:0:0:0:
256,192,45527,1,0,0:0:0:0:
384,192,45527,1,0,0:0:0:0:
230,192,45527,1,0,0:0:0:0:
192,192,45527,1,0,0:0:0:0:
486,192,45527,1,0,0:0:0:0:
448,192,45527,1,0,0:0:0:0:
347,192,45602,1,0,0:0:0:0:
25,192,45602,1,0,0:0:0:0:
109,192,45602,1,0,0:0:0:0:
164,192,45602,1,0,0:0:0:0:
420,192,45602,1,0,0:0:0:0:
128,192,45602,1,0,0:0:0:0:
320,192,45602,1,0,0:0:0:0:
64,192,45602,1,0,0:0:0:0:
256,192,45602,1,0,0:0:0:0:
384,192,45602,1,0,0:0:0:0:
230,192,45602,1,0,0:0:0:0:
192,192,45602,1,0,0:0:0:0:
486,192,45602,1,0,0:0:0:0:
448,192,45602,1,0,0:0:0:0:
109,192,45677,1,0,0:0:0:0:
164,192,45677,1,0,0:0:0:0:
347,192,45677,1,0,0:0:0:0:
25,192,45677,1,0,0:0:0:0:
128,192,45677,1,0,0:0:0:0:
320,192,45677,1,0,0:0:0:0:
420,192,45677,1,0,0:0:0:0:
64,192,45677,1,0,0:0:0:0:
256,192,45677,1,0,0:0:0:0:
384,192,45677,1,0,0:0:0:0:
230,192,45677,1,0,0:0:0:0:
192,192,45677,1,0,0:0:0:0:
486,192,45677,1,0,0:0:0:0:
448,192,45677,1,0,0:0:0:0:
347,192,45752,1,0,0:0:0:0:
25,192,45752,1,0,0:0:0:0:
109,192,45752,1,0,0:0:0:0:
164,192,45752,1,0,0:0:0:0:
420,192,45752,1,0,0:0:0:0:
128,192,45752,1,0,0:0:0:0:
320,192,45752,1,0,0:0:0:0:
64,192,45752,1,0,0:0:0:0:
256,192,45752,1,0,0:0:0:0:
384,192,45752,1,0,0:0:0:0:
230,192,45752,1,0,0:0:0:0:
192,192,45752,1,0,0:0:0:0:
486,192,45752,1,0,0:0:0:0:
448,192,45752,1,0,0:0:0:0:
109,192,45827,1,0,0:0:0:0:
164,192,45827,1,0,0:0:0:0:
347,192,45827,1,0,0:0:0:0:
25,192,45827,1,0,0:0:0:0:
128,192,45827,1,0,0:0:0:0:
320,192,45827,1,0,0:0:0:0:
420,192,45827,1,0,0:0:0:0:
64,192,45827,1,0,0:0:0:0:
256,192,45827,1,0,0:0:0:0:
384,192,45827,1,0,0:0:0:0:
230,192,45827,1,0,0:0:0:0:
192,192,45827,1,0,0:0:0:0:
486,192,45827,1,0,0:0:0:0:
448,192,45827,1,0,0:0:0:0:
347,192,45902,1,0,0:0:0:0:
25,192,45902,1,0,0:0:0:0:
109,192,45902,1,0,0:0:0:0:
164,192,45902,1,0,0:0:0:0:
420,192,45902,1,0,0:0:0:0:
128,192,45902,1,0,0:0:0:0:
320,192,45902,1,0,0:0:0:0:
64,192,45902,1,0,0:0:0:0:
256,192,45902,1,0,0:0:0:0:
384,192,45902,1,0,0:0:0:0:
230,192,45902,1,0,0:0:0:0:
192,192,45902,1,0,0:0:0:0:
486,192,45902,1,0,0:0:0:0:
448,192,45902,1,0,0:0:0:0:
109,192,45977,1,0,0:0:0:0:
164,192,45977,1,0,0:0:0:0:
347,192,45977,1,0,0:0:0:0:
25,192,45977,1,0,0:0:0:0:
128,192,45977,1,0,0:0:0:0:
320,192,45977,1,0,0:0:0:0:
420,192,45977,1,0,0:0:0:0:
64,192,45977,1,0,0:0:0:0:
256,192,45977,1,0,0:0:0:0:
384,192,45977,1,0,0:0:0:0:
230,192,45977,1,0,0:0:0:0:
192,192,45977,1,0,0:0:0:0:
486,192,45977,1,0,0:0:0:0:
448,192,45977,1,0,0:0:0:0:
347,192,46052,1,0,0:0:0:0:
25,192,46052,1,0,0:0:0:0:
109,192,46052,1,0,0:0:0:0:
164,192,46052,1,0,0:0:0:0:
420,192,46052,1,0,0:0:0:0:
128,192,46052,1,0,0:0:0:0:
320,192,46052,1,0,0:0:0:0:
64,192,46052,1,0,0:0:0:0:
256,192,46052,1,0,0:0:0:0:
384,192,46052,1,0,0:0:0:0:
230,192,46052,1,0,0:0:0:0:
192,192,46052,1,0,0:0:0:0:
486,192,46052,1,0,0:0:0:0:
448,192,46052,1,0,0:0:0:0:
109,192,46127,1,0,0:0:0:0:
164,192,46127,1,0,0:0:0:0:
347,192,46127,1,0,0:0:0:0:
25,192,46127,1,0,0:0:0:0:
128,192,46127,1,0,0:0:0:0:
320,192,46127,1,0,0:0:0:0:
420,192,46127,1,0,0:0:0:0:
64,192,46127,1,0,0:0:0:0:
256,192,46127,1,0,0:0:0:0:
384,192,46127,1,0,0:0:0:0:
230,192,46127,1,0,0:0:0:0:
192,192,46127,1,0,0:0:0:0:
486,192,46127,1,0,0:0:0:0:
448,192,46127,1,0,0:0:0:0:
347,192,46202,1,0,0:0:0:0:
25,192,46202,1,0,0:0:0:0:
109,192,46202,1,0,0:0:0:0:
164,192,46202,1,0,0:0:0:0:
420,192,46202,1,0,0:0:0:0:
128,192,46202,1,0,0:0:0:0:
320,192,46202,1,0,0:0:0:0:
64,192,46202,1,0,0:0:0:0:
256,192,46202,1,0,0:0:0:0:
384,192,46202,1,0,0:0:0:0:
230,192,46202,1,0,0:0:0:0:
192,192,46202,1,0,0:0:0:0:
486,192,46202,1,0,0:0:0:0:
448,192,46202,1,0,0:0:0:0:
347,192,46277,1,0,0:0:0:0:
25,192,46277,1,0,0:0:0:0:
109,192,46277,1,0,0:0:0:0:
164,192,46277,1,0,0:0:0:0:
420,192,46277,1,0,0:0:0:0:
128,192,46277,1,0,0:0:0:0:
320,192,46277,1,0,0:0:0:0:
64,192,46277,1,0,0:0:0:0:
256,192,46277,1,0,0:0:0:0:
384,192,46277,1,0,0:0:0:0:
230,192,46277,1,0,0:0:0:0:
192,192,46277,1,0,0:0:0:0:
486,192,46277,1,0,0:0:0:0:
448,192,46277,1,0,0:0:0:0:
109,192,46352,1,0,0:0:0:0:
164,192,46352,1,0,0:0:0:0:
347,192,46352,1,0,0:0:0:0:
25,192,46352,1,0,0:0:0:0:
128,192,46352,1,0,0:0:0:0:
320,192,46352,1,0,0:0:0:0:
420,192,46352,1,0,0:0:0:0:
64,192,46352,1,0,0:0:0:0:
256,192,46352,1,0,0:0:0:0:
384,192,46352,1,0,0:0:0:0:
230,192,46352,1,0,0:0:0:0:
192,192,46352,1,0,0:0:0:0:
486,192,46352,1,0,0:0:0:0:
448,192,46352,1,0,0:0:0:0:
347,192,46427,1,0,0:0:0:0:
25,192,46427,1,0,0:0:0:0:
109,192,46427,1,0,0:0:0:0:
164,192,46427,1,0,0:0:0:0:
420,192,46427,1,0,0:0:0:0:
128,192,46427,1,0,0:0:0:0:
320,192,46427,1,0,0:0:0:0:
64,192,46427,1,0,0:0:0:0:
256,192,46427,1,0,0:0:0:0:
384,192,46427,1,0,0:0:0:0:
230,192,46427,1,0,0:0:0:0:
192,192,46427,1,0,0:0:0:0:
486,192,46427,1,0,0:0:0:0:
448,192,46427,1,0,0:0:0:0:
109,192,46502,1,0,0:0:0:0:
164,192,46502,1,0,0:0:0:0:
347,192,46502,1,0,0:0:0:0:
25,192,46502,1,0,0:0:0:0:
128,192,46502,1,0,0:0:0:0:
320,192,46502,1,0,0:0:0:0:
420,192,46502,1,0,0:0:0:0:
64,192,46502,1,0,0:0:0:0:
256,192,46502,1,0,0:0:0:0:
384,192,46502,1,0,0:0:0:0:
230,192,46502,1,0,0:0:0:0:
192,192,46502,1,0,0:0:0:0:
486,192,46502,1,0,0:0:0:0:
448,192,46502,1,0,0:0:0:0:
347,192,46577,1,0,0:0:0:0:
25,192,46577,1,0,0:0:0:0:
109,192,46577,1,0,0:0:0:0:
164,192,46577,1,0,0:0:0:0:
420,192,46577,1,0,0:0:0:0:
128,192,46577,1,0,0:0:0:0:
320,192,46577,1,0,0:0:0:0:
64,192,46577,1,0,0:0:0:0:
256,192,46577,1,0,0:0:0:0:
384,192,46577,1,0,0:0:0:0:
230,192,46577,1,0,0:0:0:0:
192,192,46577,1,0,0:0:0:0:
486,192,46577,1,0,0:0:0:0:
448,192,46577,1,0,0:0:0:0:
109,192,46652,1,0,0:0:0:0:
164,192,46652,1,0,0:0:0:0:
347,192,46652,1,0,0:0:0:0:
25,192,46652,1,0,0:0:0:0:
128,192,46652,1,0,0:0:0:0:
320,192,46652,1,0,0:0:0:0:
420,192,46652,1,0,0:0:0:0:
64,192,46652,1,0,0:0:0:0:
256,192,46652,1,0,0:0:0:0:
384,192,46652,1,0,0:0:0:0:
230,192,46652,1,0,0:0:0:0:
192,192,46652,1,0,0:0:0:0:
486,192,46652,1,0,0:0:0:0:
448,192,46652,1,0,0:0:0:0:
347,192,46727,1,0,0:0:0:0:
25,192,46727,1,0,0:0:0:0:
109,192,46727,1,0,0:0:0:0:
164,192,46727,1,0,0:0:0:0:
420,192,46727,1,0,0:0:0:0:
128,192,46727,1,0,0:0:0:0:
320,192,46727,1,0,0:0:0:0:
64,192,46727,1,0,0:0:0:0:
256,192,46727,1,0,0:0:0:0:
384,192,46727,1,0,0:0:0:0:
230,192,46727,1,0,0:0:0:0:
192,192,46727,1,0,0:0:0:0:
486,192,46727,1,0,0:0:0:0:
448,192,46727,1,0,0:0:0:0:
25,192,46802,128,0,49127:0:0:0:0:
109,192,46802,128,0,49127:0:0:0:0:
164,192,46802,128,0,49127:0:0:0:0:
347,192,46802,128,0,49127:0:0:0:0:
128,192,46802,128,0,49127:0:0:0:0:
320,192,46802,128,0,49127:0:0:0:0:
420,192,46802,128,0,49127:0:0:0:0:
64,192,46802,128,0,49127:0:0:0:0:
256,192,46802,128,0,49127:0:0:0:0:
384,192,46802,128,0,49127:0:0:0:0:
230,192,46802,128,0,49127:0:0:0:0:
192,192,46802,128,0,49127:0:0:0:0:
486,192,46802,128,0,49127:0:0:0:0:
448,192,46802,128,0,49127:0:0:0:0:
347,192,49202,1,0,0:0:0:0:
25,192,49202,1,0,0:0:0:0:
109,192,49202,1,0,0:0:0:0:
164,192,49202,1,0,0:0:0:0:
420,192,49202,1,0,0:0:0:0:
128,192,49202,1,0,0:0:0:0:
320,192,49202,1,0,0:0:0:0:
64,192,49202,1,0,0:0:0:0:
256,192,49202,1,0,0:0:0:0:
384,192,49202,1,0,0:0:0:0:
230,192,49202,1,0,0:0:0:0:
192,192,49202,1,0,0:0:0:0:
486,192,49202,1,0,0:0:0:0:
448,192,49202,1,0,0:0:0:0:
109,192,49277,1,0,0:0:0:0:
164,192,49277,1,0,0:0:0:0:
347,192,49277,1,0,0:0:0:0:
25,192,49277,1,0,0:0:0:0:
128,192,49277,1,0,0:0:0:0:
320,192,49277,1,0,0:0:0:0:
420,192,49277,1,0,0:0:0:0:
64,192,49277,1,0,0:0:0:0:
256,192,49277,1,0,0:0:0:0:
384,192,49277,1,0,0:0:0:0:
230,192,49277,1,0,0:0:0:0:
192,192,49277,1,0,0:0:0:0:
486,192,49277,1,0,0:0:0:0:
448,192,49277,1,0,0:0:0:0:
347,192,49352,1,0,0:0:0:0:
25,192,49352,1,0,0:0:0:0:
109,192,49352,1,0,0:0:0:0:
164,192,49352,1,0,0:0:0:0:
420,192,49352,1,0,0:0:0:0:
128,192,49352,1,0,0:0:0:0:
320,192,49352,1,0,0:0:0:0:
64,192,49352,1,0,0:0:0:0:
256,192,49352,1,0,0:0:0:0:
384,192,49352,1,0,0:0:0:0:
230,192,49352,1,0,0:0:0:0:
192,192,49352,1,0,0:0:0:0:
486,192,49352,1,0,0:0:0:0:
448,192,49352,1,0,0:0:0:0:
109,192,49427,1,0,0:0:0:0:
164,192,49427,1,0,0:0:0:0:
347,192,49427,1,0,0:0:0:0:
25,192,49427,1,0,0:0:0:0:
128,192,49427,1,0,0:0:0:0:
320,192,49427,1,0,0:0:0:0:
420,192,49427,1,0,0:0:0:0:
64,192,49427,1,0,0:0:0:0:
256,192,49427,1,0,0:0:0:0:
384,192,49427,1,0,0:0:0:0:
230,192,49427,1,0,0:0:0:0:
192,192,49427,1,0,0:0:0:0:
486,192,49427,1,0,0:0:0:0:
448,192,49427,1,0,0:0:0:0:
347,192,49502,1,0,0:0:0:0:
25,192,49502,1,0,0:0:0:0:
109,192,49502,1,0,0:0:0:0:
164,192,49502,1,0,0:0:0:0:
420,192,49502,1,0,0:0:0:0:
128,192,49502,1,0,0:0:0:0:
320,192,49502,1,0,0:0:0:0:
64,192,49502,1,0,0:0:0:0:
256,192,49502,1,0,0:0:0:0:
384,192,49502,1,0,0:0:0:0:
230,192,49502,1,0,0:0:0:0:
192,192,49502,1,0,0:0:0:0:
486,192,49502,1,0,0:0:0:0:
448,192,49502,1,0,0:0:0:0:
347,192,49577,1,0,0:0:0:0:
25,192,49577,1,0,0:0:0:0:
109,192,49577,1,0,0:0:0:0:
164,192,49577,1,0,0:0:0:0:
420,192,49577,1,0,0:0:0:0:
128,192,49577,1,0,0:0:0:0:
320,192,49577,1,0,0:0:0:0:
64,192,49577,1,0,0:0:0:0:
256,192,49577,1,0,0:0:0:0:
384,192,49577,1,0,0:0:0:0:
230,192,49577,1,0,0:0:0:0:
192,192,49577,1,0,0:0:0:0:
486,192,49577,1,0,0:0:0:0:
448,192,49577,1,0,0:0:0:0:
109,192,49652,1,0,0:0:0:0:
164,192,49652,1,0,0:0:0:0:
347,192,49652,1,0,0:0:0:0:
25,192,49652,1,0,0:0:0:0:
128,192,49652,1,0,0:0:0:0:
320,192,49652,1,0,0:0:0:0:
420,192,49652,1,0,0:0:0:0:
64,192,49652,1,0,0:0:0:0:
256,192,49652,1,0,0:0:0:0:
384,192,49652,1,0,0:0:0:0:
230,192,49652,1,0,0:0:0:0:
192,192,49652,1,0,0:0:0:0:
486,192,49652,1,0,0:0:0:0:
448,192,49652,1,0,0:0:0:0:
347,192,49727,1,0,0:0:0:0:
25,192,49727,1,0,0:0:0:0:
109,192,49727,1,0,0:0:0:0:
164,192,49727,1,0,0:0:0:0:
420,192,49727,1,0,0:0:0:0:
128,192,49727,1,0,0:0:0:0:
320,192,49727,1,0,0:0:0:0:
64,192,49727,1,0,0:0:0:0:
256,192,49727,1,0,0:0:0:0:
384,192,49727,1,0,0:0:0:0:
230,192,49727,1,0,0:0:0:0:
192,192,49727,1,0,0:0:0:0:
486,192,49727,1,0,0:0:0:0:
448,192,49727,1,0,0:0:0:0:
109,192,49802,1,0,0:0:0:0:
164,192,49802,1,0,0:0:0:0:
347,192,49802,1,0,0:0:0:0:
25,192,49802,1,0,0:0:0:0:
128,192,49802,1,0,0:0:0:0:
320,192,49802,1,0,0:0:0:0:
420,192,49802,1,0,0:0:0:0:
64,192,49802,1,0,0:0:0:0:
256,192,49802,1,0,0:0:0:0:
384,192,49802,1,0,0:0:0:0:
230,192,49802,1,0,0:0:0:0:
192,192,49802,1,0,0:0:0:0:
486,192,49802,1,0,0:0:0:0:
448,192,49802,1,0,0:0:0:0:
347,192,49877,1,0,0:0:0:0:
25,192,49877,1,0,0:0:0:0:
109,192,49877,1,0,0:0:0:0:
164,192,49877,1,0,0:0:0:0:
420,192,49877,1,0,0:0:0:0:
128,192,49877,1,0,0:0:0:0:
320,192,49877,1,0,0:0:0:0:
64,192,49877,1,0,0:0:0:0:
256,192,49877,1,0,0:0:0:0:
384,192,49877,1,0,0:0:0:0:
230,192,49877,1,0,0:0:0:0:
192,192,49877,1,0,0:0:0:0:
486,192,49877,1,0,0:0:0:0:
448,192,49877,1,0,0:0:0:0:
109,192,49952,1,0,0:0:0:0:
164,192,49952,1,0,0:0:0:0:
347,192,49952,1,0,0:0:0:0:
25,192,49952,1,0,0:0:0:0:
128,192,49952,1,0,0:0:0:0:
320,192,49952,1,0,0:0:0:0:
420,192,49952,1,0,0:0:0:0:
64,192,49952,1,0,0:0:0:0:
256,192,49952,1,0,0:0:0:0:
384,192,49952,1,0,0:0:0:0:
230,192,49952,1,0,0:0:0:0:
192,192,49952,1,0,0:0:0:0:
486,192,49952,1,0,0:0:0:0:
448,192,49952,1,0,0:0:0:0:
347,192,50027,1,0,0:0:0:0:
25,192,50027,1,0,0:0:0:0:
109,192,50027,1,0,0:0:0:0:
164,192,50027,1,0,0:0:0:0:
420,192,50027,1,0,0:0:0:0:
128,192,50027,1,0,0:0:0:0:
320,192,50027,1,0,0:0:0:0:
64,192,50027,1,0,0:0:0:0:
256,192,50027,1,0,0:0:0:0:
384,192,50027,1,0,0:0:0:0:
230,192,50027,1,0,0:0:0:0:
192,192,50027,1,0,0:0:0:0:
486,192,50027,1,0,0:0:0:0:
448,192,50027,1,0,0:0:0:0:
109,192,50102,1,0,0:0:0:0:
164,192,50102,1,0,0:0:0:0:
347,192,50102,1,0,0:0:0:0:
25,192,50102,1,0,0:0:0:0:
128,192,50102,1,0,0:0:0:0:
320,192,50102,1,0,0:0:0:0:
420,192,50102,1,0,0:0:0:0:
64,192,50102,1,0,0:0:0:0:
256,192,50102,1,0,0:0:0:0:
384,192,50102,1,0,0:0:0:0:
230,192,50102,1,0,0:0:0:0:
192,192,50102,1,0,0:0:0:0:
486,192,50102,1,0,0:0:0:0:
448,192,50102,1,0,0:0:0:0:
347,192,50177,1,0,0:0:0:0:
25,192,50177,1,0,0:0:0:0:
109,192,50177,1,0,0:0:0:0:
164,192,50177,1,0,0:0:0:0:
420,192,50177,1,0,0:0:0:0:
128,192,50177,1,0,0:0:0:0:
320,192,50177,1,0,0:0:0:0:
64,192,50177,1,0,0:0:0:0:
256,192,50177,1,0,0:0:0:0:
384,192,50177,1,0,0:0:0:0:
230,192,50177,1,0,0:0:0:0:
192,192,50177,1,0,0:0:0:0:
486,192,50177,1,0,0:0:0:0:
448,192,50177,1,0,0:0:0:0:
347,192,50252,1,0,0:0:0:0:
25,192,50252,1,0,0:0:0:0:
109,192,50252,1,0,0:0:0:0:
164,192,50252,1,0,0:0:0:0:
420,192,50252,1,0,0:0:0:0:
128,192,50252,1,0,0:0:0:0:
320,192,50252,1,0,0:0:0:0:
64,192,50252,1,0,0:0:0:0:
256,192,50252,1,0,0:0:0:0:
384,192,50252,1,0,0:0:0:0:
230,192,50252,1,0,0:0:0:0:
192,192,50252,1,0,0:0:0:0:
486,192,50252,1,0,0:0:0:0:
448,192,50252,1,0,0:0:0:0:
109,192,50327,1,0,0:0:0:0:
164,192,50327,1,0,0:0:0:0:
347,192,50327,1,0,0:0:0:0:
25,192,50327,1,0,0:0:0:0:
128,192,50327,1,0,0:0:0:0:
320,192,50327,1,0,0:0:0:0:
420,192,50327,1,0,0:0:0:0:
64,192,50327,1,0,0:0:0:0:
256,192,50327,1,0,0:0:0:0:
384,192,50327,1,0,0:0:0:0:
230,192,50327,1,0,0:0:0:0:
192,192,50327,1,0,0:0:0:0:
486,192,50327,1,0,0:0:0:0:
448,192,50327,1,0,0:0:0:0:
347,192,50402,1,0,0:0:0:0:
25,192,50402,1,0,0:0:0:0:
109,192,50402,1,0,0:0:0:0:
164,192,50402,1,0,0:0:0:0:
420,192,50402,1,0,0:0:0:0:
128,192,50402,1,0,0:0:0:0:
320,192,50402,1,0,0:0:0:0:
64,192,50402,1,0,0:0:0:0:
256,192,50402,1,0,0:0:0:0:
384,192,50402,1,0,0:0:0:0:
230,192,50402,1,0,0:0:0:0:
192,192,50402,1,0,0:0:0:0:
486,192,50402,1,0,0:0:0:0:
448,192,50402,1,0,0:0:0:0:
109,192,50477,1,0,0:0:0:0:
164,192,50477,1,0,0:0:0:0:
347,192,50477,1,0,0:0:0:0:
25,192,50477,1,0,0:0:0:0:
128,192,50477,1,0,0:0:0:0:
320,192,50477,1,0,0:0:0:0:
420,192,50477,1,0,0:0:0:0:
64,192,50477,1,0,0:0:0:0:
256,192,50477,1,0,0:0:0:0:
384,192,50477,1,0,0:0:0:0:
230,192,50477,1,0,0:0:0:0:
192,192,50477,1,0,0:0:0:0:
486,192,50477,1,0,0:0:0:0:
448,192,50477,1,0,0:0:0:0:
347,192,50552,1,0,0:0:0:0:
25,192,50552,1,0,0:0:0:0:
109,192,50552,1,0,0:0:0:0:
164,192,50552,1,0,0:0:0:0:
420,192,50552,1,0,0:0:0:0:
128,192,50552,1,0,0:0:0:0:
320,192,50552,1,0,0:0:0:0:
64,192,50552,1,0,0:0:0:0:
256,192,50552,1,0,0:0:0:0:
384,192,50552,1,0,0:0:0:0:
230,192,50552,1,0,0:0:0:0:
192,192,50552,1,0,0:0:0:0:
486,192,50552,1,0,0:0:0:0:
448,192,50552,1,0,0:0:0:0:
109,192,50627,1,0,0:0:0:0:
164,192,50627,1,0,0:0:0:0:
347,192,50627,1,0,0:0:0:0:
25,192,50627,1,0,0:0:0:0:
128,192,50627,1,0,0:0:0:0:
320,192,50627,1,0,0:0:0:0:
420,192,50627,1,0,0:0:0:0:
64,192,50627,1,0,0:0:0:0:
256,192,50627,1,0,0:0:0:0:
384,192,50627,1,0,0:0:0:0:
230,192,50627,1,0,0:0:0:0:
192,192,50627,1,0,0:0:0:0:
486,192,50627,1,0,0:0:0:0:
448,192,50627,1,0,0:0:0:0:
347,192,50702,1,0,0:0:0:0:
25,192,50702,1,0,0:0:0:0:
109,192,50702,1,0,0:0:0:0:
164,192,50702,1,0,0:0:0:0:
420,192,50702,1,0,0:0:0:0:
128,192,50702,1,0,0:0:0:0:
320,192,50702,1,0,0:0:0:0:
64,192,50702,1,0,0:0:0:0:
256,192,50702,1,0,0:0:0:0:
384,192,50702,1,0,0:0:0:0:
230,192,50702,1,0,0:0:0:0:
192,192,50702,1,0,0:0:0:0:
486,192,50702,1,0,0:0:0:0:
448,192,50702,1,0,0:0:0:0:
109,192,50777,1,0,0:0:0:0:
164,192,50777,1,0,0:0:0:0:
347,192,50777,1,0,0:0:0:0:
25,192,50777,1,0,0:0:0:0:
128,192,50777,1,0,0:0:0:0:
320,192,50777,1,0,0:0:0:0:
420,192,50777,1,0,0:0:0:0:
64,192,50777,1,0,0:0:0:0:
256,192,50777,1,0,0:0:0:0:
384,192,50777,1,0,0:0:0:0:
230,192,50777,1,0,0:0:0:0:
192,192,50777,1,0,0:0:0:0:
486,192,50777,1,0,0:0:0:0:
448,192,50777,1,0,0:0:0:0:
347,192,50852,1,0,0:0:0:0:
25,192,50852,1,0,0:0:0:0:
109,192,50852,1,0,0:0:0:0:
164,192,50852,1,0,0:0:0:0:
420,192,50852,1,0,0:0:0:0:
128,192,50852,1,0,0:0:0:0:
320,192,50852,1,0,0:0:0:0:
64,192,50852,1,0,0:0:0:0:
256,192,50852,1,0,0:0:0:0:
384,192,50852,1,0,0:0:0:0:
230,192,50852,1,0,0:0:0:0:
192,192,50852,1,0,0:0:0:0:
486,192,50852,1,0,0:0:0:0:
448,192,50852,1,0,0:0:0:0:
109,192,50927,1,0,0:0:0:0:
164,192,50927,1,0,0:0:0:0:
347,192,50927,1,0,0:0:0:0:
25,192,50927,1,0,0:0:0:0:
128,192,50927,1,0,0:0:0:0:
320,192,50927,1,0,0:0:0:0:
420,192,50927,1,0,0:0:0:0:
64,192,50927,1,0,0:0:0:0:
256,192,50927,1,0,0:0:0:0:
384,192,50927,1,0,0:0:0:0:
230,192,50927,1,0,0:0:0:0:
192,192,50927,1,0,0:0:0:0:
486,192,50927,1,0,0:0:0:0:
448,192,50927,1,0,0:0:0:0:
347,192,51002,1,0,0:0:0:0:
25,192,51002,1,0,0:0:0:0:
109,192,51002,1,0,0:0:0:0:
164,192,51002,1,0,0:0:0:0:
420,192,51002,1,0,0:0:0:0:
128,192,51002,1,0,0:0:0:0:
320,192,51002,1,0,0:0:0:0:
64,192,51002,1,0,0:0:0:0:
256,192,51002,1,0,0:0:0:0:
384,192,51002,1,0,0:0:0:0:
230,192,51002,1,0,0:0:0:0:
192,192,51002,1,0,0:0:0:0:
486,192,51002,1,0,0:0:0:0:
448,192,51002,1,0,0:0:0:0:
109,192,51077,1,0,0:0:0:0:
164,192,51077,1,0,0:0:0:0:
347,192,51077,1,0,0:0:0:0:
25,192,51077,1,0,0:0:0:0:
128,192,51077,1,0,0:0:0:0:
320,192,51077,1,0,0:0:0:0:
420,192,51077,1,0,0:0:0:0:
64,192,51077,1,0,0:0:0:0:
256,192,51077,1,0,0:0:0:0:
384,192,51077,1,0,0:0:0:0:
230,192,51077,1,0,0:0:0:0:
192,192,51077,1,0,0:0:0:0:
486,192,51077,1,0,0:0:0:0:
448,192,51077,1,0,0:0:0:0:
347,192,51152,1,0,0:0:0:0:
25,192,51152,1,0,0:0:0:0:
109,192,51152,1,0,0:0:0:0:
164,192,51152,1,0,0:0:0:0:
420,192,51152,1,0,0:0:0:0:
128,192,51152,1,0,0:0:0:0:
320,192,51152,1,0,0:0:0:0:
64,192,51152,1,0,0:0:0:0:
256,192,51152,1,0,0:0:0:0:
384,192,51152,1,0,0:0:0:0:
230,192,51152,1,0,0:0:0:0:
192,192,51152,1,0,0:0:0:0:
486,192,51152,1,0,0:0:0:0:
448,192,51152,1,0,0:0:0:0:
347,192,51227,1,0,0:0:0:0:
25,192,51227,1,0,0:0:0:0:
109,192,51227,1,0,0:0:0:0:
164,192,51227,1,0,0:0:0:0:
420,192,51227,1,0,0:0:0:0:
128,192,51227,1,0,0:0:0:0:
320,192,51227,1,0,0:0:0:0:
64,192,51227,1,0,0:0:0:0:
256,192,51227,1,0,0:0:0:0:
384,192,51227,1,0,0:0:0:0:
230,192,51227,1,0,0:0:0:0:
192,192,51227,1,0,0:0:0:0:
486,192,51227,1,0,0:0:0:0:
448,192,51227,1,0,0:0:0:0:
109,192,51302,1,0,0:0:0:0:
164,192,51302,1,0,0:0:0:0:
347,192,51302,1,0,0:0:0:0:
25,192,51302,1,0,0:0:0:0:
128,192,51302,1,0,0:0:0:0:
320,192,51302,1,0,0:0:0:0:
420,192,51302,1,0,0:0:0:0:
64,192,51302,1,0,0:0:0:0:
256,192,51302,1,0,0:0:0:0:
384,192,51302,1,0,0:0:0:0:
230,192,51302,1,0,0:0:0:0:
192,192,51302,1,0,0:0:0:0:
486,192,51302,1,0,0:0:0:0:
448,192,51302,1,0,0:0:0:0:
347,192,51377,1,0,0:0:0:0:
25,192,51377,1,0,0:0:0:0:
109,192,51377,1,0,0:0:0:0:
164,192,51377,1,0,0:0:0:0:
420,192,51377,1,0,0:0:0:0:
128,192,51377,1,0,0:0:0:0:
320,192,51377,1,0,0:0:0:0:
64,192,51377,1,0,0:0:0:0:
256,192,51377,1,0,0:0:0:0:
384,192,51377,1,0,0:0:0:0:
230,192,51377,1,0,0:0:0:0:
192,192,51377,1,0,0:0:0:0:
486,192,51377,1,0,0:0:0:0:
448,192,51377,1,0,0:0:0:0:
109,192,51452,1,0,0:0:0:0:
164,192,51452,1,0,0:0:0:0:
347,192,51452,1,0,0:0:0:0:
25,192,51452,1,0,0:0:0:0:
128,192,51452,1,0,0:0:0:0:
320,192,51452,1,0,0:0:0:0:
420,192,51452,1,0,0:0:0:0:
64,192,51452,1,0,0:0:0:0:
256,192,51452,1,0,0:0:0:0:
384,192,51452,1,0,0:0:0:0:
230,192,51452,1,0,0:0:0:0:
192,192,51452,1,0,0:0:0:0:
486,192,51452,1,0,0:0:0:0:
448,192,51452,1,0,0:0:0:0:
347,192,51527,1,0,0:0:0:0:
25,192,51527,1,0,0:0:0:0:
109,192,51527,1,0,0:0:0:0:
164,192,51527,1,0,0:0:0:0:
420,192,51527,1,0,0:0:0:0:
128,192,51527,1,0,0:0:0:0:
320,192,51527,1,0,0:0:0:0:
64,192,51527,1,0,0:0:0:0:
256,192,51527,1,0,0:0:0:0:
384,192,51527,1,0,0:0:0:0:
230,192,51527,1,0,0:0:0:0:
192,192,51527,1,0,0:0:0:0:
486,192,51527,1,0,0:0:0:0:
448,192,51527,1,0,0:0:0:0:
25,192,51602,128,0,53927:0:0:0:0:
109,192,51602,128,0,53927:0:0:0:0:
164,192,51602,128,0,53927:0:0:0:0:
347,192,51602,128,0,53927:0:0:0:0:
128,192,51602,128,0,53927:0:0:0:0:
320,192,51602,128,0,53927:0:0:0:0:
420,192,51602,128,0,53927:0:0:0:0:
64,192,51602,128,0,53927:0:0:0:0:
256,192,51602,128,0,53927:0:0:0:0:
384,192,51602,128,0,53927:0:0:0:0:
230,192,51602,128,0,53927:0:0:0:0:
192,192,51602,128,0,53927:0:0:0:0:
486,192,51602,128,0,53927:0:0:0:0:
448,192,51602,128,0,53927:0:0:0:0:
25,192,54002,128,0,54058:0:0:0:0:
109,192,54002,128,0,54058:0:0:0:0:
164,192,54002,128,0,54058:0:0:0:0:
347,192,54002,128,0,54058:0:0:0:0:
128,192,54002,128,0,54058:0:0:0:0:
320,192,54002,128,0,54058:0:0:0:0:
420,192,54002,128,0,54058:0:0:0:0:
64,192,54002,128,0,54058:0:0:0:0:
256,192,54002,128,0,54058:0:0:0:0:
384,192,54002,128,0,54058:0:0:0:0:
230,192,54002,128,0,54058:0:0:0:0:
192,192,54002,128,0,54058:0:0:0:0:
486,192,54002,128,0,54058:0:0:0:0:
448,192,54002,128,0,54058:0:0:0:0:
25,192,54077,128,0,54133:0:0:0:0:
109,192,54077,128,0,54133:0:0:0:0:
164,192,54077,128,0,54133:0:0:0:0:
347,192,54077,128,0,54133:0:0:0:0:
128,192,54077,128,0,54133:0:0:0:0:
320,192,54077,128,0,54133:0:0:0:0:
420,192,54077,128,0,54133:0:0:0:0:
64,192,54077,128,0,54133:0:0:0:0:
256,192,54077,128,0,54133:0:0:0:0:
384,192,54077,128,0,54133:0:0:0:0:
230,192,54077,128,0,54133:0:0:0:0:
192,192,54077,128,0,54133:0:0:0:0:
486,192,54077,128,0,54133:0:0:0:0:
448,192,54077,128,0,54133:0:0:0:0:
164,192,54152,128,0,54208:0:0:0:0:
347,192,54152,128,0,54208:0:0:0:0:
25,192,54152,128,0,54208:0:0:0:0:
109,192,54152,128,0,54208:0:0:0:0:
320,192,54152,128,0,54208:0:0:0:0:
420,192,54152,128,0,54208:0:0:0:0:
128,192,54152,128,0,54208:0:0:0:0:
64,192,54152,128,0,54208:0:0:0:0:
256,192,54152,128,0,54208:0:0:0:0:
384,192,54152,128,0,54208:0:0:0:0:
230,192,54152,128,0,54208:0:0:0:0:
192,192,54152,128,0,54208:0:0:0:0:
486,192,54152,128,0,54208:0:0:0:0:
448,192,54152,128,0,54208:0:0:0:0:
25,192,54227,128,0,54283:0:0:0:0:
109,192,54227,128,0,54283:0:0:0:0:
164,192,54227,128,0,54283:0:0:0:0:
347,192,54227,128,0,54283:0:0:0:0:
128,192,54227,128,0,54283:0:0:0:0:
320,192,54227,128,0,54283:0:0:0:0:
420,192,54227,128,0,54283:0:0:0:0:
64,192,54227,128,0,54283:0:0:0:0:
256,192,54227,128,0,54283:0:0:0:0:
384,192,54227,128,0,54283:0:0:0:0:
230,192,54227,128,0,54283:0:0:0:0:
192,192,54227,128,0,54283:0:0:0:0:
486,192,54227,128,0,54283:0:0:0:0:
448,192,54227,128,0,54283:0:0:0:0:
164,192,54302,128,0,54358:0:0:0:0:
347,192,54302,128,0,54358:0:0:0:0:
25,192,54302,128,0,54358:0:0:0:0:
109,192,54302,128,0,54358:0:0:0:0:
320,192,54302,128,0,54358:0:0:0:0:
420,192,54302,128,0,54358:0:0:0:0:
128,192,54302,128,0,54358:0:0:0:0:
64,192,54302,128,0,54358:0:0:0:0:
256,192,54302,128,0,54358:0:0:0:0:
384,192,54302,128,0,54358:0:0:0:0:
230,192,54302,128,0,54358:0:0:0:0:
192,192,54302,128,0,54358:0:0:0:0:
486,192,54302,128,0,54358:0:0:0:0:
448,192,54302,128,0,54358:0:0:0:0:
25,192,54377,128,0,54433:0:0:0:0:
109,192,54377,128,0,54433:0:0:0:0:
164,192,54377,128,0,54433:0:0:0:0:
347,192,54377,128,0,54433:0:0:0:0:
128,192,54377,128,0,54433:0:0:0:0:
320,192,54377,128,0,54433:0:0:0:0:
420,192,54377,128,0,54433:0:0:0:0:
64,192,54377,128,0,54433:0:0:0:0:
256,192,54377,128,0,54433:0:0:0:0:
384,192,54377,128,0,54433:0:0:0:0:
230,192,54377,128,0,54433:0:0:0:0:
192,192,54377,128,0,54433:0:0:0:0:
486,192,54377,128,0,54433:0:0:0:0:
448,192,54377,128,0,54433:0:0:0:0:
164,192,54452,128,0,54508:0:0:0:0:
347,192,54452,128,0,54508:0:0:0:0:
25,192,54452,128,0,54508:0:0:0:0:
109,192,54452,128,0,54508:0:0:0:0:
320,192,54452,128,0,54508:0:0:0:0:
420,192,54452,128,0,54508:0:0:0:0:
128,192,54452,128,0,54508:0:0:0:0:
64,192,54452,128,0,54508:0:0:0:0:
256,192,54452,128,0,54508:0:0:0:0:
384,192,54452,128,0,54508:0:0:0:0:
230,192,54452,128,0,54508:0:0:0:0:
192,192,54452,128,0,54508:0:0:0:0:
486,192,54452,128,0,54508:0:0:0:0:
448,192,54452,128,0,54508:0:0:0:0:
25,192,54527,128,0,54583:0:0:0:0:
109,192,54527,128,0,54583:0:0:0:0:
164,192,54527,128,0,54583:0:0:0:0:
347,192,54527,128,0,54583:0:0:0:0:
128,192,54527,128,0,54583:0:0:0:0:
320,192,54527,128,0,54583:0:0:0:0:
420,192,54527,128,0,54583:0:0:0:0:
64,192,54527,128,0,54583:0:0:0:0:
256,192,54527,128,0,54583:0:0:0:0:
384,192,54527,128,0,54583:0:0:0:0:
230,192,54527,128,0,54583:0:0:0:0:
192,192,54527,128,0,54583:0:0:0:0:
486,192,54527,128,0,54583:0:0:0:0:
448,192,54527,128,0,54583:0:0:0:0:
164,192,54602,128,0,54658:0:0:0:0:
347,192,54602,128,0,54658:0:0:0:0:
25,192,54602,128,0,54658:0:0:0:0:
109,192,54602,128,0,54658:0:0:0:0:
320,192,54602,128,0,54658:0:0:0:0:
420,192,54602,128,0,54658:0:0:0:0:
128,192,54602,128,0,54658:0:0:0:0:
64,192,54602,128,0,54658:0:0:0:0:
256,192,54602,128,0,54658:0:0:0:0:
384,192,54602,128,0,54658:0:0:0:0:
230,192,54602,128,0,54658:0:0:0:0:
192,192,54602,128,0,54658:0:0:0:0:
486,192,54602,128,0,54658:0:0:0:0:
448,192,54602,128,0,54658:0:0:0:0:
25,192,54677,128,0,54733:0:0:0:0:
109,192,54677,128,0,54733:0:0:0:0:
164,192,54677,128,0,54733:0:0:0:0:
347,192,54677,128,0,54733:0:0:0:0:
128,192,54677,128,0,54733:0:0:0:0:
320,192,54677,128,0,54733:0:0:0:0:
420,192,54677,128,0,54733:0:0:0:0:
64,192,54677,128,0,54733:0:0:0:0:
256,192,54677,128,0,54733:0:0:0:0:
384,192,54677,128,0,54733:0:0:0:0:
230,192,54677,128,0,54733:0:0:0:0:
192,192,54677,128,0,54733:0:0:0:0:
486,192,54677,128,0,54733:0:0:0:0:
448,192,54677,128,0,54733:0:0:0:0:
164,192,54752,128,0,54808:0:0:0:0:
347,192,54752,128,0,54808:0:0:0:0:
25,192,54752,128,0,54808:0:0:0:0:
109,192,54752,128,0,54808:0:0:0:0:
320,192,54752,128,0,54808:0:0:0:0:
420,192,54752,128,0,54808:0:0:0:0:
128,192,54752,128,0,54808:0:0:0:0:
64,192,54752,128,0,54808:0:0:0:0:
256,192,54752,128,0,54808:0:0:0:0:
384,192,54752,128,0,54808:0:0:0:0:
230,192,54752,128,0,54808:0:0:0:0:
192,192,54752,128,0,54808:0:0:0:0:
486,192,54752,128,0,54808:0:0:0:0:
448,192,54752,128,0,54808:0:0:0:0:
25,192,54827,128,0,54883:0:0:0:0:
109,192,54827,128,0,54883:0:0:0:0:
164,192,54827,128,0,54883:0:0:0:0:
347,192,54827,128,0,54883:0:0:0:0:
128,192,54827,128,0,54883:0:0:0:0:
320,192,54827,128,0,54883:0:0:0:0:
420,192,54827,128,0,54883:0:0:0:0:
64,192,54827,128,0,54883:0:0:0:0:
256,192,54827,128,0,54883:0:0:0:0:
384,192,54827,128,0,54883:0:0:0:0:
230,192,54827,128,0,54883:0:0:0:0:
192,192,54827,128,0,54883:0:0:0:0:
486,192,54827,128,0,54883:0:0:0:0:
448,192,54827,128,0,54883:0:0:0:0:
164,192,54902,128,0,54958:0:0:0:0:
347,192,54902,128,0,54958:0:0:0:0:
25,192,54902,128,0,54958:0:0:0:0:
109,192,54902,128,0,54958:0:0:0:0:
320,192,54902,128,0,54958:0:0:0:0:
420,192,54902,128,0,54958:0:0:0:0:
128,192,54902,128,0,54958:0:0:0:0:
64,192,54902,128,0,54958:0:0:0:0:
256,192,54902,128,0,54958:0:0:0:0:
384,192,54902,128,0,54958:0:0:0:0:
230,192,54902,128,0,54958:0:0:0:0:
192,192,54902,128,0,54958:0:0:0:0:
486,192,54902,128,0,54958:0:0:0:0:
448,192,54902,128,0,54958:0:0:0:0:
164,192,54977,128,0,55033:0:0:0:0:
347,192,54977,128,0,55033:0:0:0:0:
25,192,54977,128,0,55033:0:0:0:0:
109,192,54977,128,0,55033:0:0:0:0:
320,192,54977,128,0,55033:0:0:0:0:
420,192,54977,128,0,55033:0:0:0:0:
128,192,54977,128,0,55033:0:0:0:0:
64,192,54977,128,0,55033:0:0:0:0:
256,192,54977,128,0,55033:0:0:0:0:
384,192,54977,128,0,55033:0:0:0:0:
230,192,54977,128,0,55033:0:0:0:0:
192,192,54977,128,0,55033:0:0:0:0:
486,192,54977,128,0,55033:0:0:0:0:
448,192,54977,128,0,55033:0:0:0:0:
25,192,55052,128,0,55108:0:0:0:0:
109,192,55052,128,0,55108:0:0:0:0:
164,192,55052,128,0,55108:0:0:0:0:
347,192,55052,128,0,55108:0:0:0:0:
128,192,55052,128,0,55108:0:0:0:0:
320,192,55052,128,0,55108:0:0:0:0:
420,192,55052,128,0,55108:0:0:0:0:
64,192,55052,128,0,55108:0:0:0:0:
256,192,55052,128,0,55108:0:0:0:0:
384,192,55052,128,0,55108:0:0:0:0:
230,192,55052,128,0,55108:0:0:0:0:
192,192,55052,128,0,55108:0:0:0:0:
486,192,55052,128,0,55108:0:0:0:0:
448,192,55052,128,0,55108:0:0:0:0:
164,192,55127,128,0,55183:0:0:0:0:
347,192,55127,128,0,55183:0:0:0:0:
25,192,55127,128,0,55183:0:0:0:0:
109,192,55127,128,0,55183:0:0:0:0:
320,192,55127,128,0,55183:0:0:0:0:
420,192,55127,128,0,55183:0:0:0:0:
128,192,55127,128,0,55183:0:0:0:0:
64,192,55127,128,0,55183:0:0:0:0:
256,192,55127,128,0,55183:0:0:0:0:
384,192,55127,128,0,55183:0:0:0:0:
230,192,55127,128,0,55183:0:0:0:0:
192,192,55127,128,0,55183:0:0:0:0:
486,192,55127,128,0,55183:0:0:0:0:
448,192,55127,128,0,55183:0:0:0:0:
164,192,55202,128,0,55258:0:0:0:0:
347,192,55202,128,0,55258:0:0:0:0:
25,192,55202,128,0,55258:0:0:0:0:
109,192,55202,128,0,55258:0:0:0:0:
320,192,55202,128,0,55258:0:0:0:0:
420,192,55202,128,0,55258:0:0:0:0:
128,192,55202,128,0,55258:0:0:0:0:
64,192,55202,128,0,55258:0:0:0:0:
256,192,55202,128,0,55258:0:0:0:0:
384,192,55202,128,0,55258:0:0:0:0:
230,192,55202,128,0,55258:0:0:0:0:
192,192,55202,128,0,55258:0:0:0:0:
486,192,55202,128,0,55258:0:0:0:0:
448,192,55202,128,0,55258:0:0:0:0:
25,192,55277,128,0,55333:0:0:0:0:
109,192,55277,128,0,55333:0:0:0:0:
164,192,55277,128,0,55333:0:0:0:0:
347,192,55277,128,0,55333:0:0:0:0:
128,192,55277,128,0,55333:0:0:0:0:
320,192,55277,128,0,55333:0:0:0:0:
420,192,55277,128,0,55333:0:0:0:0:
64,192,55277,128,0,55333:0:0:0:0:
256,192,55277,128,0,55333:0:0:0:0:
384,192,55277,128,0,55333:0:0:0:0:
230,192,55277,128,0,55333:0:0:0:0:
192,192,55277,128,0,55333:0:0:0:0:
486,192,55277,128,0,55333:0:0:0:0:
448,192,55277,128,0,55333:0:0:0:0:
25,192,55352,128,0,55408:0:0:0:0:
109,192,55352,128,0,55408:0:0:0:0:
164,192,55352,128,0,55408:0:0:0:0:
347,192,55352,128,0,55408:0:0:0:0:
128,192,55352,128,0,55408:0:0:0:0:
320,192,55352,128,0,55408:0:0:0:0:
420,192,55352,128,0,55408:0:0:0:0:
64,192,55352,128,0,55408:0:0:0:0:
256,192,55352,128,0,55408:0:0:0:0:
384,192,55352,128,0,55408:0:0:0:0:
230,192,55352,128,0,55408:0:0:0:0:
192,192,55352,128,0,55408:0:0:0:0:
486,192,55352,128,0,55408:0:0:0:0:
448,192,55352,128,0,55408:0:0:0:0:
164,192,55427,128,0,55483:0:0:0:0:
347,192,55427,128,0,55483:0:0:0:0:
25,192,55427,128,0,55483:0:0:0:0:
109,192,55427,128,0,55483:0:0:0:0:
320,192,55427,128,0,55483:0:0:0:0:
420,192,55427,128,0,55483:0:0:0:0:
128,192,55427,128,0,55483:0:0:0:0:
64,192,55427,128,0,55483:0:0:0:0:
256,192,55427,128,0,55483:0:0:0:0:
384,192,55427,128,0,55483:0:0:0:0:
230,192,55427,128,0,55483:0:0:0:0:
192,192,55427,128,0,55483:0:0:0:0:
486,192,55427,128,0,55483:0:0:0:0:
448,192,55427,128,0,55483:0:0:0:0:
25,192,55502,128,0,55558:0:0:0:0:
109,192,55502,128,0,55558:0:0:0:0:
164,192,55502,128,0,55558:0:0:0:0:
347,192,55502,128,0,55558:0:0:0:0:
128,192,55502,128,0,55558:0:0:0:0:
320,192,55502,128,0,55558:0:0:0:0:
420,192,55502,128,0,55558:0:0:0:0:
64,192,55502,128,0,55558:0:0:0:0:
256,192,55502,128,0,55558:0:0:0:0:
384,192,55502,128,0,55558:0:0:0:0:
230,192,55502,128,0,55558:0:0:0:0:
192,192,55502,128,0,55558:0:0:0:0:
486,192,55502,128,0,55558:0:0:0:0:
448,192,55502,128,0,55558:0:0:0:0:
25,192,55577,128,0,55633:0:0:0:0:
109,192,55577,128,0,55633:0:0:0:0:
164,192,55577,128,0,55633:0:0:0:0:
347,192,55577,128,0,55633:0:0:0:0:
128,192,55577,128,0,55633:0:0:0:0:
320,192,55577,128,0,55633:0:0:0:0:
420,192,55577,128,0,55633:0:0:0:0:
64,192,55577,128,0,55633:0:0:0:0:
256,192,55577,128,0,55633:0:0:0:0:
384,192,55577,128,0,55633:0:0:0:0:
230,192,55577,128,0,55633:0:0:0:0:
192,192,55577,128,0,55633:0:0:0:0:
486,192,55577,128,0,55633:0:0:0:0:
448,192,55577,128,0,55633:0:0:0:0:
164,192,55652,128,0,55708:0:0:0:0:
347,192,55652,128,0,55708:0:0:0:0:
25,192,55652,128,0,55708:0:0:0:0:
109,192,55652,128,0,55708:0:0:0:0:
320,192,55652,128,0,55708:0:0:0:0:
420,192,55652,128,0,55708:0:0:0:0:
128,192,55652,128,0,55708:0:0:0:0:
64,192,55652,128,0,55708:0:0:0:0:
256,192,55652,128,0,55708:0:0:0:0:
384,192,55652,128,0,55708:0:0:0:0:
230,192,55652,128,0,55708:0:0:0:0:
192,192,55652,128,0,55708:0:0:0:0:
486,192,55652,128,0,55708:0:0:0:0:
448,192,55652,128,0,55708:0:0:0:0:
25,192,55727,128,0,55783:0:0:0:0:
109,192,55727,128,0,55783:0:0:0:0:
164,192,55727,128,0,55783:0:0:0:0:
347,192,55727,128,0,55783:0:0:0:0:
128,192,55727,128,0,55783:0:0:0:0:
320,192,55727,128,0,55783:0:0:0:0:
420,192,55727,128,0,55783:0:0:0:0:
64,192,55727,128,0,55783:0:0:0:0:
256,192,55727,128,0,55783:0:0:0:0:
384,192,55727,128,0,55783:0:0:0:0:
230,192,55727,128,0,55783:0:0:0:0:
192,192,55727,128,0,55783:0:0:0:0:
486,192,55727,128,0,55783:0:0:0:0:
448,192,55727,128,0,55783:0:0:0:0:
164,192,55802,128,0,55858:0:0:0:0:
347,192,55802,128,0,55858:0:0:0:0:
25,192,55802,128,0,55858:0:0:0:0:
109,192,55802,128,0,55858:0:0:0:0:
320,192,55802,128,0,55858:0:0:0:0:
420,192,55802,128,0,55858:0:0:0:0:
128,192,55802,128,0,55858:0:0:0:0:
64,192,55802,128,0,55858:0:0:0:0:
256,192,55802,128,0,55858:0:0:0:0:
384,192,55802,128,0,55858:0:0:0:0:
230,192,55802,128,0,55858:0:0:0:0:
192,192,55802,128,0,55858:0:0:0:0:
486,192,55802,128,0,55858:0:0:0:0:
448,192,55802,128,0,55858:0:0:0:0:
164,192,55877,128,0,55933:0:0:0:0:
347,192,55877,128,0,55933:0:0:0:0:
25,192,55877,128,0,55933:0:0:0:0:
109,192,55877,128,0,55933:0:0:0:0:
320,192,55877,128,0,55933:0:0:0:0:
420,192,55877,128,0,55933:0:0:0:0:
128,192,55877,128,0,55933:0:0:0:0:
64,192,55877,128,0,55933:0:0:0:0:
256,192,55877,128,0,55933:0:0:0:0:
384,192,55877,128,0,55933:0:0:0:0:
230,192,55877,128,0,55933:0:0:0:0:
192,192,55877,128,0,55933:0:0:0:0:
486,192,55877,128,0,55933:0:0:0:0:
448,192,55877,128,0,55933:0:0:0:0:
25,192,55952,128,0,56008:0:0:0:0:
109,192,55952,128,0,56008:0:0:0:0:
164,192,55952,128,0,56008:0:0:0:0:
347,192,55952,128,0,56008:0:0:0:0:
128,192,55952,128,0,56008:0:0:0:0:
320,192,55952,128,0,56008:0:0:0:0:
420,192,55952,128,0,56008:0:0:0:0:
64,192,55952,128,0,56008:0:0:0:0:
256,192,55952,128,0,56008:0:0:0:0:
384,192,55952,128,0,56008:0:0:0:0:
230,192,55952,128,0,56008:0:0:0:0:
192,192,55952,128,0,56008:0:0:0:0:
486,192,55952,128,0,56008:0:0:0:0:
448,192,55952,128,0,56008:0:0:0:0:
25,192,56027,128,0,56083:0:0:0:0:
109,192,56027,128,0,56083:0:0:0:0:
164,192,56027,128,0,56083:0:0:0:0:
347,192,56027,128,0,56083:0:0:0:0:
128,192,56027,128,0,56083:0:0:0:0:
320,192,56027,128,0,56083:0:0:0:0:
420,192,56027,128,0,56083:0:0:0:0:
64,192,56027,128,0,56083:0:0:0:0:
256,192,56027,128,0,56083:0:0:0:0:
384,192,56027,128,0,56083:0:0:0:0:
230,192,56027,128,0,56083:0:0:0:0:
192,192,56027,128,0,56083:0:0:0:0:
486,192,56027,128,0,56083:0:0:0:0:
448,192,56027,128,0,56083:0:0:0:0:
164,192,56102,128,0,56158:0:0:0:0:
347,192,56102,128,0,56158:0:0:0:0:
25,192,56102,128,0,56158:0:0:0:0:
109,192,56102,128,0,56158:0:0:0:0:
320,192,56102,128,0,56158:0:0:0:0:
420,192,56102,128,0,56158:0:0:0:0:
128,192,56102,128,0,56158:0:0:0:0:
64,192,56102,128,0,56158:0:0:0:0:
256,192,56102,128,0,56158:0:0:0:0:
384,192,56102,128,0,56158:0:0:0:0:
230,192,56102,128,0,56158:0:0:0:0:
192,192,56102,128,0,56158:0:0:0:0:
486,192,56102,128,0,56158:0:0:0:0:
448,192,56102,128,0,56158:0:0:0:0:
25,192,56177,128,0,56233:0:0:0:0:
109,192,56177,128,0,56233:0:0:0:0:
164,192,56177,128,0,56233:0:0:0:0:
347,192,56177,128,0,56233:0:0:0:0:
128,192,56177,128,0,56233:0:0:0:0:
320,192,56177,128,0,56233:0:0:0:0:
420,192,56177,128,0,56233:0:0:0:0:
64,192,56177,128,0,56233:0:0:0:0:
256,192,56177,128,0,56233:0:0:0:0:
384,192,56177,128,0,56233:0:0:0:0:
230,192,56177,128,0,56233:0:0:0:0:
192,192,56177,128,0,56233:0:0:0:0:
486,192,56177,128,0,56233:0:0:0:0:
448,192,56177,128,0,56233:0:0:0:0:
25,192,56252,128,0,56308:0:0:0:0:
109,192,56252,128,0,56308:0:0:0:0:
164,192,56252,128,0,56308:0:0:0:0:
347,192,56252,128,0,56308:0:0:0:0:
128,192,56252,128,0,56308:0:0:0:0:
320,192,56252,128,0,56308:0:0:0:0:
420,192,56252,128,0,56308:0:0:0:0:
64,192,56252,128,0,56308:0:0:0:0:
256,192,56252,128,0,56308:0:0:0:0:
384,192,56252,128,0,56308:0:0:0:0:
230,192,56252,128,0,56308:0:0:0:0:
192,192,56252,128,0,56308:0:0:0:0:
486,192,56252,128,0,56308:0:0:0:0:
448,192,56252,128,0,56308:0:0:0:0:
164,192,56327,128,0,56383:0:0:0:0:
347,192,56327,128,0,56383:0:0:0:0:
25,192,56327,128,0,56383:0:0:0:0:
109,192,56327,128,0,56383:0:0:0:0:
320,192,56327,128,0,56383:0:0:0:0:
420,192,56327,128,0,56383:0:0:0:0:
128,192,56327,128,0,56383:0:0:0:0:
64,192,56327,128,0,56383:0:0:0:0:
256,192,56327,128,0,56383:0:0:0:0:
384,192,56327,128,0,56383:0:0:0:0:
230,192,56327,128,0,56383:0:0:0:0:
192,192,56327,128,0,56383:0:0:0:0:
486,192,56327,128,0,56383:0:0:0:0:
448,192,56327,128,0,56383:0:0:0:0:
25,192,56402,128,0,56552:0:0:0:0:
109,192,56402,128,0,56552:0:0:0:0:
164,192,56402,128,0,56552:0:0:0:0:
347,192,56402,128,0,56552:0:0:0:0:
128,192,56402,128,0,56552:0:0:0:0:
320,192,56402,128,0,56552:0:0:0:0:
420,192,56402,128,0,56552:0:0:0:0:
64,192,56402,128,0,56552:0:0:0:0:
256,192,56402,128,0,56552:0:0:0:0:
384,192,56402,128,0,56552:0:0:0:0:
230,192,56402,128,0,56552:0:0:0:0:
192,192,56402,128,0,56552:0:0:0:0:
486,192,56402,128,0,56552:0:0:0:0:
448,192,56402,128,0,56552:0:0:0:0:
