osu file format v14

[General]
AudioFilename: audio.mp3
AudioLeadIn: 0
PreviewTime: 37133
Countdown: 0
SampleSet: None
StackLeniency: 0.2
Mode: 0
LetterboxInBreaks: 0
WidescreenStoryboard: 1

[Editor]
Bookmarks: 8408,41783,50708
DistanceSpacing: 0.8
BeatDivisor: 4
GridSize: 4
TimelineZoom: 1

[Metadata]
Title:Jackhammer Madness
TitleUnicode:Jackhammer Madness
Artist:Flypie743
ArtistUnicode:Flypie743
Creator:Chanci
Version:Master
Source:
Tags:flash flash revolution
BeatmapID:1865084
BeatmapSetID:886872

[Difficulty]
HPDrainRate:5.2
CircleSize:4
OverallDifficulty:8.4
ApproachRate:9.2
SliderMultiplier:1.84
SliderTickRate:1

[Events]
//Background and Video events
0,0,"png.jpg",0,0
//Break Periods
//Storyboard Layer 0 (Background)
//Storyboard Layer 1 (Fail)
//Storyboard Layer 2 (Pass)
//Storyboard Layer 3 (Foreground)
//Storyboard Sound Samples

[TimingPoints]
8,300,4,2,1,55,1,0
8,-100,4,2,1,55,0,1
8408,-222.222222222222,4,2,1,55,0,0
8708,-222.222222222222,4,2,1,5,0,0
10808,-100,4,2,1,55,0,1
16808,-208.333333333333,4,2,1,55,0,0
17108,-208.333333333333,4,2,1,5,0,0
19208,-100,4,2,1,55,0,1
21608,-250,4,2,1,55,0,0
21908,-250,4,2,1,5,0,0
24008,-100,4,2,1,55,0,1
30008,-250,4,2,1,55,0,0
30308,-250,4,2,1,5,0,0
32408,-100,4,2,1,55,0,1
37208,-222.222222222222,4,2,1,55,0,0
37508,-222.222222222222,4,2,1,5,0,0
39608,-100,4,2,1,55,0,1
46808,-227.272727272727,4,2,1,55,0,0
47108,-227.272727272727,4,2,1,5,0,0
49208,-100,4,2,1,55,0,1
51608,-250,4,2,1,55,0,0
51908,-250,4,2,1,5,0,0
54008,-100,4,2,1,55,0,1
56408,-100,4,2,1,55,0,0

[Colours]
Combo1 : 255,239,191
Combo2 : 191,255,191
Combo3 : 191,220,255
Combo4 : 252,194,203

[HitObjects]
5,310,8,5,4,0:0:0:0:
32,283,83,1,0,0:0:0:0:
67,274,158,1,0,0:0:0:0:
103,283,233,1,0,0:0:0:0:
129,310,308,1,4,0:0:0:0:
138,345,383,1,0,0:0:0:0:
162,373,458,1,0,0:0:0:0:
196,386,533,1,0,0:0:0:0:
233,381,608,1,4,0:0:0:0:
263,360,683,1,0,0:0:0:0:
280,328,758,1,0,0:0:0:0:
280,291,833,1,0,0:0:0:0:
263,259,908,1,4,0:0:0:0:
233,238,983,1,0,0:0:0:0:
196,233,1058,1,0,0:0:0:0:
162,246,1133,1,0,0:0:0:0:
137,274,1208,6,0,L|199:279,3,46,4|0|0|0,0:0|0:0|0:0|0:0,0:0:0:0:
90,127,1508,2,0,L|45:131,3,46,4|0|0|0,0:0|0:0|0:0|0:0,0:0:0:0:
263,259,1808,2,0,L|325:264,3,46,4|0|0|0,0:0|0:0|0:0|0:0,0:0:0:0:
216,142,2108,2,0,L|170:145,3,46,4|0|0|0,0:0|0:0|0:0|0:0,0:0:0:0:
389,244,2408,5,4,0:0:0:0:
387,280,2483,1,0,0:0:0:0:
371,313,2558,1,0,0:0:0:0:
341,336,2633,1,0,0:0:0:0:
306,344,2708,1,4,0:0:0:0:
270,335,2783,1,0,0:0:0:0:
241,312,2858,1,0,0:0:0:0:
226,279,2933,1,0,0:0:0:0:
226,242,3008,1,4,0:0:0:0:
243,208,3083,1,0,0:0:0:0:
272,186,3158,1,0,0:0:0:0:
308,179,3233,1,0,0:0:0:0:
337,159,3308,1,4,0:0:0:0:
353,126,3383,1,0,0:0:0:0:
349,90,3458,1,0,0:0:0:0:
329,60,3533,1,0,0:0:0:0:
296,43,3608,6,0,L|291:105,3,46,4|0|0|0,0:0|0:0|0:0|0:0,0:0:0:0:
417,209,3908,2,0,L|413:163,3,46,4|0|0|0,0:0|0:0|0:0|0:0,0:0:0:0:
375,32,4208,2,0,L|371:77,3,46,4|0|0|0,0:0|0:0|0:0|0:0,0:0:0:0:
495,219,4508,2,0,L|492:174,3,46,4|0|0|0,0:0|0:0|0:0|0:0,0:0:0:0:
454,21,4808,5,4,0:0:0:0:
416,24,4883,1,0,0:0:0:0:
385,46,4958,1,0,0:0:0:0:
370,79,5033,1,0,0:0:0:0:
374,116,5108,1,4,0:0:0:0:
356,148,5183,1,0,0:0:0:0:
326,170,5258,1,0,0:0:0:0:
289,173,5333,1,0,0:0:0:0:
256,157,5408,1,4,0:0:0:0:
234,126,5483,1,0,0:0:0:0:
231,91,5558,1,0,0:0:0:0:
209,60,5633,1,0,0:0:0:0:
176,44,5708,1,4,0:0:0:0:
139,47,5783,1,0,0:0:0:0:
109,69,5858,1,0,0:0:0:0:
91,101,5933,1,0,0:0:0:0:
96,137,6008,6,0,L|141:134,3,46,4|0|0|0,0:0|0:0|0:0|0:0,0:0:0:0:
107,278,6308,2,0,L|62:275,3,46,4|0|0|0,0:0|0:0|0:0|0:0,0:0:0:0:
142,205,6608,2,0,L|187:202,3,46,4|0|0|0,0:0|0:0|0:0|0:0,0:0:0:0:
61,346,6908,2,0,L|16:343,3,46,4|0|0|0,0:0|0:0|0:0|0:0,0:0:0:0:
188,273,7208,5,4,0:0:0:0:
221,286,7283,1,0,0:0:0:0:
235,320,7358,1,0,0:0:0:0:
221,355,7433,1,0,0:0:0:0:
187,368,7508,1,4,0:0:0:0:
152,355,7583,1,0,0:0:0:0:
139,321,7658,1,0,0:0:0:0:
153,286,7733,1,0,0:0:0:0:
188,273,7808,1,4,0:0:0:0:
221,286,7883,1,0,0:0:0:0:
235,320,7958,1,0,0:0:0:0:
262,342,8033,1,0,0:0:0:0:
298,342,8108,1,4,0:0:0:0:
328,320,8183,1,0,0:0:0:0:
340,286,8258,1,0,0:0:0:0:
328,251,8333,1,0,0:0:0:0:
298,229,8408,6,0,B|270:221|241:232|228:257|228:257|215:281|221:312|241:331|241:331|263:349|294:349|317:332|317:332|338:315|346:286|334:260|334:260|322:226|339:189|372:176|372:176|406:162|443:178|458:211|458:211|472:245|458:283|425:298,1,620.999981048585,0|0,0:0|0:0,0:0:0:0:
349,193,10808,5,4,0:0:0:0:
380,173,10883,1,0,0:0:0:0:
416,173,10958,1,0,0:0:0:0:
448,193,11033,1,0,0:0:0:0:
484,186,11108,1,4,0:0:0:0:
508,158,11183,1,0,0:0:0:0:
508,122,11258,1,0,0:0:0:0:
485,94,11333,1,0,0:0:0:0:
448,89,11408,1,4,0:0:0:0:
417,106,11483,1,0,0:0:0:0:
404,140,11558,1,0,0:0:0:0:
372,160,11633,1,0,0:0:0:0:
335,152,11708,1,4,0:0:0:0:
312,124,11783,1,0,0:0:0:0:
312,87,11858,1,0,0:0:0:0:
336,59,11933,1,0,0:0:0:0:
372,52,12008,6,0,L|369:97,3,46,4|0|0|0,0:0|0:0|0:0|0:0,0:0:0:0:
211,146,12308,2,0,L|208:101,3,46,4|0|0|0,0:0|0:0|0:0|0:0,0:0:0:0:
301,29,12608,2,0,L|298:74,3,46,4|0|0|0,0:0|0:0|0:0|0:0,0:0:0:0:
139,168,12908,2,0,L|136:123,3,46,4|0|0|0,0:0|0:0|0:0|0:0,0:0:0:0:
230,6,13208,5,4,0:0:0:0:
248,37,13283,1,0,0:0:0:0:
242,74,13358,1,0,0:0:0:0:
213,97,13433,1,0,0:0:0:0:
177,97,13508,1,4,0:0:0:0:
148,74,13583,1,0,0:0:0:0:
142,37,13658,1,0,0:0:0:0:
116,10,13733,1,0,0:0:0:0:
80,5,13808,1,4,0:0:0:0:
47,20,13883,1,0,0:0:0:0:
29,51,13958,1,0,0:0:0:0:
35,88,14033,1,0,0:0:0:0:
61,114,14108,1,4,0:0:0:0:
96,121,14183,1,0,0:0:0:0:
122,147,14258,1,0,0:0:0:0:
128,184,14333,1,0,0:0:0:0:
110,215,14408,6,0,L|107:170,3,46,4|0|0|0,0:0|0:0|0:0|0:0,0:0:0:0:
175,352,14708,2,0,L|178:307,3,46,4|0|0|0,0:0|0:0|0:0|0:0,0:0:0:0:
188,205,15008,2,0,L|185:160,3,46,4|0|0|0,0:0|0:0|0:0|0:0,0:0:0:0:
253,361,15308,2,0,L|256:316,3,46,4|0|0|0,0:0|0:0|0:0|0:0,0:0:0:0:
266,195,15608,5,4,0:0:0:0:
300,201,15683,1,0,0:0:0:0:
326,229,15758,1,0,0:0:0:0:
332,263,15833,1,0,0:0:0:0:
319,298,15908,1,4,0:0:0:0:
328,333,15983,1,0,0:0:0:0:
351,361,16058,1,0,0:0:0:0:
386,376,16133,1,0,0:0:0:0:
422,372,16208,1,4,0:0:0:0:
453,353,16283,1,0,0:0:0:0:
472,321,16358,1,0,0:0:0:0:
473,284,16433,1,0,0:0:0:0:
457,251,16508,1,4,0:0:0:0:
428,229,16583,1,0,0:0:0:0:
391,223,16658,1,0,0:0:0:0:
356,234,16733,1,0,0:0:0:0:
332,263,16808,6,0,B|363:268|396:250|410:221|410:221|424:190|414:155|388:135|388:135|484:138|484:138|508:67|508:67|390:63|390:63|355:61|323:84|316:118|316:118|308:151|327:187|359:200,1,662.399979785157,0|0,0:0|0:0,0:0:0:0:
396,63,19208,5,4,0:0:0:0:
359,67,19283,1,0,0:0:0:0:
330,89,19358,1,0,0:0:0:0:
316,124,19433,1,0,0:0:0:0:
287,143,19508,1,4,0:0:0:0:
249,143,19583,1,0,0:0:0:0:
220,121,19658,1,0,0:0:0:0:
209,85,19733,1,0,0:0:0:0:
221,51,19808,1,4,0:0:0:0:
252,30,19883,1,0,0:0:0:0:
288,30,19958,1,0,0:0:0:0:
318,52,20033,1,0,0:0:0:0:
330,89,20108,1,4,0:0:0:0:
316,124,20183,1,0,0:0:0:0:
287,143,20258,1,0,0:0:0:0:
249,143,20333,1,0,0:0:0:0:
220,121,20408,6,0,L|265:118,3,46,4|0|0|0,0:0|0:0|0:0|0:0,0:0:0:0:
93,35,20708,2,0,L|138:38,3,46,4|0|0|0,0:0|0:0|0:0|0:0,0:0:0:0:
238,196,21008,2,0,L|283:193,3,46,4|0|0|0,0:0|0:0|0:0|0:0,0:0:0:0:
75,110,21308,2,0,L|120:113,3,46,4|0|0|0,0:0|0:0|0:0|0:0,0:0:0:0:
256,271,21608,6,0,B|352:264|352:264|377:260|394:237|391:212|391:212|389:187|367:168|342:170|342:170|24:190|24:190,1,552,0|0,0:0|0:0,0:0:0:0:
139,325,24008,5,4,0:0:0:0:
177,334,24083,1,0,0:0:0:0:
211,327,24158,1,0,0:0:0:0:
241,304,24233,1,0,0:0:0:0:
256,271,24308,1,4,0:0:0:0:
253,234,24383,1,0,0:0:0:0:
232,202,24458,1,0,0:0:0:0:
201,182,24533,1,0,0:0:0:0:
165,181,24608,1,4,0:0:0:0:
131,198,24683,1,0,0:0:0:0:
110,226,24758,1,0,0:0:0:0:
101,262,24833,1,0,0:0:0:0:
115,298,24908,1,4,0:0:0:0:
105,333,24983,1,0,0:0:0:0:
76,357,25058,1,0,0:0:0:0:
40,359,25133,1,0,0:0:0:0:
9,339,25208,6,0,L|54:336,3,46,4|0|0|0,0:0|0:0|0:0|0:0,0:0:0:0:
131,198,25508,2,0,L|176:201,3,46,4|0|0|0,0:0|0:0|0:0|0:0,0:0:0:0:
133,362,25808,2,0,L|178:359,3,46,4|0|0|0,0:0|0:0|0:0|0:0,0:0:0:0:
255,221,26108,2,0,L|300:224,3,46,4|0|0|0,0:0|0:0|0:0|0:0,0:0:0:0:
257,385,26408,5,4,0:0:0:0:
223,370,26483,1,0,0:0:0:0:
204,338,26558,1,0,0:0:0:0:
208,301,26633,1,0,0:0:0:0:
233,274,26708,1,4,0:0:0:0:
269,266,26783,1,0,0:0:0:0:
303,281,26858,1,0,0:0:0:0:
321,313,26933,1,0,0:0:0:0:
317,350,27008,1,4,0:0:0:0:
337,380,27083,1,0,0:0:0:0:
372,392,27158,1,0,0:0:0:0:
407,383,27233,1,0,0:0:0:0:
431,355,27308,1,4,0:0:0:0:
432,318,27383,1,0,0:0:0:0:
412,287,27458,1,0,0:0:0:0:
413,250,27533,1,0,0:0:0:0:
437,222,27608,6,0,L|482:225,3,46,4|0|0|0,0:0|0:0|0:0|0:0,0:0:0:0:
329,331,27908,2,0,L|374:328,3,46,4|0|0|0,0:0|0:0|0:0|0:0,0:0:0:0:
433,148,28208,2,0,L|478:151,3,46,4|0|0|0,0:0|0:0|0:0|0:0,0:0:0:0:
333,256,28508,2,0,L|378:253,3,46,4|0|0|0,0:0|0:0|0:0|0:0,0:0:0:0:
429,74,28808,5,4,0:0:0:0:
405,45,28883,1,0,0:0:0:0:
369,38,28958,1,0,0:0:0:0:
340,61,29033,1,0,0:0:0:0:
334,97,29108,1,4,0:0:0:0:
357,127,29183,1,0,0:0:0:0:
394,132,29258,1,0,0:0:0:0:
423,109,29333,1,0,0:0:0:0:
429,74,29408,1,4,0:0:0:0:
405,45,29483,1,0,0:0:0:0:
369,38,29558,1,0,0:0:0:0:
340,61,29633,1,0,0:0:0:0:
334,97,29708,1,4,0:0:0:0:
311,125,29783,1,0,0:0:0:0:
275,136,29858,1,0,0:0:0:0:
240,126,29933,1,0,0:0:0:0:
215,98,30008,6,0,B|197:71|160:62|131:78|131:78|103:94|93:132|109:161|109:161|126:189|162:200|191:185|191:185|184:222|184:222|147:239|104:232|75:204|75:204|46:174|38:131|56:94,1,552,0|0,0:0|0:0,0:0:0:0:
193,187,32408,5,4,0:0:0:0:
175,218,32483,1,0,0:0:0:0:
140,230,32558,1,0,0:0:0:0:
107,213,32633,1,0,0:0:0:0:
70,219,32708,1,4,0:0:0:0:
44,245,32783,1,0,0:0:0:0:
39,281,32858,1,0,0:0:0:0:
55,314,32933,1,0,0:0:0:0:
88,330,33008,1,4,0:0:0:0:
124,325,33083,1,0,0:0:0:0:
150,299,33158,1,0,0:0:0:0:
156,262,33233,1,0,0:0:0:0:
182,236,33308,1,4,0:0:0:0:
218,231,33383,1,0,0:0:0:0:
251,247,33458,1,0,0:0:0:0:
267,280,33533,1,0,0:0:0:0:
262,316,33608,6,0,L|217:313,3,46,4|0|0|0,0:0|0:0|0:0|0:0,0:0:0:0:
396,360,33908,2,0,L|351:363,3,46,4|0|0|0,0:0|0:0|0:0|0:0,0:0:0:0:
340,249,34208,2,0,L|295:246,3,46,4|0|0|0,0:0|0:0|0:0|0:0,0:0:0:0:
474,293,34508,2,0,L|429:296,3,46,4|0|0|0,0:0|0:0|0:0|0:0,0:0:0:0:
418,182,34808,5,4,0:0:0:0:
428,146,34883,1,0,0:0:0:0:
463,133,34958,1,0,0:0:0:0:
495,152,35033,1,0,0:0:0:0:
500,188,35108,1,4,0:0:0:0:
476,215,35183,1,0,0:0:0:0:
438,212,35258,1,0,0:0:0:0:
418,182,35333,1,0,0:0:0:0:
428,146,35408,1,4,0:0:0:0:
463,133,35483,1,0,0:0:0:0:
485,104,35558,1,0,0:0:0:0:
485,67,35633,1,0,0:0:0:0:
464,37,35708,1,4,0:0:0:0:
428,26,35783,1,0,0:0:0:0:
394,38,35858,1,0,0:0:0:0:
372,68,35933,1,0,0:0:0:0:
373,104,36008,6,0,L|418:101,3,46,4|0|0|0,0:0|0:0|0:0|0:0,0:0:0:0:
180,55,36308,2,0,L|135:52,3,46,4|0|0|0,0:0|0:0|0:0|0:0,0:0:0:0:
298,74,36608,2,0,L|253:77,3,46,4|0|0|0,0:0|0:0|0:0|0:0,0:0:0:0:
61,29,36908,2,0,L|16:26,3,46,4|0|0|0,0:0|0:0|0:0|0:0,0:0:0:0:
180,55,37208,6,0,B|200:67|209:91|202:113|202:113|195:135|173:149|150:146|150:146|127:143|109:124|107:101|107:101|107:71|83:47|53:46|53:46|22:45|-3:69|-4:99|-4:99|-6:129|17:155|47:157|47:157|67:196|107:222|152:223|152:223|176:223|199:216,1,620.999981048585,0|0,0:0|0:0,0:0:0:0:
61,290,39608,5,4,0:0:0:0:
87,316,39683,1,0,0:0:0:0:
123,326,39758,1,0,0:0:0:0:
158,316,39833,1,0,0:0:0:0:
184,290,39908,1,4,0:0:0:0:
194,255,39983,1,0,0:0:0:0:
220,229,40058,1,0,0:0:0:0:
255,219,40133,1,0,0:0:0:0:
291,229,40208,1,4,0:0:0:0:
317,255,40283,1,0,0:0:0:0:
326,291,40358,1,0,0:0:0:0:
316,326,40433,1,0,0:0:0:0:
290,352,40508,1,4,0:0:0:0:
255,362,40583,1,0,0:0:0:0:
219,352,40658,1,0,0:0:0:0:
192,326,40733,1,0,0:0:0:0:
183,290,40808,6,0,L|228:293,3,46,4|0|0|0,0:0|0:0|0:0|0:0,0:0:0:0:
361,322,41108,2,0,L|316:325,3,46,4|0|0|0,0:0|0:0|0:0|0:0,0:0:0:0:
168,207,41408,2,0,L|213:210,3,46,4|0|0|0,0:0|0:0|0:0|0:0,0:0:0:0:
376,239,41708,2,0,L|331:242,3,46,4|0|0|0,0:0|0:0|0:0|0:0,0:0:0:0:
153,124,42008,5,4,0:0:0:0:
179,97,42083,1,0,0:0:0:0:
214,88,42158,1,0,0:0:0:0:
250,97,42233,1,0,0:0:0:0:
276,124,42308,1,4,0:0:0:0:
285,159,42383,1,0,0:0:0:0:
311,183,42458,1,0,0:0:0:0:
347,186,42533,1,0,0:0:0:0:
379,167,42608,1,4,0:0:0:0:
394,134,42683,1,0,0:0:0:0:
385,98,42758,1,0,0:0:0:0:
402,64,42833,1,0,0:0:0:0:
433,46,42908,1,4,0:0:0:0:
470,50,42983,1,0,0:0:0:0:
497,75,43058,1,0,0:0:0:0:
504,111,43133,1,0,0:0:0:0:
489,145,43208,6,0,L|444:142,3,46,4|0|0|0,0:0|0:0|0:0|0:0,0:0:0:0:
320,59,43508,2,0,L|275:62,3,46,4|0|0|0,0:0|0:0|0:0|0:0,0:0:0:0:
496,74,43808,2,0,L|451:71,3,46,4|0|0|0,0:0|0:0|0:0|0:0,0:0:0:0:
327,130,44108,2,0,L|282:133,3,46,4|0|0|0,0:0|0:0|0:0|0:0,0:0:0:0:
458,0,44408,5,4,0:0:0:0:
486,20,44483,1,0,0:0:0:0:
497,55,44558,1,0,0:0:0:0:
480,89,44633,1,0,0:0:0:0:
447,103,44708,1,4,0:0:0:0:
412,96,44783,1,0,0:0:0:0:
390,64,44858,1,0,0:0:0:0:
359,43,44933,1,0,0:0:0:0:
322,36,45008,1,4,0:0:0:0:
286,45,45083,1,0,0:0:0:0:
257,69,45158,1,0,0:0:0:0:
240,100,45233,1,0,0:0:0:0:
211,124,45308,1,4,0:0:0:0:
175,133,45383,1,0,0:0:0:0:
138,126,45458,1,0,0:0:0:0:
107,105,45533,1,0,0:0:0:0:
85,73,45608,6,0,L|130:76,3,46,4|0|0|0,0:0|0:0|0:0|0:0,0:0:0:0:
12,172,45908,2,0,L|57:169,3,46,4|0|0|0,0:0|0:0|0:0|0:0,0:0:0:0:
175,133,46208,2,0,L|220:136,3,46,4|0|0|0,0:0|0:0|0:0|0:0,0:0:0:0:
102,225,46508,2,0,L|147:228,3,46,4|0|0|0,0:0|0:0|0:0|0:0,0:0:0:0:
265,193,46808,6,0,B|288:209|294:239|282:264|282:264|269:289|240:301|214:292|214:292|187:283|172:257|176:229|176:229|178:198|160:168|132:156|132:156|103:143|69:150|48:174|48:174|26:197|22:231|36:259|36:259|52:287|83:302|114:297,1,607.200018530274,0|0,0:0|0:0,0:0:0:0:
265,193,49208,5,4,0:0:0:0:
287,221,49283,1,0,0:0:0:0:
288,258,49358,1,0,0:0:0:0:
263,287,49433,1,0,0:0:0:0:
229,293,49508,1,4,0:0:0:0:
195,275,49583,1,0,0:0:0:0:
160,280,49658,1,0,0:0:0:0:
136,308,49733,1,0,0:0:0:0:
135,344,49808,1,4,0:0:0:0:
159,374,49883,1,0,0:0:0:0:
196,379,49958,1,0,0:0:0:0:
228,361,50033,1,0,0:0:0:0:
240,326,50108,1,4,0:0:0:0:
229,293,50183,1,0,0:0:0:0:
241,258,50258,1,0,0:0:0:0:
273,240,50333,1,0,0:0:0:0:
310,245,50408,6,0,L|307:290,3,46,4|0|0|0,0:0|0:0|0:0|0:0,0:0:0:0:
455,315,50708,2,0,L|458:360,3,46,4|0|0|0,0:0|0:0|0:0|0:0,0:0:0:0:
337,132,51008,2,0,L|340:177,3,46,4|0|0|0,0:0|0:0|0:0|0:0,0:0:0:0:
481,201,51308,2,0,L|484:246,3,46,4|0|0|0,0:0|0:0|0:0|0:0,0:0:0:0:
364,19,51608,6,0,B|342:17|323:32|320:53|320:53|316:74|330:94|350:100|350:100|371:106|392:94|399:74|399:74|407:54|398:32|379:23|379:23|366:17|350:19|338:25|338:25|325:32|315:43|312:57|312:57|313:84|297:109|272:119|272:119|248:129|220:124|200:105|200:105|182:86|177:57|187:33,1,552,0|0,0:0|0:0,0:0:0:0:
306,95,54008,5,4,0:0:0:0:
268,122,54083,1,0,0:0:0:0:
221,119,54158,1,0,0:0:0:0:
188,88,54233,1,0,0:0:0:0:
183,42,54308,1,4,0:0:0:0:
151,10,54383,1,0,0:0:0:0:
105,5,54458,1,0,0:0:0:0:
68,32,54533,1,0,0:0:0:0:
56,76,54608,1,4,0:0:0:0:
75,117,54683,1,0,0:0:0:0:
116,137,54758,1,0,0:0:0:0:
161,125,54833,1,0,0:0:0:0:
203,137,54908,1,4,0:0:0:0:
233,172,54983,1,0,0:0:0:0:
239,218,55058,1,0,0:0:0:0:
220,259,55133,1,0,0:0:0:0:
181,284,55208,5,4,0:0:0:0:
135,283,55283,1,0,0:0:0:0:
97,258,55358,1,0,0:0:0:0:
77,215,55433,1,0,0:0:0:0:
84,171,55508,1,4,0:0:0:0:
116,137,55583,1,0,0:0:0:0:
161,125,55658,1,0,0:0:0:0:
203,137,55733,1,0,0:0:0:0:
233,172,55808,1,4,0:0:0:0:
239,218,55883,1,0,0:0:0:0:
220,259,55958,1,0,0:0:0:0:
226,305,56033,1,0,0:0:0:0:
251,343,56108,1,4,0:0:0:0:
293,364,56183,1,0,0:0:0:0:
338,365,56258,1,0,0:0:0:0:
379,345,56333,1,0,0:0:0:0:
406,306,56408,5,0,0:0:0:0:
