osu file format v14

[General]
AudioFilename: audio.mp3
AudioLeadIn: 0
PreviewTime: -1
Countdown: 0
SampleSet: Soft
StackLeniency: 0.7
Mode: 0
LetterboxInBreaks: 0
WidescreenStoryboard: 0

[Editor]
Bookmarks: 62068,62742,63416,86169,86675,99240,99914,100589
DistanceSpacing: 1.5
BeatDivisor: 4
GridSize: 4
TimelineZoom: 1

[Metadata]
Title:Despacito 2
TitleUnicode:Despacito 2
Artist:FlyingKitty
ArtistUnicode:FlyingKitty
Creator:SunBla
Version:My large Tacho
Source:YT Channel
Tags:Despacito
BeatmapID:1746907
BeatmapSetID:833931

[Difficulty]
HPDrainRate:0.5
CircleSize:4
OverallDifficulty:9
ApproachRate:9
SliderMultiplier:3.59999990463257
SliderTickRate:1

[Events]
//Background and Video events
0,0,"d2.jpg",0,0
//Break Periods
//Storyboard Layer 0 (Background)
//Storyboard Layer 1 (Fail)
//Storyboard Layer 2 (Pass)
//Storyboard Layer 3 (Foreground)
//Storyboard Sound Samples

[TimingPoints]
9484,674.157303370787,4,2,0,50,1,0
9652,-100,4,2,0,50,0,0
13697,-66.6666666666667,4,2,0,50,0,0
16057,-100,4,2,0,50,0,0
16562,-66.6666666666667,4,2,0,50,0,0
21281,-83.3333333333333,4,2,0,50,0,0
26010,-26.3157894736842,4,2,0,50,0,0
26843,-83.3333333333333,4,2,0,50,0,0
30719,-45.4545454545455,4,2,0,50,0,0
32236,-83.3333333333333,4,2,0,50,0,0
35439,-25,4,2,0,50,0,0
38135,-25,4,2,0,50,0,0
41506,-1000,4,2,0,50,0,0
42349,-25,4,2,0,50,0,0
42644,-1000,4,2,0,50,0,0
43360,-25,4,2,0,50,0,0
43655,-1000,4,2,0,50,0,0
44203,-58.8235294117647,4,2,0,50,0,0
46899,-83.3333333333333,4,2,0,50,0,0
47573,-58.8235294117647,4,2,0,50,0,0
52292,-25,4,2,0,50,0,0
52798,-66.6666666666667,4,2,0,50,0,0
58360,-250,4,2,0,50,0,0
58697,-25,4,2,0,50,0,0
62068,-43.4782608695652,4,2,0,50,0,0
62784,-37.037037037037,4,2,0,50,0,0
63374,-43.4782608695652,4,2,0,50,0,0
65607,-33.3333333333333,4,2,0,50,0,0
69821,-25,4,2,0,50,0,0
70326,-52.6315789473684,4,2,0,50,0,0
74072,-66.6666666666667,4,2,0,50,0,0
79933,-32.258064516129,4,2,0,50,0,0
81618,-76.9230769230769,4,2,0,50,0,0
82292,-25,4,2,0,50,0,0
87443,674.157303370787,4,2,0,50,1,0
87443,-37.037037037037,4,2,0,50,0,0
97976,-1000,4,2,0,50,0,0
99240,-43.4782608695652,4,2,0,50,0,0
99957,-37.037037037037,4,2,0,50,0,0
100631,-27.7777777777778,4,2,0,30,0,0
101052,-25,4,2,0,30,0,0

[HitObjects]
102,184,10158,6,2,P|128:271|213:273,1,179.999995231628
223,78,10663,2,2,P|242:130|243:188,1,89.9999976158142
298,317,11000,2,2,P|348:377|385:299,1,179.999995231628
387,209,11506,1,2,0:0:0:0:
374,19,12180,1,2,0:0:0:0:
207,133,12686,6,2,P|178:120|171:116,1,22.4999994039536,2|0,0:0|0:0,0:0:0:0:
207,145,12770,2,2,P|176:136|168:133,1,22.4999994039536,2|0,0:0|0:0,0:0:0:0:
208,158,12854,2,2,P|176:159|168:158,1,22.4999994039536,2|0,0:0|0:0,0:0:0:0:
214,168,12939,2,2,P|182:173|174:174,1,22.4999994039536,2|0,0:0|0:0,0:0:0:0:
214,168,13023,2,2,P|215:199|214:207,1,22.4999994039536,2|0,0:0|0:0,0:0:0:0:
224,162,13107,2,2,P|229:193|230:201,1,22.4999994039536,2|0,0:0|0:0,0:0:0:0:
235,155,13191,2,2,P|249:183|252:190,1,22.4999994039536,2|0,0:0|0:0,0:0:0:0:
242,146,13276,2,2,P|261:171|265:178,1,22.4999994039536,2|0,0:0|0:0,0:0:0:0:
105,8,13528,5,2,0:0:0:0:
0,119,13866,2,0,P|12:216|78:110,1,270.000003147125
175,245,14203,2,0,B|181:122|181:122|281:253|281:253|281:114|281:114,1,405.000004720688
382,147,14371,2,0,P|368:198|394:135,1,405.000004720688
172,67,14877,1,2,0:0:0:0:
304,179,15045,2,2,P|279:82|395:124,1,270.000003147125
512,290,15551,2,2,P|584:269|874:211,1,270.000003147125
146,293,16057,2,2,P|136:138|353:40,1,359.999990463257
122,205,16225,2,0,P|80:167|159:110,1,179.999995231629
206,57,16562,2,2,P|260:85|286:20,1,135.000001573563
406,119,16899,2,2,P|377:189|316:220,1,135.000001573563
82,308,17236,5,8,0:0:0:0:
193,121,17405,1,8,0:0:0:0:
344,330,17573,5,8,0:0:0:0:
44,207,17742,1,8,0:0:0:0:
256,93,17910,5,8,0:0:0:0:
199,298,18079,1,8,0:0:0:0:
438,78,18248,5,10,0:0:0:0:
493,267,18416,1,10,0:0:0:0:
138,52,18585,5,10,0:0:0:0:
482,105,18753,1,10,0:0:0:0:
164,318,18922,5,10,0:0:0:0:
322,33,19090,1,10,0:0:0:0:
45,303,19259,5,10,0:0:0:0:
161,101,19427,1,10,0:0:0:0:
249,282,19596,5,10,0:0:0:0:
129,4,19764,1,10,0:0:0:0:
384,148,19933,6,10,B|440:144|440:144|441:94|441:94|386:93|386:93|382:149|382:149|284:237|284:237|303:257|303:257|325:279,1,405.000004720688,10|2,0:0|0:0,0:0:0:0:
184,300,19933,6,10,B|186:356|186:356|235:358|235:358|238:303|238:303|183:297|183:297|98:196|98:196|77:215|77:215|55:236,1,405.000004720688,10|2,0:0|0:0,0:0:0:0:
135,76,19933,6,10,B|119:22|119:22|70:31|70:31|80:85|80:85|136:77|136:77|242:155|242:155|258:132|258:132|275:106,1,405.000004720688,10|2,0:0|0:0,0:0:0:0:
463,231,20776,5,2,0:0:0:0:
328,329,20944,1,2,0:0:0:0:
395,126,21113,1,2,0:0:0:0:
261,292,21281,2,2,P|162:265|112:149,1,215.999987686158
159,25,21787,5,2,0:0:0:0:
441,29,21955,5,2,0:0:0:0:
107,303,22124,1,2,0:0:0:0:
512,290,22292,5,2,0:0:0:0:
100,62,22461,1,2,0:0:0:0:
224,337,22630,2,2,P|298:304|289:159,1,215.999987686158
274,85,23135,2,2,P|338:78|438:196,1,215.999987686158
92,279,23641,2,0,B|98:77|98:77|223:100|106:202,1,323.999981529237
233,61,23641,2,0,B|234:294|234:294|279:313|329:288|363:280,1,323.999981529237
483,66,23641,2,0,B|288:109|433:202|654:157|344:336|387:269,1,323.999981529237
221,116,24315,5,2,0:0:0:0:
446,158,24484,1,2,0:0:0:0:
198,255,24652,5,2,0:0:0:0:
412,322,24821,1,2,0:0:0:0:
201,44,24989,5,2,0:0:0:0:
282,236,25158,1,2,0:0:0:0:
83,191,25326,2,2,P|50:116|161:54,1,215.999987686158
337,74,26000,2,0,P|685:-52|688:-43,1,539.999969215394
73,217,26337,2,0,B|48:171|6:194|19:233|75:213|124:203|186:226|137:290|61:309|53:225|67:192|106:164|129:154|155:124|172:85|202:2,1,341.999981807709
413,293,27012,5,2,0:0:0:0:
413,293,27349,2,2,P|334:353|215:311,1,215.999987686158
8,335,27854,2,2,P|83:234|46:134,1,215.999987686158
14,9,28360,5,2,0:0:0:0:
257,174,28528,1,2,0:0:0:0:
33,273,28697,5,2,0:0:0:0:
273,77,28866,1,2,0:0:0:0:
299,351,29034,5,2,0:0:0:0:
378,134,29203,1,2,0:0:0:0:
256,192,29371,12,8,30382,0:0:0:0:
300,69,30719,6,2,B|142:69|142:69|142:192|142:192|264:192|264:192|141:192|141:192|141:308|141:308|405:308|405:308,1,792.000003189087,2|2,0:0|0:0,0:0:0:0:
408,107,31562,5,2,0:0:0:0:
321,323,31731,1,2,0:0:0:0:
171,30,31899,5,2,0:0:0:0:
221,250,32068,1,2,0:0:0:0:
9,164,32236,1,2,0:0:0:0:
152,357,32405,2,2,P|36:315|27:226,1,215.999987686158
0,108,32910,2,2,P|34:122|110:101,1,107.999993843079
395,121,33248,2,0,B|339:98|248:245|411:328|427:337|427:337|551:222|508:127|400:109|400:109|407:67|419:49,1,647.999963058473
221,233,34427,2,0,B|213:248|232:276|245:259|245:251|210:222|221:144|278:132|320:167|277:244|223:217|157:202|81:152|46:149,1,323.999981529237
47,283,35439,6,8,B|128:235|128:235|28:238|28:238|107:327|107:327|79:211|79:211|37:349|37:349|170:272|170:272,1,719.999980926514,8|0,0:0|0:0,0:0:0:0:
116,149,36113,6,8,B|6:121|6:121|-212:-252,1,359.999990463257,8|0,0:0|0:0,0:0:0:0:
292,98,36450,6,8,B|288:30|288:30|651:-145,1,359.999990463257,8|0,0:0|0:0,0:0:0:0:
381,313,36787,6,8,B|192:302|192:302|104:588,1,359.999990463257,8|0,0:0|0:0,0:0:0:0:
478,197,37124,6,8,B|426:68|522:226|709:-34,1,359.999990463257,8|0,0:0|0:0,0:0:0:0:
174,318,37461,6,8,B|-7:470|-7:471|-153:570,1,359.999990463257,8|0,0:0|0:0,0:0:0:0:
361,71,37798,6,8,P|205:126|235:289,1,359.999990463257,8|0,0:0|0:0,0:0:0:0:
0,407,38135,2,0,B|691:404|691:404|383:-82,1,1439.99996185303
12,22,38809,2,0,B|124:208|124:208|242:153|226:69|63:111|63:104|63:104|149:65|144:-76|7:-27|39:45,1,719.999980926514
369,41,38809,2,0,P|326:111|369:57,1,359.999990463257
270,267,39990,5,2,0:0:0:0:
380,321,40158,1,2,0:0:0:0:
88,57,40495,5,2,0:0:0:0:
287,101,40832,5,2,0:0:0:0:
178,253,41000,1,2,0:0:0:0:
369,348,41506,6,2,L|392:334,1,26.9999992847443
366,78,42180,6,10,L|367:80,1,2.24999994039536
263,297,42349,2,12,B|221:265|221:265|269:253|269:253|262:298|262:298,1,89.9999976158143
123,160,42517,2,10,P|120:128|136:162,1,89.9999976158143
39,345,42686,2,6,L|41:343,1,2.24999994039536
377,65,43191,6,6,L|377:62,1,2.24999994039536
147,0,43360,2,6,L|93:-71,1,89.9999976158143
480,318,43528,6,10,L|503:404,1,89.9999976158143
286,260,43697,2,14,L|284:261,1,2.24999994039536
444,136,43866,2,12,L|446:136,1,2.24999994039536
297,32,44034,2,10,L|299:29,1,4.49999988079071
165,100,44203,6,2,B|85:100|85:100|85:181|85:181|152:181|152:181|85:181|85:181|85:269|85:269|165:269|165:269,1,458.999996595383
311,73,44877,5,10,0:0:0:0:
408,276,45045,1,10,0:0:0:0:
500,19,45214,5,10,0:0:0:0:
495,259,45382,1,10,0:0:0:0:
243,193,45551,5,10,0:0:0:0:
419,101,45719,1,10,0:0:0:0:
492,338,45888,5,10,0:0:0:0:
211,288,46057,1,10,0:0:0:0:
343,176,46225,6,10,P|261:101|145:93,1,152.999998865128,10|0,0:0|0:0,0:0:0:0:
62,263,46562,2,10,P|109:160|91:84,1,152.999998865128,10|0,0:0|0:0,0:0:0:0:
223,272,46899,6,10,B|210:260|192:269|202:290|229:288|263:278|328:279|275:354|169:362|226:278|249:259|283:240|296:216|314:182,1,215.999987686158,10|0,0:0|0:0,0:0:0:0:
115,61,47573,5,10,0:0:0:0:
16,245,47742,1,10,0:0:0:0:
272,117,47910,5,10,0:0:0:0:
239,328,48079,1,10,0:0:0:0:
452,138,48248,5,10,0:0:0:0:
419,339,48416,1,10,0:0:0:0:
60,215,48585,5,10,0:0:0:0:
417,148,48753,1,10,0:0:0:0:
62,93,48922,5,10,0:0:0:0:
430,32,49090,1,10,0:0:0:0:
86,3,49259,1,10,0:0:0:0:
262,55,49427,2,0,B|236:187|271:284|271:284|298:188|267:52,1,458.999996595383
240,0,49596,2,0,B|156:191|270:363|270:363|355:181|262:-28|262:-25,1,764.999994325638
53,105,50607,5,6,0:0:0:0:
413,160,50944,5,6,0:0:0:0:
106,278,51281,5,6,0:0:0:0:
293,76,51618,5,6,0:0:0:0:
462,300,51955,5,6,0:0:0:0:
46,34,52292,6,10,B|128:-6|128:-6|-16:-12|-16:-12|44:122|44:122|128:-6|128:-6|-16:-12|-16:-12|37:113|37:113,1,719.999980926514
51,132,52967,5,10,0:0:0:0:
250,343,53135,1,10,0:0:0:0:
358,37,53304,5,10,0:0:0:0:
402,321,53472,1,10,0:0:0:0:
89,91,53641,5,10,0:0:0:0:
459,204,53809,1,10,0:0:0:0:
73,314,53978,5,10,0:0:0:0:
436,99,54146,1,10,0:0:0:0:
285,320,54315,5,10,0:0:0:0:
373,146,54484,1,10,0:0:0:0:
151,299,54652,5,10,0:0:0:0:
140,34,54821,1,10,0:0:0:0:
415,258,54989,5,10,0:0:0:0:
226,274,55663,5,10,0:0:0:0:
370,146,55832,1,10,0:0:0:0:
325,299,56000,5,10,0:0:0:0:
298,62,56169,1,10,0:0:0:0:
431,276,56337,5,10,0:0:0:0:
240,161,56506,2,10,P|169:110|64:111,1,135.000001573563,10|14,0:0|0:0,0:0:0:0:
15,328,56843,5,10,0:0:0:0:
185,38,57012,1,10,0:0:0:0:
297,296,57180,5,10,0:0:0:0:
230,6,57349,1,10,0:0:0:0:
508,347,57601,5,10,0:0:0:0:
79,270,58360,6,2,L|289:159,1,215.999994277954
143,236,58697,2,10,B|138:113|138:113|244:186|244:186|144:239|144:239|139:110|139:110|244:186|244:186|110:185|110:185,1,719.999980926514
256,258,59792,6,2,P|211:223|296:269,1,719.999980926514,2|0,0:0|0:0,0:0:0:0:
256,258,59835,2,2,P|211:223|296:269,1,719.999980926514,2|0,0:0|0:0,0:0:0:0:
256,258,59877,2,2,P|211:223|296:269,1,719.999980926514,2|0,0:0|0:0,0:0:0:0:
256,258,59919,2,2,P|211:223|296:269,1,719.999980926514,2|0,0:0|0:0,0:0:0:0:
256,258,59961,2,2,P|211:223|296:269,1,719.999980926514,2|0,0:0|0:0,0:0:0:0:
256,258,60003,2,2,P|211:223|296:269,1,719.999980926514,2|0,0:0|0:0,0:0:0:0:
256,258,60045,2,2,P|211:223|296:269,1,719.999980926514,2|0,0:0|0:0,0:0:0:0:
256,258,60087,2,2,P|211:223|296:269,1,719.999980926514,2|0,0:0|0:0,0:0:0:0:
256,258,60130,2,2,P|211:223|296:269,1,719.999980926514,2|0,0:0|0:0,0:0:0:0:
256,258,60172,2,2,P|211:223|296:269,1,719.999980926514,2|0,0:0|0:0,0:0:0:0:
256,258,60214,2,2,P|211:223|296:269,1,719.999980926514,2|0,0:0|0:0,0:0:0:0:
256,258,60256,2,2,P|211:223|296:269,1,719.999980926514,2|0,0:0|0:0,0:0:0:0:
256,258,60298,2,2,P|211:223|296:269,1,719.999980926514,2|0,0:0|0:0,0:0:0:0:
256,258,60340,2,2,P|211:223|296:269,1,719.999980926514,2|0,0:0|0:0,0:0:0:0:
256,258,60382,2,2,P|211:223|296:269,1,719.999980926514,2|0,0:0|0:0,0:0:0:0:
256,258,60425,2,2,P|211:223|296:269,1,719.999980926514,2|0,0:0|0:0,0:0:0:0:
256,258,60467,2,2,P|211:223|296:269,1,719.999980926514,2|0,0:0|0:0,0:0:0:0:
256,258,60509,2,2,P|211:223|296:269,1,719.999980926514,2|0,0:0|0:0,0:0:0:0:
447,62,62068,6,8,B|340:62|340:62|342:175|342:175|431:175|431:175|343:175|343:175|341:293|341:293|501:293|501:293,1,620.999995393753,8|0,0:0|0:0,0:0:0:0:
86,68,62068,2,8,B|89:293|89:293|300:255|284:20|-26:74,1,620.999995393753,8|0,0:0|0:0,0:0:0:0:
141,59,62742,2,8,B|-73:16|-88:106|-3:197|153:182|179:276|126:379|-78:330|-148:231,1,620.999995393753,8|0,0:0|0:0,0:0:0:0:
192,350,62742,2,8,B|221:42|221:42|416:68|371:212|240:183,1,620.999995393753,8|0,0:0|0:0,0:0:0:0:
391,314,62784,2,8,B|480:73|480:73|531:326|531:326|513:233|513:233|407:232,1,668.249984846592,8|0,0:0|0:0,0:0:0:0:
157,78,63585,2,8,B|157:174|157:174|174:229|268:218|276:163|276:162|276:162|276:86|276:86|277:239,1,449.999988079071,8|0,0:0|0:0,0:0:0:0:
92,0,63585,2,8,B|51:-34|41:18|41:18|41:207|41:207|41:65|41:65|-4:66|-4:66|119:65,1,539.999985694885,8|0,0:0|0:0,0:0:0:0:
453,75,63585,2,8,P|350:153|482:189,2,314.99999165535,8|0|8,0:0|0:0|0:0,0:0:0:0:
512,0,63585,2,8,B|539:224|539:224|635:113|635:113|584:172|584:172|641:245|641:245,1,539.999985694885,8|0,0:0|0:0,0:0:0:0:
268,126,64428,5,10,0:0:0:0:
156,361,64596,1,10,0:0:0:0:
43,26,64765,5,10,0:0:0:0:
167,243,64933,1,10,0:0:0:0:
280,14,65102,5,10,0:0:0:0:
20,365,65270,1,10,0:0:0:0:
169,258,65776,2,2,P|70:142|172:45,1,270.000003147125
304,165,66113,5,8,0:0:0:0:
255,0,66787,5,8,0:0:0:0:
150,145,66955,1,8,0:0:0:0:
228,173,67292,5,8,0:0:0:0:
316,30,67461,1,8,0:0:0:0:
329,132,67629,5,8,0:0:0:0:
207,53,67798,1,8,0:0:0:0:
361,200,67967,5,8,0:0:0:0:
404,163,68051,1,8,0:0:0:0:
373,235,68135,1,8,0:0:0:0:
459,172,68219,1,8,0:0:0:0:
394,286,68304,1,8,0:0:0:0:
507,183,68388,1,8,0:0:0:0:
395,330,68472,1,8,0:0:0:0:
464,225,68556,1,8,0:0:0:0:
398,377,68641,1,8,0:0:0:0:
411,265,68725,1,8,0:0:0:0:
355,279,68809,6,0,P|235:320|94:228,1,270.000003147125,2|0,0:0|0:0,0:0:0:0:
371,213,69146,2,0,P|229:208|126:104,1,270.000003147125,2|0,0:0|0:0,0:0:0:0:
398,150,69484,2,0,P|259:87|206:-12,1,270.000003147125,2|0,0:0|0:0,0:0:0:0:
91,0,69821,6,0,B|50:-34|40:17|40:17|40:207|40:207|40:64|40:64|-4:65|-4:65|118:64,1,539.999985694885,8|0,0:0|0:0,0:0:0:0:
460,177,69821,2,0,B|463:286|463:286|490:407|638:380|609:273|609:185|609:185|609:388|609:388,1,629.9999833107,8|0,0:0|0:0,0:0:0:0:
452,74,69821,2,0,P|350:153|482:189,2,269.999992847443,8|0|8,0:0|0:0|0:0,0:0:0:0:
156,77,69821,2,0,B|156:174|156:174|174:229|268:218|276:163|276:162|276:162|276:85|276:85|277:239,1,449.999988079071,8|0,0:0|0:0,0:0:0:0:
512,0,69821,2,0,B|539:223|539:223|635:112|635:112|584:171|584:171|641:245|641:245,1,539.999985694885,8|0,0:0|0:0,0:0:0:0:
50,181,69821,2,0,B|128:307|183:187|183:187|182:374|141:393|63:392|-180:350,1,629.9999833107,8|0,0:0|0:0,0:0:0:0:
359,204,69821,2,0,P|243:281|385:226,1,449.999988079071,8|0,0:0|0:0,0:0:0:0:
392,86,70326,5,10,0:0:0:0:
285,206,70495,1,10,0:0:0:0:
83,160,70663,1,10,0:0:0:0:
4,17,70832,1,10,0:0:0:0:
9,177,71000,6,10,P|20:264|89:338,1,170.999990903855
235,322,71337,2,0,B|278:152|278:152|345:306|345:306|416:156|416:156|467:364|467:364,1,683.999963615419
256,50,72517,5,10,0:0:0:0:
491,296,73191,1,10,0:0:0:0:
66,291,73866,1,10,0:0:0:0:
375,102,74540,6,10,P|350:181|265:209,1,135.000001573563
167,157,74877,2,10,P|164:279|234:333,1,135.000001573563
247,56,75214,1,10,0:0:0:0:
470,120,75888,6,10,P|418:167|414:260,1,135.000001573563,10|2,0:0|0:0,0:0:0:0:
500,361,76225,2,10,P|430:380|356:354,1,135.000001573563,10|2,0:0|0:0,0:0:0:0:
32,148,76562,1,10,0:0:0:0:
287,204,76899,1,10,0:0:0:0:
61,292,77236,5,10,0:0:0:0:
294,82,77405,1,10,0:0:0:0:
341,329,77573,5,10,0:0:0:0:
412,38,77742,1,10,0:0:0:0:
497,215,77910,5,10,0:0:0:0:
179,315,78079,1,10,0:0:0:0:
301,36,78248,5,10,0:0:0:0:
289,335,78416,1,10,0:0:0:0:
59,21,78585,5,10,0:0:0:0:
506,328,78922,1,10,0:0:0:0:
171,249,79259,2,2,P|54:246|137:202,1,270.000003147125
371,294,79933,6,2,P|257:265|200:217,1,139.499997368813
23,215,80101,2,2,P|118:139|136:67,1,139.499997368813
259,16,80270,2,2,P|300:86|388:107,1,139.499997368813
428,75,80607,5,8,0:0:0:0:
60,342,80944,1,8,0:0:0:0:
173,5,81281,1,8,0:0:0:0:
421,290,81618,6,2,P|386:161|210:299,1,350.999974634172
210,203,82461,2,10,P|313:130|403:318,2,359.999990463257,10|2|10,0:0|0:0|0:0,0:0:0:0:
155,237,82967,6,10,B|-15:77|23:243|-136:44,1,359.999990463257,10|2,0:0|0:0,0:0:0:0:
347,232,83304,2,10,B|269:40|212:172|202:-82,1,359.999990463257,10|2,0:0|0:0,0:0:0:0:
351,335,83641,2,10,B|423:230|423:230|448:354|448:354|349:338|349:338|422:233,1,359.999990463257,10|2,0:0|0:0,0:0:0:0:
157,334,83978,2,10,B|196:212|196:212|252:337|252:337|154:337|154:337,1,359.999990463257,10|2,0:0|0:0,0:0:0:0:
256,192,84315,12,4,84357,0:0:0:0:
256,192,84399,12,4,84441,0:0:0:0:
256,192,84484,12,4,84526,0:0:0:0:
256,192,84568,12,4,84610,0:0:0:0:
197,89,84736,5,10,0:0:0:0:
130,310,84904,1,10,0:0:0:0:
281,27,85073,5,10,0:0:0:0:
411,274,85241,1,10,0:0:0:0:
0,213,85410,5,8,0:0:0:0:
191,74,85579,1,8,0:0:0:0:
228,301,85832,5,8,0:0:0:0:
350,233,86000,5,8,0:0:0:0:
350,233,86085,1,8,0:0:0:0:
350,233,86169,1,8,0:0:0:0:
350,233,86253,1,8,0:0:0:0:
350,233,86337,1,8,0:0:0:0:
350,233,86422,1,8,0:0:0:0:
350,233,86506,1,8,0:0:0:0:
36,92,86675,5,10,0:0:0:0:
351,152,86843,1,10,0:0:0:0:
83,305,87012,5,10,0:0:0:0:
324,57,87180,1,10,0:0:0:0:
188,283,87443,6,2,B|176:244|142:245|130:276|177:284|282:295|240:333|190:353|182:330|176:273|210:236|281:209|356:186,1,242.99999448967
322,33,87780,2,2,B|334:72|368:71|380:40|333:32|228:21|270:-17|320:-37|328:-14|334:43|300:80|229:107|154:130,1,242.99999448967
0,105,88117,2,2,B|39:93|38:59|7:47|-1:94|-12:199|-50:157|-70:107|-47:99|10:93|47:127|74:198|97:273,1,242.99999448967
512,255,88454,2,2,B|473:267|474:301|505:313|513:266|524:161|562:203|582:253|559:261|502:267|465:233|438:162|415:87,1,242.99999448967
72,73,89044,5,10,0:0:0:0:
214,312,89212,1,10,0:0:0:0:
419,40,89381,5,10,0:0:0:0:
323,248,89550,1,10,0:0:0:0:
167,19,89718,5,10,0:0:0:0:
426,210,89887,1,10,0:0:0:0:
46,143,90139,2,10,P|14:243|166:317,1,242.99999448967,10|2,0:0|0:0,0:0:0:0:
303,189,90476,2,0,B|220:244|237:299|301:300|352:279|355:272|431:200|431:200|394:16|397:12|397:12|392:8|310:21|310:21|323:167|323:167|282:201,1,728.99998346901
30,62,90813,2,0,B|-50:2|-95:37|-74:98|-37:138|-30:139|63:186|63:186|223:88|228:89|228:89|230:83|190:11|190:11|57:73|57:73|11:46,1,728.99998346901
52,384,91150,2,0,B|49:483|104:501|141:449|153:395|149:389|134:285|134:285|-37:210|-39:205|-39:205|-45:207|-81:281|-81:281|45:354|45:354|49:408,1,728.99998346901
452,300,91487,2,0,B|379:231|329:260|343:323|375:367|382:369|470:427|470:427|641:349|645:351|645:351|648:346|617:269|617:269|477:314|477:314|435:282,1,728.99998346901
473,97,91909,6,2,P|364:159|367:271,1,242.99999448967
443,56,91993,2,2,P|320:132|315:250,1,242.99999448967
408,18,92162,2,2,P|298:77|268:203,1,242.99999448967
186,348,92499,1,10,0:0:0:0:
56,32,92836,1,10,0:0:0:0:
244,101,93847,5,10,0:0:0:0:
189,262,94016,1,10,0:0:0:0:
337,48,94184,5,10,0:0:0:0:
391,209,94353,1,10,0:0:0:0:
34,340,94690,5,10,0:0:0:0:
219,271,95111,6,2,P|237:163|357:119,1,242.99999448967,2|0,0:0|0:0,0:0:0:0:
0,388,95364,2,0,L|691:-78,1,971.99997795868
215,150,96544,5,2,0:0:0:0:
129,231,96712,1,2,0:0:0:0:
31,320,96881,1,2,0:0:0:0:
129,231,97049,1,2,0:0:0:0:
129,231,97218,1,2,0:0:0:0:
215,150,97386,2,2,L|125:237,1,121.499997244835
317,53,97723,1,2,0:0:0:0:
430,317,98060,6,2,P|436:291|440:273,1,44.9999988079071
426,71,99240,6,0,B|319:71|319:71|321:184|321:184|410:184|410:184|322:184|322:184|320:302|320:302|480:302|480:302,1,620.999995393753,2|0,0:0|0:0,0:0:0:0:
66,75,99240,2,0,B|68:302|68:302|279:264|263:29|-47:83,1,620.999995393753,2|2,0:0|0:0,0:0:0:0:
141,59,99914,2,0,B|-73:16|-88:106|-3:197|153:182|179:276|126:379|-78:330|-148:231,1,620.999995393753,2|0,0:0|0:0,0:0:0:0:
192,350,99914,2,0,B|221:42|221:42|416:68|371:212|240:183,1,620.999995393753,2|0,0:0|0:0,0:0:0:0:
391,314,99956,2,0,B|480:73|480:73|531:326|531:326|513:233|513:233|407:232,1,668.249984846592,2|0,0:0|0:0,0:0:0:0:
44,99,100589,2,0,P|-134:179|38:284,1,485.99998897934,2|14,0:0|0:0,0:0:0:0:
144,108,100589,2,0,L|144:383,2,242.99999448967,2|0|2,0:0|0:0|0:0,0:0:0:0:
391,314,100631,2,0,P|357:272|431:333,1,647.999963058473,2|14,0:0|0:0,0:0:0:0:
146,30,100631,2,0,B|366:30|366:30|255:30|255:30|255:344,1,566.999967676164,2|14,0:0|0:0,0:0:0:0:
