osu file format v14

[General]
AudioFilename: audio.mp3
AudioLeadIn: 0
PreviewTime: -1
Countdown: 0
SampleSet: None
StackLeniency: 0
Mode: 0
LetterboxInBreaks: 0
WidescreenStoryboard: 0

[Editor]
Bookmarks: 12156,28161,52852,56268,59391,62514,95695
DistanceSpacing: 3.2
BeatDivisor: 8
GridSize: 16
TimelineZoom: 3.499999

[Metadata]
Title:Nose Art
TitleUnicode:Nose Art
Artist:Flying Lotus
ArtistUnicode:Flying Lotus
Creator:B1oody
Version:1nsane
Source:
Tags:Electronic Abstract Future Jazz IDM HipHop Downtempo Experimental
BeatmapID:1493072
BeatmapSetID:706009

[Difficulty]
HPDrainRate:7
CircleSize:4.9
OverallDifficulty:8
ApproachRate:5.9
SliderMultiplier:2.99999990463257
SliderTickRate:1

[Events]
//Background and Video events
0,0,"1438315338597.jpg",0,0
//Break Periods
//Storyboard Layer 0 (Background)
//Storyboard Layer 1 (Fail)
//Storyboard Layer 2 (Pass)
//Storyboard Layer 3 (Foreground)
//Storyboard Sound Samples

[TimingPoints]
55,390.370852309694,4,3,0,50,1,0
3177,-94.3396226415094,4,3,0,50,0,0
6300,-133.333333333333,4,3,0,50,0,0
9814,-94.3396226415094,4,3,0,50,0,0
31675,-117.647058823529,4,3,0,50,0,0

[HitObjects]
96,224,55,6,0,P|96:288|192:320,1,149.999995231629
231,278,445,2,0,P|223:298|197:350,2,74.9999976158143
160,256,786,6,0,P|160:192|64:160,1,149.999995231629
96,224,1226,1,0,0:0:0:0:
96,224,1420,1,0,0:0:0:0:
352,96,1616,6,0,P|352:160|448:192,1,149.999995231629
352,96,2006,1,0,0:0:0:0:
352,96,2201,1,0,0:0:0:0:
416,128,2396,6,0,P|416:64|320:32,1,149.999995231629
347,24,2786,1,0,0:0:0:0:
347,24,2981,1,0,0:0:0:0:
256,224,3177,6,0,P|151:224|96:224,1,158.999995188141
97,224,3568,1,0,0:0:0:0:
96,320,3763,1,0,0:0:0:0:
96,320,3958,6,0,P|122:319|256:320,1,158.999995188141
352,320,4349,1,0,0:0:0:0:
255,320,4544,1,0,0:0:0:0:
255,320,4739,6,0,P|253:273|256:128,1,158.999995188141
254,161,5130,1,0,0:0:0:0:
352,318,5325,1,0,0:0:0:0:
352,160,5520,6,0,P|353:195|352:352,1,158.999995188141
352,160,5911,1,0,0:0:0:0:
255,320,6105,1,0,0:0:0:0:
96,320,6300,6,0,B|0:320|0:192|0:192|96:192|151:250|151:250|96:128|192:64|192:64|288:64|320:128|313:229|313:229|352:256|352:288|352:352,2,900.000005722047
64,128,9814,5,0,0:0:0:0:
384,192,10204,5,0,0:0:0:0:
96,320,10595,5,0,0:0:0:0:
272,176,10985,5,0,0:0:0:0:
320,320,11375,5,0,0:0:0:0:
208,272,11766,5,0,0:0:0:0:
128,64,12156,5,0,0:0:0:0:
160,128,12351,1,0,0:0:0:0:
224,96,12546,2,0,B|228:87|276:74|381:111,1,158.999995188141
384,192,12937,1,0,0:0:0:0:
377,109,13132,1,0,0:0:0:0:
384,192,13327,6,0,P|416:256|336:256,1,158.999995188141
480,288,13718,1,0,0:0:0:0:
350,272,13913,1,0,0:0:0:0:
256,224,14108,6,0,B|224:192|96:224|96:224,1,158.999995188141
32,256,14499,1,0,0:0:0:0:
101,222,14694,1,0,0:0:0:0:
160,128,14889,6,0,B|224:128|224:64|256:64|320:64,1,158.999995188141
299,64,15279,1,0,0:0:0:0:
384,64,15475,1,0,0:0:0:0:
320,288,15669,6,0,P|298:203|273:120,1,158.999995188141
230,206,16060,1,0,0:0:0:0:
351,150,16255,1,0,0:0:0:0:
230,206,16450,6,0,P|166:270|230:302,1,158.999995188141
320,288,16840,1,0,0:0:0:0:
198,302,17036,1,0,0:0:0:0:
96,160,17231,6,0,B|98:96|160:95|196:71|223:65,1,158.999995188141
212,69,17621,1,0,0:0:0:0:
288,64,17816,1,0,0:0:0:0:
464,32,18012,6,0,B|432:112|471:141|431:202,1,158.999995188141
400,240,18402,1,0,0:0:0:0:
352,32,18597,5,0,0:0:0:0:
320,288,18792,2,0,P|256:320|160:320,1,158.999995188141
96,288,19183,1,0,0:0:0:0:
96,288,19378,1,0,0:0:0:0:
32,160,19573,6,0,P|110:160|182:194,1,158.999995188141
224,256,19963,1,0,0:0:0:0:
224,256,20159,1,0,0:0:0:0:
256,128,20354,6,0,P|96:128|128:192,1,317.999990376282
352,224,20939,1,0,0:0:0:0:
416,256,21135,6,0,P|331:277|96:320,1,317.999990376282
416,256,21720,1,0,0:0:0:0:
128,64,21915,6,0,B|64:96|96:192|96:192|32:288|128:384,1,317.999990376282
480,64,22696,6,0,P|320:192|224:96,1,317.999990376282
256,245,23477,6,0,P|160:309|224:213,1,317.999990376282
202,267,24257,5,0,0:0:0:0:
240,48,24843,5,0,0:0:0:0:
202,267,25038,1,0,0:0:0:0:
144,160,25624,5,0,0:0:0:0:
368,272,25819,1,0,0:0:0:0:
256,192,26209,12,0,26599,0:0:0:0:
256,192,26990,12,0,27380,0:0:0:0:
256,192,27966,5,0,0:0:0:0:
256,176,28161,5,0,0:0:0:0:
256,208,28356,1,0,0:0:0:0:
272,192,28552,1,0,0:0:0:0:
240,192,28747,1,0,0:0:0:0:
256,128,28942,5,0,0:0:0:0:
320,192,29137,1,0,0:0:0:0:
256,256,29333,1,0,0:0:0:0:
192,192,29528,1,0,0:0:0:0:
256,112,29723,5,0,0:0:0:0:
176,192,29918,1,0,0:0:0:0:
256,272,30113,1,0,0:0:0:0:
336,192,30308,1,0,0:0:0:0:
192,96,30503,5,0,0:0:0:0:
320,96,30699,1,0,0:0:0:0:
256,288,30894,1,0,0:0:0:0:
304,32,31089,5,0,0:0:0:0:
240,352,31284,1,0,0:0:0:0:
192,161,31675,6,0,L|192:98,1,63.7499991893769
128,223,31870,2,0,L|128:287,1,63.7499991893769
128,97,32065,2,0,L|128:176,1,63.7499991893769
256,288,32309,6,0,L|256:224,1,63.7499991893769
192,224,32455,2,0,L|192:305,1,63.7499991893769
192,161,32699,2,0,L|192:97,1,63.7499991893769
287,97,32845,2,0,L|174:97,1,95.6249987840653
256,161,33138,6,0,L|320:161,1,63.7499991893769
320,288,33334,2,0,L|384:288,1,63.7499991893769
320,161,33529,2,0,L|320:225,2,63.7499991893769
384,288,33919,6,0,L|384:224,1,63.7499991893769
320,96,34066,2,0,L|320:176,1,63.7499991893769
383,96,34212,2,0,L|384:160,1,63.7499991893769
384,32,34407,5,0,0:0:0:0:
448,64,34602,1,0,0:0:0:0:
448,128,34798,1,0,0:0:0:0:
448,64,34993,1,0,0:0:0:0:
448,288,35188,5,0,0:0:0:0:
352,352,35383,1,0,0:0:0:0:
416,352,35579,1,0,0:0:0:0:
416,352,35774,1,0,0:0:0:0:
352,128,35969,5,0,0:0:0:0:
352,256,36164,1,0,0:0:0:0:
384,192,36360,1,0,0:0:0:0:
288,192,36555,1,0,0:0:0:0:
256,96,36750,5,0,0:0:0:0:
416,192,36945,1,0,0:0:0:0:
256,288,37140,1,0,0:0:0:0:
480,144,37335,5,0,0:0:0:0:
32,256,37530,1,0,0:0:0:0:
256,288,37920,6,0,L|193:288,1,63.7499991893769
128,223,38115,2,0,L|128:287,1,63.7499991893769
192,224,38310,2,0,L|192:303,1,63.7499991893769
256,288,38555,6,0,L|256:224,1,63.7499991893769
192,97,38701,2,0,L|192:161,1,63.7499991893769
128,159,38945,2,0,L|128:96,1,63.7499991893769
320,96,39092,2,0,L|320:209,1,95.6249987840653
256,160,39384,6,0,L|256:96,1,63.7499991893769
320,224,39580,2,0,L|320:288,1,63.7499991893769
256,224,39775,2,0,L|256:288,2,63.7499991893769
384,160,40165,6,0,L|383:96,1,63.7499991893769
320,160,40311,2,0,L|320:96,1,63.7499991893769
384,224,40458,2,0,L|384:288,1,63.7499991893769
448,192,40653,5,0,0:0:0:0:
480,192,40848,1,0,0:0:0:0:
464,208,41044,1,0,0:0:0:0:
464,176,41239,1,0,0:0:0:0:
16,192,41434,5,0,0:0:0:0:
48,192,41629,1,0,0:0:0:0:
32,208,41825,1,0,0:0:0:0:
32,176,42020,1,0,0:0:0:0:
240,336,42215,5,0,0:0:0:0:
272,336,42410,1,0,0:0:0:0:
256,352,42606,1,0,0:0:0:0:
256,320,42801,1,0,0:0:0:0:
128,96,42996,5,0,0:0:0:0:
384,192,43191,1,0,0:0:0:0:
256,287,43386,1,0,0:0:0:0:
112,32,43581,5,0,0:0:0:0:
272,352,43776,1,0,0:0:0:0:
128,96,44166,6,0,L|128:176,1,63.7499991893769
192,97,44361,2,0,L|192:161,1,63.7499991893769
256,224,44556,2,0,L|256:303,1,63.7499991893769
256,160,44800,6,0,L|256:96,1,63.7499991893769
192,224,44947,2,0,L|192:305,1,63.7499991893769
192,161,45191,2,0,L|192:97,1,63.7499991893769
320,192,45338,2,0,L|320:305,1,95.6249987840653
128,288,45630,6,0,L|128:224,1,63.7499991893769
192,224,45825,2,0,L|192:288,1,63.7499991893769
256,224,46021,2,0,L|256:288,2,63.7499991893769
384,288,46411,6,0,L|383:224,1,63.7499991893769
320,96,46557,2,0,L|320:160,1,63.7499991893769
384,96,46704,2,0,L|384:160,1,63.7499991893769
48,48,46899,5,0,0:0:0:0:
160,64,47094,1,0,0:0:0:0:
112,16,47290,1,0,0:0:0:0:
96,96,47485,1,0,0:0:0:0:
352,64,47680,5,0,0:0:0:0:
416,96,47875,1,0,0:0:0:0:
464,48,48071,1,0,0:0:0:0:
400,16,48266,1,0,0:0:0:0:
208,336,48461,5,0,0:0:0:0:
256,272,48656,1,0,0:0:0:0:
304,336,48851,1,0,0:0:0:0:
256,192,49046,1,0,0:0:0:0:
256,272,49242,5,0,0:0:0:0:
128,160,49437,1,0,0:0:0:0:
384,160,49632,1,0,0:0:0:0:
32,272,49827,5,0,0:0:0:0:
480,192,50022,1,0,0:0:0:0:
128,160,50412,6,0,L|208:160,1,63.7499991893769
192,97,50607,2,0,L|192:161,1,63.7499991893769
128,96,50802,2,0,L|128:175,1,63.7499991893769
384,160,51047,6,0,L|384:96,1,63.7499991893769
256,96,51193,2,0,L|256:177,1,63.7499991893769
192,161,51437,2,0,L|192:97,1,63.7499991893769
320,96,51583,2,0,L|320:209,1,95.6249987840653
256,288,51876,6,0,L|256:224,1,63.7499991893769
128,224,52071,2,0,L|128:288,1,63.7499991893769
192,288,52267,2,0,L|256:288,2,63.7499991893769
320,288,52657,6,0,L|319:224,1,63.7499991893769
320,96,52803,2,0,L|320:160,1,63.7499991893769
384,224,52950,2,0,L|384:288,1,63.7499991893769
48,112,53145,5,0,0:0:0:0:
192,112,53340,1,0,0:0:0:0:
128,208,53536,1,0,0:0:0:0:
128,64,53731,1,0,0:0:0:0:
464,112,53926,5,0,0:0:0:0:
384,64,54121,1,0,0:0:0:0:
384,208,54317,1,0,0:0:0:0:
320,112,54512,1,0,0:0:0:0:
400,320,54707,5,0,0:0:0:0:
224,320,54902,1,0,0:0:0:0:
288,320,55097,1,0,0:0:0:0:
112,320,55292,1,0,0:0:0:0:
256,192,55488,5,0,0:0:0:0:
256,256,55683,1,0,0:0:0:0:
256,80,55878,1,0,0:0:0:0:
208,16,56073,5,0,0:0:0:0:
172,73,56268,2,0,B|137:111|89:79|89:79|73:98|57:111|57:111|83:142,1,159.374997973442
112,192,56659,1,0,0:0:0:0:
71,128,56854,1,0,0:0:0:0:
128,320,57049,6,0,B|159:370|272:302|272:302,1,127.499998378754
308,278,57440,1,0,0:0:0:0:
372,310,57635,1,0,0:0:0:0:
176,256,57830,6,0,B|240:224|240:192|240:144,1,127.499998378754
240,80,58220,1,0,0:0:0:0:
239,156,58415,1,0,0:0:0:0:
382,123,58610,6,0,P|437:115|421:179,1,127.499998378754
304,240,59000,1,0,0:0:0:0:
436,171,59196,1,0,0:0:0:0:
176,48,59391,5,0,0:0:0:0:
80,336,59586,1,0,0:0:0:0:
304,240,59781,1,0,0:0:0:0:
80,144,59976,1,0,0:0:0:0:
288,64,60172,5,0,0:0:0:0:
176,240,60367,1,0,0:0:0:0:
288,64,60562,1,0,0:0:0:0:
320,320,60757,1,0,0:0:0:0:
192,128,60952,5,0,0:0:0:0:
464,256,61148,1,0,0:0:0:0:
416,64,61343,1,0,0:0:0:0:
320,320,61538,1,0,0:0:0:0:
160,320,61733,5,0,0:0:0:0:
448,128,61928,1,0,0:0:0:0:
48,240,62123,1,0,0:0:0:0:
448,272,62319,1,0,0:0:0:0:
256,160,62514,5,0,0:0:0:0:
