osu file format v14

[General]
AudioFilename: audio.mp3
AudioLeadIn: 0
PreviewTime: 63531
Countdown: 0
SampleSet: Soft
StackLeniency: 0.7
Mode: 0
LetterboxInBreaks: 0
WidescreenStoryboard: 1

[Editor]
Bookmarks: 57890
DistanceSpacing: 0.8
BeatDivisor: 4
GridSize: 32
TimelineZoom: 1.9

[Metadata]
Title:Pull The Trigger (Maduk Remix)
TitleUnicode:Pull The Trigger (Maduk Remix)
Artist:Flux Pavilion
ArtistUnicode:Flux Pavilion
Creator:Kujinn
Version:Insane
Source:
Tags:Reform drum and n bass dnb Cammie Robinson english electronic & Rampage 2018 Sampler 02
BeatmapID:2657902
BeatmapSetID:1279136

[Difficulty]
HPDrainRate:5.3
CircleSize:4
OverallDifficulty:8
ApproachRate:9
SliderMultiplier:1.65
SliderTickRate:1

[Events]
//Background and Video events
0,0,"BG.jpg",0,0
//Break Periods
2,132559,139988
//Storyboard Layer 0 (Background)
//Storyboard Layer 1 (Fail)
//Storyboard Layer 2 (Pass)
//Storyboard Layer 3 (Foreground)
//Storyboard Layer 4 (Overlay)
//Storyboard Sound Samples

[TimingPoints]
-669,342.857142857143,4,2,1,30,1,0
702,-250,4,2,1,30,0,0
22645,-166.666666666667,4,2,1,40,0,0
44588,-125,4,2,1,45,0,0
55559,-111.111111111111,4,2,1,50,0,0
58302,-111.111111111111,4,2,1,55,0,0
61045,-111.111111111111,4,2,1,60,0,0
63616,-111.111111111111,4,2,1,65,0,0
63959,-111.111111111111,4,2,2,70,0,0
64130,-111.111111111111,4,2,1,70,0,0
64301,-111.111111111111,4,2,2,70,0,0
64472,-111.111111111111,4,2,1,70,0,0
64644,-111.111111111111,4,2,2,70,0,0
64730,-111.111111111111,4,2,1,70,0,0
64987,-111.111111111111,4,2,2,70,0,0
65158,-111.111111111111,4,2,1,70,0,0
66531,-95.2380952380952,4,2,1,80,0,1
87102,-95.2380952380952,4,2,1,80,0,1
88473,-105.263157894737,4,2,1,70,0,0
110416,-95.2380952380952,4,2,1,80,0,1
131673,-117.647058823529,4,2,1,55,0,1
132359,-117.647058823529,4,2,1,30,0,0
140588,-222.222222222221,4,2,1,30,0,0
143331,-153.846153846153,4,2,1,55,0,0
146073,-153.846153846153,4,2,1,60,0,0
148816,-153.846153846153,4,2,1,65,0,0
151559,-153.846153846153,4,2,1,70,0,0
151731,-153.846153846153,4,2,2,70,0,0
151902,-153.846153846153,4,2,1,70,0,0
152073,-153.846153846153,4,2,2,70,0,0
152244,-153.846153846153,4,2,1,70,0,0
152416,-153.846153846153,4,2,2,70,0,0
152502,-153.846153846153,4,2,1,70,0,0
152759,-153.846153846153,4,2,2,70,0,0
152930,-153.846153846153,4,2,1,70,0,0
153659,-153.846153846153,4,2,1,30,0,0
154302,-95.2380952380951,4,2,1,80,0,1
198188,-105.263157894737,4,2,1,70,0,0
218759,-181.818181818182,4,2,1,70,0,0

[Colours]
Combo1 : 148,206,241
Combo2 : 49,77,68
Combo3 : 77,166,139
Combo4 : 156,226,202

[HitObjects]
458,276,702,6,0,B|348:237|370:359|239:303,1,231,2|0,0:0|0:0,0:0:0:0:
175,250,2073,2,0,P|149:250|110:270,1,66,2|0,0:0|0:0,0:0:0:0:
0,140,2759,2,0,P|26:140|65:160,1,66,2|0,0:0|0:0,0:0:0:0:
161,51,3445,6,0,B|228:19|228:19|181:175,1,231,2|0,0:0|0:0,0:0:0:0:
128,238,4816,2,0,L|140:314,1,66,2|0,0:0|0:0,0:0:0:0:
199,356,5331,2,0,P|234:365|290:323,1,99
463,282,6188,6,0,B|475:314|445:374|370:345|347:274|394:201,1,231,2|0,0:0|0:0,0:0:0:0:
510,146,7559,6,0,P|458:153|416:86,1,132,2|0,0:0|0:0,0:0:0:0:
415,94,8588,1,0,0:0:0:0:
318,36,8931,6,0,B|232:19|232:19|191:59|191:59|96:42,1,231,2|0,0:0|0:0,0:0:0:0:
30,100,10302,2,0,B|56:163|56:163|18:225,1,132,2|0,0:0|0:0,0:0:0:0:
5,305,11159,2,0,L|79:291,1,66
151,234,11673,6,0,B|277:290|277:290|330:259,1,198,2|0,0:0|0:0,0:0:0:0:
416,206,13045,2,0,L|423:251,1,33,2|0,0:0|0:0,0:0:0:0:
349,149,13388,2,0,L|354:116,1,33
259,199,13731,2,0,L|210:207,2,49.5
237,60,14416,6,0,B|136:30|160:130|45:90,1,198,2|0,0:0|0:0,0:0:0:0:
2,179,15616,2,0,P|54:171|119:256,1,165,2|0,0:0|0:0,0:0:0:0:
119,250,16816,1,0,0:0:0:0:
21,373,17159,6,0,B|92:362|92:362|116:324|116:324|201:312,1,198,2|0,0:0|0:0,0:0:0:0:
274,356,18359,1,0,0:0:0:0:
274,356,18531,2,0,L|287:281,1,66,2|0,0:0|0:0,0:0:0:0:
416,232,19216,2,0,L|403:157,1,66
272,108,19902,5,2,0:0:0:0:
272,108,20245,2,0,B|318:120|367:66|309:0|244:0|198:64|198:64|161:112|81:143|32:89,1,429
32,90,22645,5,6,0:0:0:0:
108,152,22988,2,0,L|97:215,1,49.4999984893799,2|0,0:0|0:0,0:0:0:0:
17,269,23331,2,0,P|42:246|109:248,1,98.9999969787599,2|0,0:0|0:0,0:0:0:0:
156,336,24016,6,0,L|257:315,1,98.9999969787599,2|0,0:0|0:0,0:0:0:0:
319,255,24531,2,0,L|416:280,1,98.9999969787599,2|0,0:0|0:0,0:0:0:0:
508,291,25045,2,0,L|519:354,1,49.4999984893799,2|0,0:0|0:0,0:0:0:0:
468,217,25388,6,0,P|453:181|479:123,1,98.9999969787599,2|0,0:0|0:0,0:0:0:0:
441,56,25902,2,0,P|405:30|338:51,1,98.9999969787599,2|0,0:0|0:0,0:0:0:0:
270,79,26416,6,0,B|294:118|332:125|332:125|277:239,1,197.99999395752,2|0,0:0|0:0,0:0:0:0:
280,231,27445,2,0,L|292:302,1,49.4999984893799
208,362,27788,2,0,L|200:313,1,49.4999984893799
139,243,28131,5,0,0:0:0:0:
139,242,28473,2,0,L|83:228,1,49.4999984893799,2|0,0:0|0:0,0:0:0:0:
14,154,28816,2,0,L|70:140,1,49.4999984893799,2|0,0:0|0:0,0:0:0:0:
160,73,29159,2,0,L|104:59,1,49.4999984893799,2|0,0:0|0:0,0:0:0:0:
195,166,29502,6,0,P|230:189|298:163,1,98.9999969787599,2|0,0:0|0:0,0:0:0:0:
355,109,30016,2,0,L|370:226,1,98.9999969787599,2|0,0:0|0:0,0:0:0:0:
433,273,30531,2,0,L|422:340,1,49.4999984893799,2|0,0:0|0:0,0:0:0:0:
332,352,30873,6,0,P|307:331|232:338,1,98.9999969787599
154,363,31388,2,0,P|105:368|65:341,1,98.9999969787599,2|0,0:0|0:0,0:0:0:0:
0,223,31902,6,0,B|102:184|77:290|191:241,1,197.99999395752,2|0,0:0|0:0,0:0:0:0:
185,243,32931,2,0,L|194:182,1,49.4999984893799,2|2,0:0|0:0,0:0:0:0:
262,304,33273,2,0,L|271:365,1,49.4999984893799,2|2,0:0|0:0,0:0:0:0:
327,237,33616,1,2,0:0:0:0:
330,239,33959,6,0,L|388:252,1,49.4999984893799,2|0,0:0|0:0,0:0:0:0:
491,166,34302,2,0,L|433:179,1,49.4999984893799,2|0,0:0|0:0,0:0:0:0:
347,77,34645,2,0,L|405:90,1,49.4999984893799,2|0,0:0|0:0,0:0:0:0:
266,149,34988,6,0,P|229:167|162:140,1,98.9999969787599,2|0,0:0|0:0,0:0:0:0:
122,86,35502,2,0,P|97:109|95:173,1,98.9999969787599,2|0,0:0|0:0,0:0:0:0:
166,257,36016,2,0,L|113:247,1,49.4999984893799,2|0,0:0|0:0,0:0:0:0:
206,352,36359,6,0,L|311:332,1,98.9999969787599,2|0,0:0|0:0,0:0:0:0:
323,250,36873,2,0,P|362:261|391:320,1,98.9999969787599,2|0,0:0|0:0,0:0:0:0:
239,267,37388,2,0,L|247:205,1,49.4999984893799,2|0,0:0|0:0,0:0:0:0:
325,153,37731,6,0,L|310:42,1,98.9999969787599,2|0,0:0|0:0,0:0:0:0:
241,11,38245,2,0,P|212:40|144:35,1,98.9999969787599,2|0,0:0|0:0,0:0:0:0:
77,14,38759,2,0,L|66:74,1,49.4999984893799,2|0,0:0|0:0,0:0:0:0:
5,137,39102,6,0,P|45:136|87:180,1,98.9999969787599,2|0,0:0|0:0,0:0:0:0:
182,189,39616,2,0,P|142:188|100:232,1,98.9999969787599,2|0,0:0|0:0,0:0:0:0:
48,290,40131,2,0,L|60:348,1,49.4999984893799,2|0,0:0|0:0,0:0:0:0:
165,373,40473,6,0,P|213:364|284:351,1,98.9999969787599,2|0,0:0|0:0,0:0:0:0:
358,346,40988,2,0,P|310:337|239:324,1,98.9999969787599,2|0,0:0|0:0,0:0:0:0:
173,291,41502,2,0,P|211:295|264:250,1,98.9999969787599,2|0,0:0|0:0,0:0:0:0:
258,261,42188,6,0,B|343:294|437:181|414:75|308:39|247:82|258:160|291:182,1,395.999987915039,2|0,0:0|0:0,0:0:0:0:
286,178,43902,5,2,0:0:0:0:
262,172,44073,1,2,0:0:0:0:
183,212,44245,5,2,0:0:0:0:
159,218,44416,1,2,0:0:0:0:
58,175,44588,6,0,L|44:39,1,132,6|8,1:2|0:0,0:0:0:0:
44,43,45273,2,0,P|78:62|121:58,1,66,2|0,0:0|1:2,0:0:0:0:
170,120,45616,2,0,P|202:117|230:100,1,66,10|0,0:0|0:0,0:0:0:0:
278,28,45959,6,0,L|264:164,1,132,2|8,1:2|0:0,0:0:0:0:
367,215,46473,2,0,P|340:171|246:171,1,132,2|0,0:0|1:2,0:0:0:0:
281,301,46988,2,0,L|292:218,1,66,10|0,0:0|0:0,0:0:0:0:
203,319,47331,6,0,P|230:363|324:363,1,132,0|8,1:2|0:0,0:0:0:0:
304,373,48016,2,0,L|383:388,1,66,2|0,0:0|1:2,0:0:0:0:
468,284,48359,2,0,L|389:299,1,66,8|2,0:0|0:0,0:0:0:0:
313,225,48702,6,0,L|327:67,1,132,2|8,1:2|0:0,0:0:0:0:
392,23,49216,2,0,P|357:56|263:28,1,132,2|0,0:0|1:2,0:0:0:0:
199,5,49731,2,0,L|192:90,1,66,10|0,0:0|0:0,0:0:0:0:
82,150,50073,6,0,P|133:132|211:184,1,132,0|8,1:2|0:0,0:0:0:0:
137,278,50588,1,2,0:0:0:0:
137,278,50759,2,0,L|133:195,1,66,2|0,0:0|1:2,0:0:0:0:
184,341,51102,2,0,P|151:358|108:352,1,66,10|0,0:0|0:0,0:0:0:0:
226,259,51445,6,0,L|367:287,1,132,2|8,1:2|0:0,0:0:0:0:
459,308,51959,2,0,P|418:311|357:241,1,132,2|0,0:0|1:2,0:0:0:0:
440,230,52473,1,8,0:0:0:0:
441,230,52816,2,0,L|455:166,1,66,2|0,1:2|0:0,0:0:0:0:
402,81,53159,1,8,0:0:0:0:
402,81,53331,2,0,P|357:70|292:141,1,132,2|0,0:0|1:2,0:0:0:0:
297,207,53845,2,0,L|221:189,1,66,8|0,0:0|0:0,0:0:0:0:
195,118,54188,6,0,L|209:259,1,132,2|8,1:2|0:0,0:0:0:0:
208,249,54873,5,2,0:0:0:0:
269,309,55045,1,2,0:0:0:0:
333,259,55216,1,2,0:0:0:0:
388,321,55388,1,2,0:0:0:0:
471,257,55559,6,0,L|482:201,3,37.1249988670349,14|0|0|0,0:0|0:0|0:0|0:0,0:0:0:0:
398,165,55902,2,0,L|388:110,3,37.1249988670349,8|0|0|0,0:0|0:0|0:0|0:0,0:0:0:0:
471,76,56245,2,0,L|521:68,1,37.1249988670349,10|0,0:0|0:0,0:0:0:0:
476,71,56416,2,0,L|526:63,1,37.1249988670349,0|0,1:2|0:0,0:0:0:0:
399,11,56588,2,0,L|313:-3,1,74.2499977340699,10|0,0:0|0:0,0:0:0:0:
245,82,56931,6,0,L|208:87,3,37.1249988670349,10|0|0|0,0:0|0:0|0:0|0:0,0:0:0:0:
170,5,57273,2,0,L|120:-3,3,37.1249988670349,8|0|2|0,0:0|0:0|0:0|0:0,0:0:0:0:
62,69,57616,2,0,L|52:119,1,37.1249988670349,8|0,0:0|0:0,0:0:0:0:
68,75,57788,2,0,L|58:125,1,37.1249988670349,0|0,1:2|0:0,0:0:0:0:
139,166,57959,2,0,L|157:259,1,74.2499977340699,10|0,0:0|0:0,0:0:0:0:
61,312,58302,6,0,L|51:262,3,37.1249988670349,8|0|0|0,0:0|0:0|0:0|0:0,0:0:0:0:
162,342,58645,2,0,L|152:392,3,37.1249988670349,8|0|0|0,0:0|0:0|0:0|0:0,0:0:0:0:
239,280,58988,2,0,L|233:236,1,37.1249988670349,10|0,0:0|0:0,0:0:0:0:
245,275,59159,2,0,L|239:231,1,37.1249988670349,0|0,1:2|0:0,0:0:0:0:
318,337,59331,2,0,L|414:357,1,74.2499977340699,10|0,0:0|0:0,0:0:0:0:
450,232,59673,6,0,L|510:221,3,37.1249988670349,10|0|0|0,0:0|0:0|0:0|0:0,0:0:0:0:
371,146,60016,2,0,L|311:135,3,37.1249988670349,8|0|2|0,0:0|0:0|0:0|0:0,0:0:0:0:
439,69,60359,2,0,L|449:19,1,37.1249988670349,8|0,0:0|0:0,0:0:0:0:
445,65,60531,2,0,L|455:15,1,37.1249988670349,0|0,1:2|0:0,0:0:0:0:
473,152,60702,2,0,L|488:236,1,74.2499977340699,10|0,0:0|0:0,0:0:0:0:
399,292,61045,5,8,0:0:0:0:
399,292,61131,1,0,1:2:0:0:
399,292,61216,2,0,L|342:279,1,37.1249988670349,0|0,1:2|1:2,0:0:0:0:
291,179,61388,1,8,0:0:0:0:
291,179,61474,1,0,1:2:0:0:
291,179,61559,2,0,L|234:192,1,37.1249988670349,2|0,1:2|1:2,0:0:0:0:
174,263,61731,2,0,L|166:315,1,37.1249988670349,10|0,0:0|1:2,0:0:0:0:
167,264,61902,2,0,L|159:316,1,37.1249988670349,0|0,1:2|1:2,0:0:0:0:
72,187,62073,2,0,L|66:150,3,37.1249988670349,10|0|0|0,0:0|1:2|1:2|1:2,0:0:0:0:
144,56,62416,5,10,0:0:0:0:
144,56,62502,1,0,1:2:0:0:
144,56,62588,2,0,L|205:67,1,37.1249988670349,0|0,1:2|1:2,0:0:0:0:
265,159,62759,1,8,0:0:0:0:
265,159,62845,1,0,1:2:0:0:
265,159,62931,2,0,L|204:170,1,37.1249988670349,2|0,1:2|1:2,0:0:0:0:
144,264,63102,2,0,L|135:205,1,37.1249988670349,8|0,0:0|1:2,0:0:0:0:
139,268,63273,2,0,L|130:209,1,37.1249988670349,0|0,1:2|1:2,0:0:0:0:
252,330,63445,2,0,L|246:366,3,37.1249988670349,8|0|2|0,0:0|1:2|1:2|1:2,0:0:0:0:
351,331,63788,5,0,1:2:0:0:
378,349,63873,1,0,1:2:0:0:
411,347,63959,1,10,0:3:0:0:
441,332,64045,1,8,0:3:0:0:
464,308,64131,2,0,L|455:238,3,37.1249988670349,0|0|10|8,1:2|1:2|0:3|0:3,0:0:0:0:
389,196,64473,5,0,1:2:0:0:
389,196,64559,1,0,1:2:0:0:
389,196,64645,2,0,L|396:132,1,37.1249988670349,10|0,0:3|1:2,0:0:0:0:
476,66,64816,1,8,0:3:0:0:
448,84,64902,1,8,0:3:0:0:
414,84,64988,1,10,0:3:0:0:
382,74,65073,1,8,0:3:0:0:
358,50,65159,5,8,0:0:0:0:
107,299,66531,6,0,B|165:321|165:321|130:183,1,173.24999471283,6|8,1:2|0:0,0:0:0:0:
29,130,67045,1,0,0:0:0:0:
151,70,67216,1,2,0:0:0:0:
147,95,67302,1,2,0:0:0:0:
141,120,67388,1,2,1:2:0:0:
135,145,67473,1,2,0:0:0:0:
129,170,67559,2,0,L|138:220,3,43.3124986782074,10|2|2|2,0:0|0:0|0:0|0:0,0:0:0:0:
224,268,67902,6,0,B|285:252|285:252|309:207|309:207|379:192,1,173.24999471283,2|8,1:2|0:0,0:0:0:0:
464,280,68416,1,2,0:0:0:0:
464,280,68502,1,2,0:0:0:0:
464,280,68588,2,2,P|474:226|486:170,1,86.6249973564149,2|0,0:0|1:2,0:0:0:0:
292,161,68931,2,0,P|330:192|382:189,1,86.6249973564149,10|0,0:0|0:0,0:0:0:0:
428,31,69273,6,0,P|382:48|358:94,1,86.6249973564149,0|0,1:2|0:0,0:0:0:0:
471,205,69616,2,0,P|461:151|449:95,1,86.6249973564149,8|0,0:0|0:0,0:0:0:0:
376,284,69959,5,2,0:0:0:0:
376,284,70045,1,2,0:0:0:0:
376,284,70131,2,0,L|439:301,1,43.3124986782074,2|2,1:2|0:0,0:0:0:0:
298,170,70302,1,10,0:0:0:0:
298,170,70388,1,2,0:0:0:0:
298,170,70474,2,0,L|235:187,1,43.3124986782074,2|2,0:0|0:0,0:0:0:0:
138,268,70645,6,0,P|190:250|271:341,1,173.24999471283,2|8,1:2|0:0,0:0:0:0:
48,363,71159,1,2,0:0:0:0:
48,363,71245,1,2,0:0:0:0:
48,363,71331,2,0,P|40:298|34:254,1,86.6249973564149,2|0,0:0|1:2,0:0:0:0:
148,182,71673,2,0,P|142:224|137:267,1,86.6249973564149,10|0,0:0|0:0,0:0:0:0:
82,114,72016,6,0,P|134:88|181:102,1,86.6249973564149,0|0,1:2|0:0,0:0:0:0:
314,206,72359,2,0,P|271:206|235:183,1,86.6249973564149,8|0,0:0|0:0,0:0:0:0:
415,105,72702,1,2,0:0:0:0:
411,130,72788,1,2,0:0:0:0:
406,155,72873,1,2,1:2:0:0:
401,180,72959,1,2,0:0:0:0:
397,205,73045,2,0,L|407:269,3,43.3124986782074,10|2|2|2,0:0|0:0|0:0|0:0,0:0:0:0:
487,297,73388,6,0,B|400:260|416:357|317:309,1,173.24999471283,2|8,1:2|0:0,0:0:0:0:
200,242,73902,1,2,0:0:0:0:
200,242,73988,1,2,0:0:0:0:
200,242,74073,2,0,P|210:300|216:357,1,86.6249973564149,2|0,0:0|1:2,0:0:0:0:
305,156,74416,2,0,P|269:135|207:146,1,86.6249973564149,10|2,0:0|0:0,0:0:0:0:
114,186,74759,6,0,L|122:114,1,43.3124986782074,0|0,1:2|0:0,0:0:0:0:
107,190,74931,2,0,L|115:118,1,43.3124986782074,2|0,0:0|0:0,0:0:0:0:
100,194,75102,2,0,L|108:122,1,43.3124986782074,8|0,0:0|0:0,0:0:0:0:
93,198,75273,2,0,L|101:126,1,43.3124986782074,2|0,0:0|0:0,0:0:0:0:
204,285,75445,6,0,L|196:213,1,43.3124986782074
211,289,75617,2,0,L|203:217,1,43.3124986782074,2|0,1:2|0:0,0:0:0:0:
218,293,75788,2,0,L|210:221,1,43.3124986782074,8|0,0:0|0:0,0:0:0:0:
225,297,75959,2,0,L|217:225,1,43.3124986782074,2|0,0:0|0:0,0:0:0:0:
133,363,76131,5,0,1:2:0:0:
61,379,76302,1,2,0:0:0:0:
42,307,76473,1,8,0:0:0:0:
114,290,76644,1,2,0:0:0:0:
215,370,76816,6,0,L|271:377,2,43.3124986782074,0|0|2,0:0|0:0|0:0,0:0:0:0:
293,259,77159,1,0,0:0:0:0:
368,357,77331,1,0,0:0:0:0:
368,357,77416,1,0,0:0:0:0:
368,357,77502,6,0,P|420:291|379:201,1,173.24999471283,2|8,1:2|0:0,0:0:0:0:
298,118,78016,1,0,0:0:0:0:
239,251,78188,1,2,0:0:0:0:
213,245,78273,1,2,0:0:0:0:
187,240,78359,1,2,1:2:0:0:
161,233,78445,1,2,0:0:0:0:
135,227,78531,2,0,L|81:236,3,43.3124986782074,10|2|2|2,0:0|0:0|0:0|0:0,0:0:0:0:
9,182,78873,6,0,B|67:160|67:160|32:298,1,173.24999471283,2|8,1:2|0:0,0:0:0:0:
186,363,79388,1,2,0:0:0:0:
186,363,79473,1,2,0:0:0:0:
186,363,79559,2,0,P|176:306|166:262,1,86.6249973564149,2|0,0:0|1:2,0:0:0:0:
318,134,79902,2,0,P|325:189|279:234,1,86.6249973564149,10|0,0:0|0:0,0:0:0:0:
191,95,80245,6,0,P|201:39|209:-2,1,86.6249973564149,0|0,1:2|0:0,0:0:0:0:
118,192,80588,2,0,P|76:208|29:188,1,86.6249973564149,8|0,0:0|0:0,0:0:0:0:
106,67,80931,1,2,0:0:0:0:
106,67,81016,1,2,0:0:0:0:
106,67,81102,2,0,L|160:77,1,43.3124986782074,2|2,1:2|0:0,0:0:0:0:
228,178,81273,1,10,0:0:0:0:
228,178,81358,1,2,0:0:0:0:
228,178,81445,2,0,L|282:168,1,43.3124986782074,2|2,0:0|0:0,0:0:0:0:
351,41,81616,6,0,P|424:25|483:116,1,173.24999471283,2|8,1:2|0:0,0:0:0:0:
394,209,82131,1,2,0:0:0:0:
394,209,82216,1,2,0:0:0:0:
394,209,82302,2,0,P|386:143|378:95,1,86.6249973564149,2|0,0:0|1:2,0:0:0:0:
473,290,82645,2,0,P|431:315|384:305,1,86.6249973564149,10|0,0:0|0:0,0:0:0:0:
226,183,82988,6,0,P|268:180|303:203,1,86.6249973564149,0|0,1:2|0:0,0:0:0:0:
233,358,83331,2,0,P|237:314|244:272,1,86.6249973564149,8|0,0:0|0:0,0:0:0:0:
93,171,83673,1,2,0:0:0:0:
79,193,83759,1,2,0:0:0:0:
76,218,83845,1,2,1:2:0:0:
80,243,83931,1,2,0:0:0:0:
95,263,84016,2,0,P|124:276|157:274,3,43.3124986782074,10|2|2|2,0:0|0:0|0:0|0:0,0:0:0:0:
217,210,84359,6,0,L|194:20,1,173.24999471283,2|8,1:2|0:0,0:0:0:0:
107,154,84873,1,2,0:0:0:0:
107,154,84959,1,2,0:0:0:0:
107,154,85045,2,0,P|57:143|10:134,1,86.6249973564149,2|0,0:0|1:2,0:0:0:0:
190,18,85388,2,0,P|240:16|281:52,1,86.6249973564149,10|0,0:0|0:0,0:0:0:0:
316,169,85731,6,0,L|306:232,1,43.3124986782074,0|0,1:2|0:0,0:0:0:0:
323,174,85902,2,0,L|313:237,1,43.3124986782074
330,179,86073,2,0,L|320:242,1,43.3124986782074,8|0,0:0|0:0,0:0:0:0:
337,184,86245,2,0,L|327:247,1,43.3124986782074
245,265,86416,6,0,L|255:328,1,43.3124986782074
238,270,86587,2,0,L|248:333,1,43.3124986782074,0|0,1:2|0:0,0:0:0:0:
231,275,86759,2,0,L|241:338,1,43.3124986782074,8|0,0:0|0:0,0:0:0:0:
224,280,86931,2,0,L|234:343,1,43.3124986782074
317,359,87102,5,0,0:0:0:0:
357,351,87273,1,0,0:0:0:0:
397,343,87445,1,0,0:0:0:0:
437,335,87616,1,0,0:0:0:0:
457,346,88131,5,8,0:0:0:0:
365,236,88302,1,0,1:2:0:0:
365,236,88388,1,0,1:2:0:0:
365,236,88473,6,0,P|373:180|380:129,1,78.3749979071618,4|0,1:2|0:0,0:0:0:0:
490,225,88816,1,10,0:0:0:0:
465,49,88988,1,0,0:0:0:0:
465,49,89073,1,0,0:0:0:0:
465,49,89159,2,0,P|470:87|475:126,1,78.3749979071618,2|0,0:0|1:2,0:0:0:0:
289,113,89502,2,0,P|319:80|371:79,1,78.3749979071618,10|0,0:0|0:0,0:0:0:0:
346,239,89845,6,0,B|263:216|289:299|185:267,1,156.749995814324,2|8,1:2|0:0,0:0:0:0:
74,198,90359,1,2,0:0:0:0:
74,198,90445,1,0,0:0:0:0:
74,198,90531,2,0,P|81:249|88:299,1,78.3749979071618,0|0,0:0|1:2,0:0:0:0:
214,144,90873,1,10,0:0:0:0:
113,72,91045,1,0,0:0:0:0:
196,230,91216,6,0,P|255:225|298:125,1,156.749995814324,2|8,1:2|0:0,0:0:0:0:
204,35,91731,1,2,0:0:0:0:
204,35,91816,1,0,0:0:0:0:
204,35,91902,2,0,P|196:100|191:146,1,78.3749979071618,0|0,0:0|1:2,0:0:0:0:
311,224,92245,2,0,P|306:185|301:146,1,78.3749979071618,10|0,0:0|0:0,0:0:0:0:
245,296,92588,6,0,P|293:317|341:301,1,78.3749979071618,0|0,1:2|0:0,0:0:0:0:
400,146,92931,1,8,0:0:0:0:
248,211,93102,1,0,0:0:0:0:
248,211,93188,1,0,0:0:0:0:
248,211,93273,1,0,0:0:0:0:
400,284,93445,1,0,1:2:0:0:
329,103,93616,2,0,P|324:141|319:180,1,78.3749979071618,8|0,0:0|0:0,0:0:0:0:
188,307,93959,6,0,P|247:316|293:332,1,78.3749979071618,0|0,1:2|0:0,0:0:0:0:
159,168,94302,2,0,P|100:177|54:193,1,78.3749979071618,10|0,0:0|0:0,0:0:0:0:
82,182,94559,1,0,0:0:0:0:
82,182,94645,1,2,0:0:0:0:
188,307,94816,1,0,1:2:0:0:
277,196,94988,2,0,P|290:146|270:97,1,78.3749979071618,10|0,0:0|0:0,0:0:0:0:
55,67,95331,6,0,P|88:123|201:105,1,156.749995814324,2|8,1:2|0:0,0:0:0:0:
266,36,95845,1,2,0:0:0:0:
266,36,95931,1,0,0:0:0:0:
266,36,96016,2,0,P|210:28|165:20,1,78.3749979071618,0|0,0:0|1:2,0:0:0:0:
260,219,96359,1,10,0:0:0:0:
350,109,96531,1,0,0:0:0:0:
148,143,96702,6,0,P|156:210|168:330,1,156.749995814324,0|8,1:2|0:0,0:0:0:0:
351,185,97216,1,2,0:0:0:0:
351,185,97302,1,0,0:0:0:0:
351,185,97388,1,0,0:0:0:0:
282,341,97559,1,0,1:2:0:0:
196,179,97731,2,0,P|187:130|217:79,1,78.3749979071618,10|0,0:0|0:0,0:0:0:0:
410,233,98073,6,0,P|400:281|391:328,1,78.3749979071618,0|0,1:2|0:0,0:0:0:0:
318,71,98416,1,8,0:0:0:0:
244,260,98588,1,0,1:2:0:0:
399,139,98759,1,10,0:0:0:0:
306,336,98931,1,2,1:2:0:0:
220,114,99102,1,10,0:0:0:0:
411,240,99273,5,2,1:2:0:0:
411,240,99359,1,0,0:0:0:0:
411,240,99445,2,0,P|358:228|313:218,1,78.3749979071618,2|0,1:2|0:0,0:0:0:0:
148,339,99788,2,0,P|201:327|246:317,1,78.3749979071618,10|0,0:0|0:0,0:0:0:0:
224,321,100045,1,0,0:0:0:0:
224,321,100131,1,2,0:0:0:0:
389,360,100302,1,0,1:2:0:0:
264,175,100473,2,0,P|249:213|261:267,1,78.3749979071618,10|0,0:0|0:0,0:0:0:0:
427,206,100816,6,0,P|423:144|430:24,1,156.749995814324,2|8,1:2|0:0,0:0:0:0:
283,156,101331,1,2,0:0:0:0:
283,156,101416,1,0,0:0:0:0:
283,156,101502,2,0,P|290:91|290:48,1,78.3749979071618,0|0,0:0|1:2,0:0:0:0:
122,216,101845,1,10,0:0:0:0:
177,76,102016,1,0,0:0:0:0:
312,271,102188,6,0,P|269:315|169:291,1,156.749995814324,2|8,1:2|0:0,0:0:0:0:
103,157,102702,1,2,0:0:0:0:
103,157,102788,1,0,0:0:0:0:
103,157,102873,2,0,P|147:171|192:179,1,78.3749979071618,0|0,0:0|1:2,0:0:0:0:
84,327,103216,2,0,P|45:334|8:347,1,78.3749979071618,10|0,0:0|0:0,0:0:0:0:
22,146,103559,6,0,P|36:207|45:254,1,78.3749979071618,2|0,1:2|0:0,0:0:0:0:
205,326,103902,1,8,0:0:0:0:
195,100,104073,1,2,0:0:0:0:
195,100,104159,1,0,0:0:0:0:
195,100,104245,2,0,P|181:161|172:208,1,78.3749979071618,0|0,0:0|1:2,0:0:0:0:
344,285,104588,1,10,0:0:0:0:
294,128,104759,1,0,0:0:0:0:
145,285,104931,6,0,P|216:277|278:368,1,156.749995814324,2|8,1:2|0:0,0:0:0:0:
437,205,105445,1,2,0:0:0:0:
437,205,105531,1,0,0:0:0:0:
437,205,105616,2,0,P|426:250|415:305,1,78.3749979071618,0|0,0:0|1:2,0:0:0:0:
297,124,105959,2,0,P|288:85|279:47,1,78.3749979071618,10|0,0:0|0:0,0:0:0:0:
195,221,106302,6,0,P|133:228|80:146,1,156.749995814324,2|8,1:2|0:0,0:0:0:0:
197,45,106816,1,2,0:0:0:0:
197,45,106902,1,0,0:0:0:0:
197,45,106988,2,0,P|185:97|175:151,1,78.3749979071618,0|0,0:0|1:2,0:0:0:0:
106,32,107331,1,10,0:0:0:0:
271,114,107502,1,0,0:0:0:0:
122,218,107673,6,0,P|171:205|226:199,1,78.3749979071618,0|0,1:2|0:0,0:0:0:0:
378,266,108016,1,10,0:0:0:0:
267,135,108188,1,0,0:0:0:0:
267,135,108273,1,0,0:0:0:0:
267,135,108359,2,0,P|279:193|286:229,1,78.3749979071618,0|0,0:0|1:2,0:0:0:0:
391,103,108702,2,0,P|398:64|406:26,1,78.3749979071618,10|0,0:0|0:0,0:0:0:0:
441,211,109045,5,2,1:2:0:0:
441,211,109388,5,10,0:0:0:0:
391,103,109559,1,0,1:2:0:0:
379,303,109731,5,10,0:0:0:0:
279,107,109902,1,2,0:0:0:0:
263,352,110073,5,10,0:0:0:0:
352,183,110245,1,0,1:2:0:0:
352,183,110331,1,0,1:2:0:0:
352,183,110416,5,6,1:2:0:0:
467,305,110588,1,2,0:0:0:0:
457,141,110759,1,10,0:0:0:0:
367,272,110931,1,0,0:0:0:0:
252,142,111102,1,2,0:0:0:0:
254,116,111188,1,2,0:0:0:0:
256,90,111273,1,2,1:2:0:0:
261,64,111359,1,2,0:0:0:0:
262,37,111445,2,0,L|250:-18,3,43.3124986782074,10|2|2|2,0:0|0:0|0:0|0:0,0:0:0:0:
171,98,111788,6,0,P|128:112|79:97,1,86.6249973564149,2|2,1:2|0:0,0:0:0:0:
128,10,112131,1,8,0:0:0:0:
255,153,112302,1,2,0:0:0:0:
255,153,112388,1,2,0:0:0:0:
255,153,112473,2,0,P|244:216|238:264,1,86.6249973564149,2|0,0:0|1:2,0:0:0:0:
47,283,112816,5,10,0:0:0:0:
167,206,112988,1,2,0:0:0:0:
14,291,113159,1,2,1:2:0:0:
185,353,113331,1,2,0:0:0:0:
77,205,113502,2,0,P|89:257|98:308,1,86.6249973564149,10|0,0:0|0:0,0:0:0:0:
177,137,113845,1,2,0:0:0:0:
177,137,113931,1,2,0:0:0:0:
177,137,114016,2,0,P|214:141|247:162,1,43.3124986782074,2|2,1:2|0:0,0:0:0:0:
317,252,114188,1,10,0:0:0:0:
317,252,114274,1,2,0:0:0:0:
317,252,114359,2,0,P|280:256|247:277,1,43.3124986782074,2|2,0:0|0:0,0:0:0:0:
171,346,114531,6,0,P|180:281|190:231,1,86.6249973564149,2|2,1:2|0:0,0:0:0:0:
112,98,114873,1,8,0:0:0:0:
49,271,115045,1,2,0:0:0:0:
49,271,115131,1,2,0:0:0:0:
49,271,115216,2,0,P|40:206|30:156,1,86.6249973564149,2|0,0:0|1:2,0:0:0:0:
198,43,115559,5,10,0:0:0:0:
155,187,115731,1,2,0:0:0:0:
228,33,115902,1,2,1:2:0:0:
294,200,116073,1,2,0:0:0:0:
365,45,116245,2,0,P|375:97|383:158,1,86.6249973564149,10|0,0:0|0:0,0:0:0:0:
485,280,116588,1,2,0:0:0:0:
469,259,116673,1,2,0:0:0:0:
444,249,116759,1,2,1:2:0:0:
418,244,116845,1,2,0:0:0:0:
392,248,116931,2,0,P|368:264|348:295,3,43.3124986782074,10|2|2|2,0:0|0:0|0:0|0:0,0:0:0:0:
281,355,117273,6,0,P|272:286|263:237,1,86.6249973564149,2|2,1:2|0:0,0:0:0:0:
226,130,117616,1,8,0:0:0:0:
346,227,117788,1,2,0:0:0:0:
346,227,117873,1,2,0:0:0:0:
346,227,117959,2,0,P|355:158|364:109,1,86.6249973564149,2|0,0:0|1:2,0:0:0:0:
190,53,118302,2,0,P|154:89|155:152,1,86.6249973564149,10|2,0:0|0:0,0:0:0:0:
170,252,118645,5,2,1:2:0:0:
170,252,118731,1,2,0:0:0:0:
170,252,118816,1,2,0:0:0:0:
170,252,118902,1,2,0:0:0:0:
170,252,118988,2,0,P|205:260|240:269,1,43.3124986782074,8|0,0:0|0:0,0:0:0:0:
287,323,119159,1,2,0:0:0:0:
287,323,119245,1,2,0:0:0:0:
287,323,119331,6,0,L|296:251,1,43.3124986782074,2|0,0:0|0:0,0:0:0:0:
258,193,119502,2,0,L|267:121,1,43.3124986782074,2|0,1:2|0:0,0:0:0:0:
301,313,119673,6,0,L|310:241,1,43.3124986782074,10|0,0:0|0:0,0:0:0:0:
272,185,119845,2,0,L|281:113,1,43.3124986782074,2|0,0:0|0:0,0:0:0:0:
157,260,120016,6,0,L|166:188,1,43.3124986782074,2|0,1:2|0:0,0:0:0:0:
128,131,120187,2,0,L|137:59,1,43.3124986782074,2|0,0:0|0:0,0:0:0:0:
168,248,120359,6,0,L|177:176,1,43.3124986782074,10|0,0:0|0:0,0:0:0:0:
140,122,120531,2,0,L|149:50,1,43.3124986782074,2|0,0:0|0:0,0:0:0:0:
279,7,120702,6,0,L|288:79,2,43.3124986782074,0|0|2,0:0|0:0|0:0,0:0:0:0:
306,161,121045,1,0,0:0:0:0:
443,35,121216,1,0,0:0:0:0:
443,35,121302,1,0,0:0:0:0:
443,35,121388,5,2,1:2:0:0:
449,204,121559,1,2,0:0:0:0:
329,80,121731,1,10,0:0:0:0:
502,109,121902,1,0,0:0:0:0:
341,243,122073,5,2,0:0:0:0:
315,235,122159,1,2,0:0:0:0:
289,229,122245,1,2,1:2:0:0:
263,224,122331,1,2,0:0:0:0:
237,220,122416,2,0,L|185:230,3,43.3124986782074,10|2|2|2,0:0|0:0|0:0|0:0,0:0:0:0:
109,188,122759,6,0,P|124:248|133:301,1,86.6249973564149,2|2,1:2|0:0,0:0:0:0:
200,136,123102,1,8,0:0:0:0:
95,72,123273,1,2,0:0:0:0:
95,72,123359,1,2,0:0:0:0:
95,72,123445,2,0,P|136:100|190:92,1,86.6249973564149,2|0,0:0|1:2,0:0:0:0:
325,15,123788,5,10,0:0:0:0:
255,186,123959,1,2,0:0:0:0:
172,20,124131,1,2,1:2:0:0:
335,117,124302,1,2,0:0:0:0:
156,220,124473,2,0,P|142:166|163:117,1,86.6249973564149,8|0,0:0|0:0,0:0:0:0:
242,70,124816,1,2,0:0:0:0:
242,70,124902,1,2,0:0:0:0:
242,70,124988,2,0,L|251:132,1,43.3124986782074,2|2,1:2|0:0,0:0:0:0:
346,220,125159,1,10,0:0:0:0:
346,220,125245,1,2,0:0:0:0:
346,220,125331,2,0,L|355:158,1,43.3124986782074,2|2,0:0|0:0,0:0:0:0:
459,54,125502,6,0,P|411:83|361:73,1,86.6249973564149,2|2,1:2|0:0,0:0:0:0:
225,17,125845,1,8,0:0:0:0:
287,177,126016,1,2,0:0:0:0:
287,177,126102,1,2,0:0:0:0:
287,177,126188,2,0,P|293:116|304:51,1,86.6249973564149,2|0,0:0|1:2,0:0:0:0:
366,280,126531,5,10,0:0:0:0:
207,176,126702,1,2,0:0:0:0:
379,267,126873,1,2,1:2:0:0:
215,338,127045,1,2,0:0:0:0:
367,178,127216,2,0,P|431:188|462:232,1,86.6249973564149,10|0,0:0|0:0,0:0:0:0:
323,305,127559,1,2,0:0:0:0:
299,293,127645,1,2,0:0:0:0:
274,282,127731,1,2,1:2:0:0:
249,273,127816,1,2,0:0:0:0:
224,263,127902,2,0,L|172:276,3,43.3124986782074,10|2|2|2,0:0|0:0|0:0|0:0,0:0:0:0:
108,357,128245,6,0,P|99:292|90:242,1,86.6249973564149,2|2,1:2|0:0,0:0:0:0:
54,115,128588,1,8,0:0:0:0:
213,263,128759,1,2,0:0:0:0:
213,263,128845,1,2,0:0:0:0:
213,263,128931,2,0,P|222:198|231:148,1,86.6249973564149,2|0,0:0|1:2,0:0:0:0:
133,19,129273,2,0,P|115:68|148:125,1,86.6249973564149,8|2,0:0|0:0,0:0:0:0:
312,79,129616,6,0,L|309:55,6,21.6562493391037,0|0|0|0|2|0|0,1:2|0:0|0:0|0:0|0:0|0:0|0:0,0:0:0:0:
377,151,129959,2,0,L|374:172,6,21.6562493391037,8|0|0|0|2|0|0,0:0|0:0|0:0|0:0|0:0|0:0|0:0,0:0:0:0:
291,226,130302,6,0,L|246:234,5,28.874999118805,0|0|0|2|0|0,0:0|0:0|0:0|1:2|0:0|0:0,0:0:0:0:
361,281,130645,2,0,L|406:289,5,28.874999118805,8|0|0|2|0|0,0:0|0:0|0:0|0:0|0:0|0:0,0:0:0:0:
278,308,130988,2,0,L|233:316,5,28.874999118805,0|0|0|2|0|0,0:0|0:0|0:0|0:0|0:0|0:0,0:0:0:0:
348,363,131331,2,0,L|393:371,5,28.874999118805,0|0|0|2|0|0,0:0|0:0|0:0|0:0|0:0|0:0,0:0:0:0:
453,327,131673,6,0,P|464:291|449:246,1,70.1250013375282,2|2,0:0|0:0,0:0:0:0:
398,204,132016,2,0,P|387:168|402:123,1,70.1250013375282,8|2,0:0|0:0,0:0:0:0:
434,71,132359,5,6,1:2:0:0:
306,278,140588,6,0,B|362:266|404:315|404:315|376:237|284:235|284:235|245:309|151:293,1,408.374987537384,2|0,0:0|0:0,0:0:0:0:
96,252,142645,1,2,0:0:0:0:
101,232,142816,1,2,0:0:0:0:
158,176,142988,1,2,0:0:0:0:
153,156,143159,1,2,0:0:0:0:
60,45,143331,6,0,P|83:66|167:55,1,107.249995090485,14|8,0:0|0:0,0:0:0:0:
155,64,144016,1,8,0:0:0:0:
155,64,144188,1,0,1:2:0:0:
221,141,144359,2,0,L|283:129,1,53.6249975452424,10|0,0:0|0:0,0:0:0:0:
386,44,144702,6,0,L|366:169,1,107.249995090485,10|8,0:0|0:0,0:0:0:0:
369,149,145388,1,8,0:0:0:0:
369,149,145559,1,0,1:2:0:0:
447,252,145731,2,0,L|385:240,1,53.6249975452424,8|0,0:0|0:0,0:0:0:0:
306,357,146073,6,0,L|322:280,1,53.6249975452424,8|0,0:0|0:0,0:0:0:0:
240,188,146416,2,0,L|250:240,1,53.6249975452424,8|0,0:0|0:0,0:0:0:0:
193,317,146759,1,8,0:0:0:0:
193,317,146931,1,0,1:2:0:0:
70,255,147102,2,0,L|138:236,1,53.6249975452424,10|0,0:0|0:0,0:0:0:0:
131,145,147445,6,0,L|63:126,1,53.6249975452424,10|0,0:0|0:0,0:0:0:0:
179,28,147788,2,0,L|192:95,1,53.6249975452424,8|2,0:0|0:0,0:0:0:0:
243,167,148131,1,8,0:0:0:0:
243,167,148302,1,0,1:2:0:0:
297,81,148473,2,0,L|307:28,1,53.6249975452424,8|0,0:0|0:0,0:0:0:0:
389,146,148816,6,0,L|440:137,3,26.8124987726212,8|0|0|0,0:0|1:2|1:2|1:2,0:0:0:0:
473,213,149159,2,0,L|446:217,3,26.8124987726212,8|0|0|0,0:0|1:2|1:2|1:2,0:0:0:0:
391,285,149502,2,0,L|400:329,1,26.8124987726212,8|0,0:0|1:2,0:0:0:0:
386,293,149673,2,0,L|395:337,1,26.8124987726212,0|0,1:2|1:2,0:0:0:0:
325,231,149845,2,0,L|330:204,3,26.8124987726212,10|0|0|0,0:0|1:2|1:2|1:2,0:0:0:0:
248,280,150188,6,0,L|253:306,3,26.8124987726212,10|0|0|0,0:0|1:2|1:2|1:2,0:0:0:0:
168,237,150531,2,0,L|162:210,3,26.8124987726212,8|0|2|0,0:0|1:2|1:2|1:2,0:0:0:0:
111,306,150873,2,0,L|74:315,1,26.8124987726212,8|0,0:0|1:2,0:0:0:0:
105,299,151045,2,0,L|68:308,1,26.8124987726212,0|0,1:2|1:2,0:0:0:0:
18,223,151216,2,0,L|44:229,3,26.8124987726212,8|0|2|0,0:0|1:2|1:2|1:2,0:0:0:0:
106,145,151559,5,0,1:2:0:0:
127,129,151645,1,0,1:2:0:0:
153,126,151731,1,10,0:3:0:0:
178,132,151816,1,8,0:3:0:0:
200,146,151902,2,0,L|204:192,3,26.8124987726212,0|0|10|8,1:2|1:2|0:3|0:3,0:0:0:0:
249,237,152245,1,0,1:2:0:0:
271,251,152331,1,0,1:2:0:0:
297,254,152416,1,10,0:3:0:0:
322,246,152502,1,0,1:2:0:0:
344,231,152588,2,0,L|338:186,3,26.8124987726212,8|8|10|8,0:3|0:3|0:3|0:3,0:0:0:0:
396,139,152931,5,8,0:0:0:0:
411,142,153102,5,2,0:0:0:0:
426,145,153273,5,2,0:0:0:0:
441,148,153445,5,2,0:0:0:0:
456,152,153616,6,0,L|476:147,14,13.4062493863106,2|0|0|0|0|0|0|0|0|0|0|0|0|0|0,0:0|0:0|0:0|0:0|0:0|0:0|0:0|0:0|0:0|0:0|0:0|0:0|0:0|0:0|0:0,0:0:0:0:
389,241,154302,6,0,B|331:263|331:263|366:125,1,173.24999471283,6|8,1:2|0:0,0:0:0:0:
272,25,154816,1,0,0:0:0:0:
193,155,154988,1,2,0:0:0:0:
168,147,155073,1,2,0:0:0:0:
142,140,155159,1,2,1:2:0:0:
116,134,155245,1,2,0:0:0:0:
90,128,155331,2,0,L|26:144,3,43.3124986782074,10|2|2|2,0:0|0:0|0:0|0:0,0:0:0:0:
94,49,155673,6,0,P|106:114|128:239,1,173.24999471283,2|8,1:2|0:0,0:0:0:0:
235,355,156188,1,2,0:0:0:0:
235,355,156273,1,2,0:0:0:0:
235,355,156359,2,0,P|255:304|236:254,1,86.6249973564149,2|0,0:0|1:2,0:0:0:0:
87,290,156702,2,0,P|147:298|190:312,1,86.6249973564149,10|0,0:0|0:0,0:0:0:0:
291,146,157045,6,0,P|231:154|188:168,1,86.6249973564149,0|0,1:2|0:0,0:0:0:0:
360,267,157388,2,0,P|373:206|386:152,1,86.6249973564149,8|0,0:0|0:0,0:0:0:0:
322,38,157731,1,2,0:0:0:0:
322,38,157816,1,2,0:0:0:0:
322,38,157902,2,0,L|334:116,1,43.3124986782074,2|2,1:2|0:0,0:0:0:0:
462,148,158073,1,10,0:0:0:0:
462,148,158158,1,2,0:0:0:0:
462,148,158245,2,0,L|474:70,1,43.3124986782074,2|2,0:0|0:0,0:0:0:0:
321,168,158416,6,0,P|304:230|402:284,1,173.24999471283,2|8,1:2|0:0,0:0:0:0:
500,322,158931,1,2,0:0:0:0:
500,322,159016,1,2,0:0:0:0:
500,322,159102,2,0,P|439:338|395:369,1,86.6249973564149,2|0,0:0|1:2,0:0:0:0:
239,243,159445,2,2,P|300:259|344:290,1,86.6249973564149,10|0,0:0|0:0,0:0:0:0:
461,128,159788,6,0,P|443:181|431:244,1,86.6249973564149,0|0,1:2|0:0,0:0:0:0:
291,29,160131,2,0,P|305:69|316:112,1,86.6249973564149,8|0,0:0|0:0,0:0:0:0:
178,232,160473,1,2,0:0:0:0:
152,234,160559,1,2,0:0:0:0:
128,223,160645,1,2,1:2:0:0:
110,203,160731,1,2,0:0:0:0:
98,187,160816,2,0,P|107:157|120:124,3,43.3124986782074,10|2|2|2,0:0|0:0|0:0|0:0,0:0:0:0:
214,77,161159,6,0,B|126:48|150:142|38:101,1,173.24999471283,2|8,1:2|0:0,0:0:0:0:
231,240,161673,1,2,0:0:0:0:
231,240,161759,1,2,0:0:0:0:
231,240,161845,2,0,P|242:181|258:128,1,86.6249973564149,2|0,0:0|1:2,0:0:0:0:
124,308,162188,2,0,P|162:347|213:345,1,86.6249973564149,10|2,0:0|0:0,0:0:0:0:
317,295,162531,6,0,L|327:343,1,43.3124986782074,0|0,1:2|0:0,0:0:0:0:
323,291,162702,2,0,L|333:339,1,43.3124986782074,2|0,0:0|0:0,0:0:0:0:
329,287,162873,2,0,L|339:335,1,43.3124986782074,8|0,0:0|0:0,0:0:0:0:
335,283,163045,2,0,L|345:331,1,43.3124986782074,2|0,0:0|0:0,0:0:0:0:
425,236,163216,6,0,L|434:194,1,43.3124986782074
419,232,163387,2,0,L|428:190,1,43.3124986782074,2|0,1:2|0:0,0:0:0:0:
413,228,163559,2,0,L|422:186,1,43.3124986782074,8|0,0:0|0:0,0:0:0:0:
407,224,163730,2,0,L|416:182,1,43.3124986782074,2|0,0:0|0:0,0:0:0:0:
343,143,163902,5,0,1:2:0:0:
261,125,164073,1,2,0:0:0:0:
279,51,164245,1,8,0:0:0:0:
361,69,164416,1,2,0:0:0:0:
343,143,164588,6,0,L|328:210,2,43.3124986782074,0|0|2,0:0|0:0|0:0,0:0:0:0:
311,271,164931,1,0,0:0:0:0:
174,162,165102,1,0,0:0:0:0:
174,162,165188,1,0,0:0:0:0:
174,162,165273,6,0,B|183:196|222:220|222:220|158:331,1,173.24999471283,2|8,1:2|0:0,0:0:0:0:
99,233,165788,1,0,0:0:0:0:
227,349,165959,1,2,0:0:0:0:
249,336,166045,1,2,0:0:0:0:
274,330,166131,1,2,1:2:0:0:
299,327,166216,1,2,0:0:0:0:
324,333,166302,2,0,P|333:372|337:393,3,43.3124986782074,10|2|2|2,0:0|0:0|0:0|0:0,0:0:0:0:
444,311,166645,6,0,P|454:239|480:114,1,173.24999471283,2|8,1:2|0:0,0:0:0:0:
353,222,167159,1,2,0:0:0:0:
353,222,167245,1,2,0:0:0:0:
353,222,167331,2,0,P|312:233|272:217,1,86.6249973564149,2|0,0:0|1:2,0:0:0:0:
412,128,167673,2,0,P|442:157|448:199,1,86.6249973564149,10|0,0:0|0:0,0:0:0:0:
300,114,168016,6,0,P|310:56|320:-2,1,86.6249973564149,0|0,1:2|0:0,0:0:0:0:
164,218,168359,2,0,P|154:160|144:102,1,86.6249973564149,8|0,0:0|0:0,0:0:0:0:
277,287,168702,5,2,0:0:0:0:
277,287,168788,1,2,0:0:0:0:
277,287,168873,2,0,L|345:302,1,43.3124986782074,2|2,1:2|0:0,0:0:0:0:
160,347,169045,1,10,0:0:0:0:
160,347,169131,1,2,0:0:0:0:
160,347,169216,2,0,L|92:362,1,43.3124986782074,2|2,0:0|0:0,0:0:0:0:
48,217,169388,6,0,P|88:200|186:283,1,173.24999471283,2|8,1:2|0:0,0:0:0:0:
311,178,169902,1,2,0:0:0:0:
311,178,169988,1,2,0:0:0:0:
311,178,170073,2,0,P|294:233|281:290,1,86.6249973564149,2|0,0:0|1:2,0:0:0:0:
174,66,170416,2,0,P|191:121|204:178,1,86.6249973564149,10|0,0:0|0:0,0:0:0:0:
360,59,170759,6,0,P|303:43|252:25,1,86.6249973564149,0|0,1:2|0:0,0:0:0:0:
394,181,171102,2,0,P|435:167|476:156,1,86.6249973564149,8|0,0:0|0:0,0:0:0:0:
313,277,171445,1,2,0:0:0:0:
289,266,171531,1,2,0:0:0:0:
264,258,171616,1,2,1:2:0:0:
238,252,171702,1,2,0:0:0:0:
211,252,171788,2,0,P|200:284|191:318,3,43.3124986782074,10|2|2|2,0:0|0:0|0:0|0:0,0:0:0:0:
118,363,172131,6,0,P|81:333|110:202,1,173.24999471283,2|8,1:2|0:0,0:0:0:0:
214,151,172645,1,2,0:0:0:0:
214,151,172731,1,2,0:0:0:0:
214,151,172816,2,0,P|163:134|104:117,1,86.6249973564149,2|0,0:0|1:2,0:0:0:0:
284,18,173159,2,0,P|293:66|300:120,1,86.6249973564149,10|2,0:0|0:0,0:0:0:0:
386,189,173502,6,0,L|374:251,1,43.3124986782074,0|0,1:2|0:0,0:0:0:0:
390,198,173673,2,0,L|378:260,1,43.3124986782074,2|0,0:0|0:0,0:0:0:0:
394,207,173845,2,0,L|382:269,1,43.3124986782074,8|0,0:0|0:0,0:0:0:0:
398,216,174016,2,0,L|386:278,1,43.3124986782074,2|0,0:0|0:0,0:0:0:0:
313,290,174188,6,0,L|325:352,1,43.3124986782074
309,299,174359,2,0,L|321:361,1,43.3124986782074,2|0,1:2|0:0,0:0:0:0:
305,308,174531,2,0,L|317:370,1,43.3124986782074,8|0,0:0|0:0,0:0:0:0:
301,317,174702,2,0,L|313:379,1,43.3124986782074,2|0,0:0|0:0,0:0:0:0:
211,365,174873,5,0,0:0:0:0:
167,352,175045,1,2,0:0:0:0:
123,339,175216,1,0,0:0:0:0:
79,326,175388,1,2,0:0:0:0:
58,338,175902,5,8,0:0:0:0:
200,226,176073,1,0,1:2:0:0:
200,226,176159,1,0,1:2:0:0:
200,226,176245,5,6,1:2:0:0:
74,169,176416,1,2,0:0:0:0:
186,311,176588,1,10,0:0:0:0:
229,136,176759,1,0,0:0:0:0:
334,274,176931,1,2,0:0:0:0:
339,248,177016,1,2,0:0:0:0:
345,222,177102,1,2,1:2:0:0:
352,196,177188,1,2,0:0:0:0:
359,171,177273,2,0,L|350:95,3,43.3124986782074,10|2|2|2,0:0|0:0|0:0|0:0,0:0:0:0:
415,57,177616,6,0,P|373:84|322:74,1,86.6249973564149,2|2,1:2|0:0,0:0:0:0:
157,29,177959,1,8,0:0:0:0:
240,175,178131,1,2,0:0:0:0:
240,175,178217,1,2,0:0:0:0:
240,175,178302,2,0,P|249:114|261:61,1,86.6249973564149,2|0,0:0|1:2,0:0:0:0:
149,242,178645,5,10,0:0:0:0:
329,176,178816,1,2,0:0:0:0:
165,257,178988,1,2,1:2:0:0:
322,334,179159,1,2,0:0:0:0:
223,188,179331,2,0,P|183:166|124:178,1,86.6249973564149,10|0,0:0|0:0,0:0:0:0:
49,311,179673,1,2,0:0:0:0:
49,311,179759,1,2,0:0:0:0:
49,311,179845,2,0,L|60:239,1,43.3124986782074,2|2,1:2|0:0,0:0:0:0:
53,134,180016,1,10,0:0:0:0:
53,134,180102,1,2,0:0:0:0:
53,134,180188,2,0,L|64:206,1,43.3124986782074,2|2,0:0|0:0,0:0:0:0:
172,284,180359,6,0,P|228:267|296:256,1,86.6249973564149,2|2,1:2|0:0,0:0:0:0:
397,312,180702,1,8,0:0:0:0:
255,157,180873,1,2,0:0:0:0:
255,157,180959,1,2,0:0:0:0:
255,157,181045,2,0,P|311:174|379:185,1,86.6249973564149,2|0,0:0|1:2,0:0:0:0:
421,92,181388,5,10,0:0:0:0:
377,262,181559,1,2,0:0:0:0:
437,111,181731,1,2,1:2:0:0:
494,275,181902,1,2,0:0:0:0:
338,147,182073,2,0,P|325:86|314:42,1,86.6249973564149,10|0,0:0|0:0,0:0:0:0:
244,249,182416,5,2,0:0:0:0:
267,236,182502,1,2,0:0:0:0:
292,233,182588,1,2,1:2:0:0:
317,234,182673,1,2,0:0:0:0:
341,245,182759,2,0,L|334:300,3,43.3124986782074,10|2|2|2,0:0|0:0|0:0|0:0,0:0:0:0:
257,351,183102,6,0,P|238:303|254:250,1,86.6249973564149,2|2,1:2|0:0,0:0:0:0:
361,164,183445,1,8,0:0:0:0:
430,313,183616,1,2,0:0:0:0:
430,313,183702,1,2,0:0:0:0:
430,313,183788,2,0,P|371:299|320:291,1,86.6249973564149,2|0,0:0|1:2,0:0:0:0:
185,187,184131,2,0,P|244:173|295:165,1,86.6249973564149,10|0,0:0|0:0,0:0:0:0:
426,70,184473,5,2,1:2:0:0:
426,70,184559,1,2,0:0:0:0:
426,70,184645,1,2,0:0:0:0:
426,70,184731,1,2,0:0:0:0:
426,70,184816,2,0,L|416:128,1,43.3124986782074,8|0,0:0|0:0,0:0:0:0:
349,180,184988,1,2,0:0:0:0:
349,180,185073,1,2,0:0:0:0:
349,180,185159,6,0,L|292:166,1,43.3124986782074,2|0,0:0|0:0,0:0:0:0:
222,220,185331,2,0,L|180:210,1,43.3124986782074,2|0,1:2|0:0,0:0:0:0:
343,197,185502,6,0,L|286:183,1,43.3124986782074,10|0,0:0|0:0,0:0:0:0:
217,239,185674,2,0,L|175:229,1,43.3124986782074,2|0,0:0|0:0,0:0:0:0:
338,215,185845,6,0,L|281:201,1,43.3124986782074,2|0,1:2|0:0,0:0:0:0:
212,257,186017,2,0,L|170:247,1,43.3124986782074,2|0,0:0|0:0,0:0:0:0:
283,355,186188,5,8,0:0:0:0:
225,174,186359,1,0,1:2:0:0:
331,334,186531,5,8,0:0:0:0:
325,161,186702,1,0,1:2:0:0:
376,347,186873,5,8,0:0:0:0:
431,196,187044,1,0,1:2:0:0:
431,196,187131,1,0,1:2:0:0:
431,196,187216,5,2,1:2:0:0:
283,112,187388,1,2,0:0:0:0:
363,281,187559,1,10,0:0:0:0:
429,113,187731,1,0,0:0:0:0:
277,268,187902,1,2,0:0:0:0:
251,263,187988,1,2,0:0:0:0:
226,254,188073,1,2,1:2:0:0:
201,245,188159,1,2,0:0:0:0:
175,239,188245,2,0,L|109:257,3,43.3124986782074,10|2|2|2,0:0|0:0|0:0|0:0,0:0:0:0:
100,313,188588,6,0,P|89:249|77:194,1,86.6249973564149,2|2,1:2|0:0,0:0:0:0:
152,62,188931,1,8,0:0:0:0:
23,175,189102,1,2,0:0:0:0:
23,175,189188,1,2,0:0:0:0:
23,175,189273,2,0,P|34:111|46:56,1,86.6249973564149,2|0,0:0|1:2,0:0:0:0:
178,204,189616,5,10,0:0:0:0:
32,300,189788,1,2,0:0:0:0:
181,177,189959,1,2,1:2:0:0:
132,371,190131,1,2,0:0:0:0:
14,219,190302,2,0,P|58:196|110:208,1,86.6249973564149,10|0,0:0|0:0,0:0:0:0:
200,312,190645,1,2,0:0:0:0:
200,312,190731,1,2,0:0:0:0:
200,312,190816,2,0,L|256:301,1,43.3124986782074,2|2,1:2|0:0,0:0:0:0:
309,211,190988,1,10,0:0:0:0:
309,211,191074,1,2,0:0:0:0:
309,211,191159,2,0,L|365:222,1,43.3124986782074,2|2,0:0|0:0,0:0:0:0:
417,336,191331,6,0,P|428:270|439:220,1,86.6249973564149,2|2,1:2|0:0,0:0:0:0:
375,105,191673,1,8,0:0:0:0:
269,286,191845,1,2,0:0:0:0:
269,286,191931,1,2,0:0:0:0:
269,286,192016,2,0,P|258:220|247:170,1,86.6249973564149,2|0,0:0|1:2,0:0:0:0:
286,40,192359,5,10,0:0:0:0:
174,216,192531,1,2,0:0:0:0:
332,140,192702,1,2,1:2:0:0:
175,44,192873,1,2,0:0:0:0:
265,216,193045,2,0,P|314:239|367:225,1,86.6249973564149,10|0,0:0|0:0,0:0:0:0:
439,107,193388,1,2,0:0:0:0:
439,107,193473,1,2,0:0:0:0:
439,107,193559,2,0,L|429:163,1,43.3124986782074,2|2,1:2|0:0,0:0:0:0:
352,278,193731,1,10,0:0:0:0:
352,278,193816,1,2,0:0:0:0:
352,278,193902,2,0,L|342:222,1,43.3124986782074,2|2,0:0|0:0,0:0:0:0:
249,114,194073,6,0,P|206:112|168:133,1,86.6249973564149,2|2,1:2|0:0,0:0:0:0:
38,292,194416,1,8,0:0:0:0:
67,108,194588,1,2,0:0:0:0:
67,108,194673,1,2,0:0:0:0:
67,108,194759,2,0,P|77:161|86:214,1,86.6249973564149,2|0,0:0|1:2,0:0:0:0:
185,327,195102,2,0,P|192:284|200:241,1,86.6249973564149,10|0,0:0|0:0,0:0:0:0:
331,76,195445,6,0,P|334:93|339:113,6,21.6562493391037,0|0|0|0|0|0|0,1:2|0:0|0:0|0:0|0:0|0:0|0:0,0:0:0:0:
400,156,195788,2,0,P|397:173|392:193,6,21.6562493391037,8|0|0|0|0|0|0,0:0|0:0|0:0|0:0|0:0|0:0|0:0,0:0:0:0:
326,234,196131,6,0,L|282:221,5,28.874999118805,0|0|0|0|0|0,0:0|0:0|0:0|1:2|0:0|0:0,0:0:0:0:
394,282,196473,2,0,L|438:269,5,28.874999118805,8|0|0|0|0|0,0:0|0:0|0:0|0:0|0:0|0:0,0:0:0:0:
321,311,196816,2,0,L|277:298,5,28.874999118805,0|0|0|0|0|0,1:2|0:0|0:0|0:0|0:0|0:0,0:0:0:0:
204,353,197159,5,8,0:0:0:0:
257,188,197331,1,0,1:2:0:0:
175,321,197502,5,8,0:0:0:0:
131,135,197673,1,0,1:2:0:0:
25,306,197845,5,8,0:0:0:0:
96,104,198016,1,0,1:2:0:0:
96,104,198102,1,0,1:2:0:0:
96,104,198188,6,0,P|106:154|124:291,1,156.749995814324,6|10,1:2|0:0,0:0:0:0:
273,113,198702,1,2,0:0:0:0:
273,113,198788,1,0,0:0:0:0:
273,113,198873,2,0,P|261:157|248:219,1,78.3749979071618,0|0,0:0|1:2,0:0:0:0:
336,355,199216,1,10,0:0:0:0:
213,284,199388,5,0,0:0:0:0:
213,284,199473,1,0,0:0:0:0:
213,284,199559,2,0,P|263:273|310:265,1,78.3749979071618,0|2,1:2|0:0,0:0:0:0:
420,190,199902,2,0,P|370:179|323:171,1,78.3749979071618,10|0,0:0|0:0,0:0:0:0:
343,174,200159,1,0,0:0:0:0:
343,174,200245,1,2,0:0:0:0:
241,303,200416,1,0,1:2:0:0:
215,117,200588,2,0,P|229:180|236:224,1,78.3749979071618,10|0,0:0|0:0,0:0:0:0:
455,91,200931,6,0,P|436:40|326:43,1,156.749995814324,2|10,1:2|0:0,0:0:0:0:
265,132,201445,1,2,0:0:0:0:
265,132,201531,1,0,0:0:0:0:
265,132,201616,2,0,P|217:118|169:106,1,78.3749979071618,0|0,0:0|1:2,0:0:0:0:
32,189,201959,1,10,0:0:0:0:
75,42,202131,5,0,0:0:0:0:
75,42,202216,1,0,0:0:0:0:
75,42,202302,2,0,P|84:93|92:148,1,78.3749979071618,0|2,1:2|0:0,0:0:0:0:
209,227,202645,2,0,P|215:188|222:149,1,78.3749979071618,10|0,0:0|0:0,0:0:0:0:
65,248,202988,1,2,0:0:0:0:
228,311,203159,1,2,1:2:0:0:
138,162,203331,1,10,0:0:0:0:
85,323,203502,1,2,0:0:0:0:
242,221,203673,6,0,B|325:195|311:272|402:240,1,156.749995814324,2|10,1:2|0:0,0:0:0:0:
470,97,204188,1,2,0:0:0:0:
470,97,204273,1,0,0:0:0:0:
470,97,204359,2,0,P|457:145|445:208,1,78.3749979071618,0|0,0:0|1:2,0:0:0:0:
351,36,204702,1,10,0:0:0:0:
273,188,204873,1,0,0:0:0:0:
273,188,204959,1,0,0:0:0:0:
273,188,205045,6,0,P|264:149|253:112,1,78.3749979071618,0|2,1:2|0:0,0:0:0:0:
201,329,205388,1,10,0:0:0:0:
378,251,205559,1,0,0:0:0:0:
378,251,205645,1,0,0:0:0:0:
378,251,205731,2,0,P|367:288|358:326,1,78.3749979071618,2|0,0:0|1:2,0:0:0:0:
194,205,206073,1,10,0:0:0:0:
340,135,206245,1,0,0:0:0:0:
235,324,206416,6,0,P|169:294|56:278,1,156.749995814324,2|10,1:2|0:0,0:0:0:0:
22,157,206931,1,2,0:0:0:0:
22,157,207016,1,0,0:0:0:0:
22,157,207102,2,0,P|71:138|114:133,1,78.3749979071618,0|0,0:0|1:2,0:0:0:0:
255,218,207445,1,10,0:0:0:0:
186,40,207616,1,0,0:0:0:0:
186,40,207702,1,0,0:0:0:0:
186,40,207788,6,0,P|177:91|170:143,1,78.3749979071618,0|2,1:2|0:0,0:0:0:0:
120,286,208131,2,0,P|114:247|107:208,1,78.3749979071618,10|2,0:0|0:0,0:0:0:0:
124,193,208388,1,2,0:0:0:0:
145,184,208473,1,2,0:0:0:0:
168,187,208559,1,2,0:0:0:0:
187,199,208645,1,2,0:0:0:0:
279,267,208816,1,2,0:0:0:0:
340,150,208988,1,2,0:0:0:0:
340,150,209073,1,0,0:0:0:0:
340,150,209159,6,0,P|326:226|314:321,1,156.749995814324,2|10,1:2|0:0,0:0:0:0:
228,134,209673,1,2,0:0:0:0:
228,134,209759,1,0,0:0:0:0:
228,134,209845,2,0,P|192:111|131:112,1,78.3749979071618,0|0,0:0|1:2,0:0:0:0:
36,184,210188,1,10,0:0:0:0:
139,272,210359,1,0,0:0:0:0:
139,272,210445,1,0,0:0:0:0:
139,272,210531,6,0,P|148:218|157:178,1,78.3749979071618,0|2,1:2|0:0,0:0:0:0:
31,70,210873,2,0,P|38:108|44:147,1,78.3749979071618,10|0,0:0|0:0,0:0:0:0:
44,147,211131,1,0,0:0:0:0:
44,147,211216,1,2,0:0:0:0:
157,28,211388,1,0,1:2:0:0:
232,209,211559,1,10,0:0:0:0:
162,117,211731,5,0,0:0:0:0:
162,117,211816,1,0,0:0:0:0:
162,117,211902,2,0,B|244:88|226:166|321:129,1,156.749995814324,2|10,1:2|0:0,0:0:0:0:
447,60,212416,1,2,0:0:0:0:
447,60,212502,1,0,0:0:0:0:
447,60,212588,2,0,P|406:50|367:30,1,78.3749979071618,0|0,0:0|1:2,0:0:0:0:
192,158,212931,1,10,0:0:0:0:
274,25,213102,1,0,0:0:0:0:
274,25,213188,1,0,0:0:0:0:
274,25,213273,6,0,P|285:87|293:136,1,78.3749979071618,0|2,1:2|0:0,0:0:0:0:
409,223,213616,2,0,P|415:184|422:145,1,78.3749979071618,10|0,0:0|0:0,0:0:0:0:
283,277,213959,1,2,0:0:0:0:
333,141,214131,1,2,1:2:0:0:
382,333,214302,1,10,0:0:0:0:
264,200,214473,1,2,0:0:0:0:
190,367,214645,6,0,P|147:378|57:300,1,156.749995814324,2|10,1:2|0:0,0:0:0:0:
132,202,215159,1,2,0:0:0:0:
132,202,215245,1,0,0:0:0:0:
132,202,215331,2,0,P|144:260|150:305,1,78.3749979071618,0|0,0:0|1:2,0:0:0:0:
239,141,215673,1,10,0:0:0:0:
39,200,215845,1,0,0:0:0:0:
39,200,215931,1,0,0:0:0:0:
39,200,216016,6,0,P|49:149|65:88,1,78.3749979071618,0|2,1:2|0:0,0:0:0:0:
234,244,216359,1,10,0:0:0:0:
156,67,216531,1,0,0:0:0:0:
156,67,216616,1,0,0:0:0:0:
156,67,216702,2,0,P|110:54|76:47,1,78.3749979071618,2|0,0:0|1:2,0:0:0:0:
163,228,217045,1,10,0:0:0:0:
268,87,217216,1,0,0:0:0:0:
440,247,217388,6,0,P|387:239|352:140,1,156.749995814324,2|10,1:2|0:0,0:0:0:0:
457,75,217902,1,2,0:0:0:0:
457,75,217988,1,0,0:0:0:0:
457,75,218073,2,0,P|441:129|432:180,1,78.3749979071618,0|0,0:0|1:2,0:0:0:0:
251,61,218416,1,10,0:0:0:0:
302,228,218588,1,0,0:0:0:0:
172,134,218759,6,0,P|143:127|115:118,1,45.3750013847352,0|2,0:0|0:0,0:0:0:0:
50,217,219102,2,0,P|79:210|107:201,1,45.3750013847352,2|0,0:0|0:0,0:0:0:0:
176,247,219445,2,0,P|185:280|190:306,1,45.3750013847352,2|0,0:0|0:0,0:0:0:0:
268,226,219788,2,0,P|273:203|279:182,1,45.3750013847352
