osu file format v14

[General]
AudioFilename: audio.mp3
AudioLeadIn: 0
PreviewTime: 63531
Countdown: 0
SampleSet: Soft
StackLeniency: 0.7
Mode: 0
LetterboxInBreaks: 0
WidescreenStoryboard: 1

[Editor]
Bookmarks: 57890,188347
DistanceSpacing: 0.6
BeatDivisor: 4
GridSize: 32
TimelineZoom: 3.259999

[Metadata]
Title:Pull The Trigger (Maduk Remix)
TitleUnicode:Pull The Trigger (Maduk Remix)
Artist:Flux Pavilion
ArtistUnicode:Flux Pavilion
Creator:Kujinn
Version:Hard
Source:
Tags:Reform drum and n bass dnb Cammie Robinson english electronic & Rampage 2018 Sampler 02
BeatmapID:2658276
BeatmapSetID:1279136

[Difficulty]
HPDrainRate:5
CircleSize:3.5
OverallDifficulty:6
ApproachRate:8
SliderMultiplier:1.45
SliderTickRate:1

[Events]
//Background and Video events
0,0,"BG.jpg",0,0
//Break Periods
2,132559,139838
//Storyboard Layer 0 (Background)
//Storyboard Layer 1 (Fail)
//Storyboard Layer 2 (Pass)
//Storyboard Layer 3 (Foreground)
//Storyboard Layer 4 (Overlay)
//Storyboard Sound Samples

[TimingPoints]
-669,342.857142857143,4,2,1,30,1,0
702,-250,4,2,1,30,0,0
22645,-166.666666666667,4,2,1,40,0,0
44588,-125,4,2,1,45,0,0
55559,-111.111111111111,4,2,1,50,0,0
58302,-111.111111111111,4,2,1,55,0,0
61045,-111.111111111111,4,2,1,60,0,0
63616,-111.111111111111,4,2,1,65,0,0
63959,-111.111111111111,4,2,2,70,0,0
64130,-111.111111111111,4,2,1,70,0,0
64301,-111.111111111111,4,2,2,70,0,0
64472,-111.111111111111,4,2,1,70,0,0
64644,-111.111111111111,4,2,2,70,0,0
64730,-111.111111111111,4,2,1,70,0,0
64987,-111.111111111111,4,2,2,70,0,0
65158,-111.111111111111,4,2,1,70,0,0
66531,-95.2380952380952,4,2,1,80,0,1
87102,-95.2380952380952,4,2,1,80,0,1
88473,-105.263157894737,4,2,1,70,0,0
110416,-95.2380952380952,4,2,1,80,0,1
131673,-117.647058823529,4,2,1,55,0,1
132359,-117.647058823529,4,2,1,30,0,0
140588,-222.222222222221,4,2,1,30,0,0
143331,-153.846153846153,4,2,1,55,0,0
146073,-153.846153846153,4,2,1,60,0,0
148816,-117.647058823529,4,2,1,65,0,0
151559,-117.647058823529,4,2,1,70,0,0
151731,-117.647058823529,4,2,2,70,0,0
151902,-117.647058823529,4,2,1,70,0,0
152073,-117.647058823529,4,2,2,70,0,0
152244,-117.647058823529,4,2,1,70,0,0
152416,-117.647058823529,4,2,2,70,0,0
152502,-117.647058823529,4,2,1,70,0,0
152759,-117.647058823529,4,2,2,70,0,0
152930,-117.647058823529,4,2,1,70,0,0
153659,-117.647058823529,4,2,1,30,0,0
154302,-95.2380952380951,4,2,1,80,0,1
198188,-105.263157894737,4,2,1,70,0,0
218759,-181.818181818182,4,2,1,70,0,0

[Colours]
Combo1 : 148,206,241
Combo2 : 49,77,68
Combo3 : 77,166,139
Combo4 : 156,226,202

[HitObjects]
34,287,702,6,0,B|148:246|111:358|234:313,1,203,2|0,0:0|0:0,0:0:0:0:
281,262,2073,2,0,P|315:271|344:277,1,58,2|0,0:0|0:0,0:0:0:0:
452,167,2759,2,0,P|423:173|395:180,1,58,2|0,0:0|0:0,0:0:0:0:
230,100,3445,6,0,P|230:41|351:13,1,203,2|0,0:0|0:0,0:0:0:0:
395,74,4816,2,0,P|388:113|382:144,1,58,2|0,0:0|0:0,0:0:0:0:
324,181,5331,2,0,P|331:220|341:276,1,87
206,329,6188,6,0,P|161:349|79:244,1,203,2|0,0:0|0:0,0:0:0:0:
146,200,7559,2,0,P|162:155|144:87,1,116,2|0,0:0|0:0,0:0:0:0:
146,90,8588,1,0,0:0:0:0:
36,42,8931,6,0,B|103:31|103:31|145:67|145:67|227:51,1,203,2|0,0:0|0:0,0:0:0:0:
295,13,10302,2,0,P|358:23|414:32,1,116,2|0,0:0|0:0,0:0:0:0:
467,93,11159,1,0,0:0:0:0:
467,93,11673,6,0,P|443:112|471:242,1,174,2|0,0:0|0:0,0:0:0:0:
461,236,13045,2,0,L|401:247,1,58,2|0,0:0|0:0,0:0:0:0:
318,324,13731,2,0,L|260:313,1,58
136,352,14416,6,0,B|92:263|181:292|132:183,1,174,2|0,0:0|0:0,0:0:0:0:
61,142,15616,2,0,P|97:109|191:129,1,145,2|0,0:0|0:0,0:0:0:0:
185,123,16816,1,0,0:0:0:0:
299,67,17159,6,0,P|296:121|291:248,1,174,2|0,0:0|0:0,0:0:0:0:
331,332,18531,2,0,P|302:325|274:318,1,58,2|0,0:0|0:0,0:0:0:0:
199,243,19216,2,0,P|170:249|142:256,1,58
39,281,19902,1,2,0:0:0:0:
39,281,20245,6,0,B|11:337|64:398|128:364|144:284|92:225|92:225|49:173|91:105,1,377
62,42,22645,6,0,P|104:37|141:59,1,86.9999973449708,6|2,0:0|0:0,0:0:0:0:
195,158,23331,2,0,P|237:162|274:140,1,86.9999973449708,2|0,0:0|0:0,0:0:0:0:
374,56,24016,2,0,L|387:154,1,86.9999973449708,2|0,0:0|0:0,0:0:0:0:
446,195,24531,2,0,L|433:293,1,86.9999973449708,2|0,0:0|0:0,0:0:0:0:
374,329,25045,1,2,0:0:0:0:
374,329,25388,6,0,P|345:297|253:302,1,130.499996017456,2|2,0:0|0:0,0:0:0:0:
262,295,26416,2,0,B|205:276|205:276|161:309|161:309|95:289,1,173.999994689942,2|0,0:0|0:0,0:0:0:0:
104,291,27445,2,0,L|99:238,1,43.4999986724854
149,186,27788,2,0,L|154:133,1,43.4999986724854
79,104,28131,6,0,P|127:116|170:92,1,86.9999973449708,0|2,0:0|0:0,0:0:0:0:
226,28,28816,2,0,P|266:15|307:30,1,86.9999973449708,2|2,0:0|0:0,0:0:0:0:
415,20,29502,2,0,P|406:63|387:151,1,130.499996017456,2|2,0:0|0:0,0:0:0:0:
387,147,30531,1,2,0:0:0:0:
444,242,30873,6,0,L|349:220,1,86.9999973449708
297,279,31388,2,0,L|212:298,1,86.9999973449708,2|0,0:0|0:0,0:0:0:0:
132,260,31902,2,0,P|112:216|186:124,1,173.999994689942,2|0,0:0|0:0,0:0:0:0:
179,124,32931,2,0,L|231:134,1,43.4999986724854,2|2,0:0|0:0,0:0:0:0:
276,189,33273,2,0,L|318:180,1,43.4999986724854,2|2,0:0|0:0,0:0:0:0:
391,141,33616,6,0,P|367:172|368:237,1,86.9999973449708,2|2,0:0|0:0,0:0:0:0:
497,288,34302,2,0,P|493:245|467:210,1,86.9999973449708,2|2,0:0|0:0,0:0:0:0:
385,333,34988,2,0,L|286:310,1,86.9999973449708,2|0,0:0|0:0,0:0:0:0:
244,259,35502,2,0,L|159:278,1,86.9999973449708,2|0,0:0|0:0,0:0:0:0:
105,336,36016,1,2,0:0:0:0:
30,222,36359,6,0,L|12:120,1,86.9999973449708,2|0,0:0|0:0,0:0:0:0:
59,74,36873,2,0,P|88:100|149:96,1,86.9999973449708,2|0,0:0|0:0,0:0:0:0:
200,68,37388,1,2,0:0:0:0:
285,205,37731,2,0,L|266:301,1,86.9999973449708,2|0,0:0|0:0,0:0:0:0:
306,354,38245,2,0,P|346:336|388:344,1,86.9999973449708,2|0,0:0|0:0,0:0:0:0:
461,381,38759,1,2,0:0:0:0:
455,235,39102,6,0,P|441:202|457:137,1,86.9999973449708,2|0,0:0|0:0,0:0:0:0:
492,90,39616,2,0,P|462:110|411:105,1,86.9999973449708,2|0,0:0|0:0,0:0:0:0:
349,62,40131,1,2,0:0:0:0:
232,138,40473,2,0,L|247:231,1,86.9999973449708,2|0,0:0|0:0,0:0:0:0:
284,296,40988,2,0,P|241:305|192:273,1,86.9999973449708,2|0,0:0|0:0,0:0:0:0:
146,237,41502,2,0,P|104:224|65:242,1,86.9999973449708,2|0,0:0|0:0,0:0:0:0:
67,241,42188,6,0,B|22:226|13:171|80:135|120:166|152:230|152:230|172:279|218:299|262:276,1,347.999989379883,2|0,0:0|0:0,0:0:0:0:
259,277,43902,2,0,L|270:336,1,43.4999986724854,2|2,0:0|0:0,0:0:0:0:
341,350,44245,2,0,L|348:307,1,43.4999986724854,2|2,0:0|0:0,0:0:0:0:
426,255,44588,6,0,P|413:222|437:139,1,116,6|8,1:2|0:0,0:0:0:0:
431,146,45273,2,0,P|396:140|367:119,1,58,2|0,0:0|1:2,0:0:0:0:
324,67,45616,2,0,P|289:73|260:94,1,58,10|0,0:0|0:0,0:0:0:0:
239,159,45959,2,0,L|220:33,1,116,2|8,1:2|0:0,0:0:0:0:
146,0,46473,2,0,L|128:114,1,116,2|0,0:0|1:2,0:0:0:0:
66,176,46988,2,0,L|8:160,1,58,10|0,0:0|0:0,0:0:0:0:
107,259,47331,6,0,P|141:232|229:245,1,116,0|8,1:2|0:0,0:0:0:0:
210,233,48016,2,0,L|222:310,1,58,2|0,0:0|1:2,0:0:0:0:
294,349,48359,2,0,L|302:291,1,58,8|2,0:0|0:0,0:0:0:0:
361,236,48702,2,0,P|399:261|475:237,1,116,2|8,1:2|0:0,0:0:0:0:
419,182,49216,2,0,L|403:57,1,116,2|0,0:0|1:2,0:0:0:0:
326,20,49731,2,0,L|316:92,1,58,10|0,0:0|0:0,0:0:0:0:
190,152,50073,6,0,P|229:142|310:193,1,116,0|8,1:2|0:0,0:0:0:0:
368,211,50588,1,2,0:0:0:0:
368,211,50759,2,0,P|378:171|371:135,1,58,2|0,0:0|1:2,0:0:0:0:
293,256,51102,2,0,P|322:284|357:296,1,58,10|0,0:0|0:0,0:0:0:0:
295,171,51445,2,0,P|251:180|210:259,1,116,2|8,1:2|0:0,0:0:0:0:
227,320,51959,2,0,P|171:307|91:291,1,116,2|0,0:0|1:2,0:0:0:0:
113,295,52473,1,8,0:0:0:0:
30,176,52816,6,0,P|16:131|50:51,1,116,2|8,1:2|0:0,0:0:0:0:
105,32,53331,2,0,P|143:58|222:45,1,116,2|0,0:0|1:2,0:0:0:0:
286,18,53845,2,0,L|296:81,1,58,8|0,0:0|0:0,0:0:0:0:
369,140,54188,2,0,L|351:273,1,116,2|8,1:2|0:0,0:0:0:0:
353,254,54873,1,2,0:0:0:0:
353,254,55045,1,2,0:0:0:0:
283,208,55216,1,2,0:0:0:0:
283,208,55388,1,2,0:0:0:0:
202,284,55559,6,0,L|153:274,3,32.624999004364,14|0|0|0,0:0|0:0|0:0|0:0,0:0:0:0:
131,299,55902,2,0,L|99:305,3,32.624999004364,8|0|0|0,0:0|0:0|0:0|0:0,0:0:0:0:
58,278,56245,2,0,L|47:193,1,65.2499980087281,10|0,0:0|1:2,0:0:0:0:
117,157,56588,2,0,L|128:72,1,65.2499980087281,10|0,0:0|0:0,0:0:0:0:
203,18,56931,2,0,L|250:28,3,32.624999004364,10|0|0|0,0:0|0:0|0:0|0:0,0:0:0:0:
267,46,57273,2,0,L|298:39,3,32.624999004364,8|0|2|0,0:0|0:0|0:0|0:0,0:0:0:0:
333,66,57616,2,0,L|350:146,1,65.2499980087281,8|0,0:0|1:2,0:0:0:0:
276,189,57959,2,0,L|259:269,1,65.2499980087281,10|0,0:0|0:0,0:0:0:0:
305,345,58302,6,0,L|354:358,3,32.624999004364,8|0|0|0,0:0|0:0|0:0|0:0,0:0:0:0:
374,330,58645,2,0,L|405:321,3,32.624999004364,8|0|0|0,0:0|0:0|0:0|0:0,0:0:0:0:
452,325,58988,2,0,L|468:240,1,65.2499980087281,10|0,0:0|1:2,0:0:0:0:
394,187,59331,2,0,L|378:102,1,65.2499980087281,10|0,0:0|0:0,0:0:0:0:
317,39,59673,2,0,L|265:29,3,32.624999004364,10|0|0|0,0:0|0:0|0:0|0:0,0:0:0:0:
246,60,60016,2,0,L|213:66,3,32.624999004364,8|0|2|0,0:0|0:0|0:0|0:0,0:0:0:0:
169,62,60359,2,0,L|182:136,1,65.2499980087281,8|0,0:0|1:2,0:0:0:0:
250,189,60702,2,0,L|237:263,1,65.2499980087281,10|0,0:0|0:0,0:0:0:0:
210,353,61045,6,0,L|165:344,3,32.624999004364,8|0|0|0,0:0|1:2|1:2|1:2,0:0:0:0:
137,365,61388,2,0,L|105:371,3,32.624999004364,8|0|2|0,0:0|1:2|1:2|1:2,0:0:0:0:
61,353,61731,2,0,L|77:265,1,65.2499980087281,10|0,0:0|1:2,0:0:0:0:
24,192,62073,2,0,L|20:143,3,32.624999004364,10|0|0|0,0:0|1:2|1:2|1:2,0:0:0:0:
48,119,62416,2,0,L|98:129,3,32.624999004364,10|0|0|0,0:0|1:2|1:2|1:2,0:0:0:0:
122,153,62759,2,0,L|153:146,3,32.624999004364,8|0|2|0,0:0|1:2|1:2|1:2,0:0:0:0:
189,123,63102,2,0,L|173:35,1,65.2499980087281,8|0,0:0|1:2,0:0:0:0:
271,4,63445,2,0,L|314:13,3,32.624999004364,8|0|2|0,0:0|1:2|1:2|1:2,0:0:0:0:
337,39,63788,6,0,L|347:84,3,32.624999004364,0|0|10|8,1:2|1:2|0:3|0:3,0:0:0:0:
309,107,64131,2,0,L|299:152,3,32.624999004364,0|0|10|8,1:2|1:2|0:3|0:3,0:0:0:0:
337,178,64473,2,0,L|347:223,3,32.624999004364,0|0|10|0,1:2|1:2|0:3|1:2,0:0:0:0:
309,246,64816,2,0,L|299:291,3,32.624999004364,8|8|10|8,0:3|0:3|0:3|0:3,0:0:0:0:
332,313,65159,5,8,0:0:0:0:
170,355,66531,6,0,B|264:335|235:401|336:379,1,152.249995353699,6|8,1:2|0:0,0:0:0:0:
379,306,67045,1,0,0:0:0:0:
308,236,67216,2,0,L|301:178,3,38.0624988384247,2|2|2|2,0:0|0:0|1:2|0:0,0:0:0:0:
339,162,67559,2,0,L|346:104,3,38.0624988384247,10|2|2|2,0:0|0:0|0:0|0:0,0:0:0:0:
317,81,67902,6,0,P|270:108|177:81,1,152.249995353699,2|8,1:2|0:0,0:0:0:0:
104,25,68416,1,2,0:0:0:0:
104,25,68502,1,2,0:0:0:0:
104,25,68588,2,0,P|93:76|82:134,1,76.1249976768494,2|0,0:0|1:2,0:0:0:0:
14,144,68931,2,0,P|25:195|36:253,1,76.1249976768494,10|0,0:0|0:0,0:0:0:0:
6,318,69273,6,0,P|51:306|99:296,1,76.1249976768494,0|0,1:2|0:0,0:0:0:0:
142,231,69616,2,0,P|179:239|215:249,1,76.1249976768494,8|0,0:0|0:0,0:0:0:0:
271,322,69959,2,0,L|329:312,3,38.0624988384247,2|2|2|2,0:0|0:0|1:2|0:0,0:0:0:0:
342,289,70302,2,0,L|379:295,3,38.0624988384247,10|2|2|2,0:0|0:0|0:0|0:0,0:0:0:0:
427,328,70645,6,0,P|417:268|472:173,1,152.249995353699,2|8,1:2|0:0,0:0:0:0:
509,122,71159,1,2,0:0:0:0:
509,122,71245,1,2,0:0:0:0:
509,122,71331,2,0,P|468:112|413:96,1,76.1249976768494,2|0,0:0|1:2,0:0:0:0:
374,37,71673,2,0,P|333:47|278:63,1,76.1249976768494,10|0,0:0|0:0,0:0:0:0:
215,123,72016,6,0,P|204:61|197:22,1,76.1249976768494,0|0,1:2|0:0,0:0:0:0:
117,0,72359,2,0,P|110:37|103:74,1,76.1249976768494,8|0,0:0|0:0,0:0:0:0:
41,139,72702,2,0,L|50:189,3,38.0624988384247,2|2|2|2,0:0|0:0|1:2|0:0,0:0:0:0:
76,217,73045,2,0,L|67:267,3,38.0624988384247,10|2|2|2,0:0|0:0|0:0|0:0,0:0:0:0:
37,303,73388,6,0,P|104:287|196:350,1,152.249995353699,2|8,1:2|0:0,0:0:0:0:
257,376,73902,1,2,0:0:0:0:
257,376,73988,1,2,0:0:0:0:
257,376,74073,2,0,P|307:364|353:356,1,76.1249976768494,2|0,0:0|1:2,0:0:0:0:
406,291,74416,2,0,P|356:279|310:271,1,76.1249976768494,10|2,0:0|0:0,0:0:0:0:
224,217,74759,6,0,P|233:269|245:327,1,76.1249976768494,0|2,1:2|0:0,0:0:0:0:
307,179,75102,2,0,P|332:141|285:40,1,152.249995353699,8|0,0:0|0:0,0:0:0:0:
210,13,75616,1,2,1:2:0:0:
210,13,75788,2,0,P|153:26|104:39,1,76.1249976768494,8|2,0:0|0:0,0:0:0:0:
49,100,76131,6,0,P|106:113|155:126,1,76.1249976768494,0|2,1:2|0:0,0:0:0:0:
176,194,76473,2,0,P|165:249|156:296,1,76.1249976768494,8|2,0:0|0:0,0:0:0:0:
104,330,76816,2,0,L|62:338,2,38.0624988384247,0|0|2,0:0|0:0|0:0,0:0:0:0:
191,376,77159,1,0,0:0:0:0:
282,312,77331,1,0,0:0:0:0:
282,312,77416,1,0,0:0:0:0:
282,312,77502,6,0,P|273:241|261:148,1,152.249995353699,2|8,1:2|0:0,0:0:0:0:
195,98,78016,1,0,0:0:0:0:
262,40,78188,2,0,L|311:29,3,38.0624988384247,2|2|2|2,0:0|0:0|1:2|0:0,0:0:0:0:
335,57,78531,2,0,L|372:65,3,38.0624988384247,10|2|2|2,0:0|0:0|0:0|0:0,0:0:0:0:
429,59,78873,6,0,P|405:109|426:218,1,152.249995353699,2|8,1:2|0:0,0:0:0:0:
475,281,79388,1,2,0:0:0:0:
475,281,79473,1,2,0:0:0:0:
475,281,79559,2,0,P|427:296|374:312,1,76.1249976768494,2|0,0:0|1:2,0:0:0:0:
327,362,79902,2,0,P|290:350|254:339,1,76.1249976768494,10|0,0:0|0:0,0:0:0:0:
162,282,80245,6,0,P|151:338|143:380,1,76.1249976768494,0|0,1:2|0:0,0:0:0:0:
62,324,80588,2,0,P|54:286|47:249,1,76.1249976768494,8|0,0:0|0:0,0:0:0:0:
99,172,80931,2,0,L|106:111,3,38.0624988384247,2|2|2|2,0:0|0:0|1:2|0:0,0:0:0:0:
74,99,81273,2,0,L|67:38,3,38.0624988384247,10|2|2|2,0:0|0:0|0:0|0:0,0:0:0:0:
106,25,81616,6,0,P|156:65|254:35,1,152.249995353699,2|8,1:2|0:0,0:0:0:0:
319,5,82131,1,2,0:0:0:0:
319,5,82216,1,2,0:0:0:0:
319,5,82302,2,0,P|327:58|334:107,1,76.1249976768494,2|0,0:0|1:2,0:0:0:0:
263,143,82645,2,0,P|257:180|251:218,1,76.1249976768494,10|0,0:0|0:0,0:0:0:0:
315,295,82988,6,0,P|366:283|410:274,1,76.1249976768494,0|0,1:2|0:0,0:0:0:0:
258,369,83331,2,0,P|207:357|163:348,1,76.1249976768494,8|0,0:0|0:0,0:0:0:0:
112,294,83673,2,0,L|103:246,3,38.0624988384247,2|2|2|2,0:0|0:0|1:2|0:0,0:0:0:0:
142,224,84016,2,0,L|151:176,3,38.0624988384247,10|2|2|2,0:0|0:0|0:0|0:0,0:0:0:0:
126,143,84359,6,0,P|183:128|261:195,1,152.249995353699,2|8,1:2|0:0,0:0:0:0:
329,255,84873,1,2,0:0:0:0:
329,255,84959,1,2,0:0:0:0:
329,255,85045,2,0,P|338:197|347:150,1,76.1249976768494,2|0,0:0|1:2,0:0:0:0:
417,124,85388,2,0,P|408:66|399:19,1,76.1249976768494,10|0,0:0|0:0,0:0:0:0:
302,13,85731,6,0,P|265:30|208:25,2,76.1249976768494,0|0|8,1:2|0:0|0:0,0:0:0:0:
301,133,86245,1,0,0:0:0:0:
301,133,86416,2,0,P|260:129|213:96,2,76.1249976768494,0|0|8,0:0|1:2|0:0,0:0:0:0:
234,237,86931,1,0,0:0:0:0:
234,237,87102,2,0,P|200:213|176:161,2,76.1249976768494
210,318,87616,1,0,0:0:0:0:
210,318,88131,1,8,0:0:0:0:
309,376,88302,1,0,1:2:0:0:
309,376,88388,1,0,1:2:0:0:
309,376,88473,6,0,P|357:366|390:360,1,68.8749981608391,4|0,1:2|0:0,0:0:0:0:
459,292,88816,2,0,P|411:282|378:276,1,68.8749981608391,10|0,0:0|0:0,0:0:0:0:
338,210,89159,1,2,0:0:0:0:
402,152,89331,1,0,1:2:0:0:
343,84,89502,2,0,P|351:41|357:4,1,68.8749981608391,10|0,0:0|0:0,0:0:0:0:
245,114,89845,6,0,P|224:158|261:241,1,137.749996321678,2|8,1:2|0:0,0:0:0:0:
242,321,90359,2,0,P|200:328|150:344,1,68.8749981608391,2|0,0:0|0:0,0:0:0:0:
86,371,90702,1,0,1:2:0:0:
86,371,90873,2,0,P|52:362|18:357,1,68.8749981608391,10|0,0:0|0:0,0:0:0:0:
0,262,91216,6,0,P|10:193|19:121,1,137.749996321678,2|8,1:2|0:0,0:0:0:0:
80,55,91731,2,0,P|123:64|165:84,1,68.8749981608391,2|0,0:0|0:0,0:0:0:0:
212,141,92073,1,0,1:2:0:0:
212,141,92245,2,0,P|244:128|277:122,1,68.8749981608391,10|0,0:0|0:0,0:0:0:0:
384,75,92588,6,0,P|400:121|387:212,1,137.749996321678,0|8,1:2|0:0,0:0:0:0:
336,285,93102,2,0,P|378:299|425:322,1,68.8749981608391
266,350,93445,1,0,1:2:0:0:
266,350,93616,2,0,P|224:364|177:387,1,68.8749981608391,8|0,0:0|0:0,0:0:0:0:
99,358,93959,6,0,P|92:304|86:261,1,68.8749981608391,0|0,1:2|0:0,0:0:0:0:
25,220,94302,2,0,P|71:210|111:197,1,68.8749981608391,10|0,0:0|0:0,0:0:0:0:
164,147,94645,1,2,0:0:0:0:
234,213,94816,1,0,1:2:0:0:
309,147,94988,2,0,P|316:93|322:50,1,68.8749981608391,10|0,0:0|0:0,0:0:0:0:
237,10,95331,6,0,B|164:-11|181:61|92:30,1,137.749996321678,2|8,1:2|0:0,0:0:0:0:
29,89,95845,2,0,P|42:149|47:186,1,68.8749981608391,2|0,0:0|0:0,0:0:0:0:
115,220,96188,1,0,1:2:0:0:
115,220,96359,2,0,P|102:280|97:317,1,68.8749981608391,10|0,0:0|0:0,0:0:0:0:
28,372,96702,6,0,P|53:330|154:336,1,137.749996321678,0|8,1:2|0:0,0:0:0:0:
224,370,97216,2,0,P|269:356|311:347,1,68.8749981608391,2|0,0:0|0:0,0:0:0:0:
346,278,97559,1,0,1:2:0:0:
346,278,97731,2,0,P|379:286|412:297,1,68.8749981608391,10|0,0:0|0:0,0:0:0:0:
484,221,98073,6,0,L|496:143,1,68.8749981608391,0|0,1:2|0:0,0:0:0:0:
389,78,98416,2,0,L|399:146,1,68.8749981608391,8|0,0:0|1:2,0:0:0:0:
330,222,98759,1,10,0:0:0:0:
330,222,98931,1,2,1:2:0:0:
261,152,99102,1,10,0:0:0:0:
261,152,99273,1,2,1:2:0:0:
183,233,99445,6,0,P|148:249|104:244,1,68.8749981608391,2|0,1:2|0:0,0:0:0:0:
48,192,99788,2,0,L|59:117,1,68.8749981608391,10|0,0:0|0:0,0:0:0:0:
123,55,100131,1,2,0:0:0:0:
185,121,100302,1,0,1:2:0:0:
263,63,100473,2,0,P|301:75|341:87,1,68.8749981608391,10|0,0:0|0:0,0:0:0:0:
473,123,100816,6,0,P|421:127|379:215,1,137.749996321678,2|8,1:2|0:0,0:0:0:0:
404,293,101331,2,0,P|370:282|332:273,1,68.8749981608391,2|0,0:0|0:0,0:0:0:0:
262,226,101673,1,0,1:2:0:0:
262,226,101845,2,0,P|229:236|195:244,1,68.8749981608391,10|0,0:0|0:0,0:0:0:0:
113,346,102188,6,0,P|106:280|92:181,1,137.749996321678,2|8,1:2|0:0,0:0:0:0:
28,138,102702,2,0,P|75:127|114:115,1,68.8749981608391,2|0,0:0|0:0,0:0:0:0:
169,51,103045,1,0,1:2:0:0:
169,51,103216,2,0,P|202:60|235:67,1,68.8749981608391,10|0,0:0|0:0,0:0:0:0:
359,21,103559,6,0,P|343:84|328:171,1,137.749996321678,2|8,1:2|0:0,0:0:0:0:
243,205,104073,2,0,P|255:253|264:295,1,68.8749981608391,2|0,0:0|0:0,0:0:0:0:
350,313,104416,1,0,1:2:0:0:
350,313,104588,2,0,P|338:361|329:403,1,68.8749981608391,10|0,0:0|0:0,0:0:0:0:
217,373,104931,6,0,P|158:375|106:289,1,137.749996321678,2|8,1:2|0:0,0:0:0:0:
50,250,105445,2,0,P|59:204|64:165,1,68.8749981608391,2|0,0:0|0:0,0:0:0:0:
148,131,105788,1,0,1:2:0:0:
148,131,105959,2,0,P|139:85|134:46,1,68.8749981608391,10|0,0:0|0:0,0:0:0:0:
234,0,106302,6,0,P|295:-4|352:59,1,137.749996321678,2|8,1:2|0:0,0:0:0:0:
400,126,106816,2,0,P|363:137|316:162,1,68.8749981608391,2|0,0:0|0:0,0:0:0:0:
259,226,107159,1,0,1:2:0:0:
259,226,107331,2,0,P|292:235|323:249,1,68.8749981608391,10|0,0:0|0:0,0:0:0:0:
410,337,107673,6,0,P|416:293|427:249,1,68.8749981608391,0|0,1:2|0:0,0:0:0:0:
507,233,108016,2,0,P|468:241|395:176,1,137.749996321678,10|0,0:0|0:0,0:0:0:0:
355,96,108531,1,0,1:2:0:0:
355,96,108702,2,0,P|310:109|269:123,1,68.8749981608391,10|0,0:0|0:0,0:0:0:0:
221,189,109045,6,0,P|188:178|155:169,1,68.8749981608391,2|0,1:2|0:0,0:0:0:0:
49,125,109388,2,0,P|60:186|64:223,1,68.8749981608391,10|0,0:0|1:2,0:0:0:0:
132,254,109731,1,10,0:0:0:0:
132,254,109902,1,2,0:0:0:0:
70,323,110073,1,10,0:0:0:0:
70,323,110245,1,0,1:2:0:0:
194,374,110416,6,0,P|239:361|275:355,1,76.1249976768494,6|2,1:2|0:0,0:0:0:0:
325,277,110759,2,0,P|362:284|398:295,1,76.1249976768494,10|0,0:0|0:0,0:0:0:0:
492,232,111102,2,0,L|502:173,3,38.0624988384247,2|2|2|2,0:0|0:0|1:2|0:0,0:0:0:0:
468,158,111445,2,0,L|458:99,3,38.0624988384247,10|2|2|2,0:0|0:0|0:0|0:0,0:0:0:0:
455,73,111788,6,0,P|409:89|372:97,1,76.1249976768494,2|2,1:2|0:0,0:0:0:0:
303,42,112131,1,8,0:0:0:0:
244,119,112302,2,0,L|229:210,1,76.1249976768494,2|2,0:0|0:0,0:0:0:0:
299,270,112645,1,0,1:2:0:0:
209,333,112816,6,0,P|165:341|124:354,1,76.1249976768494,10|2,0:0|0:0,0:0:0:0:
51,298,113159,1,2,1:2:0:0:
112,236,113331,1,2,0:0:0:0:
33,189,113502,2,0,P|26:137|19:94,1,76.1249976768494,10|0,0:0|0:0,0:0:0:0:
87,40,113845,2,0,L|142:51,3,38.0624988384247,2|2|2|2,0:0|0:0|1:2|0:0,0:0:0:0:
166,74,114188,2,0,L|203:66,3,38.0624988384247,10|2|2|2,0:0|0:0|0:0|0:0,0:0:0:0:
240,34,114531,6,0,P|288:46|328:58,1,76.1249976768494,2|2,1:2|0:0,0:0:0:0:
378,118,114873,1,8,0:0:0:0:
457,64,115045,2,0,P|467:119|474:163,1,76.1249976768494,2|2,0:0|0:0,0:0:0:0:
415,207,115388,1,0,1:2:0:0:
490,298,115559,6,0,P|440:287|380:277,1,76.1249976768494,10|2,0:0|0:0,0:0:0:0:
343,334,115902,1,2,1:2:0:0:
271,275,116073,1,2,0:0:0:0:
197,345,116245,2,0,P|187:282|181:240,1,76.1249976768494,10|0,0:0|0:0,0:0:0:0:
225,189,116588,2,0,L|234:138,3,38.0624988384247,2|2|2|2,0:0|0:0|1:2|0:0,0:0:0:0:
193,118,116931,2,0,L|184:67,3,38.0624988384247,10|2|2|2,0:0|0:0|0:0|0:0,0:0:0:0:
193,29,117273,6,0,P|151:42|108:50,1,76.1249976768494,2|2,1:2|0:0,0:0:0:0:
13,33,117616,1,8,0:0:0:0:
66,119,117788,2,0,P|76:170|84:227,1,76.1249976768494,2|2,0:0|0:0,0:0:0:0:
28,266,118131,1,0,1:2:0:0:
104,330,118302,2,0,P|144:318|190:312,1,76.1249976768494,10|2,0:0|0:0,0:0:0:0:
275,253,118645,6,0,L|325:269,3,38.0624988384247,2|2|2|2,1:2|0:0|0:0|0:0,0:0:0:0:
347,306,118988,2,0,P|391:292|438:285,1,76.1249976768494,8|2,0:0|0:0,0:0:0:0:
458,258,119245,1,2,0:0:0:0:
458,258,119331,2,0,P|464:197|473:147,1,76.1249976768494,2|2,0:0|1:2,0:0:0:0:
417,111,119673,1,10,0:0:0:0:
476,52,119845,1,2,0:0:0:0:
400,17,120016,6,0,P|348:6|307:-7,1,76.1249976768494,2|2,1:2|0:0,0:0:0:0:
254,69,120359,2,0,P|202:80|161:93,1,76.1249976768494,10|2,0:0|0:0,0:0:0:0:
84,54,120702,2,0,L|75:3,2,38.0624988384247,0|0|2,0:0|0:0|0:0,0:0:0:0:
35,126,121045,1,0,0:0:0:0:
115,187,121216,1,0,0:0:0:0:
115,187,121302,1,0,0:0:0:0:
115,187,121388,6,0,P|125:245|133:286,1,76.1249976768494,2|2,1:2|0:0,0:0:0:0:
208,309,121731,2,0,P|214:271|221:234,1,76.1249976768494,10|0,0:0|0:0,0:0:0:0:
293,166,122073,2,0,L|285:112,3,38.0624988384247,2|2|2|2,0:0|0:0|1:2|0:0,0:0:0:0:
259,93,122416,2,0,L|267:39,3,38.0624988384247,10|2|2|2,0:0|0:0|0:0|0:0,0:0:0:0:
302,29,122759,6,0,P|340:36|376:47,1,76.1249976768494,2|2,1:2|0:0,0:0:0:0:
471,20,123102,1,8,0:0:0:0:
432,118,123273,2,0,P|446:180|456:222,1,76.1249976768494,2|2,0:0|0:0,0:0:0:0:
397,274,123616,1,0,1:2:0:0:
316,192,123788,6,0,P|278:198|241:207,1,76.1249976768494,10|2,0:0|0:0,0:0:0:0:
176,264,124131,1,2,1:2:0:0:
106,200,124302,1,2,0:0:0:0:
37,261,124473,2,0,L|25:343,1,76.1249976768494,8|0,0:0|0:0,0:0:0:0:
110,384,124816,2,0,L|156:376,3,38.0624988384247,2|2|2|2,0:0|0:0|1:2|0:0,0:0:0:0:
182,345,125159,2,0,L|219:351,3,38.0624988384247,10|2|2|2,0:0|0:0|0:0|0:0,0:0:0:0:
261,379,125502,6,0,P|309:367|360:359,1,76.1249976768494,2|2,1:2|0:0,0:0:0:0:
398,295,125845,1,8,0:0:0:0:
481,372,126016,2,0,P|490:322|498:275,1,76.1249976768494,2|2,0:0|0:0,0:0:0:0:
442,220,126359,1,0,1:2:0:0:
503,127,126531,6,0,P|448:135|400:137,1,76.1249976768494,10|2,0:0|0:0,0:0:0:0:
348,73,126873,1,2,1:2:0:0:
272,127,127045,1,2,0:0:0:0:
163,87,127216,2,0,P|170:147|176:194,1,76.1249976768494,10|0,0:0|0:0,0:0:0:0:
117,236,127559,2,0,L|111:281,3,38.0624988384247,2|2|2|2,0:0|0:0|1:2|0:0,0:0:0:0:
142,305,127902,2,0,L|148:350,3,38.0624988384247,10|2|2|2,0:0|0:0|0:0|0:0,0:0:0:0:
189,368,128245,6,0,P|240:356|289:347,1,76.1249976768494,2|2,1:2|0:0,0:0:0:0:
329,292,128588,1,8,0:0:0:0:
411,365,128759,2,0,P|420:305|425:253,1,76.1249976768494,2|2,0:0|0:0,0:0:0:0:
495,227,129102,1,0,1:2:0:0:
414,163,129273,2,0,P|364:172|320:179,1,76.1249976768494,8|2,0:0|0:0,0:0:0:0:
230,136,129616,6,0,P|241:203|247:247,1,76.1249976768494,0|2,1:2|0:0,0:0:0:0:
156,297,129959,2,0,P|145:230|139:186,1,76.1249976768494,8|2,0:0|0:0,0:0:0:0:
94,146,130302,2,0,L|101:106,4,25.3749992256165,0|0|0|2|0,0:0|0:0|0:0|1:2|0:0,0:0:0:0:
130,87,130645,2,0,L|123:47,4,25.3749992256165,8|0|0|2|0,0:0|0:0|0:0|0:0|0:0,0:0:0:0:
158,21,130988,2,0,L|197:32,4,25.3749992256165,0|0|0|2|0,0:0|0:0|0:0|0:0|0:0,0:0:0:0:
217,51,131331,2,0,L|241:44,4,25.3749992256165,0|0|0|2|0,0:0|0:0|0:0|0:0|0:0,0:0:0:0:
283,23,131673,6,0,L|297:95,1,61.6250011754036,2|2,0:0|0:0,0:0:0:0:
361,141,132016,2,0,L|347:213,1,61.6250011754036,8|2,0:0|0:0,0:0:0:0:
280,262,132359,1,6,1:2:0:0:
151,279,140588,6,0,B|102:314|64:251|123:208|183:224|219:279|219:279|240:312|267:331|324:330|352:295,1,358.874989048004,2|0,0:0|0:0,0:0:0:0:
401,243,142645,2,0,L|395:200,1,32.624999004364,2|2,0:0|0:0,0:0:0:0:
453,149,142988,2,0,L|459:106,1,32.624999004364,2|2,0:0|0:0,0:0:0:0:
405,44,143331,6,0,P|373:64|312:51,1,94.2499956855776,14|8,0:0|0:0,0:0:0:0:
319,56,144016,2,0,L|309:109,1,47.1249978427888,8|0,0:0|1:2,0:0:0:0:
238,148,144359,2,0,L|248:201,1,47.1249978427888,10|0,0:0|0:0,0:0:0:0:
326,270,144702,6,0,P|279:278|221:294,1,94.2499956855776,10|8,0:0|0:0,0:0:0:0:
234,290,145388,2,0,P|202:280|171:272,1,47.1249978427888,8|0,0:0|1:2,0:0:0:0:
129,344,145731,2,0,P|106:350|83:357,1,47.1249978427888,8|0,0:0|0:0,0:0:0:0:
5,286,146073,6,0,L|26:178,1,94.2499956855776,8|8,0:0|0:0,0:0:0:0:
22,193,146759,1,8,0:0:0:0:
22,193,146930,1,0,1:2:0:0:
107,263,147102,2,0,L|161:252,1,47.1249978427888,10|0,0:0|0:0,0:0:0:0:
229,177,147445,6,0,L|208:69,1,94.2499956855776,10|8,0:0|0:0,0:0:0:0:
211,84,148131,1,8,0:0:0:0:
211,84,148302,1,0,1:2:0:0:
294,25,148474,2,0,L|348:36,1,47.1249978427888,8|0,0:0|0:0,0:0:0:0:
404,122,148816,6,0,L|393:168,3,30.8125005877018,8|0|0|0,0:0|1:2|1:2|1:2,0:0:0:0:
393,199,149159,2,0,L|347:213,3,30.8125005877018,8|0|0|0,0:0|1:2|1:2|1:2,0:0:0:0:
324,234,149502,2,0,L|288:201,3,30.8125005877018,8|0|0|0,0:0|1:2|1:2|1:2,0:0:0:0:
257,196,149845,2,0,P|264:155|269:121,1,61.6250011754036,10|0,0:0|1:2,0:0:0:0:
204,49,150188,6,0,L|156:43,3,30.8125005877018,10|0|0|0,0:0|1:2|1:2|1:2,0:0:0:0:
127,33,150531,2,0,L|98:71,3,30.8125005877018,8|0|2|0,0:0|1:2|1:2|1:2,0:0:0:0:
71,85,150874,2,0,L|89:129,3,30.8125005877018,8|0|0|0,0:0|1:2|1:2|1:2,0:0:0:0:
84,161,151217,2,0,P|118:167|158:175,1,61.6250011754036,8|2,0:0|1:2,0:0:0:0:
219,259,151559,6,0,L|268:269,3,30.8125005877018,0|0|10|8,1:2|1:2|0:3|0:3,0:0:0:0:
275,294,151902,2,0,L|324:304,3,30.8125005877018,0|0|10|8,1:2|1:2|0:3|0:3,0:0:0:0:
338,267,152245,2,0,L|387:277,3,30.8125005877018,0|0|10|0,1:2|1:2|0:3|1:2,0:0:0:0:
397,308,152588,2,0,L|446:318,3,30.8125005877018,8|8|10|8,0:3|0:3|0:3|0:3,0:0:0:0:
464,290,152931,5,8,0:0:0:0:
354,32,154302,6,0,B|274:13|303:79|209:59,1,152.249995353699,6|8,1:2|0:0,0:0:0:0:
140,113,154816,1,0,0:0:0:0:
211,170,154987,2,0,L|218:228,3,38.0624988384247,2|2|2|2,0:0|0:0|1:2|0:0,0:0:0:0:
177,242,155330,2,0,L|170:300,3,38.0624988384247,10|2|2|2,0:0|0:0|0:0|0:0,0:0:0:0:
206,320,155673,6,0,P|270:302|341:346,1,152.249995353699,2|8,1:2|0:0,0:0:0:0:
432,375,156187,1,2,0:0:0:0:
432,375,156273,1,2,0:0:0:0:
432,375,156359,2,0,P|426:323|421:282,1,76.1249976768494,2|0,0:0|1:2,0:0:0:0:
497,241,156702,2,0,P|503:189|506:151,1,76.1249976768494,10|0,0:0|0:0,0:0:0:0:
511,73,157044,6,0,P|474:81|437:91,1,76.1249976768494,0|0,1:2|0:0,0:0:0:0:
374,159,157387,2,0,P|338:149|300:141,1,76.1249976768494,8|0,0:0|0:0,0:0:0:0:
238,70,157730,2,0,L|180:80,3,38.0624988384247,2|2|2|2,0:0|0:0|1:2|0:0,0:0:0:0:
167,103,158073,2,0,L|130:97,3,38.0624988384247,10|2|2|2,0:0|0:0|0:0|0:0,0:0:0:0:
73,43,158416,6,0,P|84:116|94:194,1,152.249995353699,2|8,1:2|0:0,0:0:0:0:
34,266,158930,1,2,0:0:0:0:
34,266,159016,1,2,0:0:0:0:
34,266,159102,2,0,P|72:268|105:286,1,76.1249976768494,2|0,0:0|1:2,0:0:0:0:
163,343,159445,2,2,P|201:341|234:322,1,76.1249976768494,10|0,0:0|0:0,0:0:0:0:
304,254,159787,6,0,P|315:316|322:355,1,76.1249976768494,0|0,1:2|0:0,0:0:0:0:
394,383,160130,2,0,P|401:346|408:309,1,76.1249976768494,8|0,0:0|0:0,0:0:0:0:
470,244,160473,2,0,L|461:194,3,38.0624988384247,2|2|2|2,0:0|0:0|1:2|0:0,0:0:0:0:
435,166,160816,2,0,L|444:116,3,38.0624988384247,10|2|2|2,0:0|0:0|0:0|0:0,0:0:0:0:
474,80,161159,6,0,P|407:96|315:33,1,152.249995353699,2|8,1:2|0:0,0:0:0:0:
254,7,161673,1,2,0:0:0:0:
254,7,161759,1,2,0:0:0:0:
254,7,161844,2,0,P|204:19|158:27,1,76.1249976768494,2|0,0:0|1:2,0:0:0:0:
105,92,162187,2,0,P|155:104|201:112,1,76.1249976768494,10|2,0:0|0:0,0:0:0:0:
278,173,162531,6,0,P|287:122|264:86,1,76.1249976768494,0|2,1:2|0:0,0:0:0:0:
178,188,162873,2,0,P|194:256|211:337,1,152.249995353699,8|0,0:0|0:0,0:0:0:0:
301,370,163387,1,2,1:2:0:0:
301,370,163559,2,0,P|358:357|407:344,1,76.1249976768494,8|2,0:0|0:0,0:0:0:0:
462,283,163902,6,0,P|405:270|356:257,1,76.1249976768494,0|2,1:2|0:0,0:0:0:0:
335,189,164244,2,0,P|346:134|355:87,1,76.1249976768494,8|2,0:0|0:0,0:0:0:0:
407,53,164587,2,0,L|449:45,2,38.0624988384247,0|0|2,0:0|0:0|0:0,0:0:0:0:
320,7,164930,1,0,0:0:0:0:
229,71,165102,1,0,0:0:0:0:
229,71,165187,1,0,0:0:0:0:
229,71,165273,6,0,B|215:149|215:149|264:224,1,152.249995353699,2|8,1:2|0:0,0:0:0:0:
312,286,165787,1,0,0:0:0:0:
249,343,165959,2,0,L|200:354,3,38.0624988384247,2|2|2|2,0:0|0:0|1:2|0:0,0:0:0:0:
176,326,166302,2,0,L|139:318,3,38.0624988384247,10|2|2|2,0:0|0:0|0:0|0:0,0:0:0:0:
82,324,166645,6,0,P|94:234|102:162,1,152.249995353699,2|8,1:2|0:0,0:0:0:0:
37,97,167159,1,2,0:0:0:0:
37,97,167244,1,2,0:0:0:0:
37,97,167330,2,0,P|82:101|130:63,1,76.1249976768494,2|0,0:0|1:2,0:0:0:0:
177,28,167673,2,0,P|222:24|270:62,1,76.1249976768494,10|0,0:0|0:0,0:0:0:0:
349,101,168016,6,0,P|360:45|368:3,1,76.1249976768494,0|0,1:2|0:0,0:0:0:0:
449,59,168359,2,0,P|457:97|464:134,1,76.1249976768494,8|0,0:0|0:0,0:0:0:0:
412,211,168702,2,0,L|405:272,3,38.0624988384247,2|2|2|2,0:0|0:0|1:2|0:0,0:0:0:0:
437,284,169045,2,0,L|446:339,3,38.0624988384247,10|2|2|2,0:0|0:0|0:0|0:0,0:0:0:0:
399,332,169388,6,0,B|320:306|345:390|238:352,1,152.249995353699,2|8,1:2|0:0,0:0:0:0:
153,356,169902,1,2,0:0:0:0:
153,356,169987,1,2,0:0:0:0:
153,356,170073,2,0,P|161:303|168:254,1,76.1249976768494,2|0,0:0|1:2,0:0:0:0:
242,226,170416,2,0,P|236:189|230:151,1,76.1249976768494,10|0,0:0|0:0,0:0:0:0:
178,76,170759,6,0,P|127:88|83:97,1,76.1249976768494,0|0,1:2|0:0,0:0:0:0:
240,15,171102,2,0,P|291:27|335:36,1,76.1249976768494,8|0,0:0|0:0,0:0:0:0:
392,84,171445,2,0,L|400:131,3,38.0624988384247,2|2|2|2,0:0|0:0|1:2|0:0,0:0:0:0:
361,152,171787,2,0,L|352:200,3,38.0624988384247,10|2|2|2,0:0|0:0|0:0|0:0,0:0:0:0:
361,236,172130,6,0,P|304:188|231:200,1,152.249995353699,2|8,1:2|0:0,0:0:0:0:
151,239,172644,1,2,0:0:0:0:
151,239,172730,1,2,0:0:0:0:
151,239,172816,2,0,P|142:297|133:344,1,76.1249976768494,2|0,0:0|1:2,0:0:0:0:
88,175,173159,2,0,P|79:117|70:70,1,76.1249976768494,10|2,0:0|0:0,0:0:0:0:
158,35,173502,6,0,P|194:46|247:40,2,76.1249976768494,0|2|8,1:2|0:0|0:0,0:0:0:0:
75,99,174016,1,2,0:0:0:0:
75,99,174188,2,0,P|39:110|-14:104,2,76.1249976768494,0|2|8,0:0|1:2|0:0,0:0:0:0:
154,162,174702,1,2,0:0:0:0:
154,162,174874,2,0,P|190:173|243:167,2,76.1249976768494,0|2|0,0:0|0:0|0:0,0:0:0:0:
82,232,175388,1,2,0:0:0:0:
84,230,175902,1,8,0:0:0:0:
154,301,176073,1,0,1:2:0:0:
154,301,176159,1,0,1:2:0:0:
154,301,176245,6,0,P|199:288|235:282,1,76.1249976768494,6|2,1:2|0:0,0:0:0:0:
297,210,176588,2,0,P|334:217|370:228,1,76.1249976768494,10|0,0:0|0:0,0:0:0:0:
449,170,176931,2,0,L|458:114,3,38.0624988384247,2|2|2|2,0:0|0:0|1:2|0:0,0:0:0:0:
483,92,177273,2,0,L|474:36,3,38.0624988384247,10|2|2|2,0:0|0:0|0:0|0:0,0:0:0:0:
445,14,177616,6,0,P|404:29|371:37,1,76.1249976768494,2|2,1:2|0:0,0:0:0:0:
272,6,177958,1,8,0:0:0:0:
303,98,178131,2,0,P|313:140|324:198,1,76.1249976768494,2|2,0:0|0:0,0:0:0:0:
390,233,178473,1,0,1:2:0:0:
320,318,178645,6,0,P|271:304|218:293,1,76.1249976768494,10|2,0:0|0:0,0:0:0:0:
171,243,178988,1,2,1:2:0:0:
108,305,179159,1,2,0:0:0:0:
44,242,179331,2,0,P|37:194|29:147,1,76.1249976768494,10|0,0:0|0:0,0:0:0:0:
95,96,179673,2,0,L|140:107,3,38.0624988384247,2|2|2|2,0:0|0:0|1:2|0:0,0:0:0:0:
168,132,180016,2,0,L|204:122,3,38.0624988384247,10|2|2|2,0:0|0:0|0:0|0:0,0:0:0:0:
243,89,180359,6,0,P|257:144|265:184,1,76.1249976768494,2|2,1:2|0:0,0:0:0:0:
211,239,180702,1,8,0:0:0:0:
282,293,180873,2,0,P|334:277|378:266,1,76.1249976768494,2|2,0:0|0:0,0:0:0:0:
408,206,181216,1,0,1:2:0:0:
493,274,181388,6,0,P|501:236|511:200,1,76.1249976768494,10|2,0:0|0:0,0:0:0:0:
445,131,181731,1,2,1:2:0:0:
512,72,181902,1,2,0:0:0:0:
437,8,182073,2,0,P|400:19|364:29,1,76.1249976768494,10|0,0:0|0:0,0:0:0:0:
293,90,182416,2,0,L|236:73,3,38.0624988384247,2|2|2|2,0:0|0:0|1:2|0:0,0:0:0:0:
221,47,182759,2,0,L|184:57,3,38.0624988384247,10|2|2|2,0:0|0:0|0:0|0:0,0:0:0:0:
144,95,183102,6,0,P|154:146|165:201,1,76.1249976768494,2|2,1:2|0:0,0:0:0:0:
106,241,183445,1,8,0:0:0:0:
187,308,183616,2,0,P|233:295|281:287,1,76.1249976768494,2|2,0:0|0:0,0:0:0:0:
315,210,183959,1,0,1:2:0:0:
391,320,184131,2,0,P|398:282|405:245,1,76.1249976768494,10|0,0:0|0:0,0:0:0:0:
467,151,184473,6,0,L|457:98,3,38.0624988384247,2|2|2|2,1:2|0:0|0:0|0:0,0:0:0:0:
460,60,184816,2,0,P|404:78|357:90,1,76.1249976768494,8|2,0:0|0:0,0:0:0:0:
350,113,185073,1,2,0:0:0:0:
350,113,185159,2,0,P|294:95|247:83,1,76.1249976768494,2|2,0:0|1:2,0:0:0:0:
202,155,185502,2,0,L|219:248,1,76.1249976768494,10|2,0:0|0:0,0:0:0:0:
162,313,185845,6,0,P|106:330|59:347,1,76.1249976768494,2|2,1:2|0:0,0:0:0:0:
13,275,186188,1,8,0:0:0:0:
17,279,186359,1,0,1:2:0:0:
86,210,186531,1,8,0:0:0:0:
86,210,186702,1,0,1:2:0:0:
7,149,186873,2,0,P|3:94|-1:46,1,76.1249976768494,8|0,0:0|1:2,0:0:0:0:
34,39,187131,1,0,1:2:0:0:
34,39,187216,6,0,P|89:52|122:66,1,76.1249976768494,2|2,1:2|0:0,0:0:0:0:
186,126,187559,2,0,P|221:113|259:105,1,76.1249976768494,10|0,0:0|0:0,0:0:0:0:
326,40,187902,2,0,L|378:54,3,38.0624988384247,2|2|2|2,0:0|0:0|1:2|0:0,0:0:0:0:
394,82,188245,2,0,L|430:72,3,38.0624988384247,10|2|2|2,0:0|0:0|0:0|0:0,0:0:0:0:
476,54,188588,6,0,P|464:118|457:160,1,76.1249976768494,2|2,1:2|0:0,0:0:0:0:
386,182,188931,1,8,0:0:0:0:
465,241,189102,2,0,P|477:305|484:347,1,76.1249976768494,2|2,0:0|0:0,0:0:0:0:
415,375,189445,1,0,1:2:0:0:
350,306,189616,6,0,P|307:291|255:279,1,76.1249976768494,10|2,0:0|0:0,0:0:0:0:
202,329,189959,1,2,1:2:0:0:
134,269,190131,1,2,0:0:0:0:
50,333,190302,2,0,P|39:278|27:224,1,76.1249976768494,10|0,0:0|0:0,0:0:0:0:
85,184,190645,2,0,L|91:125,3,38.0624988384247,2|2|2|2,0:0|0:0|1:2|0:0,0:0:0:0:
60,106,190988,2,0,L|54:47,3,38.0624988384247,10|2|2|2,0:0|0:0|0:0|0:0,0:0:0:0:
88,26,191331,6,0,P|136:38|181:45,1,76.1249976768494,2|2,1:2|0:0,0:0:0:0:
217,113,191673,1,8,0:0:0:0:
312,47,191845,2,0,P|304:103|296:150,1,76.1249976768494,2|2,0:0|0:0,0:0:0:0:
357,201,192188,1,0,1:2:0:0:
256,262,192359,6,0,P|305:273|341:285,1,76.1249976768494,10|2,0:0|0:0,0:0:0:0:
398,338,192702,1,2,1:2:0:0:
461,276,192873,1,2,0:0:0:0:
512,344,193045,2,0,P|506:306|500:268,1,76.1249976768494,10|0,0:0|0:0,0:0:0:0:
441,196,193388,2,0,L|450:139,3,38.0624988384247,2|2|2|2,0:0|0:0|1:2|0:0,0:0:0:0:
476,126,193731,2,0,L|467:69,3,38.0624988384247,10|2|2|2,0:0|0:0|0:0|0:0,0:0:0:0:
426,59,194073,6,0,P|378:74|337:82,1,76.1249976768494,2|2,1:2|0:0,0:0:0:0:
284,142,194416,1,8,0:0:0:0:
204,63,194588,2,0,P|195:124|187:173,1,76.1249976768494,2|2,0:0|0:0,0:0:0:0:
112,181,194931,1,0,1:2:0:0:
169,258,195102,2,0,P|222:248|266:244,1,76.1249976768494,10|0,0:0|0:0,0:0:0:0:
326,185,195445,6,0,P|335:252|342:296,1,76.1249976768494,0|0,1:2|0:0,0:0:0:0:
432,311,195788,2,0,P|422:243|415:199,1,76.1249976768494,8|0,0:0|0:0,0:0:0:0:
473,153,196131,2,0,L|481:107,4,25.3749992256165,0|0|0|0|0,0:0|0:0|0:0|1:2|0:0,0:0:0:0:
454,92,196473,2,0,L|446:46,4,25.3749992256165,8|0|0|0|0,0:0|0:0|0:0|0:0|0:0,0:0:0:0:
420,36,196816,2,0,L|371:28,4,25.3749992256165,0|0|0|0|0,1:2|0:0|0:0|0:0|0:0,0:0:0:0:
353,61,197159,6,0,L|266:77,1,76.1249976768494,8|0,0:0|1:2,0:0:0:0:
192,22,197502,1,8,0:0:0:0:
196,26,197673,1,0,1:2:0:0:
134,88,197845,1,8,0:0:0:0:
33,38,198016,5,0,1:2:0:0:
33,38,198102,1,0,1:2:0:0:
33,38,198188,2,0,P|57:86|19:182,1,137.749996321678,6|10,1:2|0:0,0:0:0:0:
0,257,198702,2,0,P|47:244|94:239,1,68.8749981608391,2|0,0:0|0:0,0:0:0:0:
143,194,199045,1,0,1:2:0:0:
143,194,199216,2,0,P|176:200|209:210,1,68.8749981608391,10|0,0:0|0:0,0:0:0:0:
272,278,199559,6,0,L|286:350,1,68.8749981608391,0|2,1:2|0:0,0:0:0:0:
376,313,199902,2,0,L|389:245,1,68.8749981608391,10|0,0:0|0:0,0:0:0:0:
469,187,200245,1,2,0:0:0:0:
469,187,200416,1,0,1:2:0:0:
407,116,200588,2,0,P|349:126|307:135,1,68.8749981608391,10|0,0:0|0:0,0:0:0:0:
246,222,200931,6,0,P|213:179|228:78,1,137.749996321678,2|10,1:2|0:0,0:0:0:0:
256,20,201445,2,0,P|212:8|175:-3,1,68.8749981608391,2|0,0:0|0:0,0:0:0:0:
111,58,201788,1,0,1:2:0:0:
111,58,201959,2,0,P|119:101|126:149,1,68.8749981608391,10|0,0:0|0:0,0:0:0:0:
207,178,202302,6,0,P|199:221|192:269,1,68.8749981608391,0|2,1:2|0:0,0:0:0:0:
114,315,202645,2,0,P|147:324|180:333,1,68.8749981608391,10|0,0:0|0:0,0:0:0:0:
260,384,202988,2,0,P|293:375|326:365,1,68.8749981608391,2|2,0:0|1:2,0:0:0:0:
387,294,203331,1,10,0:0:0:0:
459,365,203502,1,2,0:0:0:0:
501,267,203673,6,0,P|492:211|474:106,1,137.749996321678,2|10,1:2|0:0,0:0:0:0:
478,30,204188,2,0,P|436:42|393:58,1,68.8749981608391,2|0,0:0|0:0,0:0:0:0:
345,119,204531,1,0,1:2:0:0:
345,119,204702,2,0,P|312:107|279:98,1,68.8749981608391,10|0,0:0|0:0,0:0:0:0:
167,136,205045,6,0,L|151:46,1,68.8749981608391,0|2,1:2|0:0,0:0:0:0:
68,119,205388,2,0,L|55:186,1,68.8749981608391,10|0,0:0|0:0,0:0:0:0:
97,279,205731,1,2,0:0:0:0:
97,279,205902,1,0,1:2:0:0:
182,234,206073,2,0,P|218:243|258:253,1,68.8749981608391,10|0,0:0|0:0,0:0:0:0:
325,357,206416,6,0,P|383:365|443:292,1,137.749996321678,2|10,1:2|0:0,0:0:0:0:
376,234,206931,2,0,P|384:179|391:133,1,68.8749981608391,2|0,0:0|0:0,0:0:0:0:
474,119,207273,1,0,1:2:0:0:
474,119,207445,2,0,P|466:64|459:18,1,68.8749981608391,10|0,0:0|0:0,0:0:0:0:
374,9,207788,6,0,P|320:25|288:32,1,68.8749981608391,0|2,1:2|0:0,0:0:0:0:
232,100,208131,2,0,P|178:84|146:77,1,68.8749981608391,10|2,0:0|0:0,0:0:0:0:
55,40,208473,2,0,P|63:89|71:131,1,68.8749981608391,2|2,0:0|0:0,0:0:0:0:
25,186,208816,1,2,0:0:0:0:
25,186,208988,1,2,0:0:0:0:
110,272,209159,6,0,B|184:254|166:314|246:294,1,137.749996321678,2|10,1:2|0:0,0:0:0:0:
296,230,209673,2,0,P|287:182|279:133,1,68.8749981608391,2|0,0:0|0:0,0:0:0:0:
208,113,210016,1,0,1:2:0:0:
208,113,210188,2,0,P|217:65|225:16,1,68.8749981608391,10|0,0:0|0:0,0:0:0:0:
317,0,210531,6,0,P|366:14|403:23,1,68.8749981608391,0|2,1:2|0:0,0:0:0:0:
454,88,210873,2,0,P|405:102|368:111,1,68.8749981608391,10|0,0:0|0:0,0:0:0:0:
315,177,211216,1,2,0:0:0:0:
315,177,211388,1,0,1:2:0:0:
384,239,211559,2,0,P|375:294|370:333,1,68.8749981608391,10|0,0:0|0:0,0:0:0:0:
266,374,211902,6,0,P|206:383|142:309,1,137.749996321678,2|10,1:2|0:0,0:0:0:0:
208,259,212416,2,0,P|203:224|197:190,1,68.8749981608391,2|0,0:0|0:0,0:0:0:0:
258,114,212759,1,0,1:2:0:0:
258,114,212931,2,0,P|320:99|348:93,1,68.8749981608391,10|0,0:0|0:0,0:0:0:0:
204,40,213273,6,0,P|142:25|114:19,1,68.8749981608391,0|2,1:2|0:0,0:0:0:0:
70,78,213616,2,0,P|80:122|87:164,1,68.8749981608391,10|0,0:0|0:0,0:0:0:0:
162,188,213959,2,0,P|152:232|145:274,1,68.8749981608391,2|2,0:0|1:2,0:0:0:0:
208,326,214302,1,10,0:0:0:0:
280,266,214473,1,2,0:0:0:0:
357,352,214645,6,0,P|434:355|472:283,1,137.749996321678,2|10,1:2|0:0,0:0:0:0:
435,227,215159,2,0,P|395:218|345:209,1,68.8749981608391,2|0,0:0|0:0,0:0:0:0:
299,144,215502,1,0,1:2:0:0:
299,144,215673,2,0,P|265:151|232:158,1,68.8749981608391,10|0,0:0|0:0,0:0:0:0:
154,221,216016,6,0,L|143:298,1,68.8749981608391,0|2,1:2|0:0,0:0:0:0:
53,243,216359,2,0,L|43:175,1,68.8749981608391,10|0,0:0|0:0,0:0:0:0:
101,88,216702,1,2,0:0:0:0:
101,88,216873,1,0,1:2:0:0:
183,146,217045,2,0,P|226:133|272:120,1,68.8749981608391,10|0,0:0|0:0,0:0:0:0:
339,44,217388,6,0,P|352:95|370:193,1,137.749996321678,2|10,1:2|0:0,0:0:0:0:
452,245,217902,2,0,P|439:300|430:338,1,68.8749981608391,2|0,0:0|0:0,0:0:0:0:
346,361,218245,1,0,1:2:0:0:
346,361,218416,2,0,P|300:349|259:340,1,68.8749981608391,10|0,0:0|0:0,0:0:0:0:
191,283,218759,6,0,L|184:233,3,39.8750012168885,0|2|2|0,0:0|0:0|0:0|0:0,0:0:0:0:
258,182,219445,2,0,L|265:132,3,39.8750012168885,2|0|0|0,0:0|0:0|0:0|0:0,0:0:0:0:
