osu file format v14

[General]
AudioFilename: I_cant_stop_remix.mp3
AudioLeadIn: 2000
PreviewTime: 45046
Countdown: 0
SampleSet: Soft
StackLeniency: 0.7
Mode: 0
LetterboxInBreaks: 0
WidescreenStoryboard: 1

[Editor]
Bookmarks: 1599,77459,93967
DistanceSpacing: 1
BeatDivisor: 2
GridSize: 32
TimelineZoom: 1.2

[Metadata]
Title:I Can't Stop (Urbanstep Remix)
TitleUnicode:I Can't Stop (Urbanstep Remix)
Artist:Flux Pavilion
ArtistUnicode:Flux Pavilion
Creator:xDarxen
Version:TomArrow's Beginner
Source:
Tags:Dubstep Dnb Drums And Bass Chillstep Drumstep HappyRocket88 Sc4v4ng3r Nerova Riuz GX TomArrow
BeatmapID:769083
BeatmapSetID:341993

[Difficulty]
HPDrainRate:2
CircleSize:2.5
OverallDifficulty:2
ApproachRate:2
SliderMultiplier:0.600000005960464
SliderTickRate:1

[Events]
//Background and Video events
0,0,"wallpaper1.jpg",0,0
//Break Periods
2,22488,26245
2,28005,31762
//Storyboard Layer 0 (Background)
//Storyboard Layer 1 (Fail)
//Storyboard Layer 2 (Pass)
//Storyboard Layer 3 (Foreground)
//Storyboard Sound Samples

[TimingPoints]
220.017532925325,344.820450606585,4,2,3,60,1,0
45046,-100,4,2,4,70,0,0
45736,-100,4,2,4,80,0,1
66425,-100,4,2,4,70,0,0
67804,-100,4,2,4,80,0,1
89873,-100,4,2,3,70,0,0

[Colours]
Combo1 : 0,236,236
Combo2 : 51,51,255
Combo3 : 128,64,64

[HitObjects]
83,214,220,6,0,L|14:171,2,60.0000005960464,4|0|8,0:0|0:0|0:0,0:0:0:0:
189,270,1599,2,0,P|257:273|319:252,1,120.000001192093,0|8,0:0|0:0,0:0:0:0:
419,218,2978,6,0,L|494:192,2,60.0000005960464,4|0|8,0:0|0:0|0:0,0:0:0:0:
303,247,4357,2,0,P|255:225|216:151,1,120.000001192093,0|8,0:0|0:0,0:0:0:0:
185,57,5737,6,0,B|168:-12,2,60.0000005960464,4|0|8,0:0|0:0|0:0,0:0:0:0:
216,172,7116,2,0,P|281:192|336:165,1,120.000001192093,0|8,0:0|0:0,0:0:0:0:
426,106,8495,2,0,B|500:146,2,60.0000005960464,4|0|8,0:0|0:0|0:0,0:0:0:0:
322,47,9874,2,0,P|252:26|192:53,1,120.000001192093,0|8,0:0|0:0,0:0:0:0:
122,122,11254,6,0,B|123:185|123:185|155:239,1,120.000001192093,4|8,0:0|0:0,0:0:0:0:
224,329,12633,1,0,0:0:0:0:
319,255,13323,1,8,0:0:0:0:
423,313,14012,2,0,L|453:393,2,60.0000005960464,0|0|8,0:0|0:0|0:0,0:0:0:0:
374,203,15392,2,0,L|327:77,1,120.000001192093,0|8,0:0|0:0,0:0:0:0:
214,114,16771,6,0,B|158:126|158:126|96:113,1,120.000001192093,4|8,0:0|0:0,0:0:0:0:
21,206,18150,1,0,0:0:0:0:
105,290,18840,1,8,0:0:0:0:
224,284,19529,2,0,L|212:365,2,60.0000005960464,0|0|8,0:0|0:0|0:0,0:0:0:0:
246,165,20909,2,0,L|268:29,2,120.000001192093,0|8|4,0:0|0:0|0:0,0:0:0:0:
256,192,27805,5,4,0:0:0:0:
118,148,33322,6,0,P|188:139|246:171,1,120.000001192093
330,226,34702,2,0,P|385:247|443:236,1,120.000001192093
380,134,36081,6,0,P|321:123|266:144,1,120.000001192093
171,218,37461,2,0,P|115:239|57:228,1,120.000001192093
256,192,38839,12,0,44357,0:0:0:0:
176,132,45736,6,0,P|221:96|308:99,2,120.000001192093,4|0|0,0:0|0:0|0:0,0:0:0:0:
127,241,47805,1,0,0:0:0:0:
226,308,48494,2,0,B|292:320|292:320|369:308,1,120.000001192093
442,241,49874,2,0,P|394:202|320:195,1,120.000001192093
218,204,51253,6,0,P|158:199|107:155,2,120.000001192093,4|0|0,0:0|0:0|0:0,0:0:0:0:
333,170,53322,1,0,0:0:0:0:
435,108,54012,2,0,B|448:174|448:174|433:243,1,120.000001192093
335,289,55391,2,0,P|272:277|229:208,1,120.000001192093
207,120,56770,6,0,P|152:60|96:65,2,120.000001192093,4|0|0,0:0|0:0|0:0,0:0:0:0:
237,236,58839,1,0,0:0:0:0:
330,169,59529,2,0,B|382:138|382:138|460:136,1,120.000001192093
400,249,60908,2,0,P|354:293|283:294,1,120.000001192093
195,239,62287,6,0,P|250:189|314:181,2,120.000001192093,4|0|0,0:0|0:0|0:0,0:0:0:0:
125,336,64356,1,0,0:0:0:0:
61,234,65046,2,0,B|44:177|44:177|65:112,1,120.000001192093
422,122,67804,6,0,P|354:124|297:159,1,120.000001192093,4|0,0:0|0:0,0:0:0:0:
209,215,69184,2,0,L|148:254,2,60.0000005960464
121,133,70563,2,0,B|174:99|174:99|253:100,1,120.000001192093
351,103,71942,1,0,0:0:0:0:
440,183,72632,1,0,0:0:0:0:
347,258,73321,6,0,P|285:275|214:260,1,120.000001192093,4|0,0:0|0:0,0:0:0:0:
119,221,74701,2,0,P|165:165|225:148,1,120.000001192093
327,139,76080,2,0,L|455:139,1,120.000001192093
383,240,77459,2,0,L|263:240,1,120.000001192093
155,292,78839,6,0,P|143:236|169:171,1,120.000001192093,4|0,0:0|0:0,0:0:0:0:
226,76,80218,2,0,L|259:17,2,60.0000005960464
161,177,81597,2,0,B|223:191|223:191|288:182,1,120.000001192093
395,153,82976,1,0,0:0:0:0:
487,229,83666,1,0,0:0:0:0:
395,307,84356,6,0,P|337:324|271:294,1,120.000001192093,4|0,0:0|0:0,0:0:0:0:
184,235,85735,2,0,P|237:193|312:188,1,120.000001192093
401,221,87114,2,0,P|403:159|371:93,1,120.000001192093
256,192,88494,12,4,89873,0:0:0:0:
