osu file format v14

[General]
AudioFilename: I_cant_stop_remix.mp3
AudioLeadIn: 2000
PreviewTime: 45046
Countdown: 0
SampleSet: Soft
StackLeniency: 0.7
Mode: 0
LetterboxInBreaks: 0
WidescreenStoryboard: 0

[Editor]
Bookmarks: 93967
DistanceSpacing: 1
BeatDivisor: 2
GridSize: 4
TimelineZoom: 1.6

[Metadata]
Title:I Can't Stop (Urbanstep Remix)
TitleUnicode:I Can't Stop (Urbanstep Remix)
Artist:Flux Pavilion
ArtistUnicode:Flux Pavilion
Creator:xDarxen
Version:Sc4's Normal
Source:
Tags:Dubstep Dnb Drums And Bass Chillstep Drumstep HappyRocket88 Sc4v4ng3r Nerova Riuz GX TomArrow
BeatmapID:764776
BeatmapSetID:341993

[Difficulty]
HPDrainRate:4
CircleSize:3.5
OverallDifficulty:4
ApproachRate:5
SliderMultiplier:1
SliderTickRate:1

[Events]
//Background and Video events
0,0,"wallpaper1.jpg",0,0
//Break Periods
2,22488,26605
2,28005,32122
//Storyboard Layer 0 (Background)
//Storyboard Layer 1 (Fail)
//Storyboard Layer 2 (Pass)
//Storyboard Layer 3 (Foreground)
//Storyboard Sound Samples

[TimingPoints]
220.017532925325,344.820450606585,4,2,3,60,1,0
45046,-100,4,2,4,70,0,0
45736,-100,4,2,4,80,0,1
66425,-100,4,2,4,70,0,0
67804,-100,4,2,4,80,0,1
89873,-100,4,2,3,70,0,0

[Colours]
Combo1 : 0,236,236
Combo2 : 51,51,255
Combo3 : 128,64,64

[HitObjects]
140,108,220,6,0,L|72:108,2,50,4|0|0,0:0|0:0|0:0,0:0:0:0:
240,108,909,2,0,P|220:180|188:200,1,100,8|0,0:0|0:0,0:0:0:0:
112,236,1599,2,0,P|140:276|196:292,1,100
284,324,2288,2,0,L|388:324,1,100,8|0,0:0|0:0,0:0:0:0:
484,328,2978,6,0,L|512:376,2,50
440,236,3668,2,0,P|424:188|440:132,1,100,8|0,0:0|0:0,0:0:0:0:
456,44,4357,2,0,L|348:56,1,100
324,148,5047,2,0,P|313:196|329:243,1,100,8|0,0:0|0:0,0:0:0:0:
364,336,5737,6,0,L|420:336,2,50
264,336,6426,2,0,P|240:312|224:228,1,100,8|0,0:0|0:0,0:0:0:0:
220,200,6944,1,0,0:0:0:0:
220,200,7116,2,0,P|269:201|314:180,1,100
348,88,7806,2,0,P|292:88|240:120,1,100,8|0,0:0|0:0,0:0:0:0:
156,132,8495,6,0,L|108:88,2,50
136,232,9185,2,0,P|132:276|100:332,1,100,8|0,0:0|0:0,0:0:0:0:
72,360,9702,1,0,0:0:0:0:
72,360,9874,2,0,L|184:372,1,100
272,376,10564,1,8,0:0:0:0:
232,284,10909,1,0,0:0:0:0:
188,196,11254,6,0,L|160:144,1,50,4|0,0:0|0:0,0:0:0:0:
200,116,11599,2,0,L|172:64,1,50
156,28,11943,2,0,L|264:28,1,100,8|0,0:0|0:0,0:0:0:0:
356,28,12633,1,0,0:0:0:0:
444,76,12978,2,0,L|496:76,2,50,0|0|8,0:0|0:0|0:0,0:0:0:0:
356,128,13668,1,0,0:0:0:0:
268,80,14012,6,0,L|200:84,1,50
184,120,14357,2,0,L|116:124,1,50
95,156,14702,2,0,P|98:205|126:246,1,100,8|0,0:0|0:0,0:0:0:0:
212,300,15392,2,0,L|324:300,1,100
412,300,16081,1,8,0:0:0:0:
364,212,16426,1,0,0:0:0:0:
308,128,16771,6,0,L|276:84,1,50
228,96,17116,2,0,L|196:52,1,50
152,32,17461,2,0,P|108:48|48:28,1,100,8|0,0:0|0:0,0:0:0:0:
4,120,18150,2,0,P|20:164|0:224,1,100
8,264,18667,1,0,0:0:0:0:
8,264,18840,2,0,L|108:264,1,100,8|0,0:0|0:0,0:0:0:0:
208,264,19529,6,0,L|272:264,1,50
292,228,19874,2,0,L|356:228,1,50
392,228,20219,2,0,P|448:208|472:152,1,100,8|0,0:0|0:0,0:0:0:0:
464,76,20909,2,0,P|434:36|387:23,1,100
288,44,21598,1,8,0:0:0:0:
200,92,21943,1,0,0:0:0:0:
285,144,22288,5,4,0:0:0:0:
256,192,27805,5,4,0:0:0:0:
100,92,33322,6,0,P|156:84|208:100,1,100,4|0,0:0|0:0,0:0:0:0:
292,124,34012,1,0,0:0:0:0:
384,160,34357,2,0,L|444:188,1,50
440,232,34702,2,0,L|500:260,1,50
492,304,35046,1,0,0:0:0:0:
404,352,35391,2,0,P|348:364|292:344,1,100
228,296,36081,6,0,P|179:285|131:297,1,100
36,332,36770,1,0,0:0:0:0:
36,232,37115,2,0,P|84:200|228:192,1,200
318,223,38150,2,0,P|366:236|415:226,1,100
462,136,38839,6,0,P|414:123|367:137,1,100
268,140,39529,1,0,0:0:0:0:
168,144,39874,2,0,L|112:144,1,50
100,192,40219,2,0,L|40:192,1,50
12,228,40564,1,0,0:0:0:0:
84,300,40908,2,0,P|128:312|200:296,1,100
268,256,41598,6,0,P|317:248|365:260,1,100
460,292,42288,2,0,L|476:240,1,50
484,196,42632,2,0,P|424:192|336:76,1,200
260,28,43667,2,0,L|140:36,1,100
96,112,44357,1,0,0:0:0:0:
44,304,45046,1,8,0:0:0:0:
144,308,45391,2,8,L|204:308,1,50
244,308,45736,6,0,L|360:308,1,100,4|8,0:0|0:0,0:0:0:0:
396,308,46253,1,0,0:0:0:0:
396,308,46425,2,0,P|380:264|392:200,1,100,0|8,0:0|0:0,0:0:0:0:
424,120,47115,2,0,L|325:105,1,100,0|8,0:0|0:0,0:0:0:0:
228,80,47805,2,0,P|228:136|264:188,1,100,0|8,0:0|0:0,0:0:0:0:
276,216,48322,1,0,0:0:0:0:
304,260,48494,6,0,L|205:274,1,100,0|8,0:0|0:0,0:0:0:0:
156,284,49012,1,0,0:0:0:0:
156,284,49184,2,0,P|116:224|124:188,1,100,0|8,0:0|0:0,0:0:0:0:
124,100,49874,2,0,L|20:80,2,100,0|8|0,0:0|0:0|0:0,0:0:0:0:
216,64,50908,1,8,0:0:0:0:
292,132,51253,6,0,L|357:145,1,50
376,180,51598,2,0,L|441:193,1,50,8|0,0:0|0:0,0:0:0:0:
464,224,51943,2,0,P|456:268|480:328,1,100,0|8,0:0|0:0,0:0:0:0:
388,372,52632,2,0,L|288:376,1,100,0|8,0:0|0:0,0:0:0:0:
188,380,53322,2,0,P|201:325|241:288,1,100,0|8,0:0|0:0,0:0:0:0:
276,276,53839,1,0,0:0:0:0:
324,260,54012,6,0,L|308:204,1,50
328,164,54356,2,0,L|312:108,1,50,8|0,0:0|0:0,0:0:0:0:
324,68,54701,2,0,P|260:68|224:44,1,100,0|8,0:0|0:0,0:0:0:0:
132,36,55391,2,0,B|64:36|64:36|32:16,2,100,0|8|0,0:0|0:0|0:0,0:0:0:0:
168,128,56425,1,8,0:0:0:0:
208,220,56770,6,0,P|268:276|304:284,1,100,4|8,0:0|0:0,0:0:0:0:
332,284,57287,1,0,0:0:0:0:
332,284,57460,2,0,L|332:184,1,100,0|8,0:0|0:0,0:0:0:0:
380,96,58149,2,0,P|336:84|276:100,1,100,0|8,0:0|0:0,0:0:0:0:
236,108,58667,1,0,0:0:0:0:
236,108,58839,2,0,P|187:120|139:109,1,100,0|8,0:0|0:0,0:0:0:0:
92,100,59356,1,0,0:0:0:0:
44,84,59529,6,0,P|16:124|16:184,1,100,0|8,0:0|0:0,0:0:0:0:
16,224,60046,1,0,0:0:0:0:
16,224,60218,2,0,L|116:224,1,100,0|8,0:0|0:0,0:0:0:0:
216,224,60908,2,0,P|248:212|296:148,2,100,0|8|0,0:0|0:0|0:0,0:0:0:0:
164,308,61942,1,8,0:0:0:0:
264,312,62287,6,0,L|316:312,1,50
340,268,62632,2,0,L|400:268,1,50,8|0,0:0|0:0,0:0:0:0:
440,268,62977,2,0,P|448:208|424:148,1,100,0|8,0:0|0:0,0:0:0:0:
360,108,63666,2,0,P|304:120|248:100,1,100,0|8,0:0|0:0,0:0:0:0:
216,96,64184,1,0,0:0:0:0:
216,96,64356,2,0,P|160:84|104:104,1,100,0|8,0:0|0:0,0:0:0:0:
76,120,64873,1,0,0:0:0:0:
32,148,65046,6,0,L|28:208,1,50
72,224,65391,2,0,L|68:284,1,50,8|0,0:0|0:0,0:0:0:0:
64,324,65735,2,0,P|112:336|176:320,1,100,0|8,0:0|0:0,0:0:0:0:
260,308,66425,1,0,0:0:0:0:
424,192,67115,1,8,0:0:0:0:
496,124,67460,2,8,L|448:88,1,50
412,72,67804,6,0,P|364:80|296:64,1,100,4|8,0:0|0:0,0:0:0:0:
216,48,68494,1,0,0:0:0:0:
124,84,68839,2,0,P|88:140|136:280,1,200,8|8,0:0|0:0,0:0:0:0:
208,304,69873,1,0,0:0:0:0:
300,264,70218,2,0,L|364:264,1,50,8|0,0:0|0:0,0:0:0:0:
400,264,70563,6,0,P|456:244|480:200,1,100,0|8,0:0|0:0,0:0:0:0:
508,116,71253,1,0,0:0:0:0:
412,92,71597,2,0,L|332:92,1,50,8|0,0:0|0:0,0:0:0:0:
324,124,71942,2,0,L|256:124,1,50
236,156,72287,2,0,P|184:164|128:152,1,100,8|0,0:0|0:0,0:0:0:0:
40,132,72977,1,8,0:0:0:0:
72,224,73321,6,0,P|117:244|166:249,1,100,4|8,0:0|0:0,0:0:0:0:
268,252,74011,1,0,0:0:0:0:
368,252,74356,2,8,P|400:196|356:60,1,200
272,36,75390,2,0,L|192:36,1,50
172,36,75735,1,8,0:0:0:0:
92,96,76080,6,0,L|40:56,2,50,0|0|8,0:0|0:0|0:0,0:0:0:0:
132,124,76597,1,0,0:0:0:0:
132,124,76770,2,0,L|240:124,1,100,0|8,0:0|0:0,0:0:0:0:
332,124,77459,2,0,P|392:104|428:52,2,100,0|8|0,0:0|0:0|0:0,0:0:0:0:
284,212,78494,1,8,0:0:0:0:
232,296,78839,6,0,B|212:328|212:328|136:328,1,100,4|8,0:0|0:0,0:0:0:0:
49,328,79528,1,0,0:0:0:0:
0,240,79873,2,0,P|0:180|28:128,1,100,8|0,0:0|0:0,0:0:0:0:
40,100,80390,2,0,L|80:52,1,50,0|8,0:0|0:0,0:0:0:0:
120,72,80735,2,0,L|160:24,1,50
252,32,81252,1,8,0:0:0:0:
352,32,81597,6,0,L|416:32,1,50
428,76,81942,2,0,L|484:76,1,50,8|0,0:0|0:0,0:0:0:0:
504,120,82287,2,0,P|496:176|444:220,1,100,0|8,0:0|0:0,0:0:0:0:
384,260,82976,2,0,L|320:260,1,50
284,260,83321,2,0,P|246:217|245:149,1,100,8|0,0:0|0:0,0:0:0:0:
239,76,84011,1,8,0:0:0:0:
152,128,84356,6,0,L|84:128,1,50,4|0,0:0|0:0,0:0:0:0:
88,176,84701,2,0,L|20:176,1,50,8|0,0:0|0:0,0:0:0:0:
24,224,85045,2,0,P|12:280|24:332,1,100,0|8,0:0|0:0,0:0:0:0:
64,344,85563,1,0,0:0:0:0:
64,344,85735,2,0,L|144:344,1,50
132,296,86080,2,0,L|204:296,1,50,8|0,0:0|0:0,0:0:0:0:
232,296,86425,2,0,P|284:288|340:248,1,100,0|8,0:0|0:0,0:0:0:0:
396,192,87114,6,0,L|432:156,1,50
412,112,87459,2,0,L|448:76,1,50,8|0,0:0|0:0,0:0:0:0:
444,28,87804,2,0,L|336:28,1,100,0|8,0:0|0:0,0:0:0:0:
272,100,88494,2,0,L|200:100,2,50,8|0|0,0:0|0:0|0:0,0:0:0:0:
304,140,89011,2,0,L|376:140,2,50,8|0|0,0:0|0:0|0:0,0:0:0:0:
272,180,89528,2,0,L|220:180,1,50,8|0,0:0|0:0,0:0:0:0:
172,180,89873,5,4,0:0:0:0:
256,192,90045,12,0,94011,0:0:0:0:
