osu file format v14

[General]
AudioFilename: audio.mp3
AudioLeadIn: 0
PreviewTime: -1
Countdown: 0
SampleSet: Normal
StackLeniency: 0.6
Mode: 3
LetterboxInBreaks: 0
SpecialStyle: 0
WidescreenStoryboard: 1

[Editor]
DistanceSpacing: 0.8
BeatDivisor: 4
GridSize: 32
TimelineZoom: 1.7

[Metadata]
Title:Emotional (Virtual Riot Remix)
TitleUnicode:Emotional (Virtual Riot Remix)
Artist:Flux Pavilion & Matthew Koma
ArtistUnicode:Flux Pavilion & Matthew Koma
Creator:canoeye
Version:4k Hard
Source:
Tags:
BeatmapID:1359659
BeatmapSetID:641138

[Difficulty]
HPDrainRate:8
CircleSize:4
OverallDifficulty:7
ApproachRate:5
SliderMultiplier:1.4
SliderTickRate:1

[Events]
//Background and Video events
//Break Periods
//Storyboard Layer 0 (Background)
//Storyboard Layer 1 (Fail)
//Storyboard Layer 2 (Pass)
//Storyboard Layer 3 (Foreground)
//Storyboard Sound Samples

[TimingPoints]
843,400,4,1,0,100,1,0
26443,-142.857142857143,4,1,0,100,0,0
39264,-117.647058823529,4,1,0,100,0,0
45043,-27.7777777777778,4,1,0,100,0,0
45093,-250,4,1,0,100,0,0
45243,-500,4,1,0,100,0,0
45343,-40,4,1,0,100,0,0
45393,-142.857142857143,4,1,0,100,0,0
45643,-100,4,1,0,100,0,0
45643,-111.111111111111,4,1,0,100,0,0
47243,-105.263157894737,4,1,0,100,0,0
49243,-100,4,1,0,100,0,0
50443,-33.3333333333333,4,1,0,100,0,0
51010,-33.3333333333333,4,1,0,100,0,0
51243,-166.666666666667,4,1,0,100,0,0
51643,-16.9491525423729,4,1,0,100,0,0
51693,-333.333333333333,4,1,0,100,0,0
51993,-250,4,1,0,100,0,0
52043,-100,4,1,0,100,0,0

[HitObjects]
64,192,843,128,0,2443:0:0:0:0:
192,192,2443,128,0,4043:0:0:0:0:
448,192,4043,128,0,5643:0:0:0:0:
192,192,5643,128,0,7243:0:0:0:0:
320,192,7243,1,0,0:0:0:0:
64,192,7443,1,0,0:0:0:0:
320,192,7643,1,0,0:0:0:0:
64,192,7843,1,0,0:0:0:0:
320,192,8043,1,0,0:0:0:0:
64,192,8243,1,0,0:0:0:0:
320,192,8443,1,0,0:0:0:0:
64,192,8643,1,0,0:0:0:0:
192,192,8843,1,0,0:0:0:0:
448,192,9043,1,0,0:0:0:0:
192,192,9243,1,0,0:0:0:0:
448,192,9443,1,0,0:0:0:0:
192,192,9643,1,0,0:0:0:0:
448,192,9843,1,0,0:0:0:0:
192,192,10043,1,0,0:0:0:0:
448,192,10243,1,0,0:0:0:0:
320,192,10443,1,0,0:0:0:0:
192,192,10643,1,0,0:0:0:0:
320,192,10843,1,0,0:0:0:0:
192,192,11043,1,0,0:0:0:0:
320,192,11243,1,0,0:0:0:0:
192,192,11443,1,0,0:0:0:0:
320,192,11643,1,0,0:0:0:0:
192,192,11843,1,0,0:0:0:0:
320,192,12043,1,0,0:0:0:0:
448,192,12043,1,0,0:0:0:0:
192,192,12243,1,0,0:0:0:0:
64,192,12243,1,0,0:0:0:0:
448,192,12443,1,0,0:0:0:0:
320,192,12443,1,0,0:0:0:0:
192,192,12643,1,0,0:0:0:0:
64,192,12643,1,0,0:0:0:0:
448,192,12843,1,0,0:0:0:0:
320,192,12843,1,0,0:0:0:0:
192,192,13043,1,0,0:0:0:0:
64,192,13043,1,0,0:0:0:0:
320,192,13243,1,0,0:0:0:0:
448,192,13243,1,0,0:0:0:0:
64,192,13443,1,0,0:0:0:0:
448,192,13643,1,0,0:0:0:0:
192,192,13643,1,0,0:0:0:0:
448,192,13843,1,0,0:0:0:0:
448,192,14043,1,0,0:0:0:0:
192,192,14043,1,0,0:0:0:0:
448,192,14218,1,0,0:0:0:0:
448,192,14443,1,0,0:0:0:0:
192,192,14443,1,0,0:0:0:0:
448,192,14643,1,0,0:0:0:0:
448,192,14843,1,0,0:0:0:0:
192,192,14843,1,0,0:0:0:0:
448,192,15043,1,0,0:0:0:0:
320,192,15243,1,0,0:0:0:0:
64,192,15243,1,0,0:0:0:0:
448,192,15243,1,0,0:0:0:0:
64,192,15443,1,0,0:0:0:0:
64,192,15643,1,0,0:0:0:0:
320,192,15643,1,0,0:0:0:0:
64,192,15843,1,0,0:0:0:0:
64,192,16043,1,0,0:0:0:0:
320,192,16043,1,0,0:0:0:0:
64,192,16243,1,0,0:0:0:0:
64,192,16443,1,0,0:0:0:0:
320,192,16443,1,0,0:0:0:0:
64,192,16643,1,0,0:0:0:0:
320,192,16843,1,0,0:0:0:0:
448,192,16843,1,0,0:0:0:0:
192,192,16843,1,0,0:0:0:0:
192,192,17043,1,0,0:0:0:0:
192,192,17243,1,0,0:0:0:0:
448,192,17243,1,0,0:0:0:0:
192,192,17443,1,0,0:0:0:0:
192,192,17643,1,0,0:0:0:0:
448,192,17643,1,0,0:0:0:0:
192,192,17843,1,0,0:0:0:0:
192,192,18043,1,0,0:0:0:0:
448,192,18043,1,0,0:0:0:0:
192,192,18243,1,0,0:0:0:0:
192,192,18443,1,0,0:0:0:0:
448,192,18443,1,0,0:0:0:0:
64,192,18443,1,0,0:0:0:0:
448,192,18643,1,0,0:0:0:0:
448,192,18843,1,0,0:0:0:0:
64,192,18843,1,0,0:0:0:0:
448,192,19043,1,0,0:0:0:0:
448,192,19243,1,0,0:0:0:0:
64,192,19243,1,0,0:0:0:0:
448,192,19443,1,0,0:0:0:0:
448,192,19643,1,0,0:0:0:0:
64,192,19643,1,0,0:0:0:0:
448,192,19843,1,0,0:0:0:0:
192,192,19843,1,0,0:0:0:0:
64,192,19843,1,0,0:0:0:0:
192,192,20043,1,0,0:0:0:0:
64,192,20043,1,0,0:0:0:0:
448,192,20043,1,0,0:0:0:0:
320,192,20243,1,0,0:0:0:0:
448,192,20443,1,0,0:0:0:0:
320,192,20643,1,0,0:0:0:0:
64,192,20843,1,0,0:0:0:0:
192,192,21043,1,0,0:0:0:0:
64,192,21243,1,0,0:0:0:0:
192,192,21443,1,0,0:0:0:0:
320,192,21643,1,0,0:0:0:0:
448,192,21843,1,0,0:0:0:0:
320,192,22043,1,0,0:0:0:0:
448,192,22243,1,0,0:0:0:0:
64,192,22443,1,0,0:0:0:0:
448,192,22643,1,0,0:0:0:0:
192,192,22843,1,0,0:0:0:0:
320,192,23043,1,0,0:0:0:0:
64,192,23243,128,0,23643:0:0:0:0:
448,192,23243,1,0,0:0:0:0:
320,192,23443,1,0,0:0:0:0:
448,192,23643,1,0,0:0:0:0:
192,192,23643,128,0,24043:0:0:0:0:
448,192,23843,1,0,0:0:0:0:
64,192,24043,128,0,24443:0:0:0:0:
448,192,24043,1,0,0:0:0:0:
448,192,24243,1,0,0:0:0:0:
192,192,24443,128,0,24843:0:0:0:0:
448,192,24443,1,0,0:0:0:0:
448,192,24643,1,0,0:0:0:0:
64,192,24843,128,0,25443:0:0:0:0:
448,192,24843,1,0,0:0:0:0:
448,192,25043,1,0,0:0:0:0:
448,192,25243,1,0,0:0:0:0:
192,192,25443,1,0,0:0:0:0:
448,192,25443,1,0,0:0:0:0:
64,192,25643,128,0,26443:0:0:0:0:
448,192,25643,1,0,0:0:0:0:
448,192,25843,1,0,0:0:0:0:
448,192,26043,1,0,0:0:0:0:
448,192,26243,1,0,0:0:0:0:
320,192,26443,1,0,0:0:0:0:
192,192,26843,1,0,0:0:0:0:
192,192,27243,1,0,0:0:0:0:
192,192,27643,1,0,0:0:0:0:
192,192,28043,1,0,0:0:0:0:
192,192,28443,1,0,0:0:0:0:
192,192,28843,1,0,0:0:0:0:
192,192,29243,1,0,0:0:0:0:
320,192,29443,1,0,0:0:0:0:
448,192,29443,1,0,0:0:0:0:
64,192,29443,1,0,0:0:0:0:
448,192,29643,1,0,0:0:0:0:
320,192,29643,1,0,0:0:0:0:
192,192,29643,128,0,30043:0:0:0:0:
320,192,30043,1,0,0:0:0:0:
64,192,30243,128,0,30443:0:0:0:0:
448,192,30443,1,0,0:0:0:0:
192,192,30643,128,0,30843:0:0:0:0:
448,192,30893,128,0,31243:0:0:0:0:
320,192,31243,128,0,31443:0:0:0:0:
64,192,31443,128,0,31643:0:0:0:0:
192,192,31643,1,0,0:0:0:0:
448,192,31843,128,0,32043:0:0:0:0:
64,192,32043,128,0,32243:0:0:0:0:
320,192,32243,1,0,0:0:0:0:
448,192,32243,128,0,32643:0:0:0:0:
192,192,32243,1,0,0:0:0:0:
192,192,32543,1,0,0:0:0:0:
320,192,32543,1,0,0:0:0:0:
64,192,32643,128,0,33143:0:0:0:0:
320,192,32843,1,0,0:0:0:0:
192,192,32843,1,0,0:0:0:0:
192,192,33243,1,0,0:0:0:0:
448,192,33243,1,0,0:0:0:0:
64,192,33243,128,0,34443:0:0:0:0:
320,192,33643,1,0,0:0:0:0:
448,192,33643,1,0,0:0:0:0:
192,192,34043,1,0,0:0:0:0:
448,192,34043,1,0,0:0:0:0:
192,192,34443,1,0,0:0:0:0:
320,192,34443,1,0,0:0:0:0:
192,192,34843,1,0,0:0:0:0:
64,192,34843,1,0,0:0:0:0:
64,192,35243,1,0,0:0:0:0:
320,192,35243,1,0,0:0:0:0:
320,192,35643,1,0,0:0:0:0:
448,192,35643,1,0,0:0:0:0:
64,192,35843,1,0,0:0:0:0:
192,192,35843,1,0,0:0:0:0:
320,192,35843,1,0,0:0:0:0:
64,192,36043,1,0,0:0:0:0:
192,192,36043,1,0,0:0:0:0:
448,192,36043,128,0,36443:0:0:0:0:
320,192,36443,128,0,36643:0:0:0:0:
64,192,36643,128,0,36843:0:0:0:0:
320,192,36843,128,0,37043:0:0:0:0:
192,192,37043,128,0,37243:0:0:0:0:
448,192,37343,128,0,37643:0:0:0:0:
320,192,37643,128,0,37918:0:0:0:0:
192,192,37943,1,0,0:0:0:0:
64,192,37993,128,0,38243:0:0:0:0:
448,192,38243,128,0,38443:0:0:0:0:
192,192,38443,1,0,0:0:0:0:
64,192,38493,128,0,38743:0:0:0:0:
320,192,38793,1,0,0:0:0:0:
448,192,38843,128,0,38943:0:0:0:0:
320,192,38943,128,0,39243:0:0:0:0:
64,192,39243,1,0,0:0:0:0:
64,192,39443,1,0,0:0:0:0:
192,192,39443,1,0,0:0:0:0:
448,192,39643,1,0,0:0:0:0:
320,192,39843,1,0,0:0:0:0:
192,192,39843,1,0,0:0:0:0:
320,192,40043,1,0,0:0:0:0:
320,192,40243,1,0,0:0:0:0:
448,192,40243,1,0,0:0:0:0:
192,192,40443,1,0,0:0:0:0:
192,192,40643,1,0,0:0:0:0:
448,192,40643,1,0,0:0:0:0:
64,192,40843,1,0,0:0:0:0:
320,192,40843,1,0,0:0:0:0:
448,192,40843,1,0,0:0:0:0:
192,192,40843,1,0,0:0:0:0:
64,192,41043,1,0,0:0:0:0:
64,192,41243,1,0,0:0:0:0:
320,192,41243,1,0,0:0:0:0:
320,192,41443,1,0,0:0:0:0:
320,192,41643,1,0,0:0:0:0:
192,192,41643,1,0,0:0:0:0:
192,192,41843,1,0,0:0:0:0:
192,192,42043,1,0,0:0:0:0:
448,192,42043,1,0,0:0:0:0:
192,192,42243,1,0,0:0:0:0:
448,192,42243,1,0,0:0:0:0:
320,192,42243,1,0,0:0:0:0:
64,192,42243,1,0,0:0:0:0:
192,192,42443,1,0,0:0:0:0:
320,192,42443,1,0,0:0:0:0:
448,192,42443,1,0,0:0:0:0:
64,192,42443,1,0,0:0:0:0:
320,192,42643,1,0,0:0:0:0:
320,192,42843,1,0,0:0:0:0:
448,192,42843,1,0,0:0:0:0:
64,192,43043,1,0,0:0:0:0:
192,192,43043,1,0,0:0:0:0:
64,192,43243,1,0,0:0:0:0:
64,192,43443,1,0,0:0:0:0:
448,192,43443,1,0,0:0:0:0:
448,192,43643,1,0,0:0:0:0:
448,192,43843,1,0,0:0:0:0:
192,192,43843,1,0,0:0:0:0:
192,192,44043,1,0,0:0:0:0:
64,192,44043,1,0,0:0:0:0:
320,192,44043,1,0,0:0:0:0:
448,192,44043,1,0,0:0:0:0:
320,192,44243,1,0,0:0:0:0:
192,192,44443,1,0,0:0:0:0:
192,192,44643,1,0,0:0:0:0:
64,192,44643,1,0,0:0:0:0:
192,192,44843,1,0,0:0:0:0:
448,192,45043,1,0,0:0:0:0:
320,192,45043,1,0,0:0:0:0:
448,192,45343,1,0,0:0:0:0:
320,192,45343,1,0,0:0:0:0:
320,192,45643,1,0,0:0:0:0:
192,192,45643,1,0,0:0:0:0:
192,192,45843,1,0,0:0:0:0:
448,192,46043,1,0,0:0:0:0:
320,192,46043,1,0,0:0:0:0:
64,192,46243,1,0,0:0:0:0:
448,192,46443,1,0,0:0:0:0:
320,192,46443,1,0,0:0:0:0:
64,192,46643,1,0,0:0:0:0:
320,192,46843,1,0,0:0:0:0:
192,192,46843,1,0,0:0:0:0:
192,192,47043,1,0,0:0:0:0:
320,192,47243,1,0,0:0:0:0:
64,192,47243,1,0,0:0:0:0:
64,192,47443,1,0,0:0:0:0:
320,192,47643,1,0,0:0:0:0:
192,192,47643,1,0,0:0:0:0:
448,192,47843,1,0,0:0:0:0:
192,192,48043,1,0,0:0:0:0:
448,192,48043,1,0,0:0:0:0:
320,192,48243,1,0,0:0:0:0:
192,192,48443,1,0,0:0:0:0:
320,192,48443,1,0,0:0:0:0:
64,192,48643,1,0,0:0:0:0:
448,192,48843,1,0,0:0:0:0:
192,192,48843,1,0,0:0:0:0:
192,192,49043,1,0,0:0:0:0:
320,192,49043,1,0,0:0:0:0:
448,192,49243,1,0,0:0:0:0:
320,192,49243,1,0,0:0:0:0:
64,192,49443,1,0,0:0:0:0:
448,192,49443,1,0,0:0:0:0:
448,192,49643,1,0,0:0:0:0:
320,192,49643,1,0,0:0:0:0:
64,192,49743,1,0,0:0:0:0:
192,192,49743,1,0,0:0:0:0:
448,192,49843,1,0,0:0:0:0:
320,192,49843,1,0,0:0:0:0:
192,192,49943,1,0,0:0:0:0:
64,192,49943,1,0,0:0:0:0:
320,192,50043,1,0,0:0:0:0:
64,192,50143,1,0,0:0:0:0:
448,192,50243,1,0,0:0:0:0:
320,192,50343,1,0,0:0:0:0:
192,192,50443,1,0,0:0:0:0:
64,192,51643,128,0,51943:0:0:0:0:
448,192,51643,128,0,51943:0:0:0:0:
192,192,52043,128,0,52093:0:0:0:0:
320,192,52043,1,0,0:0:0:0:
64,192,52443,1,0,0:0:0:0:
448,192,52443,128,0,52493:0:0:0:0:
320,192,52843,128,0,52943:0:0:0:0:
192,192,52943,128,0,53043:0:0:0:0:
448,192,53043,128,0,53143:0:0:0:0:
64,192,53143,128,0,53243:0:0:0:0:
320,192,53243,128,0,53343:0:0:0:0:
64,192,53343,128,0,53443:0:0:0:0:
448,192,53443,128,0,53543:0:0:0:0:
192,192,53543,128,0,53643:0:0:0:0:
64,192,53643,128,0,53843:0:0:0:0:
448,192,53643,1,0,0:0:0:0:
64,192,54043,128,0,54243:0:0:0:0:
320,192,54043,1,0,0:0:0:0:
192,192,54443,1,0,0:0:0:0:
320,192,54443,1,0,0:0:0:0:
448,192,54443,128,0,54643:0:0:0:0:
320,192,54643,1,0,0:0:0:0:
192,192,54743,1,0,0:0:0:0:
64,192,54943,1,0,0:0:0:0:
192,192,55043,1,0,0:0:0:0:
320,192,55243,128,0,55643:0:0:0:0:
448,192,55243,1,0,0:0:0:0:
192,192,55643,128,0,55843:0:0:0:0:
64,192,55843,1,0,0:0:0:0:
448,192,55943,1,0,0:0:0:0:
192,192,56043,1,0,0:0:0:0:
64,192,56043,1,0,0:0:0:0:
320,192,56068,1,0,0:0:0:0:
448,192,56093,128,0,56418:0:0:0:0:
192,192,56443,128,0,56643:0:0:0:0:
64,192,56643,128,0,56843:0:0:0:0:
192,192,56843,1,0,0:0:0:0:
320,192,56868,1,0,0:0:0:0:
448,192,56893,128,0,57243:0:0:0:0:
64,192,57443,1,0,0:0:0:0:
320,192,57643,128,0,58043:0:0:0:0:
64,192,57643,1,0,0:0:0:0:
192,192,57643,1,0,0:0:0:0:
448,192,58043,128,0,58243:0:0:0:0:
64,192,58043,1,0,0:0:0:0:
192,192,58243,128,0,58443:0:0:0:0:
448,192,58443,128,0,58643:0:0:0:0:
320,192,58443,1,0,0:0:0:0:
192,192,58843,1,0,0:0:0:0:
320,192,58843,128,0,59043:0:0:0:0:
448,192,59243,1,0,0:0:0:0:
64,192,59243,1,0,0:0:0:0:
192,192,59243,1,0,0:0:0:0:
320,192,59343,1,0,0:0:0:0:
64,192,59443,1,0,0:0:0:0:
192,192,59543,1,0,0:0:0:0:
320,192,59643,1,0,0:0:0:0:
448,192,59843,1,0,0:0:0:0:
320,192,59843,128,0,59943:0:0:0:0:
448,192,60043,128,0,60243:0:0:0:0:
64,192,60043,1,0,0:0:0:0:
192,192,60043,1,0,0:0:0:0:
320,192,60243,128,0,60443:0:0:0:0:
448,192,60443,128,0,60643:0:0:0:0:
192,192,60443,1,0,0:0:0:0:
64,192,60443,1,0,0:0:0:0:
320,192,60643,128,0,60843:0:0:0:0:
192,192,60843,1,0,0:0:0:0:
448,192,60843,1,0,0:0:0:0:
448,192,61043,1,0,0:0:0:0:
320,192,61143,1,0,0:0:0:0:
64,192,61343,1,0,0:0:0:0:
192,192,61443,1,0,0:0:0:0:
64,192,61643,128,0,62243:0:0:0:0:
448,192,61643,1,0,0:0:0:0:
320,192,61643,1,0,0:0:0:0:
320,192,62243,1,0,0:0:0:0:
64,192,62443,128,0,63043:0:0:0:0:
320,192,62443,1,0,0:0:0:0:
448,192,62443,1,0,0:0:0:0:
192,192,62443,128,0,62643:0:0:0:0:
448,192,62643,128,0,62843:0:0:0:0:
192,192,62843,128,0,63043:0:0:0:0:
448,192,63043,128,0,63643:0:0:0:0:
320,192,63043,1,0,0:0:0:0:
64,192,63243,1,0,0:0:0:0:
320,192,63243,1,0,0:0:0:0:
320,192,63643,128,0,63843:0:0:0:0:
192,192,63843,128,0,64643:0:0:0:0:
64,192,63843,1,0,0:0:0:0:
320,192,64043,1,0,0:0:0:0:
448,192,64043,1,0,0:0:0:0:
448,192,64443,1,0,0:0:0:0:
320,192,64443,1,0,0:0:0:0:
64,192,64643,128,0,64843:0:0:0:0:
448,192,64843,1,0,0:0:0:0:
192,192,64843,1,0,0:0:0:0:
320,192,64893,1,0,0:0:0:0:
192,192,64943,1,0,0:0:0:0:
64,192,64993,1,0,0:0:0:0:
64,192,65243,1,0,0:0:0:0:
192,192,65293,1,0,0:0:0:0:
320,192,65343,1,0,0:0:0:0:
448,192,65393,1,0,0:0:0:0:
64,192,65643,1,0,0:0:0:0:
448,192,65643,128,0,65943:0:0:0:0:
320,192,65643,1,0,0:0:0:0:
192,192,65743,1,0,0:0:0:0:
64,192,65843,1,0,0:0:0:0:
320,192,65943,128,0,66243:0:0:0:0:
64,192,66043,1,0,0:0:0:0:
192,192,66243,128,0,66443:0:0:0:0:
64,192,66443,128,0,66643:0:0:0:0:
448,192,66443,1,0,0:0:0:0:
192,192,66668,1,0,0:0:0:0:
320,192,66693,1,0,0:0:0:0:
64,192,66843,128,0,67043:0:0:0:0:
448,192,66843,1,0,0:0:0:0:
192,192,67068,1,0,0:0:0:0:
320,192,67093,1,0,0:0:0:0:
64,192,67243,1,0,0:0:0:0:
192,192,67243,1,0,0:0:0:0:
320,192,67243,1,0,0:0:0:0:
448,192,67243,1,0,0:0:0:0:
320,192,67343,128,0,67443:0:0:0:0:
448,192,67443,128,0,67543:0:0:0:0:
64,192,67543,128,0,67643:0:0:0:0:
192,192,67643,128,0,67743:0:0:0:0:
320,192,67743,128,0,67843:0:0:0:0:
192,192,67843,128,0,67943:0:0:0:0:
448,192,67943,128,0,68043:0:0:0:0:
64,192,68043,128,0,68443:0:0:0:0:
320,192,68043,1,0,0:0:0:0:
192,192,68443,1,0,0:0:0:0:
320,192,68443,1,0,0:0:0:0:
448,192,68468,1,0,0:0:0:0:
320,192,68643,1,0,0:0:0:0:
192,192,68668,1,0,0:0:0:0:
64,192,68693,1,0,0:0:0:0:
320,192,68743,1,0,0:0:0:0:
448,192,68843,128,0,69243:0:0:0:0:
192,192,68843,1,0,0:0:0:0:
64,192,69243,1,0,0:0:0:0:
192,192,69268,1,0,0:0:0:0:
320,192,69293,1,0,0:0:0:0:
448,192,69318,1,0,0:0:0:0:
320,192,69443,1,0,0:0:0:0:
448,192,69443,1,0,0:0:0:0:
64,192,69443,1,0,0:0:0:0:
448,192,69643,1,0,0:0:0:0:
320,192,69643,1,0,0:0:0:0:
64,192,69643,128,0,70043:0:0:0:0:
448,192,70043,1,0,0:0:0:0:
320,192,70068,1,0,0:0:0:0:
192,192,70093,1,0,0:0:0:0:
64,192,70243,1,0,0:0:0:0:
192,192,70243,1,0,0:0:0:0:
320,192,70443,128,0,70643:0:0:0:0:
64,192,70443,1,0,0:0:0:0:
448,192,70443,1,0,0:0:0:0:
192,192,70643,128,0,70843:0:0:0:0:
448,192,70843,128,0,71043:0:0:0:0:
320,192,70843,1,0,0:0:0:0:
64,192,70843,1,0,0:0:0:0:
64,192,71043,128,0,71243:0:0:0:0:
448,192,71243,128,0,71643:0:0:0:0:
320,192,71243,1,0,0:0:0:0:
192,192,71643,128,0,72043:0:0:0:0:
64,192,71643,1,0,0:0:0:0:
320,192,72043,1,0,0:0:0:0:
448,192,72043,1,0,0:0:0:0:
448,192,72143,1,0,0:0:0:0:
64,192,72243,1,0,0:0:0:0:
192,192,72343,1,0,0:0:0:0:
320,192,72443,1,0,0:0:0:0:
448,192,72643,1,0,0:0:0:0:
64,192,72743,1,0,0:0:0:0:
448,192,72843,128,0,73043:0:0:0:0:
320,192,72843,1,0,0:0:0:0:
64,192,73043,128,0,73243:0:0:0:0:
448,192,73243,128,0,73443:0:0:0:0:
320,192,73243,1,0,0:0:0:0:
64,192,73443,128,0,73643:0:0:0:0:
320,192,73643,1,0,0:0:0:0:
448,192,73643,1,0,0:0:0:0:
192,192,73843,128,0,74443:0:0:0:0:
64,192,74443,1,0,0:0:0:0:
64,192,74643,1,0,0:0:0:0:
192,192,74843,1,0,0:0:0:0:
192,192,75043,1,0,0:0:0:0:
320,192,75243,1,0,0:0:0:0:
320,192,75443,1,0,0:0:0:0:
448,192,75643,1,0,0:0:0:0:
448,192,75843,1,0,0:0:0:0:
448,192,76043,1,0,0:0:0:0:
320,192,76043,1,0,0:0:0:0:
192,192,76143,1,0,0:0:0:0:
320,192,76243,1,0,0:0:0:0:
192,192,76343,1,0,0:0:0:0:
64,192,76343,1,0,0:0:0:0:
320,192,76443,1,0,0:0:0:0:
448,192,76443,1,0,0:0:0:0:
192,192,76543,1,0,0:0:0:0:
64,192,76543,1,0,0:0:0:0:
320,192,76643,1,0,0:0:0:0:
448,192,76643,1,0,0:0:0:0:
192,192,76743,1,0,0:0:0:0:
64,192,76743,1,0,0:0:0:0:
320,192,76843,1,0,0:0:0:0:
320,192,76943,1,0,0:0:0:0:
320,192,77043,1,0,0:0:0:0:
320,192,77143,1,0,0:0:0:0:
320,192,77243,1,0,0:0:0:0:
320,192,77343,1,0,0:0:0:0:
320,192,77443,1,0,0:0:0:0:
320,192,77543,1,0,0:0:0:0:
64,192,77643,1,0,0:0:0:0:
192,192,77643,1,0,0:0:0:0:
320,192,77643,1,0,0:0:0:0:
448,192,77643,1,0,0:0:0:0:
64,192,77843,1,0,0:0:0:0:
192,192,77843,1,0,0:0:0:0:
320,192,77843,1,0,0:0:0:0:
448,192,77843,1,0,0:0:0:0:
64,192,78043,1,0,0:0:0:0:
192,192,78043,1,0,0:0:0:0:
320,192,78043,1,0,0:0:0:0:
448,192,78043,1,0,0:0:0:0:
64,192,78243,1,0,0:0:0:0:
192,192,78243,1,0,0:0:0:0:
320,192,78243,1,0,0:0:0:0:
448,192,78243,1,0,0:0:0:0:
64,192,78443,1,0,0:0:0:0:
192,192,78468,1,0,0:0:0:0:
320,192,78493,1,0,0:0:0:0:
448,192,78518,1,0,0:0:0:0:
320,192,78843,128,0,79043:0:0:0:0:
448,192,78843,1,0,0:0:0:0:
64,192,79043,128,0,79243:0:0:0:0:
448,192,79243,1,0,0:0:0:0:
320,192,79268,1,0,0:0:0:0:
192,192,79293,1,0,0:0:0:0:
64,192,79318,1,0,0:0:0:0:
448,192,79643,1,0,0:0:0:0:
320,192,79668,1,0,0:0:0:0:
192,192,79693,1,0,0:0:0:0:
64,192,79718,1,0,0:0:0:0:
192,192,79743,1,0,0:0:0:0:
320,192,79768,1,0,0:0:0:0:
448,192,79793,1,0,0:0:0:0:
192,192,80043,1,0,0:0:0:0:
64,192,80068,1,0,0:0:0:0:
320,192,80243,1,0,0:0:0:0:
448,192,80268,1,0,0:0:0:0:
64,192,80443,1,0,0:0:0:0:
192,192,80468,1,0,0:0:0:0:
320,192,80493,1,0,0:0:0:0:
448,192,80518,1,0,0:0:0:0:
448,192,80643,1,0,0:0:0:0:
320,192,80668,1,0,0:0:0:0:
192,192,80693,1,0,0:0:0:0:
64,192,80718,1,0,0:0:0:0:
448,192,80843,128,0,81143:0:0:0:0:
320,192,80843,128,0,81143:0:0:0:0:
192,192,80843,128,0,81143:0:0:0:0:
64,192,80843,128,0,81143:0:0:0:0:
64,192,81243,1,0,0:0:0:0:
192,192,81243,1,0,0:0:0:0:
192,192,81443,1,0,0:0:0:0:
320,192,81443,1,0,0:0:0:0:
320,192,81643,1,0,0:0:0:0:
448,192,81643,1,0,0:0:0:0:
448,192,81843,1,0,0:0:0:0:
64,192,81843,1,0,0:0:0:0:
320,192,82043,1,0,0:0:0:0:
192,192,82043,1,0,0:0:0:0:
192,192,82243,1,0,0:0:0:0:
64,192,82243,1,0,0:0:0:0:
192,192,82443,1,0,0:0:0:0:
320,192,82443,1,0,0:0:0:0:
192,192,82643,1,0,0:0:0:0:
448,192,82643,1,0,0:0:0:0:
320,192,82743,1,0,0:0:0:0:
64,192,82743,1,0,0:0:0:0:
192,192,82843,1,0,0:0:0:0:
448,192,82843,1,0,0:0:0:0:
448,192,83043,1,0,0:0:0:0:
320,192,83043,1,0,0:0:0:0:
64,192,83243,1,0,0:0:0:0:
192,192,83268,1,0,0:0:0:0:
320,192,83293,128,0,83643:0:0:0:0:
448,192,83643,1,0,0:0:0:0:
192,192,83668,1,0,0:0:0:0:
64,192,83693,128,0,84043:0:0:0:0:
320,192,84043,128,0,84243:0:0:0:0:
192,192,84043,1,0,0:0:0:0:
448,192,84443,1,0,0:0:0:0:
448,192,84543,1,0,0:0:0:0:
320,192,84543,1,0,0:0:0:0:
64,192,84643,1,0,0:0:0:0:
64,192,84743,1,0,0:0:0:0:
192,192,84743,1,0,0:0:0:0:
448,192,84843,1,0,0:0:0:0:
192,192,84943,1,0,0:0:0:0:
320,192,84943,1,0,0:0:0:0:
448,192,85043,1,0,0:0:0:0:
64,192,85043,1,0,0:0:0:0:
320,192,85143,1,0,0:0:0:0:
192,192,85143,1,0,0:0:0:0:
448,192,85243,128,0,85443:0:0:0:0:
64,192,85243,128,0,85443:0:0:0:0:
320,192,85443,128,0,85643:0:0:0:0:
192,192,85643,1,0,0:0:0:0:
192,192,85743,1,0,0:0:0:0:
192,192,85843,1,0,0:0:0:0:
192,192,85943,1,0,0:0:0:0:
320,192,86043,1,0,0:0:0:0:
448,192,86043,1,0,0:0:0:0:
64,192,86143,1,0,0:0:0:0:
192,192,86243,1,0,0:0:0:0:
320,192,86343,1,0,0:0:0:0:
448,192,86443,128,0,87243:0:0:0:0:
64,192,86443,1,0,0:0:0:0:
192,192,86443,1,0,0:0:0:0:
192,192,87243,128,0,87543:0:0:0:0:
64,192,87243,1,0,0:0:0:0:
320,192,87243,1,0,0:0:0:0:
448,192,87643,1,0,0:0:0:0:
320,192,87668,1,0,0:0:0:0:
192,192,87693,1,0,0:0:0:0:
64,192,87718,1,0,0:0:0:0:
320,192,87843,1,0,0:0:0:0:
448,192,87843,1,0,0:0:0:0:
64,192,88043,128,0,88243:0:0:0:0:
192,192,88068,1,0,0:0:0:0:
448,192,88093,1,0,0:0:0:0:
320,192,88118,1,0,0:0:0:0:
448,192,88243,128,0,88443:0:0:0:0:
320,192,88443,128,0,88643:0:0:0:0:
192,192,88643,1,0,0:0:0:0:
64,192,88643,128,0,89243:0:0:0:0:
192,192,88843,1,0,0:0:0:0:
448,192,88868,1,0,0:0:0:0:
320,192,88893,1,0,0:0:0:0:
192,192,89243,128,0,89443:0:0:0:0:
320,192,89443,128,0,90443:0:0:0:0:
448,192,89443,1,0,0:0:0:0:
64,192,89443,1,0,0:0:0:0:
192,192,89643,1,0,0:0:0:0:
64,192,89643,128,0,89843:0:0:0:0:
448,192,89843,128,0,90043:0:0:0:0:
64,192,90043,1,0,0:0:0:0:
192,192,90043,128,0,90243:0:0:0:0:
448,192,90243,128,0,90443:0:0:0:0:
64,192,90443,128,0,90843:0:0:0:0:
192,192,90443,128,0,90843:0:0:0:0:
448,192,90843,128,0,91243:0:0:0:0:
320,192,91043,128,0,91443:0:0:0:0:
192,192,91243,128,0,91643:0:0:0:0:
64,192,91243,1,0,0:0:0:0:
448,192,91643,1,0,0:0:0:0:
64,192,91643,128,0,92043:0:0:0:0:
192,192,91843,128,0,92243:0:0:0:0:
320,192,92043,128,0,92443:0:0:0:0:
64,192,92443,1,0,0:0:0:0:
192,192,92443,128,0,92843:0:0:0:0:
320,192,92643,128,0,93043:0:0:0:0:
448,192,92843,128,0,93243:0:0:0:0:
64,192,92843,1,0,0:0:0:0:
64,192,93043,128,0,93443:0:0:0:0:
320,192,93243,128,0,93643:0:0:0:0:
448,192,93643,1,0,0:0:0:0:
192,192,93643,128,0,94043:0:0:0:0:
64,192,93643,128,0,94043:0:0:0:0:
320,192,94043,1,0,0:0:0:0:
448,192,94043,1,0,0:0:0:0:
64,192,94243,1,0,0:0:0:0:
192,192,94243,1,0,0:0:0:0:
448,192,94443,1,0,0:0:0:0:
320,192,94468,1,0,0:0:0:0:
64,192,94643,1,0,0:0:0:0:
192,192,94668,1,0,0:0:0:0:
320,192,94843,1,0,0:0:0:0:
448,192,94868,1,0,0:0:0:0:
192,192,95043,1,0,0:0:0:0:
64,192,95068,1,0,0:0:0:0:
192,192,95243,1,0,0:0:0:0:
320,192,95243,1,0,0:0:0:0:
448,192,95443,1,0,0:0:0:0:
320,192,95443,1,0,0:0:0:0:
64,192,95543,1,0,0:0:0:0:
192,192,95543,1,0,0:0:0:0:
448,192,95643,1,0,0:0:0:0:
64,192,95643,1,0,0:0:0:0:
320,192,95643,1,0,0:0:0:0:
192,192,95643,1,0,0:0:0:0:
192,192,95843,1,0,0:0:0:0:
448,192,95843,1,0,0:0:0:0:
64,192,96043,128,0,96443:0:0:0:0:
192,192,96043,1,0,0:0:0:0:
320,192,96068,1,0,0:0:0:0:
448,192,96093,1,0,0:0:0:0:
448,192,96443,1,0,0:0:0:0:
320,192,96468,1,0,0:0:0:0:
192,192,96493,1,0,0:0:0:0:
64,192,96843,128,0,97043:0:0:0:0:
192,192,96843,128,0,97043:0:0:0:0:
320,192,96843,1,0,0:0:0:0:
448,192,96843,1,0,0:0:0:0:
448,192,97243,1,0,0:0:0:0:
64,192,97243,1,0,0:0:0:0:
448,192,97343,1,0,0:0:0:0:
192,192,97343,1,0,0:0:0:0:
448,192,97443,1,0,0:0:0:0:
64,192,97443,1,0,0:0:0:0:
448,192,97543,1,0,0:0:0:0:
192,192,97543,1,0,0:0:0:0:
64,192,97643,1,0,0:0:0:0:
320,192,97643,1,0,0:0:0:0:
64,192,97743,1,0,0:0:0:0:
448,192,97743,1,0,0:0:0:0:
64,192,97843,1,0,0:0:0:0:
320,192,97843,1,0,0:0:0:0:
64,192,97943,1,0,0:0:0:0:
448,192,97943,1,0,0:0:0:0:
320,192,98043,1,0,0:0:0:0:
192,192,98043,1,0,0:0:0:0:
64,192,98443,1,0,0:0:0:0:
320,192,98443,1,0,0:0:0:0:
192,192,98543,1,0,0:0:0:0:
320,192,98643,1,0,0:0:0:0:
64,192,98643,1,0,0:0:0:0:
192,192,98743,1,0,0:0:0:0:
320,192,98843,1,0,0:0:0:0:
448,192,98843,1,0,0:0:0:0:
192,192,98943,1,0,0:0:0:0:
64,192,98943,1,0,0:0:0:0:
448,192,99043,1,0,0:0:0:0:
192,192,99043,1,0,0:0:0:0:
320,192,99143,1,0,0:0:0:0:
448,192,99243,1,0,0:0:0:0:
192,192,99243,1,0,0:0:0:0:
64,192,99243,1,0,0:0:0:0:
320,192,99443,1,0,0:0:0:0:
448,192,99643,1,0,0:0:0:0:
192,192,99643,1,0,0:0:0:0:
64,192,99643,1,0,0:0:0:0:
320,192,99843,1,0,0:0:0:0:
320,192,99943,1,0,0:0:0:0:
320,192,100043,128,0,103243:0:0:0:0:
64,192,100843,128,0,101043:0:0:0:0:
448,192,101043,128,0,101243:0:0:0:0:
192,192,101243,128,0,101443:0:0:0:0:
64,192,101443,1,0,0:0:0:0:
64,192,101643,1,0,0:0:0:0:
192,192,101643,1,0,0:0:0:0:
448,192,101643,128,0,101943:0:0:0:0:
448,192,102043,128,0,102243:0:0:0:0:
192,192,102243,128,0,102643:0:0:0:0:
64,192,103243,5,0,0:0:0:0:
192,192,103243,1,0,0:0:0:0:
448,192,103243,1,0,0:0:0:0:
