osu file format v14

[General]
AudioFilename: Floxytek Billx 30's Swing Tek.mp3
AudioLeadIn: 0
PreviewTime: 40675
Countdown: 0
SampleSet: Soft
StackLeniency: 0.7
Mode: 0
LetterboxInBreaks: 0
WidescreenStoryboard: 1

[Editor]
Bookmarks: 141728,192255,252886,273096,293306,313517
DistanceSpacing: 0.1
BeatDivisor: 8
GridSize: 16
TimelineZoom: 3.799998

[Metadata]
Title:Swing Tek (Original Mix)
TitleUnicode:Swing Tek (Original Mix)
Artist:Floxytek
ArtistUnicode:Floxytek
Creator:Hpocks
Version:Milky Way
Source:
Tags:A1 Floxytek Hardtek French stingy Swingcore Frenchcore electronic techno tribal 30s
BeatmapID:2033116
BeatmapSetID:915715

[Difficulty]
HPDrainRate:5
CircleSize:4
OverallDifficulty:8
ApproachRate:9
SliderMultiplier:1.4
SliderTickRate:1

[Events]
//Background and Video events
0,0,"tek.jpg",0,0
//Break Periods
2,76243,80496
2,116664,120917
//Storyboard Layer 0 (Background)
//Storyboard Layer 1 (Fail)
//Storyboard Layer 2 (Pass)
//Storyboard Layer 3 (Foreground)
//Storyboard Layer 4 (Overlay)
//Storyboard Sound Samples

[TimingPoints]
254,315.789473684211,4,1,1,40,1,0
254,-111.111111111111,4,1,1,40,0,0
10359,-100,4,1,2,40,0,0
20465,-80,4,1,1,40,0,0
35623,-100,4,1,1,30,0,0
38148,-80,4,1,1,45,0,0
40675,-74.0740740740741,4,2,1,70,0,0
55201,-57.1428571428571,4,3,0,40,0,0
55359,-57.1428571428571,4,3,0,5,0,0
55517,-57.1428571428571,4,3,0,40,0,0
55675,-57.1428571428571,4,3,0,5,0,0
55832,-74.0740740740741,4,2,2,70,0,0
65938,-74.0740740740741,4,2,1,70,0,0
86149,-80,4,2,1,70,0,0
91201,-80,4,2,2,70,0,0
96017,-80,4,2,2,5,0,0
96096,-80,4,2,2,70,0,0
96175,-80,4,2,2,5,0,0
96254,-74.0740740740741,4,2,2,70,0,0
101069,-74.0740740740741,4,2,2,5,0,0
101148,-74.0740740740741,4,2,2,70,0,0
101227,-74.0740740740741,4,2,2,5,0,0
101306,-74.0740740740741,4,2,2,70,0,0
111175,-74.0740740740741,4,2,2,5,0,0
111254,-74.0740740740741,4,2,2,55,0,0
111332,-74.0740740740741,4,2,2,5,0,0
111411,-74.0740740740741,4,2,2,70,0,0
116227,-74.0740740740741,4,2,2,5,0,0
116306,-74.0740740740741,4,2,2,55,0,0
116385,-74.0740740740741,4,2,2,5,0,0
116464,-74.0740740740741,4,2,2,55,0,0
121517,-100,4,1,1,40,0,0
123411,-200,4,1,1,40,0,0
124044,-100,4,1,1,40,0,0
125938,-66.6666666666667,4,2,2,40,0,0
126569,-83.3333333333333,4,1,1,40,0,0
127202,-100,4,1,1,40,0,0
127833,-66.6666666666667,4,1,1,40,0,0
128464,-66.6666666666667,4,2,1,40,0,0
128780,-100,4,1,1,40,0,0
129096,-80,4,1,1,40,0,0
130990,-200,4,2,2,40,0,0
131148,-200,4,2,2,5,0,0
131306,-200,4,2,2,40,0,0
131464,-200,4,2,2,5,0,0
131623,-74.0740740740741,4,1,1,45,0,0
133517,-100,4,1,1,45,0,0
134148,-74.0740740740741,4,1,1,45,0,0
137938,-74.0740740740741,4,1,1,60,0,0
138254,-74.0740740740741,4,1,1,65,0,0
138569,-74.0740740740741,4,1,1,70,0,0
138885,-74.0740740740741,4,1,1,75,0,0
139201,-74.0740740740741,4,1,1,45,0,0
140464,-100,4,1,1,45,0,0
140780,-50,4,2,2,45,0,0
141727,-74.0740740740741,4,2,2,70,0,0
150569,-83.3333333333333,4,2,2,70,0,0
150885,-66.6666666666667,4,2,2,70,0,0
151201,-100,4,2,2,70,0,0
151517,-74.0740740740741,4,2,2,70,0,0
151595,-74.0740740740741,4,2,2,6,0,0
151674,-74.0740740740741,4,2,2,70,0,0
151753,-74.0740740740741,4,2,2,5,0,0
151832,-74.0740740740741,4,2,2,70,0,0
161937,-74.0740740740741,4,2,2,70,0,0
171016,-74.0740740740741,4,2,2,5,0,0
171095,-74.0740740740741,4,2,2,70,0,0
171096,-100,4,2,2,70,0,0
171411,-74.0740740740741,4,2,2,70,0,0
171490,-74.0740740740741,4,2,2,5,0,0
171569,-74.0740740740741,4,2,2,70,0,0
171648,-74.0740740740741,4,2,2,5,0,0
171726,-74.0740740740741,4,2,2,70,0,0
181832,-100,4,2,2,70,0,0
182148,-74.0740740740741,4,2,2,70,0,0
190990,-74.0740740740741,4,2,2,70,0,0
192254,-200,4,1,2,40,0,0
193517,-200,4,1,2,30,0,0
197306,-133.333333333333,4,1,2,40,0,0
199832,-133.333333333333,4,1,2,40,0,0
201174,-133.333333333333,4,1,2,5,0,0
202359,-90.9090909090909,4,2,1,50,0,0
212464,-74.0740740740741,4,2,1,60,0,0
231411,-74.0740740740741,4,2,1,25,0,0
232043,-100,4,2,1,60,0,0
232675,-74.0740740740741,4,2,2,70,0,0
252885,-133.333333333333,4,1,1,30,0,0
255411,-111.111111111111,4,1,1,30,0,0
257937,-111.111111111111,4,1,1,40,0,0
262359,-66.6666666666667,4,1,1,60,0,0
262595,-66.6666666666667,4,1,1,5,0,0
262674,-66.6666666666667,4,1,1,60,0,0
262832,-66.6666666666667,4,1,1,5,0,0
262990,-83.3333333333333,4,1,2,60,0,0
264254,-95.2380952380952,4,1,2,50,0,0
265517,-111.111111111111,4,1,2,40,0,0
266148,-133.333333333333,4,1,2,30,0,0
266780,-166.666666666667,4,1,2,30,0,0
268043,-100,4,1,2,40,0,0
270569,-100,4,1,2,50,0,0
271832,-83.3333333333333,4,1,2,40,0,0
272069,-83.3333333333333,4,1,2,5,0,0
272148,-83.3333333333333,4,1,2,40,0,0
272384,-83.3333333333333,4,1,2,5,0,0
272464,-100,4,1,2,40,0,0
273096,-66.6666666666667,4,2,2,60,0,1
283200,-66.6666666666667,4,2,2,65,0,1
290938,-100,4,2,2,65,0,1
291254,-80,4,2,2,65,0,1
291569,-66.6666666666667,4,2,2,65,0,1
292121,-66.6666666666667,4,2,2,5,0,1
292200,-66.6666666666667,4,2,2,65,0,1
292279,-66.6666666666667,4,2,2,5,0,1
292358,-66.6666666666667,4,2,2,65,0,1
292990,-66.6666666666667,4,2,2,80,0,0
293306,-66.6666666666667,4,2,2,70,0,1
303134,-66.6666666666667,4,2,2,5,0,1
303411,-66.6666666666667,4,2,2,70,0,1
313517,-166.666666666667,4,2,2,60,0,0
318569,-166.666666666667,4,2,2,40,0,0
322359,-400,4,2,2,40,0,0
322990,-400,4,2,2,20,0,0
323622,-400,4,2,2,10,0,0

[Colours]
Combo1 : 128,128,255
Combo2 : 0,240,163
Combo3 : 244,218,138
Combo4 : 255,107,100

[HitObjects]
26,296,10359,6,0,L|172:295,1,140,4|8,3:2|0:0,0:0:0:0:
220,352,10832,1,0,3:2:0:0:
283,290,10990,2,0,P|264:228|187:209,1,140,0|8,3:2|0:0,0:0:0:0:
37,84,11622,2,0,P|53:142|126:166,1,140,0|8,3:2|0:0,0:0:0:0:
167,94,12096,2,0,P|222:68|294:99,1,140,0|0,3:2|0:0,0:0:0:0:
332,164,12569,2,0,L|426:165,1,70,8|0,0:0|3:0,0:0:0:0:
386,36,12885,6,0,P|370:97|402:165,1,140,0|8,3:2|0:0,0:0:0:0:
459,225,13359,1,0,3:0:0:0:
407,295,13517,2,0,L|265:295,1,140,0|8,3:2|0:0,0:0:0:0:
99,198,14148,2,0,P|95:262|163:309,1,140,0|8,3:0|0:0,0:0:0:0:
165,144,14622,2,0,P|110:108|36:144,1,140,0|0,3:0|0:0,0:0:0:0:
174,228,15096,2,0,L|256:181,1,70,8|0,0:0|3:0,0:0:0:0:
240,108,15411,5,0,3:0:0:0:
240,108,15727,2,0,L|387:108,1,140,8|0,0:0|3:0,0:0:0:0:
442,48,16201,1,0,0:0:0:0:
502,112,16359,2,0,P|508:144|491:197,1,70,8|0,0:0|0:0,0:0:0:0:
483,317,16675,2,0,P|465:256|383:237,1,140,0|8,3:0|0:0,0:0:0:0:
342,289,17148,2,0,P|287:315|214:280,1,140,0|0,3:0|0:0,0:0:0:0:
140,270,17622,2,0,L|76:305,1,70,8|0,0:0|3:0,0:0:0:0:
189,209,17938,6,0,L|177:67,1,140,4|0,3:2|3:0,0:0:0:0:
323,209,18569,2,0,L|334:69,1,140,4|0,3:2|3:0,0:0:0:0:
72,40,19201,5,0,3:0:0:0:
256,120,19675,1,0,3:0:0:0:
440,40,20148,1,0,0:0:0:0:
368,112,20464,5,4,3:2:0:0:
368,112,20622,2,0,L|376:232,1,87.5,0|8,3:0|0:0,0:0:0:0:
448,273,20938,1,0,0:0:0:0:
381,340,21096,1,0,0:0:0:0:
359,341,21175,1,0,0:0:0:0:
337,342,21254,1,0,0:0:0:0:
271,231,21411,2,0,P|264:280|221:315,1,87.5,8|0,0:0|0:0,0:0:0:0:
119,324,21727,5,0,3:0:0:0:
111,143,21885,1,0,3:0:0:0:
164,233,22043,2,0,L|71:236,1,87.5,8|0,0:0|0:0,0:0:0:0:
6,156,22359,1,0,0:0:0:0:
5,134,22438,1,0,0:0:0:0:
4,112,22517,1,0,3:0:0:0:
69,26,22675,2,0,L|157:32,1,87.5,8|0,0:0|0:0,0:0:0:0:
224,109,22990,1,0,3:0:0:0:
314,35,23148,6,0,P|352:65|360:123,1,87.5,0|8,0:0|0:0,0:0:0:0:
294,205,23464,1,0,0:0:0:0:
224,109,23622,1,0,0:0:0:0:
246,108,23701,1,0,0:0:0:0:
268,107,23780,1,0,0:0:0:0:
385,193,23938,2,0,L|377:317,1,87.5,8|0,0:0|0:0,0:0:0:0:
403,372,24254,6,0,P|443:358|469:323,1,87.5,0|0,0:3|3:0,0:0:0:0:
464,186,24569,1,8,0:0:0:0:
380,279,24727,1,0,0:0:0:0:
308,184,24885,1,0,0:0:0:0:
286,183,24964,1,0,0:0:0:0:
264,182,25043,1,0,3:0:0:0:
191,268,25201,2,0,P|148:274|117:304,1,87.5,8|0,0:0|0:0,0:0:0:0:
27,379,25517,6,0,L|21:291,1,87.5,0|0,3:0|0:0,0:0:0:0:
86,217,25832,2,0,L|80:129,1,87.5,8|0,0:0|0:0,0:0:0:0:
10,37,26148,1,0,0:0:0:0:
32,38,26227,1,0,0:0:0:0:
54,39,26306,1,0,3:0:0:0:
153,9,26464,2,0,P|197:0|248:11,1,87.5,8|0,0:0|0:0,0:0:0:0:
298,117,26780,5,0,3:0:0:0:
298,117,26938,1,0,3:0:0:0:
366,37,27096,1,8,0:0:0:0:
366,37,27254,1,0,0:0:0:0:
409,135,27411,1,0,0:0:0:0:
408,157,27490,1,0,0:0:0:0:
407,179,27569,1,0,3:0:0:0:
353,263,27727,2,0,L|358:350,1,87.5,8|0,0:0|0:0,0:0:0:0:
508,348,28043,6,0,P|473:321|430:321,1,87.5,0|0,3:0|0:0,0:0:0:0:
278,353,28359,2,0,P|235:355|198:333,1,87.5,8|0,0:0|0:0,0:0:0:0:
179,218,28675,1,0,0:0:0:0:
178,196,28754,1,0,0:0:0:0:
177,174,28832,1,0,3:0:0:0:
80,274,28990,2,0,L|85:361,1,87.5,8|0,0:0|0:0,0:0:0:0:
179,218,29306,6,0,L|266:213,1,87.5
100,163,29622,2,0,L|13:168,1,87.5,8|0,0:0|0:0,0:0:0:0:
50,49,29938,1,0,0:0:0:0:
154,86,30096,1,0,3:0:0:0:
154,86,30214,2,0,B|176:37|164:-9,2,87.5
200,120,30569,6,0,L|287:125,1,87.5,4|0,3:2|0:0,0:0:0:0:
363,62,30885,1,8,0:0:0:0:
364,40,30964,1,0,0:0:0:0:
365,18,31043,1,0,0:0:0:0:
386,169,31201,2,0,P|418:197|461:202,1,87.5,0|0,0:0|3:0,0:0:0:0:
507,290,31517,2,0,P|466:304|440:338,1,87.5,8|0,0:0|0:0,0:0:0:0:
338,365,31832,5,2,0:0:0:0:
293,272,31990,1,0,3:0:0:0:
215,342,32148,1,8,0:0:0:0:
193,343,32227,1,0,0:0:0:0:
171,344,32306,1,0,0:0:0:0:
92,277,32464,2,0,L|97:190,1,87.5,0|0,0:0|3:0,0:0:0:0:
216,112,32780,1,8,0:0:0:0:
220,211,32938,1,0,0:0:0:0:
56,74,33096,6,0,P|94:99|137:104,1,87.5,2|0,0:0|0:0,0:0:0:0:
206,32,33411,1,8,0:0:0:0:
226,31,33490,1,0,0:0:0:0:
247,29,33569,1,0,0:0:0:0:
308,118,33727,2,0,L|395:113,1,87.5,0|0,0:0|3:0,0:0:0:0:
448,8,34043,2,0,L|361:13,1,87.5,8|0,0:0|0:0,0:0:0:0:
308,118,34359,5,0,0:0:0:0:
356,219,34517,1,0,3:0:0:0:
420,138,34675,1,0,0:0:0:0:
419,116,34754,1,0,0:0:0:0:
418,94,34832,1,0,3:0:0:0:
276,189,34990,2,0,P|273:235|290:274,1,87.5,0|2,0:0|0:0,0:0:0:0:
459,334,35306,2,0,P|420:308|377:303,1,87.5,8|0,0:0|0:0,0:0:0:0:
167,360,35622,5,0,3:0:0:0:
167,360,36254,2,0,P|172:321|168:283,1,70,0|0,3:0|0:0,0:0:0:0:
120,221,36569,2,0,P|117:182|123:144,1,70,0|0,3:0|0:0,0:0:0:0:
180,84,36885,1,0,3:0:0:0:
283,167,37517,6,0,L|213:170,1,70,0|0,3:0|0:0,0:0:0:0:
262,256,37832,1,0,0:0:0:0:
250,88,37990,1,0,3:0:0:0:
366,120,38148,6,0,P|397:90|407:39,1,87.5,4|0,3:2|0:0,0:0:0:0:
440,182,38464,1,0,3:0:0:0:
440,203,38543,1,0,0:0:0:0:
441,224,38622,1,0,0:0:0:0:
442,245,38701,1,8,0:0:0:0:
443,266,38780,2,0,P|432:307|401:337,1,87.5,4|0,3:2|0:0,0:0:0:0:
271,186,39096,5,0,0:0:0:0:
195,336,39254,1,8,0:0:0:0:
194,358,39332,1,0,0:0:0:0:
193,380,39411,1,0,0:0:0:0:
358,265,39569,1,0,0:0:0:0:
173,229,39727,1,0,3:2:0:0:
296,362,39885,1,0,0:0:0:0:
276,170,40043,5,0,0:0:0:0:
20,54,40675,6,0,L|139:49,1,94.5000003604889,4|0,3:2|0:0,0:0:0:0:
185,128,40990,1,0,3:0:0:0:
256,35,41148,1,0,0:0:0:0:
354,112,41306,1,0,3:0:0:0:
376,111,41385,1,0,0:0:0:0:
398,110,41464,1,0,0:0:0:0:
270,159,41622,2,0,P|304:215|361:225,1,94.5000003604889,0|0,3:0|0:0,0:0:0:0:
353,227,41859,1,0,0:0:0:0:
380,230,41938,6,0,P|419:253|437:296,1,94.5000003604889,0|0,3:0|0:0,0:0:0:0:
359,379,42254,2,0,L|264:375,1,94.5000003604889,0|0,3:0|0:0,0:0:0:0:
197,280,42569,1,0,3:0:0:0:
175,279,42648,1,0,0:0:0:0:
153,278,42727,1,0,0:0:0:0:
61,357,42885,1,0,3:0:0:0:
0,261,43043,2,0,P|17:217|57:194,1,94.5000003604889,0|0,0:0|3:0,0:0:0:0:
84,191,43280,1,0,0:0:0:0:
112,192,43359,5,0,0:0:0:0:
185,142,43517,2,0,P|161:102|118:85,1,94.5000003604889,0|0,3:0|0:0,0:0:0:0:
31,68,43832,1,0,3:0:0:0:
32,90,43911,1,0,0:0:0:0:
33,112,43990,1,0,0:0:0:0:
112,3,44148,2,0,L|206:0,1,94.5000003604889,0|0,3:0|0:0,0:0:0:0:
227,10,44385,1,0,0:0:0:0:
245,24,44464,6,0,L|339:21,1,94.5000003604889,0|0,3:0|0:0,0:0:0:0:
370,195,44780,2,0,P|330:171|312:128,1,94.5000003604889,0|0,3:0|0:0,0:0:0:0:
429,48,45096,1,0,3:0:0:0:
428,70,45175,1,0,0:0:0:0:
427,92,45254,1,0,0:0:0:0:
474,192,45411,2,0,L|471:287,1,94.5000003604889,0|0,3:0|0:0,0:0:0:0:
415,381,45727,6,0,P|379:350|369:305,1,94.5000003604889,4|0,3:3|0:0,0:0:0:0:
293,212,46043,2,0,P|282:257|247:287,1,94.5000003604889,0|0,3:0|0:0,0:0:0:0:
94,236,46359,1,0,3:0:0:0:
185,220,46517,1,0,0:0:0:0:
154,307,46675,1,0,3:0:0:0:
132,153,46832,5,0,0:0:0:0:
132,153,46911,1,0,0:0:0:0:
132,153,46990,2,0,P|147:109|186:83,1,94.5000003604889
351,16,47306,2,0,P|325:54|281:69,1,94.5000003604889,0|0,3:0|0:0,0:0:0:0:
428,205,47622,1,0,3:0:0:0:
364,134,47780,1,0,0:0:0:0:
329,221,47938,1,0,3:0:0:0:
467,303,48096,5,0,0:0:0:0:
467,303,48175,1,0,0:0:0:0:
467,303,48254,2,0,L|372:306,1,94.5000003604889,0|0,3:0|0:0,0:0:0:0:
296,381,48569,1,0,3:0:0:0:
219,300,48727,1,0,0:0:0:0:
130,371,48885,2,0,P|87:351|65:310,1,94.5000003604889,0|0,3:0|0:0,0:0:0:0:
116,222,49201,1,0,3:0:0:0:
219,300,49359,5,0,0:0:0:0:
219,300,49438,1,0,0:0:0:0:
219,300,49517,2,0,L|216:205,1,94.5000003604889,0|0,3:0|0:0,0:0:0:0:
113,127,49832,2,0,L|116:222,1,94.5000003604889,0|0,3:0|0:0,0:0:0:0:
37,83,50148,1,0,3:0:0:0:
115,35,50306,1,0,0:3:0:0:
115,35,50385,2,0,P|167:27|236:96,1,141.750000540733,0|0,0:3|0:3,0:3:0:0:
319,151,50780,5,4,3:3:0:0:
319,151,50938,1,0,0:0:0:0:
390,62,51096,1,0,3:0:0:0:
390,62,51254,1,0,0:0:0:0:
446,168,51411,1,0,3:0:0:0:
512,73,51569,1,0,0:0:0:0:
446,166,51727,2,0,L|442:271,1,94.5000003604889,0|0,3:0|0:0,0:0:0:0:
437,275,51964,1,0,0:0:0:0:
432,291,52043,5,4,3:2:0:0:
348,361,52201,1,0,0:0:0:0:
257,310,52359,1,0,3:0:0:0:
260,208,52517,1,0,0:0:0:0:
351,164,52675,2,0,P|383:131|391:85,2,94.5000003604889,0|0|0,3:0|0:0|3:0,0:0:0:0:
260,208,53148,1,0,0:0:0:0:
199,61,53306,5,4,3:2:0:0:
138,133,53464,1,0,0:0:0:0:
139,155,53543,1,0,3:0:0:0:
140,177,53622,1,0,3:0:0:0:
89,44,53780,2,0,L|42:40,2,47.2500001802444,0|0|4,0:0|3:0|3:2,0:0:0:0:
234,112,54096,5,0,0:0:0:0:
256,111,54175,1,0,3:0:0:0:
278,110,54254,1,0,3:0:0:0:
365,1,54411,1,0,3:0:0:0:
387,193,54569,1,4,3:2:0:0:
455,82,54727,2,0,L|481:36,2,47.2500001802444,0|0|0,0:0|3:0|3:0,0:0:0:0:
387,193,55043,1,0,3:0:0:0:
353,343,55201,6,2,B|359:310|339:284|339:284|315:305|317:337,1,122.500001168251,0|0,3:0|3:0,0:0:0:0:
246,176,55517,2,2,B|252:208|232:234|232:234|208:213|210:181,1,122.500001168251,0|0,3:0|3:0,0:0:0:0:
121,334,55832,6,0,L|113:219,1,94.5000003604889,0|0,3:0|0:0,0:0:0:0:
217,86,56148,2,0,L|209:201,1,94.5000003604889,8|0,3:2|0:0,0:0:0:0:
64,148,56464,1,4,3:2:0:0:
110,37,56622,1,0,0:0:0:0:
110,37,56701,2,0,P|154:20|199:34,1,94.5000003604889
214,51,56938,1,0,3:0:0:0:
307,4,57096,5,0,3:0:0:0:
307,4,57254,1,0,0:0:0:0:
350,98,57411,1,8,3:2:0:0:
350,98,57569,1,0,0:0:0:0:
409,12,57727,1,0,0:0:0:0:
409,12,57885,1,0,0:0:0:0:
457,111,58043,2,0,L|449:226,1,94.5000003604889,8|0,3:2|0:0,0:0:0:0:
405,331,58359,6,0,P|344:333|299:284,1,94.5000003604889,0|0,3:0|0:0,0:0:0:0:
228,146,58675,2,0,P|260:197|240:261,1,94.5000003604889,8|0,3:2|0:0,0:0:0:0:
189,342,58990,1,4,3:2:0:0:
73,294,59148,1,0,0:0:0:0:
73,294,59227,2,0,P|74:247|103:210,1,94.5000003604889
124,203,59464,1,0,0:0:0:0:
65,110,59622,5,0,3:0:0:0:
65,110,59780,1,0,0:0:0:0:
124,196,59938,1,8,3:2:0:0:
124,196,60096,1,0,0:0:0:0:
166,98,60254,1,0,3:0:0:0:
166,98,60411,1,0,0:0:0:0:
233,181,60569,2,0,L|283:179,2,47.2500001802444,8|0|0,3:0|3:0|3:0,0:0:0:0:
111,39,60885,6,0,P|166:15|226:45,1,94.5000003604889,4|0,2:0|0:0,0:0:0:0:
274,91,61201,2,0,P|314:101|362:82,1,94.5000003604889,8|0,3:2|0:0,0:0:0:0:
443,0,61517,1,4,3:2:0:0:
478,104,61675,1,0,0:0:0:0:
478,104,61754,2,0,L|471:198,1,94.5000003604889
470,219,61990,1,0,0:0:0:0:
425,304,62148,5,0,3:0:0:0:
425,304,62306,1,0,0:0:0:0:
366,218,62464,1,8,3:2:0:0:
366,218,62622,1,0,0:0:0:0:
324,314,62780,1,0,3:0:0:0:
324,314,62938,1,0,0:0:0:0:
260,231,63096,2,0,P|213:237|179:269,1,94.5000003604889,8|0,3:2|0:0,0:0:0:0:
68,287,63411,6,0,L|61:381,1,94.5000003604889,0|0,3:0|0:0,0:0:0:0:
179,268,63727,2,0,L|172:173,1,94.5000003604889,8|0,3:2|0:0,0:0:0:0:
98,85,64043,1,4,3:2:0:0:
3,139,64201,1,0,0:3:0:0:
3,139,64280,2,0,P|20:182|60:207,1,94.5000003604889,0|0,0:3|0:0,0:0:0:0:
79,209,64517,1,0,0:0:0:0:
138,51,64675,6,0,L|43:44,1,94.5000003604889,0|0,3:0|0:0,0:0:0:0:
148,232,64990,2,0,L|242:225,1,94.5000003604889,8|0,3:2|0:0,0:0:0:0:
366,29,65306,1,0,3:0:0:0:
209,79,65464,1,0,0:0:0:0:
209,79,65582,2,0,P|292:116|311:110,1,94.5000003604889
421,97,65938,5,4,0:0:0:0:
471,207,66096,2,0,P|480:260|458:311,1,94.5000003604889,0|8,0:0|3:2,0:0:0:0:
392,372,66411,1,0,0:0:0:0:
312,269,66569,1,0,3:0:0:0:
288,262,66648,1,0,0:0:0:0:
266,262,66727,1,0,0:0:0:0:
245,272,66806,1,0,0:0:0:0:
228,286,66885,2,0,L|104:278,1,94.5000003604889,8|0,3:2|0:0,0:0:0:0:
54,145,67201,6,0,P|30:194|39:249,1,94.5000003604889,0|0,3:0|0:0,0:0:0:0:
150,109,67517,2,0,P|119:64|66:44,1,94.5000003604889,8|0,3:2|0:0,0:0:0:0:
169,218,67832,1,0,3:0:0:0:
240,67,67990,1,0,0:0:0:0:
239,45,68069,1,0,0:0:0:0:
238,23,68148,1,8,3:2:0:0:
150,109,68306,1,0,0:0:0:0:
251,211,68464,5,0,3:0:0:0:
299,118,68622,2,0,L|393:111,1,94.5000003604889,0|8,0:0|3:2,0:0:0:0:
495,125,68938,1,0,0:0:0:0:
396,28,69096,1,0,3:0:0:0:
375,188,69254,1,0,0:0:0:0:
376,213,69332,1,0,0:0:0:0:
382,234,69411,2,0,P|412:279|465:299,1,94.5000003604889,8|0,3:2|0:0,0:0:0:0:
418,373,69727,5,0,3:0:0:0:
459,209,69885,1,0,0:0:0:0:
328,301,70043,2,0,L|234:308,1,94.5000003604889,8|0,3:2|0:0,0:0:0:0:
112,354,70359,1,0,3:0:0:0:
125,334,70438,1,0,0:0:0:0:
134,311,70517,1,0,0:0:0:0:
136,287,70596,1,0,0:0:0:0:
130,264,70675,2,0,L|36:257,1,94.5000003604889,8|4,3:2|0:0,0:0:0:0:
43,71,70990,5,4,3:2:0:0:
77,182,71148,1,0,3:0:0:0:
77,182,71227,1,0,3:0:0:0:
77,182,71306,2,0,P|116:159|141:119,1,94.5000003604889,8|0,3:2|0:0,0:0:0:0:
205,205,71622,2,0,L|255:203,1,47.2500001802444,0|0,3:0|0:0,0:0:0:0:
308,118,71780,2,0,L|258:116,1,47.2500001802444,0|0,3:0|0:0,0:0:0:0:
163,32,71938,2,0,L|257:25,1,94.5000003604889,8|4,3:2|0:0,0:0:0:0:
364,9,72254,5,4,3:2:0:0:
404,111,72411,2,0,P|408:165|381:213,1,94.5000003604889,0|8,0:0|3:2,0:0:0:0:
289,269,72727,1,0,0:0:0:0:
357,364,72885,1,0,3:0:0:0:
379,363,72964,1,0,0:0:0:0:
401,362,73043,1,0,0:0:0:0:
289,269,73201,2,0,L|195:276,1,94.5000003604889,8|0,3:2|0:0,0:0:0:0:
40,248,73517,5,4,3:2:0:0:
94,343,73675,1,0,0:0:0:0:
114,166,73832,1,8,3:2:0:0:
160,268,73990,1,0,0:0:0:0:
20,184,74148,1,4,3:2:0:0:
19,162,74227,1,0,0:0:0:0:
18,140,74306,1,0,0:0:0:0:
118,58,74464,2,0,L|212:65,1,94.5000003604889,8|0,3:2|0:0,0:0:0:0:
315,187,74780,6,0,L|221:194,1,94.5000003604889,4|0,3:2|0:0,0:0:0:0:
319,40,75096,1,8,3:2:0:0:
410,163,75254,1,0,0:0:0:0:
468,44,75411,1,0,3:0:0:0:
467,22,75490,1,0,0:0:0:0:
466,0,75569,1,0,0:0:0:0:
410,163,75727,2,0,P|433:211|480:239,1,94.5000003604889,0|0,3:0|3:0,0:0:0:0:
442,360,76043,5,4,0:0:0:0:
68,257,81096,5,4,3:2:0:0:
125,366,81254,1,0,0:0:0:0:
208,260,81411,2,0,P|184:211|137:183,1,94.5000003604889,8|0,3:2|0:0,0:0:0:0:
14,76,81727,1,0,3:0:0:0:
14,76,81806,1,0,0:0:0:0:
14,76,81885,2,0,P|37:124|84:152,1,94.5000003604889,0|8,0:0|3:2,0:0:0:0:
128,38,82201,1,0,0:0:0:0:
207,116,82359,6,0,L|301:109,1,94.5000003604889,0|0,3:2|3:2,0:2:0:0:
363,25,82675,1,8,3:2:0:0:
432,117,82832,1,0,0:0:0:0:
345,238,82990,1,0,3:2:0:0:
344,216,83069,1,0,0:0:0:0:
343,194,83148,1,0,0:0:0:0:
432,117,83306,2,0,P|468:145|487:188,1,94.5000003604889,8|0,3:2|0:0,0:0:0:0:
426,328,83622,5,0,3:2:0:0:
426,328,83701,1,0,0:0:0:0:
426,328,83780,2,0,L|332:321,1,94.5000003604889,0|8,0:0|3:2,0:0:0:0:
240,241,84096,1,0,0:0:0:0:
144,304,84254,1,0,3:2:0:0:
145,326,84332,1,0,0:0:0:0:
146,348,84411,1,0,0:0:0:0:
34,200,84569,2,0,P|39:253|74:296,1,94.5000003604889,8|0,3:2|0:0,0:0:0:0:
160,181,84885,5,0,3:2:0:0:
103,98,85043,2,0,L|9:105,1,94.5000003604889,0|8,0:0|3:2,0:0:0:0:
154,6,85359,1,0,0:0:0:0:
224,100,85517,1,0,3:2:0:0:
246,99,85596,1,0,0:0:0:0:
268,98,85675,1,0,0:0:0:0:
355,3,85832,2,0,P|398:34|418:86,1,94.5000003604889,8|0,3:2|0:0,0:0:0:0:
350,219,86148,6,0,L|342:114,1,94.5000003604889,4|0,3:2|0:0,0:0:0:0:
470,200,86464,2,0,L|464:288,1,87.5,8|0,3:2|0:0,0:0:0:0:
379,353,86780,1,0,3:2:0:0:
363,353,86859,1,0,0:0:0:0:
349,351,86938,1,0,0:0:0:0:
268,268,87096,2,0,P|219:291|204:348,1,87.5,8|0,3:2|0:0,0:0:0:0:
201,333,87332,1,0,0:0:0:0:
200,348,87411,6,0,L|112:342,1,87.5,0|0,3:0|0:0,0:0:0:0:
23,240,87727,2,0,L|111:234,1,87.5,8|0,3:2|0:0,0:0:0:0:
190,154,88043,1,0,3:2:0:0:
190,154,88122,1,0,0:0:0:0:
112,62,88280,1,0,0:0:0:0:
112,62,88359,2,0,P|73:100|79:159,1,87.5,8|0,3:2|0:0,0:0:0:0:
190,154,88675,6,0,P|228:115|222:56,1,87.5,0|0,3:0|0:0,0:0:0:0:
351,33,88990,2,0,P|320:77|335:134,1,87.5,8|0,3:2|0:0,0:0:0:0:
400,227,89306,1,0,3:2:0:0:
439,121,89464,1,0,0:0:0:0:
439,121,89543,1,0,0:0:0:0:
439,121,89622,1,8,3:2:0:0:
299,204,89780,1,0,0:0:0:0:
299,204,89859,1,0,0:0:0:0:
299,204,89938,6,0,L|305:292,1,87.5,0|0,3:0|0:0,0:0:0:0:
381,376,90254,1,8,3:2:0:0:
403,268,90411,1,0,0:0:0:0:
288,172,90569,1,0,3:2:0:0:
304,291,90727,1,0,0:0:0:0:
304,291,90806,2,0,P|287:330|199:344,1,131.25,0|0,0:0|0:0,0:0:0:0:
130,189,91201,5,4,3:2:0:0:
42,218,91359,1,0,0:0:0:0:
43,310,91517,1,8,3:2:0:0:
129,338,91675,1,0,0:0:0:0:
184,264,91832,1,0,3:2:0:0:
43,310,91990,2,0,L|0:314,2,43.75,0|0|8,0:0|0:0|3:2,0:0:0:0:
125,340,92306,1,0,0:0:0:0:
184,264,92464,5,0,3:2:0:0:
135,195,92622,1,0,0:0:0:0:
183,130,92780,1,8,3:2:0:0:
262,155,92938,1,0,0:0:0:0:
263,237,93096,1,0,3:2:0:0:
183,130,93254,2,0,L|189:74,2,43.75,0|0|8,0:0|0:0|3:2,0:0:0:0:
163,261,93569,1,0,0:0:0:0:
15,192,93727,6,0,L|103:186,1,87.5,4|0,3:2|0:0,0:0:0:0:
277,117,94043,1,8,3:2:0:0:
199,226,94201,1,0,0:0:0:0:
142,101,94359,1,0,3:2:0:0:
240,32,94517,1,0,0:0:0:0:
240,32,94596,2,0,L|374:42,1,131.25,0|0,0:0|0:0,0:0:0:0:
503,234,94990,5,4,3:2:0:0:
379,124,95148,1,0,3:2:0:0:
347,280,95306,2,0,P|369:328|426:344,1,87.5,0|0,3:0|0:0,0:0:0:0:
410,219,95622,1,0,3:0:0:0:
294,168,95780,1,0,0:0:0:0:
294,168,95859,1,0,3:2:0:0:
294,168,95938,2,0,L|292:113,1,43.75
227,248,96096,2,0,L|225:303,1,43.75,0|0,3:0|0:0,0:0:0:0:
111,183,96254,6,0,L|106:88,1,94.5000003604889,4|0,3:2|0:0,0:0:0:0:
21,264,96569,2,0,L|26:364,1,94.5000003604889,8|0,3:2|0:0,0:0:0:0:
119,282,96885,1,4,3:2:0:0:
189,355,97043,1,0,0:0:0:0:
189,355,97122,2,0,L|286:363,1,94.5000003604889,4|0,0:3|0:0,0:0:0:0:
302,365,97359,1,0,0:0:0:0:
373,288,97517,5,0,3:2:0:0:
373,288,97675,1,0,0:0:0:0:
316,189,97832,1,8,3:2:0:0:
316,189,97990,1,0,0:0:0:0:
250,282,98148,1,0,3:2:0:0:
250,282,98306,1,0,0:0:0:0:
195,188,98464,2,0,P|148:182|114:150,1,94.5000003604889,8|0,3:2|0:0,0:0:0:0:
178,0,98780,6,0,L|185:97,1,94.5000003604889,0|0,3:0|0:0,0:0:0:0:
302,113,99096,2,0,L|297:210,1,94.5000003604889,8|0,3:2|0:0,0:0:0:0:
229,287,99411,1,4,3:2:0:0:
315,370,99569,1,0,0:3:0:0:
314,370,99648,2,0,P|360:372|399:347,1,94.5000003604889,4|0,0:3|0:3,0:3:0:0:
409,330,99885,1,0,0:0:0:0:
329,257,100043,5,0,3:2:0:0:
329,257,100201,1,0,0:0:0:0:
356,146,100359,1,8,3:2:0:0:
356,146,100517,1,0,0:0:0:0:
434,228,100675,1,0,3:2:0:0:
434,228,100832,1,0,0:0:0:0:
262,171,100990,2,0,L|207:169,1,47.2500001802444,12|0,3:2|0:0,0:0:0:0:
307,268,101148,2,0,L|364:266,1,47.2500001802444
403,133,101306,6,0,P|400:179|426:218,1,94.5000003604889,4|0,3:2|0:0,0:0:0:0:
369,330,101622,2,0,P|347:288|306:267,1,94.5000003604889,8|0,3:2|0:0,0:0:0:0:
218,342,101938,1,4,3:2:0:0:
169,251,102096,1,0,0:0:0:0:
169,251,102175,2,0,L|75:258,1,94.5000003604889,4|0,0:3|0:0,0:0:0:0:
54,260,102411,1,0,0:0:0:0:
103,160,102569,5,0,3:2:0:0:
103,160,102727,1,0,0:0:0:0:
169,251,102885,1,8,3:2:0:0:
169,251,103043,1,0,0:0:0:0:
214,146,103201,1,0,3:2:0:0:
214,146,103359,1,0,0:0:0:0:
105,40,103517,2,0,P|73:74|67:120,1,94.5000003604889,8|0,3:2|0:0,0:0:0:0:
214,146,103832,6,0,L|308:143,1,94.5000003604889,0|0,3:0|0:0,0:0:0:0:
444,51,104148,2,0,L|349:48,1,94.5000003604889,8|0,3:2|0:0,0:0:0:0:
308,142,104464,1,4,3:2:0:0:
360,251,104622,1,0,0:3:0:0:
360,251,104701,2,0,P|399:225|417:182,1,94.5000003604889,4|0,0:3|0:0,0:0:0:0:
308,142,104938,1,0,0:0:0:0:
221,204,105096,5,0,3:2:0:0:
237,302,105254,2,0,L|233:357,2,47.2500001802444,0|0|0,0:0|3:0|0:0,0:0:0:0:
112,135,105569,2,0,L|108:80,2,47.2500001802444,0|0|0,0:0|3:0|3:0,0:0:0:0:
65,331,105885,1,0,0:0:0:0:
133,229,106043,1,8,3:2:0:0:
133,229,106122,1,0,3:2:0:0:
234,300,106280,1,0,0:0:0:0:
234,300,106359,6,0,P|258:260|257:214,1,94.5000003604889,4|0,3:2|3:0,0:0:0:0:
250,194,106596,1,0,3:0:0:0:
244,166,106675,2,0,P|242:119|267:80,1,94.5000003604889,8|0,3:2|0:0,0:0:0:0:
399,28,106990,1,0,3:2:0:0:
398,45,107069,1,0,0:0:0:0:
398,61,107148,1,0,0:0:0:0:
397,78,107227,1,0,0:0:0:0:
397,93,107306,2,0,L|394:187,1,94.5000003604889,8|0,3:2|0:0,0:0:0:0:
363,297,107622,6,0,P|406:279|451:289,1,94.5000003604889,0|0,3:0|0:0,0:0:0:0:
266,350,107938,2,0,P|219:351|180:326,1,94.5000003604889,8|0,3:2|0:0,0:0:0:0:
128,193,108254,1,0,3:2:0:0:
42,271,108411,1,0,0:0:0:0:
43,293,108490,1,0,0:0:0:0:
44,315,108569,1,8,3:2:0:0:
128,193,108727,2,0,L|125:99,1,94.5000003604889,0|0,0:0|3:0,0:0:0:0:
35,24,109043,5,0,0:0:0:0:
124,98,109201,2,0,P|165:76|187:35,1,94.5000003604889,8|0,3:2|0:0,0:0:0:0:
320,16,109517,1,0,3:2:0:0:
242,132,109675,1,0,0:0:0:0:
241,154,109754,1,0,0:0:0:0:
240,176,109832,1,8,3:2:0:0:
314,274,109990,1,0,0:0:0:0:
388,173,110148,2,0,L|385:79,1,94.5000003604889,0|0,3:2|0:0,0:0:0:0:
449,251,110464,2,0,L|446:345,1,94.5000003604889,8|0,3:2|0:0,0:0:0:0:
319,283,110780,5,0,3:2:0:0:
299,292,110859,1,0,0:0:0:0:
278,298,110938,1,0,0:0:0:0:
256,301,111017,1,0,0:0:0:0:
233,300,111096,2,0,L|178:298,1,47.2500001802444,12|0,3:2|0:0,0:0:0:0:
66,358,111254,2,0,L|121:356,1,47.2500001802444,0|0,3:2|0:0,0:0:0:0:
21,180,111411,5,0,3:2:0:0:
86,264,111569,2,0,P|117:229|124:183,1,94.5000003604889,0|8,0:0|3:2,0:0:0:0:
113,43,111885,1,0,0:0:0:0:
215,110,112043,2,0,L|218:177,3,47.2500001802444,0|0|0|0,3:0|0:0|0:0|0:0,0:0:0:0:
286,32,112359,2,0,L|380:29,1,94.5000003604889,8|0,3:2|0:0,0:0:0:0:
352,230,112675,5,0,3:2:0:0:
393,113,112832,1,0,0:0:0:0:
471,211,112990,2,0,P|480:256|462:299,1,94.5000003604889,8|0,3:2|0:0,0:0:0:0:
357,354,113306,1,0,3:2:0:0:
335,355,113385,1,0,0:0:0:0:
313,356,113464,1,0,0:0:0:0:
239,279,113622,2,0,L|145:282,1,94.5000003604889,8|0,3:2|0:0,0:0:0:0:
89,150,113938,5,0,3:2:0:0:
36,232,114096,1,0,0:0:0:0:
18,61,114254,1,8,3:2:0:0:
181,136,114411,1,0,0:0:0:0:
89,150,114569,1,0,3:2:0:0:
88,128,114648,1,0,0:0:0:0:
87,106,114727,1,0,0:0:0:0:
155,32,114885,2,0,L|249:35,1,94.5000003604889,8|0,3:2|0:0,0:0:0:0:
305,164,115201,5,0,3:2:0:0:
412,117,115359,2,0,P|429:73|420:28,1,94.5000003604889,0|8,0:0|3:2,0:0:0:0:
305,164,115675,1,0,0:0:0:0:
377,267,115832,1,0,3:2:0:0:
358,283,115911,1,0,0:0:0:0:
338,296,115990,1,0,0:0:0:0:
316,305,116069,1,0,0:0:0:0:
292,307,116148,2,0,L|243:307,1,47.2500001802444,12|0,3:2|0:0,0:0:0:0:
181,205,116306,2,0,L|228:204,1,47.2500001802444
94,330,116464,5,4,0:0:0:0:
156,322,121517,6,0,L|159:379,1,35,6|0,0:0|0:0,0:0:0:0:
44,243,121832,2,0,L|40:289,1,35
180,144,122069,1,0,0:0:0:0:
132,234,122227,1,0,0:0:0:0:
131,215,122306,1,0,0:0:0:0:
209,274,122464,1,0,0:0:0:0:
225,267,122543,1,0,0:0:0:0:
237,254,122622,1,0,0:0:0:0:
246,238,122701,1,0,0:0:0:0:
249,218,122780,6,0,L|246:180,1,35
333,237,122938,2,0,L|330:202,1,35
416,252,123096,2,0,L|413:214,1,35
498,268,123254,2,0,L|495:230,1,35,0|0,0:0|0:0,0:0:0:0:
400,353,123411,6,0,B|399:317|399:317|416:283|416:283|414:242,1,105,12|0,0:0|0:0,0:0:0:0:
488,154,124043,5,0,3:0:0:0:
472,145,124122,1,0,0:0:0:0:
455,139,124201,1,0,0:0:0:0:
437,136,124280,1,0,0:0:0:0:
419,135,124359,2,0,L|362:138,3,35,0|0|0|0,3:0|0:0|0:0|0:0,0:0:0:0:
335,58,124675,2,0,L|271:53,1,35,8|0,0:0|0:0,0:0:0:0:
245,140,124832,1,8,0:0:0:0:
228,141,124911,1,0,0:0:0:0:
209,140,124990,2,0,P|182:97|183:55,1,70,0|0,3:0|0:0,0:0:0:0:
77,105,125306,5,0,3:0:0:0:
72,121,125385,1,0,0:0:0:0:
68,138,125464,1,0,0:0:0:0:
67,155,125543,1,0,0:0:0:0:
68,172,125622,1,0,3:0:0:0:
72,188,125701,1,0,0:0:0:0:
78,204,125780,1,0,0:0:0:0:
86,219,125859,1,0,0:0:0:0:
96,233,125938,6,0,L|217:228,1,105.000004005432,4|0,3:2|0:0,0:0:0:0:
256,310,126254,2,0,L|252:373,2,52.5000020027161,0|0|0,3:0|3:3|3:3,0:0:0:0:
380,306,126569,6,0,L|376:235,1,55.9999982910157,0|0,3:0|0:0,0:0:0:0:
456,194,126806,1,0,0:0:0:0:
453,173,126885,1,0,3:0:0:0:
444,153,126964,1,0,0:0:0:0:
429,137,127043,1,0,0:0:0:0:
413,122,127122,1,0,0:0:0:0:
391,117,127201,2,0,L|360:114,4,27.9999991455078,8|0|0|0|0,0:0|0:0|0:0|0:0|0:0,0:0:0:0:
288,29,127517,2,0,L|264:30,4,23.3333333333333
201,115,127832,5,0,3:0:0:0:
184,126,127911,1,0,0:0:0:0:
166,134,127990,1,0,0:0:0:0:
146,137,128069,1,0,0:0:0:0:
126,136,128148,1,0,3:0:0:0:
107,130,128227,1,0,0:0:0:0:
90,121,128306,1,0,0:0:0:0:
75,107,128385,1,0,0:0:0:0:
62,94,128464,1,4,3:2:0:0:
55,203,128622,1,0,0:0:0:0:
51,297,128780,6,0,P|98:300|152:259,1,105.000004005432,12|0,0:0|0:0,0:0:0:0:
181,179,129096,5,0,3:0:0:0:
269,331,129254,2,0,L|384:327,1,87.5,0|0,0:0|3:0,0:0:0:0:
414,244,129569,1,0,0:0:0:0:
343,175,129727,1,8,0:0:0:0:
342,160,129806,1,0,0:0:0:0:
341,146,129885,1,0,0:0:0:0:
341,132,129964,1,0,0:0:0:0:
340,116,130043,2,0,P|362:69|407:45,1,87.5
429,132,130359,5,0,0:0:0:0:
397,221,130517,1,0,0:0:0:0:
240,158,130675,1,0,3:0:0:0:
303,243,130832,1,0,0:0:0:0:
272,60,130990,6,0,L|268:12,1,35,8|0,0:0|0:0,0:0:0:0:
180,45,131306,2,0,L|184:93,1,35
44,110,131622,5,4,3:2:0:0:
45,88,131701,1,0,0:0:0:0:
46,66,131780,1,0,0:0:0:0:
129,162,131938,2,0,L|123:263,1,94.5000003604889,8|0,0:0|0:0,0:0:0:0:
30,319,132254,1,0,0:0:0:0:
31,297,132332,1,0,0:0:0:0:
32,275,132411,1,2,0:0:0:0:
168,344,132569,2,0,P|213:333|244:298,1,94.5000003604889,8|0,0:0|0:0,0:0:0:0:
215,157,132885,5,2,0:0:0:0:
191,237,133043,1,2,0:0:0:0:
306,127,133201,1,8,0:0:0:0:
237,65,133359,1,0,0:0:0:0:
333,265,133517,6,0,P|339:306|332:347,1,70,0|2,0:0|0:0,0:0:0:0:
417,231,133832,2,0,P|411:190|418:149,1,70,8|0,0:0|0:0,0:0:0:0:
457,56,134148,6,0,L|363:66,1,94.5000003604889,2|0,0:0|0:0,0:0:0:0:
304,150,134464,2,0,L|210:139,1,94.5000003604889,8|0,0:0|0:0,0:0:0:0:
112,75,134780,1,0,0:0:0:0:
113,53,134859,1,0,0:0:0:0:
114,31,134938,1,2,0:0:0:0:
29,144,135096,2,0,P|39:189|74:220,1,94.5000003604889,8|0,0:0|0:0,0:0:0:0:
205,285,135411,5,0,0:0:0:0:
217,192,135569,1,2,0:0:0:0:
115,282,135727,1,8,0:0:0:0:
144,375,135885,1,0,0:0:0:0:
205,285,136043,1,0,0:0:0:0:
217,278,136122,1,0,0:0:0:0:
231,275,136201,1,2,0:0:0:0:
244,275,136280,1,0,0:0:0:0:
257,277,136359,6,0,L|291:294,6,23.6250000901222,0|0|0|0|0|0|0,3:0|3:3|3:3|3:3|0:3|3:3|3:3,0:0:0:0:
370,334,136675,2,0,L|365:230,1,94.5000003604889,2|0,0:0|0:0,0:0:0:0:
448,148,136990,6,0,L|414:165,6,23.6250000901222,0|0|0|0|0|0|0,3:0|3:3|3:3|3:3|3:3|3:3|3:3,3:0:0:0:
374,74,137306,2,0,P|343:65|271:93,1,94.5000003604889,2|0,0:0|0:0,0:0:0:0:
233,169,137622,6,0,L|235:206,6,23.6250000901222,0|0|0|0|0|0|0,3:0|3:3|3:3|3:3|3:3|3:3|3:3,3:0:0:0:
212,27,137938,5,8,3:0:0:0:
212,27,138096,1,2,0:0:0:0:
136,194,138254,1,8,3:0:0:0:
136,194,138411,1,2,0:0:0:0:
98,17,138569,1,8,3:0:0:0:
231,140,138727,1,2,0:0:0:0:
52,119,138885,1,8,3:0:0:0:
212,27,139043,1,2,0:0:0:0:
123,213,139201,5,4,0:0:0:0:
331,161,140464,6,0,L|327:192,6,17.5
420,153,140780,2,0,P|397:96|282:96,1,140
248,148,141096,1,0,3:0:0:0:
248,169,141175,1,0,0:0:0:0:
249,190,141254,1,0,0:0:0:0:
249,211,141332,1,0,0:0:0:0:
250,232,141411,1,0,0:0:0:0:
176,305,141569,1,0,0:0:0:0:
269,358,141727,6,0,L|369:353,1,94.5000003604889,4|0,3:2|0:0,0:0:0:0:
387,349,141964,1,0,0:0:0:0:
410,347,142043,2,0,P|434:307|437:260,1,94.5000003604889,8|0,3:2|0:0,0:0:0:0:
435,246,142280,1,0,0:0:0:0:
428,231,142359,1,0,3:2:0:0:
379,114,142517,1,0,0:0:0:0:
289,182,142675,2,0,L|294:282,1,94.5000003604889,8|0,3:2|0:0,0:0:0:0:
379,114,142990,5,0,3:2:0:0:
290,34,143148,1,0,0:0:0:0:
269,33,143227,1,0,0:0:0:0:
248,36,143306,1,8,3:2:0:0:
171,136,143464,1,0,0:0:0:0:
150,137,143543,1,0,0:0:0:0:
129,134,143622,1,0,3:2:0:0:
57,25,143780,1,0,0:0:0:0:
129,134,143938,2,0,L|124:234,1,94.5000003604889,8|0,3:2|0:0,0:0:0:0:
23,347,144254,6,0,P|60:319|106:311,1,94.5000003604889,0|0,3:0|0:0,0:0:0:0:
130,314,144490,1,0,0:0:0:0:
153,315,144569,2,0,L|247:319,1,94.5000003604889,8|0,3:2|0:0,0:0:0:0:
271,319,144806,1,0,0:0:0:0:
294,321,144885,2,0,P|340:313|377:285,1,94.5000003604889,0|0,3:0|0:0,0:0:0:0:
264,134,145201,1,8,3:2:0:0:
306,231,145359,1,0,0:0:0:0:
441,110,145517,6,0,L|346:105,1,94.5000003604889,0|0,3:0|0:0,0:0:0:0:
333,85,145754,1,0,0:0:0:0:
320,65,145832,2,0,L|225:60,1,94.5000003604889,8|0,3:2|0:0,0:0:0:0:
147,142,146148,5,0,0:0:0:0:
146,118,146227,1,0,0:0:0:0:
137,96,146306,1,0,0:0:0:0:
120,80,146385,1,0,0:0:0:0:
96,70,146464,2,0,L|38:67,3,47.2500001802444
9,148,146780,5,0,3:2:0:0:
10,266,146938,1,0,0:0:0:0:
18,287,147017,1,0,0:0:0:0:
28,308,147096,2,0,P|64:335|111:342,1,94.5000003604889,8|0,3:2|0:0,0:0:0:0:
134,335,147332,1,0,0:0:0:0:
154,323,147411,2,0,P|181:285|188:238,1,94.5000003604889,0|0,3:2|0:0,0:0:0:0:
266,144,147727,2,0,L|361:148,1,94.5000003604889,8|0,3:2|0:0,0:0:0:0:
502,116,148043,5,0,3:2:0:0:
458,234,148201,1,0,0:0:0:0:
459,255,148280,1,0,0:0:0:0:
460,275,148359,1,8,3:2:0:0:
386,136,148517,1,0,0:0:0:0:
385,115,148596,1,0,0:0:0:0:
384,95,148675,1,0,3:2:0:0:
303,237,148832,1,0,0:0:0:0:
232,137,148990,2,0,L|137:132,1,94.5000003604889,8|0,3:2|0:0,0:0:0:0:
100,41,149306,6,0,P|58:63|32:102,1,94.5000003604889,0|0,3:2|0:0,0:0:0:0:
35,125,149543,1,0,0:0:0:0:
36,148,149622,2,0,L|40:242,1,94.5000003604889,8|0,3:2|0:0,0:0:0:0:
41,261,149859,1,0,0:0:0:0:
42,279,149938,1,0,3:2:0:0:
116,376,150096,1,0,0:0:0:0:
192,275,150254,2,0,L|286:279,1,94.5000003604889,8|0,3:2|0:0,0:0:0:0:
414,384,150569,6,0,P|422:331|409:280,1,83.9999974365235,0|0,0:0|3:0,0:0:0:0:
368,219,150885,2,0,P|365:146|393:95,1,105.000004005432,0|0,0:0|3:0,0:0:0:0:
457,36,151201,2,0,P|423:43|382:37,1,70,0|0,0:0|3:0,0:0:0:0:
303,15,151517,2,0,L|244:16,1,47.2500001802444
176,129,151675,2,0,L|223:128,1,47.2500001802444
128,18,151832,6,0,P|86:40|60:79,1,94.5000003604889,4|0,3:2|0:0,0:0:0:0:
61,98,152069,1,0,0:0:0:0:
62,121,152148,2,0,L|66:215,1,94.5000003604889,8|0,3:2|0:0,0:0:0:0:
155,295,152464,6,0,L|88:299,2,63.0000002403259,0|0|0,3:0|0:0|0:0,0:0:0:0:
215,350,152780,2,0,L|309:346,1,94.5000003604889,8|0,3:2|0:0,0:0:0:0:
365,268,153096,2,0,L|361:201,2,63.0000002403259,0|0|0,3:0|0:0|0:0,0:0:0:0:
425,342,153411,1,8,3:2:0:0:
452,196,153569,1,0,0:0:0:0:
385,123,153727,2,0,L|318:127,2,63.0000002403259,0|0|0,3:0|0:0|0:0,0:0:0:0:
479,32,154043,2,0,L|385:36,1,94.5000003604889,8|0,3:2|0:0,0:0:0:0:
287,25,154359,6,0,P|260:63|219:85,1,94.5000003604889,0|0,3:0|0:0,0:0:0:0:
195,85,154596,1,0,0:0:0:0:
171,86,154675,2,0,P|129:107|103:146,1,94.5000003604889,8|0,3:2|0:0,0:0:0:0:
188,176,154990,6,0,L|191:238,2,63.0000002403259,0|0|0,3:0|0:0|0:0,0:0:0:0:
109,260,155306,2,0,P|130:301|169:327,1,94.5000003604889,8|0,3:2|0:0,0:0:0:0:
257,291,155622,2,0,L|319:287,2,63.0000002403259,0|0|0,3:0|0:0|0:0,0:0:0:0:
286,206,155938,1,8,3:2:0:0:
295,369,156096,1,0,0:0:0:0:
405,275,156254,2,0,L|401:212,2,63.0000002403259,0|0|0,3:0|0:0|0:0,0:0:0:0:
427,355,156569,2,0,P|465:328|487:287,1,94.5000003604889,8|0,3:2|0:0,0:0:0:0:
458,65,156885,5,0,3:2:0:0:
401,212,157043,1,0,3:0:0:0:
401,212,157122,1,0,3:0:0:0:
401,212,157201,1,8,3:2:0:0:
334,76,157359,1,0,0:0:0:0:
278,157,157517,6,0,L|214:160,2,63.0000002403259,0|0|0,3:0|0:0|0:0,0:0:0:0:
196,81,157832,2,0,P|154:102|128:141,1,94.5000003604889,8|0,3:2|0:0,0:0:0:0:
135,227,158148,2,0,L|138:291,2,63.0000002403259,0|0|0,3:0|0:0|0:0,0:0:0:0:
57,186,158464,1,8,3:2:0:0:
65,353,158622,1,0,0:0:0:0:
137,289,158780,2,0,L|201:286,2,63.0000002403259,0|0|0,3:0|0:0|0:0,0:0:0:0:
182,373,159096,2,0,L|276:369,1,94.5000003604889,8|0,3:2|0:0,0:0:0:0:
277,197,159411,6,0,P|283:243|310:281,1,94.5000003604889,0|0,3:0|0:0,0:0:0:0:
323,287,159648,1,0,0:0:0:0:
344,295,159727,2,0,P|390:297|432:276,1,94.5000003604889,8|0,3:2|0:0,0:0:0:0:
368,151,160043,6,0,L|371:215,2,63.0000002403259,0|0|0,3:0|0:0|0:0,0:0:0:0:
459,69,160359,2,0,L|455:163,1,94.5000003604889,8|0,3:2|0:0,0:0:0:0:
358,65,160675,1,0,3:2:0:0:
273,17,160832,1,0,3:0:0:0:
249,14,160911,1,0,3:0:0:0:
226,18,160990,1,8,3:2:0:0:
205,30,161069,1,0,3:0:0:0:
189,46,161148,1,0,3:0:0:0:
178,67,161227,1,0,3:0:0:0:
173,90,161306,1,0,3:2:0:0:
268,154,161464,6,0,L|270:97,1,47.2500001802444,0|0,3:0|3:0,0:0:0:0:
166,178,161622,2,0,L|170:272,1,94.5000003604889,0|0,3:0|0:0,0:0:0:0:
340,321,161938,6,0,P|295:308|249:318,1,94.5000003604889,4|0,3:2|0:0,0:0:0:0:
230,334,162175,1,0,0:0:0:0:
211,348,162254,2,0,P|165:358|120:345,1,94.5000003604889,8|0,3:2|0:0,0:0:0:0:
69,263,162569,6,0,L|5:260,2,63.0000002403259,0|0|0,3:0|0:0|0:0,0:0:0:0:
147,226,162885,1,8,3:2:0:0:
119,57,163043,1,0,0:0:0:0:
33,74,163201,2,0,P|61:127|163:138,1,141.750000540733,0|0,3:0|0:0,0:0:0:0:
206,95,163517,2,0,L|300:91,1,94.5000003604889,8|0,3:2|0:0,0:0:0:0:
392,38,163832,2,0,L|394:100,2,63.0000002403259,0|0|0,3:0|0:0|0:0,0:0:0:0:
484,132,164148,2,0,P|458:171|417:192,1,94.5000003604889,8|0,3:2|0:0,0:0:0:0:
320,173,164464,6,0,P|323:219|348:259,1,94.5000003604889,0|0,3:0|0:0,0:0:0:0:
335,278,164701,1,0,0:0:0:0:
327,300,164780,2,0,P|282:314|250:348,1,94.5000003604889,8|0,3:2|0:0,0:0:0:0:
175,287,165096,6,0,L|172:224,2,63.0000002403259,0|0|0,3:0|0:0|0:0,0:0:0:0:
112,370,165411,1,8,3:2:0:0:
21,225,165569,1,0,0:0:0:0:
75,142,165727,2,0,L|216:136,1,141.750000540733,0|0,3:2|0:0,0:0:0:0:
117,49,166043,2,0,L|23:53,1,94.5000003604889,8|0,3:2|0:0,0:0:0:0:
215,136,166359,2,0,L|212:73,2,63.0000002403259,0|0|0,3:0|0:0|0:0,0:0:0:0:
301,23,166675,1,8,3:2:0:0:
301,23,166754,2,0,P|345:36|377:70,1,94.5000003604889,0|0,3:0|0:0,0:0:0:0:
464,103,166990,6,0,L|460:197,1,94.5000003604889,0|0,3:0|0:0,0:0:0:0:
445,216,167227,1,0,0:0:0:0:
434,237,167306,2,0,L|430:331,1,94.5000003604889,8|0,3:2|0:0,0:0:0:0:
337,268,167622,6,0,L|274:265,2,63.0000002403259,0|0|0,3:0|0:0|0:0,0:0:0:0:
303,351,167938,1,8,3:2:0:0:
314,178,168096,1,0,0:0:0:0:
206,209,168254,2,0,P|186:284|256:348,1,141.750000540733,0|0,3:0|0:0,0:0:0:0:
314,178,168569,2,0,P|291:136|252:112,1,94.5000003604889,8|0,3:2|0:0,0:0:0:0:
103,44,168885,6,0,L|9:48,1,94.5000003604889,0|0,3:0|0:0,0:0:0:0:
71,159,169201,2,0,L|165:155,1,94.5000003604889,8|0,3:2|0:0,0:0:0:0:
199,33,169517,6,0,P|228:68|271:86,1,94.5000003604889,0|0,3:0|0:0,0:0:0:0:
297,84,169754,1,0,0:0:0:0:
319,80,169832,2,0,P|359:57|383:17,1,94.5000003604889,8|0,3:2|0:0,0:0:0:0:
462,91,170148,2,0,L|459:154,2,63.0000002403259,0|0|0,3:0|0:0|0:0,0:0:0:0:
377,169,170464,1,8,3:2:0:0:
397,344,170622,1,0,0:0:0:0:
461,266,170780,6,0,P|386:249|307:297,1,141.750000540733,0|0,0:0|0:0,0:0:0:0:
308,293,171096,2,0,P|260:312|203:299,1,105,0|0,0:0|0:0,0:0:0:0:
121,258,171411,2,0,L|122:194,1,47.2500001802444
118,337,171569,2,0,L|117:401,1,47.2500001802444
54,57,172043,5,4,3:2:0:0:
122,164,172201,2,0,L|122:211,2,47.2500001802444,0|0|8,0:0|0:0|0:0,3:0:0:0:
200,56,172517,2,0,L|199:9,2,47.2500001802444,0|0|0,3:0|3:0|3:0,3:0:0:0:
268,172,172832,1,0,0:0:0:0:
294,170,172911,1,0,0:0:0:0:
320,169,172990,1,8,3:2:0:0:
401,51,173148,1,0,0:0:0:0:
470,166,173306,6,0,L|474:260,1,94.5000003604889,0|0,3:0|0:0,0:0:0:0:
348,361,173622,2,0,L|352:267,1,94.5000003604889,8|0,3:2|0:0,0:0:0:0:
284,158,173938,1,0,3:2:0:0:
218,257,174096,1,0,0:0:0:0:
219,283,174175,1,0,0:0:0:0:
221,309,174254,1,8,3:2:0:0:
120,180,174411,1,0,0:0:0:0:
125,352,174569,5,0,3:2:0:0:
45,273,174727,2,0,L|44:225,2,47.2500001802444,0|0|8,3:0|3:0|3:2,3:0:0:0:
195,201,175043,2,0,L|196:153,2,47.2500001802444,0|0|0,3:0|3:0|3:0,3:0:0:0:
49,131,175359,1,0,0:0:0:0:
47,105,175438,1,0,0:0:0:0:
46,79,175517,1,8,3:2:0:0:
130,0,175675,1,0,0:0:0:0:
225,70,175832,6,0,L|319:66,1,94.5000003604889,0|0,3:2|0:0,0:0:0:0:
383,199,176148,2,0,L|289:195,1,94.5000003604889,8|0,3:2|0:0,0:0:0:0:
492,157,176464,1,0,0:0:0:0:
492,157,176622,1,0,0:0:0:0:
462,260,176780,2,0,L|466:316,1,47.2500001802444,8|0,3:2|0:0,0:0:0:0:
383,199,176938,2,0,L|379:151,1,47.2500001802444,0|0,0:0|0:0,0:0:0:0:
313,296,177096,5,0,3:2:0:0:
231,202,177254,1,0,3:2:0:0:
229,171,177332,1,0,3:2:0:0:
226,139,177411,1,8,3:2:0:0:
143,294,177569,2,0,L|144:342,2,47.2500001802444,0|0|0,0:0|0:0|3:0,0:0:0:0:
36,200,177885,2,0,L|35:152,2,47.2500001802444,0|0|8,0:0|0:0|3:2,0:0:0:0:
41,325,178201,1,0,0:0:0:0:
148,186,178359,6,0,L|144:92,1,94.5000003604889,0|0,3:0|0:0,0:0:0:0:
273,220,178675,2,0,L|269:314,1,94.5000003604889,8|0,3:2|0:0,0:0:0:0:
258,91,178990,1,0,3:2:0:0:
284,89,179069,1,0,0:2:0:0:
310,87,179148,1,0,3:2:0:0:
428,200,179306,1,8,3:2:0:0:
462,55,179464,1,0,0:0:0:0:
364,148,179622,6,0,P|348:190|354:236,1,94.5000003604889,0|0,3:0|0:0,0:0:0:0:
365,259,179859,1,0,0:0:0:0:
380,276,179938,2,0,L|286:272,1,94.5000003604889,8|0,3:2|0:0,0:0:0:0:
178,209,180254,5,0,3:2:0:0:
112,299,180411,1,0,3:2:0:0:
114,322,180490,1,0,3:2:0:0:
117,345,180569,1,8,3:2:0:0:
178,209,180727,1,0,0:0:0:0:
86,141,180885,6,0,P|78:94|95:50,1,94.5000003604889,0|0,3:0|3:0,0:0:0:0:
114,36,181122,1,0,3:0:0:0:
137,30,181201,2,0,L|219:27,4,47.2500001802444,8|0|0|0|0,3:2|3:0|3:0|3:0|3:0,3:0:0:0:
203,124,181675,1,0,3:0:0:0:
203,124,181754,1,0,3:0:0:0:
203,124,181832,2,0,L|267:125,3,35,8|0|0|0,3:2|3:0|3:0|3:0,3:0:0:0:
307,68,182148,5,4,3:2:0:0:
307,171,182306,2,0,P|335:205|378:223,1,94.5000003604889,0|8,0:0|3:2,0:0:0:0:
277,360,182622,2,0,P|313:330|360:323,1,94.5000003604889,0|0,0:0|3:0,0:0:0:0:
218,207,182938,2,0,P|225:253|208:297,1,94.5000003604889,0|8,0:0|3:2,0:0:0:0:
52,344,183254,5,0,0:0:0:0:
52,344,183332,1,0,0:0:0:0:
52,344,183411,2,0,L|48:250,1,94.5000003604889,0|0,3:0|0:0,0:0:0:0:
145,128,183727,2,0,L|141:222,1,94.5000003604889,8|0,3:2|0:0,0:0:0:0:
34,154,184043,1,0,3:2:0:0:
32,128,184122,1,0,3:0:0:0:
30,102,184201,1,0,3:0:0:0:
113,37,184359,2,0,P|159:29|203:46,1,94.5000003604889,8|0,3:2|0:0,0:0:0:0:
272,133,184675,1,0,3:2:0:0:
354,49,184832,5,0,0:0:0:0:
354,49,184911,1,0,0:0:0:0:
354,49,184990,1,8,3:2:0:0:
427,145,185148,2,0,L|492:148,2,47.2500001802444,0|0|0,0:0|0:0|3:2,0:0:0:0:
357,237,185464,2,0,L|309:239,2,47.2500001802444,0|0|8,0:0|0:0|3:2,0:0:0:0:
380,348,185780,1,0,0:0:0:0:
380,348,185859,1,0,0:0:0:0:
380,348,185938,5,0,0:0:0:0:
460,278,186096,1,0,3:0:0:0:
361,235,186254,2,0,L|267:239,1,94.5000003604889,8|0,3:2|0:0,0:0:0:0:
231,335,186569,2,0,L|137:331,1,94.5000003604889,0|0,3:0|0:0,0:0:0:0:
41,246,186885,2,0,L|43:275,6,23.6250000901222
92,153,187201,5,4,3:2:0:0:
184,212,187359,2,0,P|225:197|257:163,1,94.5000003604889,0|8,0:0|3:2,0:0:0:0:
168,26,187675,2,0,P|159:69|173:113,1,94.5000003604889,0|0,0:0|3:0,0:0:0:0:
334,111,187990,2,0,P|300:82|255:72,1,94.5000003604889,0|8,0:0|3:2,0:0:0:0:
416,32,188306,5,0,0:0:0:0:
416,32,188385,1,0,0:0:0:0:
416,32,188464,2,0,L|420:126,1,94.5000003604889,0|0,3:0|0:0,0:0:0:0:
485,209,188780,2,0,L|481:303,1,94.5000003604889,8|0,3:2|0:0,0:0:0:0:
381,384,189096,1,0,3:2:0:0:
355,382,189175,1,0,3:0:0:0:
329,380,189254,1,0,3:0:0:0:
247,294,189411,2,0,P|201:302|165:333,1,94.5000003604889,8|0,3:2|0:0,0:0:0:0:
314,185,189727,6,0,L|317:232,1,47.2500001802444,0|0,3:0|3:0,0:0:0:0:
227,152,189885,2,0,L|224:105,1,47.2500001802444,0|0,3:0|3:0,0:0:0:0:
139,212,190043,1,8,3:2:0:0:
116,203,190122,1,0,3:2:0:0:
98,189,190201,1,0,3:2:0:0:
86,168,190280,1,0,3:2:0:0:
83,145,190359,1,0,3:2:0:0:
133,67,190517,2,0,L|129:19,2,47.2500001802444,0|0|0,3:0|0:0|3:0,0:0:0:0:
222,105,190832,1,0,3:2:0:0:
326,6,190990,5,4,0:0:0:0:
23,322,192254,6,0,L|98:319,1,70,0|0,3:0|2:0,2:0:0:0:
129,252,192885,2,0,L|198:254,1,70,0|0,2:0|2:0,2:0:0:0:
310,298,193517,6,0,P|319:267|315:224,1,70,0|0,3:0|2:0,2:0:0:0:
238,345,194148,2,0,P|260:368|299:386,1,70,0|0,2:0|2:0,2:0:0:0:
462,366,194780,6,0,L|459:291,1,70,0|0,3:0|2:0,2:0:0:0:
410,232,195411,2,0,L|412:162,1,70,0|0,2:0|2:0,2:0:0:0:
488,63,196043,6,0,P|456:77|421:80,1,70,0|0,3:0|2:0,2:0:0:0:
285,5,196675,2,0,P|313:25|333:53,1,70,0|0,2:0|2:0,2:0:0:0:
294,160,197306,6,0,L|179:158,1,105.000004005432,0|0,3:0|2:0,2:0:0:0:
77,157,197938,1,0,2:0:0:0:
77,158,198254,1,0,2:0:0:0:
155,276,198569,6,0,L|259:274,1,105.000004005432,0|0,3:0|2:0,2:0:0:0:
372,273,199201,1,0,2:0:0:0:
372,274,199517,1,0,2:0:0:0:
314,87,199832,6,0,P|292:142|308:201,1,105.000004005432,0|0,3:0|2:0,2:0:0:0:
369,248,200306,1,0,0:0:0:0:
425,154,200464,2,0,L|420:93,1,52.5000020027161,8|8,0:0|0:0,0:0:0:0:
501,220,200780,2,0,L|506:289,1,52.5000020027161
447,358,201096,6,0,L|451:394,1,26.2500010013581
105,350,202359,6,0,L|100:242,1,77.0000023498536,4|0,3:2|0:0,0:0:0:0:
159,186,202675,1,8,0:0:0:0:
159,186,202832,1,0,0:0:0:0:
16,90,202990,2,0,P|74:120|117:116,1,77.0000023498536,0|0,0:0|3:0,0:0:0:0:
228,21,203306,2,0,P|173:56|154:95,1,77.0000023498536,8|0,0:0|0:0,0:0:0:0:
235,140,203622,6,0,L|343:135,1,77.0000023498536,0|0,3:0|3:0,0:0:0:0:
374,60,203938,1,8,0:0:0:0:
374,60,204096,1,0,0:0:0:0:
447,152,204254,2,0,P|455:189|447:226,1,77.0000023498536,0|0,0:0|3:0,0:0:0:0:
287,275,204569,2,0,P|315:249|351:236,1,77.0000023498536,8|0,0:0|0:0,0:0:0:0:
441,367,204885,6,0,L|333:362,1,77.0000023498536,0|0,3:0|0:0,0:0:0:0:
287,275,205201,1,8,0:0:0:0:
287,275,205359,1,0,0:0:0:0:
205,358,205517,2,0,P|167:362|130:352,1,77.0000023498536,0|0,0:0|3:0,0:0:0:0:
140,194,205832,2,0,P|163:224|172:261,1,77.0000023498536,8|0,0:0|0:0,0:0:0:0:
34,249,206148,6,0,L|29:141,1,77.0000023498536,0|0,0:0|3:0,0:0:0:0:
29,70,206464,1,8,0:0:0:0:
29,70,206622,1,0,0:0:0:0:
140,194,206780,6,0,L|145:86,1,77.0000023498536,0|0,0:0|3:0,0:0:0:0:
153,16,207096,1,8,0:0:0:0:
153,16,207254,1,0,0:0:0:0:
256,138,207411,6,0,P|294:135|328:117,1,77.0000023498536,0|0,3:0|0:0,0:0:0:0:
405,33,207727,1,8,0:0:0:0:
484,130,207885,1,0,0:0:0:0:
397,228,208043,1,0,0:0:0:0:
397,228,208122,1,0,0:0:0:0:
397,228,208201,2,0,L|402:336,1,77.0000023498536,0|8,3:0|0:0,0:0:0:0:
291,355,208517,1,0,0:0:0:0:
220,254,208675,6,0,P|198:222|166:201,1,77.0000023498536,0|0,3:0|3:0,0:0:0:0:
54,320,208990,2,0,P|92:317|126:299,1,77.0000023498536,8|0,0:0|0:0,0:0:0:0:
64,144,209306,1,0,0:0:0:0:
64,144,209385,1,0,0:0:0:0:
64,144,209464,2,0,L|69:252,1,77.0000023498536,0|8,3:0|0:0,0:0:0:0:
157,123,209780,1,0,0:0:0:0:
97,17,209938,5,0,3:0:0:0:
157,123,210096,1,0,0:0:0:0:
300,32,210254,2,0,L|192:37,1,77.0000023498536,8|0,0:0|0:0,0:0:0:0:
342,214,210569,5,0,0:0:0:0:
256,120,210727,1,0,3:0:0:0:
199,232,210885,2,0,L|204:340,1,77.0000023498536,8|0,0:0|0:0,0:0:0:0:
384,384,211201,5,4,0:0:0:0:
208,240,212464,6,0,L|113:240,1,94.5000003604889,4|0,3:2|0:0,0:0:0:0:
304,144,212780,2,0,L|398:144,1,94.5000003604889,8|0,3:2|0:0,0:0:0:0:
200,230,213096,6,0,L|107:214,1,94.5000003604889,0|0,3:0|0:0,0:0:0:0:
311,153,213411,2,0,L|404:169,1,94.5000003604889,8|0,3:2|0:0,0:0:0:0:
304,256,213727,6,0,P|304:320|288:352,1,94.5000003604889,0|0,3:0|0:0,0:0:0:0:
208,128,214043,2,0,P|208:64|224:32,1,94.5000003604889,8|0,3:2|0:0,0:0:0:0:
279,268,214359,6,0,P|257:328|231:353,1,94.5000003604889,0|0,3:0|0:0,0:0:0:0:
232,115,214675,2,0,P|254:55|280:30,1,94.5000003604889,8|0,3:2|0:0,0:0:0:0:
324,192,214990,5,0,3:2:0:0:
337,192,215148,1,0,0:0:0:0:
188,192,215306,1,8,3:2:0:0:
174,192,215464,1,0,0:0:0:0:
256,112,215622,1,0,3:2:0:0:
256,96,215780,1,0,0:0:0:0:
256,272,215938,1,8,3:2:0:0:
256,288,216096,1,0,0:0:0:0:
352,128,216254,6,0,L|368:35,1,94.5000003604889,0|0,3:2|0:0,0:0:0:0:
160,128,216569,2,0,L|144:35,1,94.5000003604889,8|0,3:2|0:0,0:0:0:0:
176,256,216885,2,0,L|160:349,1,94.5000003604889,0|0,3:2|0:0,0:0:0:0:
336,256,217201,2,0,L|352:349,1,94.5000003604889,8|0,3:2|0:0,0:0:0:0:
256,192,217517,5,0,3:2:0:0:
256,96,217675,1,0,0:0:0:0:
256,80,217754,1,0,0:0:0:0:
256,64,217832,1,8,3:2:0:0:
256,288,217990,2,0,L|256:336,2,47.2500001802444,0|0|0,0:0|0:0|3:0,0:0:0:0:
176,160,218306,1,0,0:0:0:0:
164,148,218385,1,0,0:0:0:0:
153,137,218464,1,8,3:2:0:0:
336,160,218622,5,0,0:0:0:0:
347,148,218701,1,0,0:0:0:0:
358,137,218780,1,0,3:2:0:0:
256,304,218938,2,0,L|256:352,2,47.2500001802444,0|0|8,0:0|0:0|3:2,0:0:0:0:
256,80,219254,2,0,L|256:32,2,47.2500001802444,0|0|0,0:0|0:0|3:0,0:0:0:0:
176,224,219569,1,0,0:0:0:0:
165,236,219648,1,0,0:0:0:0:
154,247,219727,1,8,3:2:0:0:
353,246,219885,1,0,0:0:0:0:
192,144,220043,6,0,P|128:144|96:160,1,94.5000003604889,0|0,3:0|0:0,0:0:0:0:
305,127,220359,2,0,P|305:63|289:31,1,94.5000003604889,8|0,3:2|0:0,0:0:0:0:
321,241,220675,2,0,P|385:241|417:225,1,94.5000003604889,0|0,3:2|0:0,0:0:0:0:
207,257,220990,2,0,P|207:321|223:353,1,94.5000003604889,8|0,3:2|0:0,0:0:0:0:
256,192,221306,5,0,3:2:0:0:
256,192,221464,1,0,0:0:0:0:
335,271,221622,1,8,3:2:0:0:
335,271,221780,1,0,0:0:0:0:
176,112,221938,1,0,3:2:0:0:
176,112,222096,1,0,0:0:0:0:
335,112,222254,1,8,3:2:0:0:
192,272,222411,1,0,0:0:0:0:
275,359,222569,5,4,3:2:0:0:
304,255,222727,1,0,0:0:0:0:
304,255,222806,1,0,0:0:0:0:
304,255,222885,1,8,3:2:0:0:
390,329,223043,2,0,L|451:327,2,47.2500001802444,0|0|0,0:0|0:0|3:0,0:0:0:0:
304,255,223359,2,0,L|243:253,2,47.2500001802444,0|0|8,0:0|0:0|3:2,0:0:0:0:
397,165,223675,1,0,0:0:0:0:
370,64,223832,6,0,P|314:103|305:170,1,94.5000003604889,0|0,3:2|0:0,0:0:0:0:
139,36,224148,2,0,P|200:64|263:39,1,94.5000003604889,10|0,0:0|0:0,0:0:0:0:
228,238,224464,2,0,P|222:170|168:128,1,94.5000003604889,0|0,3:0|0:0,0:0:0:0:
75,107,224780,1,8,3:2:0:0:
142,213,224938,1,0,0:0:0:0:
167,58,225096,5,0,3:2:0:0:
54,188,225254,2,0,L|6:186,2,47.2500001802444,0|0|8,0:0|0:0|3:2,0:0:0:0:
122,312,225569,2,0,L|169:310,2,47.2500001802444,0|0|0,0:0|0:0|3:2,0:0:0:0:
201,188,225885,1,0,0:0:0:0:
224,187,225964,1,0,0:0:0:0:
247,187,226043,1,8,3:2:0:0:
328,309,226201,1,0,0:0:0:0:
431,232,226359,6,0,L|434:138,1,94.5000003604889,0|0,3:0|0:0,0:0:0:0:
316,50,226675,2,0,L|319:144,1,94.5000003604889,8|0,3:2|0:0,0:0:0:0:
327,308,226990,2,0,P|283:255|214:252,1,94.5000003604889,0|0,3:0|0:0,0:0:0:0:
227,116,227306,2,0,P|183:168|114:171,1,94.5000003604889,8|0,3:2|0:0,0:0:0:0:
0,62,227622,5,0,3:2:0:0:
70,178,227780,2,0,L|71:225,2,47.2500001802444,0|0|8,0:0|0:0|3:2,0:0:0:0:
153,52,228096,2,0,L|151:4,2,47.2500001802444,0|0|0,0:0|0:0|3:0,0:0:0:0:
225,173,228411,1,0,0:0:0:0:
247,171,228490,1,0,0:0:0:0:
270,170,228569,2,0,L|364:167,1,94.5000003604889,8|0,3:2|0:0,0:0:0:0:
455,19,228885,5,0,3:2:0:0:
319,81,229043,2,0,P|290:71|273:54,2,47.2500001802444,0|0|8,0:0|0:0|3:2,0:0:0:0:
443,166,229359,2,0,P|448:196|442:219,2,47.2500001802444,0|0|0,0:0|0:0|3:0,0:0:0:0:
311,219,229675,1,0,0:0:0:0:
307,242,229754,1,0,0:0:0:0:
307,265,229832,2,0,P|346:320|413:330,1,94.5000003604889,8|0,3:2|0:0,0:0:0:0:
443,166,230148,5,0,3:2:0:0:
298,147,230306,1,0,0:0:0:0:
292,169,230385,1,0,0:0:0:0:
290,192,230464,1,8,3:2:0:0:
379,73,230622,1,0,0:0:0:0:
362,56,230701,1,0,0:0:0:0:
344,43,230780,1,0,3:2:0:0:
400,182,230938,1,0,0:0:0:0:
423,175,231017,1,0,0:0:0:0:
443,166,231096,1,8,3:2:0:0:
344,43,231254,1,0,0:0:0:0:
281,137,231411,6,0,L|282:186,10,31.500000120163,0|0|0|0|0|0|10|0|0|0|0,3:2|3:2|3:2|3:2|3:2|3:2|3:2|3:2|3:2|3:2|3:2,3:2:0:0:
344,43,232043,2,0,B|280:75|264:11|197:51,1,140
156,135,232517,1,0,0:0:0:0:
28,51,232675,6,0,P|63:81|77:125,1,94.5000003604889,4|0,0:0|0:0,0:0:0:0:
76,149,232911,1,0,0:0:0:0:
74,172,232990,1,8,3:2:0:0:
68,342,233148,1,0,0:0:0:0:
117,251,233306,2,0,L|23:248,1,94.5000003604889,0|0,3:0|0:0,0:0:0:0:
153,372,233622,2,0,L|247:369,1,94.5000003604889,8|0,3:2|0:0,0:0:0:0:
268,145,233938,6,0,P|232:175|218:219,1,94.5000003604889,0|0,3:0|0:0,0:0:0:0:
385,324,234254,1,8,3:2:0:0:
300,221,234411,1,0,0:0:0:0:
429,195,234569,5,0,3:2:0:0:
429,195,234727,1,0,0:0:0:0:
387,325,234885,1,8,3:2:0:0:
387,325,235043,1,0,0:0:0:0:
300,221,235201,6,0,P|306:174|336:138,1,94.5000003604889,0|0,3:0|0:0,0:0:0:0:
357,128,235438,1,0,0:0:0:0:
379,122,235517,2,0,P|408:85|415:39,1,94.5000003604889,8|0,3:2|0:0,0:0:0:0:
279,55,235832,1,0,3:2:0:0:
256,55,235911,1,0,0:0:0:0:
233,56,235990,1,0,0:0:0:0:
152,122,236148,2,0,P|119:88|108:43,1,94.5000003604889,8|0,3:2|0:0,0:0:0:0:
18,151,236464,6,0,L|21:245,1,94.5000003604889,0|0,3:0|0:0,0:0:0:0:
206,287,236780,1,8,3:2:0:0:
116,194,236938,1,0,0:0:0:0:
131,360,237096,5,0,3:2:0:0:
131,360,237254,1,0,0:0:0:0:
116,194,237411,1,8,3:2:0:0:
116,194,237569,1,0,0:0:0:0:
287,232,237727,6,0,L|381:229,1,94.5000003604889,0|0,3:0|0:0,0:0:0:0:
405,227,237964,1,0,0:0:0:0:
428,226,238043,1,8,3:2:0:0:
512,138,238201,1,0,0:0:0:0:
392,29,238359,2,0,P|357:60|345:105,1,94.5000003604889,0|0,3:0|0:0,0:0:0:0:
381,228,238675,1,8,3:2:0:0:
439,108,238832,1,0,0:0:0:0:
267,36,238990,6,0,L|173:39,1,94.5000003604889,0|0,3:0|0:0,0:0:0:0:
15,44,239306,1,8,3:2:0:0:
95,192,239464,1,0,0:0:0:0:
100,65,239622,5,0,3:2:0:0:
100,65,239780,1,0,0:0:0:0:
14,173,239938,1,8,3:2:0:0:
14,173,240096,1,0,0:0:0:0:
170,111,240254,6,0,P|209:136|229:178,1,94.5000003604889,0|0,3:0|0:0,0:0:0:0:
228,202,240490,1,0,0:0:0:0:
224,225,240569,1,8,3:2:0:0:
151,351,240727,1,0,0:0:0:0:
58,234,240885,2,0,L|105:229,2,47.2500001802444,0|0|0,3:0|0:0|0:0,0:0:0:0:
245,354,241201,2,0,L|151:351,1,94.5000003604889,8|0,3:2|0:0,0:0:0:0:
293,199,241517,6,0,P|332:224|352:266,1,94.5000003604889,0|0,3:0|0:0,0:0:0:0:
457,370,241832,2,0,P|459:323|485:284,1,94.5000003604889,8|0,3:2|0:0,0:0:0:0:
447,41,242148,5,0,3:2:0:0:
447,41,242306,1,0,0:0:0:0:
426,194,242464,1,8,3:2:0:0:
426,194,242622,1,0,0:0:0:0:
341,79,242780,6,0,L|247:76,1,94.5000003604889,4|0,3:2|0:0,0:0:0:0:
231,57,243017,1,0,0:0:0:0:
215,39,243096,2,0,L|121:36,1,94.5000003604889,8|0,3:2|0:0,0:0:0:0:
51,233,243411,2,0,P|76:271|78:318,1,94.5000003604889,0|0,3:0|0:0,0:0:0:0:
140,125,243727,2,0,P|93:127|52:106,1,94.5000003604889,8|0,3:2|0:0,0:0:0:0:
187,259,244043,6,0,L|281:256,1,94.5000003604889,0|0,3:0|0:0,0:0:0:0:
388,151,244359,1,8,3:2:0:0:
429,281,244517,1,0,0:0:0:0:
274,170,244675,5,0,3:2:0:0:
274,170,244832,1,0,0:0:0:0:
307,37,244990,1,8,3:2:0:0:
307,37,245148,1,0,0:0:0:0:
451,65,245306,6,0,P|453:111|431:153,1,94.5000003604889,0|0,3:0|0:0,0:0:0:0:
403,163,245543,1,0,0:0:0:0:
376,171,245622,1,8,3:2:0:0:
283,53,245780,1,0,0:0:0:0:
214,187,245938,2,0,L|120:190,1,94.5000003604889,0|0,3:0|0:0,0:0:0:0:
24,58,246254,2,0,L|118:61,1,94.5000003604889,8|0,3:2|0:0,0:0:0:0:
214,187,246569,6,0,P|224:232|210:277,1,94.5000003604889,0|0,3:0|0:0,0:0:0:0:
60,345,246885,1,8,3:2:0:0:
102,181,247043,1,0,0:0:0:0:
175,352,247201,5,0,3:2:0:0:
175,352,247359,1,0,0:0:0:0:
34,237,247517,1,8,3:2:0:0:
34,237,247675,1,0,0:0:0:0:
189,182,247832,6,0,L|283:179,1,94.5000003604889,0|0,3:0|0:0,0:0:0:0:
312,178,248069,1,0,0:0:0:0:
340,177,248148,1,8,3:2:0:0:
490,166,248306,1,0,0:0:0:0:
412,331,248464,2,0,P|398:286|408:240,1,94.5000003604889,0|0,3:0|0:0,0:0:0:0:
493,75,248780,2,0,P|503:120|489:165,1,94.5000003604889,8|0,3:2|0:0,0:0:0:0:
303,48,249096,6,0,L|397:45,1,94.5000003604889,0|0,3:0|0:0,0:0:0:0:
287,182,249411,1,8,3:2:0:0:
181,50,249569,1,0,0:0:0:0:
99,189,249727,5,0,3:2:0:0:
99,189,249885,1,0,0:0:0:0:
181,50,250043,1,8,3:2:0:0:
181,50,250201,1,0,0:0:0:0:
249,192,250359,2,0,P|251:238|229:280,1,94.5000003604889,0|0,3:0|0:0,0:0:0:0:
27,267,250675,1,8,3:2:0:0:
166,219,250832,1,0,0:0:0:0:
157,358,250990,5,0,3:2:0:0:
157,358,251148,1,0,0:0:0:0:
27,267,251306,1,8,3:2:0:0:
27,267,251464,1,0,0:0:0:0:
153,144,251622,6,0,L|247:141,1,94.5000003604889,0|0,3:0|0:0,0:0:0:0:
368,283,251938,2,0,L|274:280,1,94.5000003604889,8|0,3:2|0:0,0:0:0:0:
444,76,252254,5,0,3:2:0:0:
444,76,252411,1,0,0:0:0:0:
435,172,252569,1,8,3:2:0:0:
435,172,252727,1,0,0:0:0:0:
305,164,252885,6,0,L|308:107,2,52.5000020027161,0|0|0,0:0|0:0|0:0,0:0:0:0:
366,240,253359,2,0,L|363:297,2,52.5000020027161
432,167,253832,2,0,L|434:114,1,52.5000020027161,0|0,0:0|0:0,0:0:0:0:
383,43,254148,2,0,P|342:52|260:30,1,105.000004005432,0|0,0:0|0:0,0:0:0:0:
208,0,254622,1,0,0:0:0:0:
139,58,254780,1,0,0:0:0:0:
139,58,254938,1,0,0:0:0:0:
139,58,255096,2,0,L|137:111,1,52.5000020027161,0|0,0:0|0:0,0:0:0:0:
39,216,255411,6,0,P|78:187|108:184,1,62.9999980773926,0|0,0:0|0:0,0:0:0:0:
167,221,255727,1,0,0:0:0:0:
110,304,255885,1,0,0:0:0:0:
106,295,255964,1,0,0:0:0:0:
103,285,256043,1,0,0:0:0:0:
103,275,256122,1,0,0:0:0:0:
102,265,256201,1,0,0:0:0:0:
167,221,256359,2,0,L|239:219,1,62.9999980773926,0|0,0:0|0:0,0:0:0:0:
284,322,256675,5,0,0:0:0:0:
284,322,256832,1,0,0:0:0:0:
284,322,256990,2,0,L|212:320,1,62.9999980773926,0|0,0:0|0:0,0:0:0:0:
167,221,257306,2,0,L|239:219,2,62.9999980773926,0|0|0,0:0|0:0|0:0,0:0:0:0:
295,164,257780,1,0,0:0:0:0:
361,219,257938,6,0,P|370:266|360:295,1,62.9999980773926
444,208,258254,1,0,0:0:0:0:
441,199,258332,1,0,0:0:0:0:
438,189,258411,1,0,0:0:0:0:
435,179,258490,1,0,0:0:0:0:
432,169,258569,2,0,P|428:137|438:108,1,62.9999980773926,0|0,0:0|0:0,0:0:0:0:
484,32,258885,2,0,L|412:30,1,62.9999980773926,0|0,0:0|0:0,0:0:0:0:
344,82,259201,5,0,0:0:0:0:
344,82,259359,1,0,0:0:0:0:
344,82,259517,2,0,L|272:84,1,62.9999980773926,0|0,0:0|0:0,0:0:0:0:
209,34,259832,1,0,0:0:0:0:
209,34,259990,1,0,0:0:0:0:
209,34,260148,2,0,L|137:32,1,62.9999980773926,0|0,0:0|0:0,0:0:0:0:
61,68,260464,6,0,P|51:97|54:128,1,62.9999980773926,0|0,0:0|0:0,0:0:0:0:
212,214,260780,2,0,P|191:190|162:177,1,62.9999980773926,0|0,0:0|0:0,0:0:0:0:
18,256,261096,2,0,P|48:249|74:231,1,62.9999980773926,0|0,0:0|0:0,0:0:0:0:
148,292,261411,2,0,L|150:364,1,62.9999980773926,0|0,0:0|0:0,0:0:0:0:
209,213,261727,1,0,0:0:0:0:
209,213,261885,1,0,0:0:0:0:
232,341,262359,6,0,P|287:345|229:317,1,157.500006008148,0|0,3:3|0:0,0:0:0:0:
165,259,262675,2,0,B|121:237|95:285|48:259,1,105.000004005432,0|0,3:3|0:0,0:0:0:0:
40,176,262990,6,0,L|37:93,1,83.9999974365235,6|0,0:0|0:0,0:0:0:0:
157,22,263306,1,8,0:0:0:0:
157,22,263464,2,0,L|155:109,1,83.9999974365235,0|0,0:0|0:0,0:0:0:0:
215,215,263780,1,2,0:0:0:0:
280,116,263938,2,0,P|340:101|384:126,1,83.9999974365235,8|0,0:0|0:0,0:0:0:0:
336,268,264254,5,0,0:0:0:0:
336,268,264411,1,2,0:0:0:0:
336,268,264569,2,0,L|331:176,1,73.4999977569581,8|0,0:0|0:0,0:0:0:0:
429,316,264885,2,0,L|432:242,2,73.4999977569581,0|2|0,0:0|0:0|0:0,0:0:0:0:
346,360,265359,1,8,0:0:0:0:
267,312,265517,6,0,L|202:309,1,62.9999980773926,2|0,0:0|0:0,0:0:0:0:
146,253,265832,1,8,0:0:0:0:
87,308,265990,1,0,0:0:0:0:
85,317,266069,1,0,0:0:0:0:
84,324,266148,1,0,0:0:0:0:
85,331,266227,1,0,0:0:0:0:
87,338,266306,1,2,0:0:0:0:
146,253,266464,2,0,L|150:181,1,52.5000020027161,8|0,0:0|0:0,0:0:0:0:
41,144,266780,6,0,L|43:197,2,41.9999987182618,2|2|8,0:0|0:0|0:0,0:0:0:0:
95,64,267254,1,0,0:0:0:0:
171,127,267411,2,0,P|191:128|213:123,1,41.9999987182618,0|2,0:0|0:0,0:0:0:0:
295,33,267727,2,0,P|284:49|280:75,1,41.9999987182618,8|0,0:0|0:0,0:0:0:0:
306,229,268043,6,0,L|302:155,1,70,6|0,0:0|0:0,0:0:0:0:
420,226,268359,2,0,L|416:295,1,70,8|0,0:0|0:0,0:0:0:0:
315,216,268675,2,0,L|311:142,1,70,0|2,0:0|0:0,0:0:0:0:
429,213,268990,2,0,L|425:282,1,70,8|0,0:0|0:0,0:0:0:0:
303,324,269306,2,0,P|251:320|223:296,1,70,0|2,0:0|0:0,0:0:0:0:
180,162,269622,2,0,P|198:209|188:245,1,70,8|0,0:0|0:0,0:0:0:0:
90,347,269938,2,0,P|125:310|161:303,1,70,0|2,0:0|0:0,0:0:0:0:
291,350,270254,2,0,P|246:324|230:291,1,70,8|0,0:0|0:0,0:0:0:0:
312,175,270569,6,0,L|315:244,1,70,2|0,0:0|0:0,0:0:0:0:
406,146,270885,1,8,0:0:0:0:
406,146,271043,1,0,0:0:0:0:
340,50,271201,2,0,P|303:78|251:80,1,70,0|2,0:0|0:0,0:0:0:0:
136,16,271517,2,0,P|178:34|206:78,1,70,8|0,0:0|0:0,0:0:0:0:
63,85,271832,6,0,P|45:155|71:222,1,125.999996154785,8|0,0:0|0:0,0:0:0:0:
72,229,272148,2,0,P|86:289|69:349,1,125.999996154785,8|0,0:0|0:0,0:0:0:0:
182,315,272464,6,0,P|214:366|274:371,2,105
309,295,273096,6,0,L|315:150,1,105.000004005432,4|0,3:2|0:0,0:0:0:0:
314,167,273332,1,0,0:0:0:0:
315,146,273411,1,8,3:2:0:0:
460,80,273569,1,0,0:0:0:0:
462,89,273648,1,0,0:0:0:0:
464,100,273727,2,0,P|425:155|352:151,1,105.000004005432,0|0,3:0|0:0,0:0:0:0:
265,24,274043,2,0,P|332:30|367:92,1,105.000004005432,8|0,3:2|0:0,0:0:0:0:
249,175,274359,5,0,3:2:0:0:
160,72,274517,1,0,0:0:0:0:
87,186,274675,2,0,L|91:290,1,105.000004005432,8|0,3:2|0:0,0:0:0:0:
101,307,274911,1,0,0:0:0:0:
116,320,274990,2,0,P|163:335|212:311,1,105.000004005432,0|0,3:0|0:0,0:0:0:0:
280,114,275306,2,0,P|243:147|238:200,1,105.000004005432,8|0,3:2|0:0,0:0:0:0:
325,324,275622,5,0,3:2:0:0:
325,324,275780,1,0,0:0:0:0:
480,207,275938,2,0,L|348:200,1,105.000004005432,8|0,3:2|0:0,0:0:0:0:
358,188,276175,1,0,0:0:0:0:
340,176,276254,2,0,P|318:129|333:80,1,105.000004005432,0|0,3:0|0:0,0:0:0:0:
504,8,276569,1,8,3:2:0:0:
409,125,276727,1,0,0:0:0:0:
272,20,276885,2,0,L|167:25,1,105.000004005432,0|0,3:0|0:0,0:0:0:0:
42,100,277201,5,8,3:2:0:0:
89,239,277359,1,0,0:0:0:0:
99,242,277438,1,0,0:0:0:0:
111,242,277517,2,0,P|159:224|183:179,1,105.000004005432,0|0,3:0|0:0,0:0:0:0:
157,25,277832,1,8,3:2:0:0:
29,85,277990,1,0,0:0:0:0:
28,118,278069,1,0,0:0:0:0:
26,152,278148,2,0,L|23:261,1,105.000004005432,0|0,3:0|0:0,0:0:0:0:
78,361,278464,5,8,3:2:0:0:
153,248,278622,1,0,0:0:0:0:
226,367,278780,2,0,P|275:382|322:361,1,105.000004005432,0|0,3:0|0:0,0:0:0:0:
408,246,279096,1,8,3:2:0:0:
278,169,279254,2,0,L|174:164,1,105.000004005432,0|0,0:0|3:0,0:0:0:0:
267,285,279569,1,0,0:0:0:0:
380,177,279727,2,0,P|395:127|374:81,1,105.000004005432,8|0,3:2|0:0,0:0:0:0:
180,43,280043,2,0,P|214:80|266:85,1,105.000004005432,0|0,3:0|0:0,0:0:0:0:
379,0,280359,1,8,3:2:0:0:
476,114,280517,6,0,L|471:238,1,105.000004005432,0|0,0:0|3:0,0:0:0:0:
391,335,280832,1,0,0:0:0:0:
369,337,280911,1,0,0:0:0:0:
347,333,280990,1,8,3:2:0:0:
250,173,281148,1,0,0:0:0:0:
268,200,281227,1,0,0:0:0:0:
280,231,281306,1,0,3:2:0:0:
133,347,281464,1,0,0:0:0:0:
150,310,281543,1,0,0:0:0:0:
176,279,281622,1,8,3:2:0:0:
280,231,281780,1,0,0:0:0:0:
67,136,281938,6,0,L|72:255,1,105.000004005432,0|0,3:0|0:0,0:0:0:0:
218,121,282254,1,8,3:2:0:0:
133,67,282411,1,0,0:0:0:0:
218,228,282569,2,0,P|269:223|304:186,1,105.000004005432,0|0,3:0|0:0,0:0:0:0:
429,40,282885,2,0,P|392:76|389:127,1,105.000004005432,8|0,3:2|0:0,0:0:0:0:
398,157,283122,1,0,0:0:0:0:
408,187,283201,1,4,3:2:0:0:
450,340,283359,6,0,L|331:345,1,105.000004005432,0|8,0:0|3:2,0:0:0:0:
256,260,283675,1,0,0:0:0:0:
238,247,283754,1,0,0:0:0:0:
220,236,283832,2,0,L|101:241,1,105.000004005432,0|0,3:0|0:0,0:0:0:0:
41,362,284148,1,8,3:2:0:0:
115,240,284306,1,0,0:0:0:0:
13,76,284464,2,0,P|34:122|81:142,1,105.000004005432,0|0,3:0|0:0,0:0:0:0:
174,48,284780,6,0,L|293:53,1,105.000004005432,8|0,3:2|0:0,0:0:0:0:
299,46,285017,1,0,0:0:0:0:
319,39,285096,1,0,3:2:0:0:
402,229,285254,1,0,0:0:0:0:
468,132,285411,2,0,L|363:127,1,105.000004005432,8|0,3:2|0:0,0:0:0:0:
261,233,285727,6,0,P|256:284|287:325,1,105.000004005432,0|0,3:0|0:0,0:0:0:0:
309,330,285964,1,0,0:0:0:0:
335,327,286043,1,8,3:2:0:0:
269,147,286201,1,0,0:0:0:0:
241,145,286280,1,0,0:0:0:0:
215,150,286359,1,0,3:2:0:0:
97,302,286517,1,0,0:0:0:0:
123,270,286596,1,0,0:0:0:0:
143,237,286675,1,8,3:2:0:0:
46,64,286832,1,0,0:0:0:0:
56,158,286990,6,0,P|118:135|130:55,1,105.000004005432,0|0,3:0|0:0,0:0:0:0:
275,19,287306,2,0,P|232:69|262:145,1,105.000004005432,8|0,3:2|0:0,0:0:0:0:
240,120,287543,1,0,0:0:0:0:
246,134,287622,1,0,3:2:0:0:
337,232,287780,1,0,0:0:0:0:
478,119,287938,2,0,L|373:114,1,105.000004005432,8|0,3:2|0:0,0:0:0:0:
360,104,288175,1,0,0:0:0:0:
347,94,288254,1,0,3:2:0:0:
457,238,288411,6,0,P|452:289|416:324,1,105.000004005432,0|8,0:0|3:2,0:0:0:0:
249,268,288727,1,0,0:0:0:0:
346,175,288885,1,0,3:2:0:0:
306,360,289043,2,0,L|201:365,1,105.000004005432,0|8,0:0|3:2,0:0:0:0:
65,288,289359,1,0,0:0:0:0:
160,189,289517,2,0,P|202:218|214:267,1,105.000004005432,0|0,3:0|0:0,0:0:0:0:
87,108,289832,2,0,P|44:78|32:29,1,105.000004005432,8|0,3:2|0:0,0:0:0:0:
194,92,290148,1,0,3:2:0:0:
315,3,290306,1,0,0:0:0:0:
419,112,290464,2,0,L|414:217,1,105.000004005432,8|0,3:2|0:0,0:0:0:0:
339,337,290780,5,0,3:2:0:0:
248,152,290938,2,0,L|252:106,2,35,0|0|8,0:0|0:0|3:2,0:0:0:0:
149,309,291254,2,0,L|153:371,2,43.75,0|0|0,0:0|0:0|3:0,0:0:0:0:
35,155,291569,2,0,L|40:82,2,52.5000020027161,0|0|8,0:0|0:0|3:2,0:0:0:0:
149,309,291885,1,0,0:0:0:0:
251,117,292043,6,0,L|257:42,1,52.5000020027161,0|0,3:0|0:0,0:0:0:0:
250,244,292201,2,0,L|293:273,1,52.5000020027161,0|0,3:0|0:0,0:0:0:0:
144,184,292359,1,0,0:0:0:0:
144,184,292438,1,0,0:0:0:0:
144,184,292517,1,0,0:0:0:0:
348,157,292675,6,0,L|350:121,8,26.2500010013581
443,329,293306,6,0,L|338:334,1,105.000004005432,4|0,3:2|0:0,0:0:0:0:
203,185,293622,2,0,L|308:190,1,105.000004005432,8|0,3:2|0:0,0:0:0:0:
60,315,293938,2,0,P|43:263|56:206,1,105.000004005432,0|0,3:0|0:0,3:0:0:0:
211,84,294254,2,0,P|219:135|203:184,1,105.000004005432,8|0,3:2|0:0,0:0:0:0:
97,41,294569,5,0,3:2:0:0:
97,41,294727,1,0,0:0:0:0:
202,184,294885,1,8,3:2:0:0:
202,184,295043,1,0,0:0:0:0:
296,25,295201,1,0,3:2:0:0:
296,25,295359,1,0,0:0:0:0:
401,168,295517,1,8,3:2:0:0:
401,168,295675,1,0,0:0:0:0:
374,357,295832,6,0,P|331:327|319:278,1,105.000004005432,0|0,3:0|0:0,0:0:0:0:
441,80,296148,2,0,P|436:132|400:167,1,105.000004005432,8|0,3:2|0:0,0:0:0:0:
166,165,296464,2,0,P|213:142|261:156,1,105.000004005432,0|0,3:0|0:0,0:0:0:0:
72,344,296780,2,0,L|67:239,1,105.000004005432,8|0,3:2|0:0,0:0:0:0:
131,64,297096,5,0,3:2:0:0:
131,64,297254,1,0,0:0:0:0:
209,251,297411,1,8,3:2:0:0:
209,251,297569,1,0,0:0:0:0:
328,76,297727,1,0,3:2:0:0:
328,76,297885,1,0,0:0:0:0:
302,245,298043,2,0,P|322:292|369:313,1,105.000004005432,8|0,3:2|0:0,0:0:0:0:
400,307,298280,1,0,0:0:0:0:
427,291,298359,1,0,3:2:0:0:
462,119,298517,6,0,L|457:46,2,52.5000020027161,0|0|8,0:0|0:0|3:2,0:0:0:0:
368,309,298832,2,0,L|373:382,2,52.5000020027161,0|0|0,0:0|0:0|3:2,0:0:0:0:
271,133,299148,1,0,0:0:0:0:
249,131,299227,1,0,0:0:0:0:
226,134,299306,1,8,3:2:0:0:
175,354,299464,1,0,0:0:0:0:
180,324,299543,1,0,0:0:0:0:
183,294,299622,6,0,P|161:248|115:226,1,105.000004005432,0|0,3:2|0:0,0:0:0:0:
44,48,299938,2,0,P|66:94|112:116,1,105.000004005432,8|0,3:2|0:0,0:0:0:0:
307,29,300254,1,0,3:2:0:0:
307,29,300411,1,0,0:0:0:0:
245,213,300569,1,8,3:2:0:0:
245,213,300727,1,0,0:0:0:0:
129,30,300885,6,0,L|234:25,1,105.000004005432,0|0,3:2|0:0,0:0:0:0:
261,40,301122,1,0,0:0:0:0:
289,52,301201,2,0,L|394:47,1,105.000004005432,8|0,3:2|0:0,0:0:0:0:
497,230,301517,2,0,P|446:226|404:254,1,105.000004005432,0|0,0:3|0:0,0:0:0:0:
388,283,301754,1,0,0:0:0:0:
371,308,301832,2,0,P|328:337|277:333,1,105.000004005432,8|0,3:2|0:0,0:0:0:0:
191,260,302148,5,0,3:2:0:0:
136,117,302306,1,0,0:0:0:0:
37,234,302464,1,8,3:2:0:0:
215,170,302622,5,0,0:0:0:0:
45,141,302780,1,0,3:2:0:0:
106,299,302938,1,0,0:0:0:0:
215,170,303096,1,8,3:2:0:0:
41,37,303411,6,0,L|46:142,1,105.000004005432,4|0,3:2|0:0,0:0:0:0:
146,355,303727,2,0,L|151:250,1,105.000004005432,8|0,3:2|0:0,0:0:0:0:
40,291,304043,1,0,3:2:0:0:
150,250,304201,1,0,0:0:0:0:
60,170,304359,1,8,3:2:0:0:
40,291,304517,1,0,0:0:0:0:
145,133,304675,6,0,P|98:78|32:85,1,105.000004005432,0|0,3:0|0:0,0:0:0:0:
40,291,304990,2,0,P|58:338|104:362,1,105.000004005432,8|0,3:2|0:0,0:0:0:0:
135,364,305227,1,0,0:0:0:0:
156,363,305306,1,0,3:2:0:0:
243,226,305464,1,0,0:0:0:0:
99,213,305622,1,8,3:2:0:0:
162,362,305780,1,0,0:0:0:0:
281,298,305938,5,0,3:2:0:0:
421,368,306096,2,0,L|479:372,2,52.5000020027161,0|0|8,0:0|0:0|3:2,0:0:0:0:
296,183,306411,1,0,0:0:0:0:
264,185,306490,1,0,0:0:0:0:
232,187,306569,1,0,3:2:0:0:
501,162,306727,1,0,0:0:0:0:
330,96,306885,1,8,3:2:0:0:
355,276,307043,1,0,0:0:0:0:
212,45,307201,6,0,L|107:40,1,105.000004005432,0|0,3:2|0:0,0:0:0:0:
11,224,307517,2,0,L|116:219,1,105.000004005432,8|0,3:2|0:0,0:0:0:0:
263,127,307832,1,0,3:2:0:0:
263,300,307990,1,0,0:0:0:0:
115,219,308148,1,8,3:2:0:0:
263,127,308306,1,0,0:0:0:0:
369,349,308464,6,0,L|374:244,1,105.000004005432,0|0,3:0|0:0,0:0:0:0:
376,212,308701,1,0,0:0:0:0:
378,180,308780,1,8,3:2:0:0:
293,68,308938,2,0,L|289:10,2,52.5000020027161,0|0|0,0:0|0:0|3:0,0:0:0:0:
375,244,309254,1,0,0:0:0:0:
482,85,309411,1,8,3:2:0:0:
293,68,309569,1,0,0:0:0:0:
244,323,309727,5,0,3:2:0:0:
125,112,309885,2,0,L|62:115,2,52.5000020027161,0|0|8,0:0|0:0|3:2,0:0:0:0:
280,266,310201,1,0,0:0:0:0:
266,298,310280,1,0,0:0:0:0:
244,323,310359,1,0,3:2:0:0:
0,309,310517,1,0,0:0:0:0:
125,109,310675,1,8,3:2:0:0:
244,323,310832,1,0,0:0:0:0:
420,104,310990,6,0,P|401:56|355:32,1,105.000004005432,0|0,3:0|0:0,0:0:0:0:
307,268,311306,2,0,P|357:275|401:248,1,105.000004005432,8|0,3:2|0:0,0:0:0:0:
175,313,311622,1,0,3:2:0:0:
362,159,311780,1,0,0:2:0:0:
138,78,311938,1,8,3:2:0:0:
175,313,312096,1,0,0:0:0:0:
362,159,312254,6,0,L|367:54,1,105.000004005432,0|0,3:0|0:0,0:0:0:0:
203,169,312569,2,0,L|208:274,1,105.000004005432,8|0,3:2|0:0,0:0:0:0:
212,305,312806,1,0,0:0:0:0:
216,336,312885,2,0,P|261:360|311:349,1,105.000004005432,0|0,3:2|0:0,0:0:0:0:
362,159,313201,1,8,0:0:0:0:
88,269,313359,1,0,0:0:0:0:
405,350,313517,6,0,P|409:298|401:261,1,83.9999974365235,4|0,0:0|0:0,0:0:0:0:
331,192,314148,2,0,P|324:150|328:109,1,83.9999974365235,0|0,0:0|0:0,0:0:0:0:
411,24,314780,6,0,L|323:16,1,83.9999974365235,4|0,0:0|0:0,0:0:0:0:
241,92,315411,2,0,L|157:99,1,83.9999974365235,0|0,0:0|0:0,0:0:0:0:
84,52,316043,6,0,P|70:88|78:141,1,83.9999974365235,4|0,0:0|0:0,0:0:0:0:
1,256,316675,2,0,P|39:250|81:216,1,83.9999974365235,0|0,0:0|0:0,0:0:0:0:
219,231,317306,2,0,P|194:200|144:181,1,83.9999974365235,4|0,0:0|0:0,0:0:0:0:
214,320,317938,2,0,P|252:314|294:280,1,83.9999974365235,0|0,0:0|0:0,0:0:0:0:
120,365,318569,6,0,L|111:281,1,83.9999974365235,4|0,0:0|0:0,0:0:0:0:
219,230,319201,2,0,L|227:146,1,83.9999974365235,0|0,0:0|0:0,0:0:0:0:
75,50,319832,6,0,L|83:134,1,83.9999974365235,4|0,0:0|0:0,0:0:0:0:
162,228,320464,2,0,P|203:233|242:220,1,83.9999974365235
263,206,320938,1,0,0:0:0:0:
281,193,321096,2,0,P|320:180|361:185,1,83.9999974365235,4|0,0:0|0:0,0:0:0:0:
433,345,321727,2,0,P|402:317|386:278,1,83.9999974365235,4|0,0:0|0:0,0:0:0:0:
442,212,322359,6,8,L|517:208,2,70,4|0|12,0:0|0:0|3:2,0:0:0:0:
