osu file format v14

[General]
AudioFilename: Floxytek - Dominus.mp3
AudioLeadIn: 0
PreviewTime: 111237
Countdown: 0
SampleSet: Normal
StackLeniency: 0.7
Mode: 0
LetterboxInBreaks: 0
EpilepsyWarning: 1
WidescreenStoryboard: 1

[Editor]
DistanceSpacing: 1
BeatDivisor: 4
GridSize: 4
TimelineZoom: 1.8

[Metadata]
Title:Dominus
TitleUnicode:Dominus
Artist:Floxytek
ArtistUnicode:Floxytek
Creator:Poggo
Version:Impudence
Source:
Tags:Revy collab Akemi_Homura skulls MystykAMV Mystyk la riposte 06 Katty Pie Katty_Pie
BeatmapID:153935
BeatmapSetID:50021

[Difficulty]
HPDrainRate:6
CircleSize:4
OverallDifficulty:8
ApproachRate:9
SliderMultiplier:2
SliderTickRate:2

[Events]
//Background and Video events
0,0,"Dark-Skull-43182-970139.jpg",0,0
//Break Periods
2,71054,80360
2,203054,211728
2,252949,262254
//Storyboard Layer 0 (Background)
Sprite,Background,Centre,"floxy_2.jpg",320,240 F,0,30434,30671,0.816,0 F,0,30671,30749,0,0.8600001 F,0,30749,30986,0.8600001,0 F,0,30986,31065,0,0.876 F,0,31065,31302,0.876,0 F,0,31302,31381,0,0.86 F,0,31381,31618,0.86,0 F,0,31618,31697,0,0.86 F,0,31697,31934,0.86,0 F,0,31934,32013,0,0.884 F,0,32013,32249,0.884,0 F,0,32249,32328,0,0.884 F,0,32328,32407,0.884,0 F,0,32407,32486,0,0.848 F,0,32486,32565,0.848,0 F,0,32565,32644,0,0.8560001 F,0,32644,32881,0.8560001,0 F,0,32881,32960,0,0.872 F,0,32960,33197,0.872,0 F,0,33197,33276,0,0.812 F,0,33276,33513,0.812,0 F,0,33513,33592,0,0.792 F,0,33592,33828,0.792,0 F,0,33828,33907,0,0.876 F,0,33907,34144,0.876,0 F,0,34144,34223,0,0.804 F,0,34223,34460,0.804,0 F,0,34460,34539,0,0.852 F,0,34539,34776,0.852,0 F,0,34776,34855,0,0.828 F,0,34855,35092,0.828,0 F,0,35092,35171,0,0.864 F,0,35171,,0.864 F,0,35171,35328,0.864,0 F,0,35328,35407,0,0.792 F,0,35407,35486,0.792,0 F,0,35486,35565,0,0.796 F,0,35565,35644,0.796,0 F,0,35644,35802,0,0.792 F,0,35802,36039,0.792,0 F,0,36039,36118,0,0.8 F,0,36118,36355,0.8,0 F,0,36355,36434,0,0.7599999 F,0,36434,36671,0.7599999,0 F,0,36671,36749,0,0.7759999 F,0,36749,36986,0.7759999,0 F,0,36986,37065,0,0.76 F,0,37065,37302,0.76,0 F,0,37302,37381,0,0.8200001 F,0,37381,37460,0.8200001,0 F,0,37460,37539,0,0.692 F,0,37539,37618,0.692,0 F,0,37618,37697,0,0.668 F,0,37697,37934,0.668,0 F,0,72118,72749,1,0 F,0,73381,74013,1,0 F,0,74013,,0 F,0,74644,75197,1,0 F,0,75197,75276,0,1 F,0,75276,75434,1,0 F,0,75434,75513,0,1 F,0,75513,75671,1,0 F,0,75671,75749,0,1 F,0,75749,75828,1,0 F,0,75828,75907,0,1 F,0,75907,,1 F,0,75907,76539,1,0 F,0,77171,,1 F,0,77171,,1 F,0,77171,,1 F,0,77171,77802,1,0 F,0,78434,79065,1,0 F,0,79697,80249,1,0 F,0,80249,80328,0,1 F,0,80328,80486,1,0 F,0,80486,80565,0,1 F,0,80565,80723,1,0 F,0,80723,80802,0,1 F,0,80802,80960,1,0 F,0,202855,,1 F,0,202855,203407,1,0 F,0,203407,203486,0,1 F,0,203486,204039,1,0 F,0,204039,204118,0,1 F,0,204118,204434,1,0 F,0,204749,204986,1,0 F,0,204986,205065,0,1 F,0,205065,205302,1,0 F,0,205302,205381,0,1 F,0,205381,206013,1,0 F,0,207118,207197,1,0 F,0,207197,207276,0,1 F,0,207276,207749,1,0 F,0,207907,208223,1,0 F,0,209802,210276,1,0 F,0,210434,210749,1,0 F,0,254013,254644,1,0 F,0,256539,257013,1,0 F,0,257171,257802,1,0 F,0,258434,258907,1,0 F,0,259065,259539,1,0 F,0,259697,260013,1,0 F,0,261592,261749,1,0 F,0,261907,262065,1,0.1799999 F,0,262223,262381,1,0 F,0,262539,262855,1,0 F,0,324118,324749,1,0 S,0,324118,324749,0.8079997,0.8799997 F,0,326644,327276,1,0 S,0,326644,327276,0.8079996,0.8799995
Sprite,Background,Centre,"floxy_4.jpg",320,240 F,0,51276,,1 F,0,51276,51513,1,0 F,0,51907,52144,1,0 F,0,52539,,1 F,0,52539,52618,1,0 F,0,52618,52697,0,1 F,0,52697,52854,1,0 F,0,52854,,0 F,0,53171,53407,1,0 F,0,53802,54039,1,0 F,0,54434,54671,1,0 F,0,55065,55302,1,0 F,0,55381,55460,1,0 F,0,55460,55539,0,1 F,0,55539,55618,1,0 F,0,55618,55697,0,1 F,0,55697,55934,1,0 F,0,56328,56565,1,0 F,0,56960,57197,1,0 F,0,57513,,0 F,0,57513,57592,0,1 F,0,57592,57671,1,0 F,0,57671,57749,0,1 F,0,57749,57828,1,0 F,0,58223,58460,1,0 F,0,58855,59092,1,0 F,0,59486,59644,1,0 F,0,59644,59723,0,1 F,0,59723,59802,1,0 F,0,60118,60197,1,0 F,0,60197,60276,0,1 F,0,60276,60355,1,0 F,0,60749,60986,1,0 F,0,61381,61618,1,0 F,0,62013,62249,1,0 F,0,62644,62881,1,0 F,0,62881,62960,0,1 F,0,62960,63039,1,0 F,0,63039,63118,0,1 F,0,63118,63197,1,0 F,0,63197,63276,0,1 F,0,63276,63513,1,0 F,0,63907,64144,1,0 F,0,64539,64776,1,0 F,0,65171,65407,1,0 F,0,65802,66039,1,0 F,0,66434,66671,1,0 F,0,67065,67302,1,0 F,0,67697,67934,1,0 F,0,68328,68565,1,0 F,0,68960,69197,1,0 F,0,69592,69671,1,0 F,0,69671,69749,0,1 F,0,69749,69828,1,0 F,0,70223,70460,1,0 F,0,70460,70539,0,1 F,0,70539,70618,1,0 F,0,70618,70697,0,1 F,0,70697,70776,1,0 F,0,121381,121697,1,0 F,0,122013,122328,1,0 F,0,122644,122960,1,0 F,0,123276,123513,1,0 F,0,123513,123592,0,1 F,0,123592,123671,1,0 F,0,123671,123749,0,1 F,0,123749,123828,1,0 F,0,123828,123907,0,1 F,0,123907,124223,1,0 F,0,124539,124855,1,0 F,0,125171,125486,1,0 F,0,125802,126118,1,0 F,0,126434,126749,1,0 F,0,127065,127381,1,0 F,0,127697,128013,1,0 F,0,128328,128644,1,0 F,0,128960,129276,1,0 F,0,129592,129907,1,0 F,0,161802,162118,1,0 F,0,162434,162749,1,0 F,0,163065,163381,1,0 F,0,163697,164013,1,0 F,0,164328,164644,1,0 F,0,164960,165276,1,0 F,0,165592,165671,1,0 F,0,165671,165749,0,1 F,0,165749,165907,1,0 F,0,166223,166539,1,0 F,0,166539,166618,0,1 F,0,166618,166697,1,0 F,0,166855,167171,1,0 F,0,167486,167802,1,0 F,0,168118,168434,1,0 F,0,168749,169065,1,0 F,0,169381,169697,1,0 F,0,170013,170328,1,0 F,0,170644,170723,1,0 F,0,170723,170802,0,1 F,0,170802,170960,1,0 F,0,171276,171592,1,0 F,0,171592,171671,0,1 F,0,171671,171828,1,0 F,0,171828,176723,0,0.00800003 F,0,232539,232855,1,0 F,0,233171,233486,1,0 F,0,233802,234118,1,0 F,0,234434,234749,1,0 F,0,234749,234828,0,1 F,0,234828,234907,1,0 F,0,234907,234986,0,1 F,0,234986,235065,1,0 F,0,235065,235144,0,1 F,0,235144,235381,1,0 F,0,235697,236013,1,0 F,0,236328,236644,1,0 F,0,236960,237276,1,0 F,0,237592,237907,1,0 F,0,238223,238539,1,0 F,0,238855,239171,1,0 F,0,239486,239802,1,0 F,0,240118,240434,1,0 F,0,240749,241065,1,0 F,0,241381,241460,1,0 F,0,241460,241539,0,1 F,0,241539,241618,1,0 F,0,241618,241697,0 F,0,242013,242171,1,0 F,0,242171,242249,0,1 F,0,242249,242328,1,0 F,0,242644,242960,1,0 F,0,243276,243592,1,0 F,0,243907,244223,1,0 F,0,244539,244776,1,0 F,0,244776,244855,0,1 F,0,244855,244934,1,0 F,0,244934,245013,0,1 F,0,245013,245092,1,0 F,0,245092,245171,0,1 F,0,245171,245486,1,0 F,0,245802,246118,1,0 F,0,246434,246749,1,0 F,0,247065,247381,1,0 F,0,247697,248013,1,0 F,0,248328,248644,1,0 F,0,248960,249276,1,0 F,0,249592,249907,1,0 F,0,250223,250539,1,0 F,0,250855,251171,1,0 F,0,251486,251565,1,0 F,0,251565,251644,0,1 F,0,251644,251802,1,0 F,0,252118,252276,1,0 F,0,252276,252355,0,1 F,0,252355,252434,1,0.03600014 F,0,252434,252513,0.03600014,1 F,0,252513,252749,1,0 F,0,325381,326013,1,0 S,0,325381,326013,0.8239999,0.8799997
Sprite,Background,Centre,"flash2.png",320,240 F,0,50960,51197,1,0 F,0,51592,51828,1,0 F,0,52223,52460,1,0 F,0,52855,53092,1,0 F,0,53486,53723,1,0 F,0,54118,54355,1,0 F,0,54749,54986,1,0 F,0,56013,56249,1,0 F,0,56644,56881,1,0 F,0,57276,57513,1,0 F,0,57907,,1 S,0,57907,,0.8159999 F,0,57907,58144,1,0 F,0,58539,58776,1,0 F,0,59171,59407,1,0 F,0,59802,60039,1,0 F,0,60434,60671,1,0 F,0,60671,,0 F,0,61065,,1 F,0,61065,61302,1,0 F,0,61697,61934,1,0 F,0,62328,62565,1,0 F,0,63592,63828,1,0 F,0,64223,64460,1,0 F,0,64855,65092,1,0 F,0,65486,65723,1,0 F,0,66118,66355,1,0 F,0,66749,66986,1,0 F,0,67381,67618,1,0 F,0,68013,68249,1,0 F,0,68644,68881,1,0 F,0,69276,69513,1,0 F,0,69907,70144,1,0 F,0,70855,,1 F,0,70855,71486,1,0 F,0,80960,81197,1,0 F,0,86013,86328,1,0 F,0,91065,91381,1,0 F,0,93592,93907,1,0 F,0,96118,96434,1,0 F,0,98644,98960,1,0 F,0,101171,101486,1,0 F,0,103697,104013,1,0 F,0,106223,106539,1,0 F,0,108749,109065,1,0 F,0,111276,111592,1,0 F,0,121697,122013,1,0 F,0,122328,122644,1,0 F,0,122960,123276,1,0 F,0,124223,124539,1,0 F,0,124855,125171,1,0 F,0,125486,125802,1,0 F,0,126118,126434,1,0 F,0,126749,127065,1,0 F,0,127381,127697,1,0 F,0,128013,128328,1,0 F,0,128644,128960,1,0 F,0,129276,129592,1,0 F,0,129907,130223,1,0 F,0,131486,132118,1,0 F,0,136855,137171,1,0 F,0,140328,140644,1,0 F,0,151697,152013,1,0 F,0,162118,162434,1,0 F,0,162749,163065,1,0 F,0,163381,163697,1,0 F,0,164013,164328,1,0 F,0,164644,164960,1,0 F,0,165276,165592,1,0 F,0,165907,166223,1,0 F,0,166539,166855,1,0 F,0,167171,167486,1,0 F,0,167802,168118,1,0 F,0,168434,168749,1,0 F,0,169065,169381,1,0 F,0,169697,170013,1,0 F,0,170328,170644,1,0 F,0,170960,171276,1,0 F,0,171592,171907,1,0 F,0,182328,182644,1,0 F,0,182960,183276,1,0 F,0,183592,183907,1,0 F,0,184223,184539,1,0 F,0,184855,185171,1,0 F,0,185486,185802,1,0 F,0,186118,186434,1,0 F,0,186749,187065,1,0 F,0,187381,187697,1,0 F,0,188013,188328,1,0 F,0,188644,188960,1,0 F,0,189276,189592,1,0 F,0,189907,190223,1,0 F,0,190539,190855,1,0 F,0,191171,191486,1,0 F,0,191802,192118,1,0 F,0,193381,193697,1,0 F,0,194013,194328,1,0 F,0,194644,194881,1,0 F,0,194881,194960,0,1 F,0,194960,195276,1,0 F,0,195907,196223,0.4760001,0 F,0,196539,196776,0.3624851,0 F,0,196776,196855,0,1 F,0,196855,,1 F,0,196855,,1 F,0,196855,196934,1,0 F,0,196934,197013,0,1 F,0,197013,197092,1,0 F,0,197092,197171,0,1 F,0,197171,197486,1,0 F,0,198434,198592,1,0 F,0,198592,198671,0,1 F,0,198671,198828,1,0 F,0,198828,198907,0,1 F,0,198907,199065,1,0 F,0,199223,199539,1,0 F,0,199697,199934,1,0 F,0,199934,200013,0,1 F,0,200013,200328,1,0 F,0,200565,200881,1,0 F,0,200881,,0 F,0,200881,200960,0,1 F,0,200960,201197,1,0 F,0,201197,,0 F,0,201197,,0 F,0,201197,,0 F,0,201355,201592,1,0 F,0,202223,,1 F,0,202223,202460,1,0 F,0,202460,202539,0,1 F,0,202539,202855,1,0 F,0,204434,204749,1,0 F,0,206013,206249,1,0 F,0,206249,206328,0,1 F,0,206328,206644,1,0 F,0,206960,207276,1,0 F,0,208223,208539,1,0 F,0,209486,209802,1,0 F,0,211065,211302,1,0 F,0,211302,211381,0,1 F,0,211381,211697,1,0 F,0,222434,222749,0.2639999,0 F,0,223065,223381,0.3,0 F,0,223697,224013,0.7279999,0 F,0,224328,224644,0.4196255,0 F,0,224960,225276,0.606485,0 F,0,225592,225907,0.5176942,0 F,0,226223,226539,0.3894807,0 F,0,226855,227171,0.3580315,0 F,0,227486,227802,0.5834189,0 F,0,228118,228434,0.3665372,0 F,0,228749,229065,0.3312508,0 F,0,229381,229697,0.3633775,0 F,0,230013,230328,0.2880633,0 F,0,230644,230960,0.3570494,0 F,0,232855,233171,1,0 F,0,233486,233802,1,0 F,0,234118,234434,1,0 F,0,234749,235065,1,0 F,0,235381,235697,1,0 F,0,236013,236328,1,0 F,0,236644,236960,1,0 F,0,237276,237592,1,0 F,0,237907,238223,1,0 F,0,238539,238855,1,0 F,0,239171,239486,1,0 F,0,239802,240118,1,0 F,0,240434,240749,1,0 F,0,241065,241381,1,0 F,0,241697,242013,1,0 F,0,242328,242644,1,0 F,0,242960,243276,1,0 F,0,243592,243907,1,0 F,0,244223,244539,1,0 F,0,244855,245171,1,0 F,0,245486,245802,1,0 F,0,246118,246434,1,0 F,0,246749,247065,1,0 F,0,247381,247697,1,0 F,0,248013,248328,1,0 F,0,248644,248960,1,0 F,0,249276,249592,1,0 F,0,249907,250223,1,0 F,0,250539,250855,1,0 F,0,251171,251486,1,0 F,0,251802,252118,1,0 F,0,252434,252749,1,0 F,0,257802,258039,1,0 F,0,258039,258118,0,1 F,0,258118,258434,1,0 F,0,260013,260249,1,0 F,0,260644,260960,1,0 F,0,262855,263171,1,0 F,0,274539,274855,1,0 F,0,275171,275486,1,0 F,0,275802,276118,1,0 F,0,276434,276749,1,0 F,0,277065,277381,1,0 F,0,277697,278013,1,0 F,0,278328,278644,1,0 F,0,278960,279276,1,0 F,0,279592,279907,1,0 F,0,280223,280539,1,0 F,0,280855,281171,1,0 F,0,281486,281802,1,0 F,0,283381,283697,1,0 F,0,284013,284328,1,0 F,0,284644,284960,1,0 F,0,285276,285592,1,0 F,0,285907,286223,1,0 F,0,286539,286855,1,0 F,0,287171,287486,1,0 F,0,287802,288118,1,0 F,0,288434,288749,1,0 F,0,289065,289381,1,0 F,0,289697,290013,1,0 F,0,290328,290644,1,0 F,0,290960,291276,1,0 F,0,291592,291907,1,0 F,0,292223,292539,1,0 F,0,292855,293171,1,0 F,0,293486,293802,1,0 F,0,294118,294434,1,0 F,0,294749,295065,1,0 F,0,295381,295697,1,0 F,0,296013,296328,1,0 F,0,296644,296960,1,0 F,0,297276,297592,1,0 F,0,297907,298223,1,0 F,0,298539,298855,1,0 F,0,299171,299486,1,0 F,0,299802,300118,1,0 F,0,300434,300749,1,0 F,0,301065,301381,1,0 F,0,301697,302013,1,0 F,0,302328,302644,1,0 F,0,302960,303276,1,0 F,0,303592,303907,1,0 F,0,304223,304539,1,0 F,0,304855,305171,1,0 F,0,305486,305802,1,0 F,0,306118,306434,1,0 F,0,306749,307065,1,0 F,0,307381,307697,1,0 F,0,308644,308960,1,0 F,0,309276,309592,1,0 F,0,309907,310223,1,0 F,0,310539,310855,1,0 F,0,311171,311486,1,0 F,0,311802,312118,1,0 F,0,312434,312749,1,0 F,0,313065,313381,1,0 F,0,313697,314013,1,0 F,0,314328,314644,1,0 F,0,314960,315276,1,0 F,0,315592,315907,1,0 F,0,316223,316539,1,0 F,0,316855,317171,1,0 F,0,317486,317802,1,0 F,0,318118,318434,1,0 F,0,318434,,0 F,0,318749,319065,1,0 F,0,319065,,0 F,0,319381,,1 F,0,319381,319697,1,0 F,0,320013,320328,1,0 F,0,320644,320960,1,0 F,0,321276,321592,1,0 F,0,321907,322223,1,0 F,0,322539,322855,1,0 F,0,323171,323486,1,0
Sprite,Background,Centre,"floxy_3.jpg",320,240 F,0,5802,6434,1,0 F,0,7065,7697,1,0 F,0,8328,,0.5960001 F,0,8328,8881,0.5960001,0 F,0,8881,,0 F,0,8960,,1 F,0,8960,9197,1,0 F,0,9276,9434,0.8199999,0 F,0,9592,9828,0.872,0 F,0,9828,9907,0,0.844 F,0,9907,,0.844 F,0,9907,10065,0.844,0.04969754 S,0,10223,10381,0.816,0.856 F,0,10223,10776,0.7959999,0 S,0,10381,10776,0.856,0.8791799 S,0,11486,,0.8071801 F,0,11486,11960,0.876,0 F,0,12118,,0.7686535 F,0,12118,12592,0.7686535,0.04549838 S,0,12749,12907,0.8151799,0.8551876 F,0,12749,13381,1,0 S,0,12907,,0.8551876 S,0,12907,13381,0.8551876,0.8780777 F,0,14013,14486,0.8238556,0 F,0,14644,15118,0.8239999,0 F,0,15276,15749,0.832,0 F,0,16539,17013,0.776,0 F,0,17171,17644,0.812,0 F,0,17802,,0.836 S,0,17802,17960,0.8140777,0.8540778 F,0,17802,18276,0.836,0 S,0,17960,18276,0.8540778,0.8780777 S,0,18434,18592,0.8131873,0.8611872 F,0,18434,18907,0.816,0 S,0,18592,18907,0.8611872,0.8771872 F,0,19065,,0.82 F,0,19065,,0.82 F,0,19065,,0.82 F,0,19065,19381,0.82,0 S,0,19539,19697,0.8131872,0.8611873 F,0,19539,19855,1,0 S,0,19697,19855,0.8611873,0.8771872 F,0,20013,20249,0.788,0 F,0,20328,,0.652 S,0,20328,20565,1,1.104 F,0,20328,20802,0.652,0.09314284 S,0,20565,20802,1.104,1.12 F,0,20802,,0.09314284 F,0,20960,,0.5440001 S,0,20960,21118,0.9919999,1.064 F,0,20960,21434,0.5440001,0.07771429 S,0,21118,21434,1.064,1.088 F,0,21434,,0.07771429 F,0,21434,,0.07771429 F,0,21434,,0.07771429 F,0,21434,,0.07771429 F,0,21592,,0.6737142 S,0,21592,21749,0.888,0.9199999 F,0,21592,22065,0.6737142,0 S,0,21749,22065,0.9199999,0.9359999 S,0,22223,22381,0.8079999,0.9119997 F,0,22223,22697,0.5680001,0 S,0,22381,22697,0.9119997,0.9439996 S,0,22855,23013,0.8079997,0.8719997 F,0,22855,23328,0.7200001,0 S,0,23013,23328,0.8719997,0.8959997 S,0,23486,23644,0.8159995,0.8639995 F,0,23486,23960,0.5159999,0 S,0,23644,23960,0.8639995,0.8799995 S,0,24118,24276,0.8239995,0.8879995 F,0,24118,24592,0.832,0 S,0,24276,24592,0.8879995,0.9039994 S,0,24749,24907,0.8159994,0.8719994 F,0,24749,25223,0.816,0 S,0,24907,25223,0.8719994,0.8799995 S,0,25381,25539,0.8159994,0.8799994 F,0,25381,25855,0.8,0 S,0,25539,25855,0.8799994,0.8959994 S,0,26013,26171,0.8079993,0.8639993 F,0,26013,26486,0.824,0 S,0,26171,26486,0.8639993,0.8799993 S,0,26644,26802,0.8079993,0.8719993 F,0,26644,27118,0.888,0 S,0,26802,27118,0.8719993,0.8799992 S,0,27907,28065,0.8079992,0.8559992 F,0,27907,28539,0.78,0 S,0,28065,28539,0.8559992,0.8799992 S,0,29171,29328,0.8159991,0.871999 F,0,29171,29486,0.8040001,0 S,0,29328,29486,0.871999,0.879999 S,0,29644,,0.815999 F,0,29644,29960,0.792,0 F,0,30118,30355,0.7599999,0 M,0,38013,,320,240 F,0,38013,38249,0.7840001,0 F,0,38249,38328,0,0.848 F,0,38328,38565,0.848,0 F,0,38565,38644,0,0.776 F,0,38644,38881,0.776,0 F,0,38881,38960,0,0.784 F,0,38960,39197,0.784,0 F,0,39197,39276,0,0.6520001 F,0,39276,39434,0.6520001,0 F,0,39434,39513,0,0.7359999 F,0,39513,39592,0.7359999,0 F,0,39592,39671,0,0.708 F,0,39671,39828,0.708,0 F,0,39828,39907,0,0.768 F,0,39907,39986,0.768,0 F,0,39986,40065,0,0.772 F,0,40065,40144,0.772,0 F,0,40144,40223,0,0.792 F,0,40223,40460,0.792,0 F,0,40460,40539,0,0.816 F,0,40539,40697,0.816,0 F,0,40855,41092,0.808,0 F,0,41092,41171,0,0.772 F,0,41171,41407,0.772,0 F,0,41407,41486,0,0.68 F,0,41486,41723,0.68,0 F,0,41723,41802,0,0.696 F,0,41802,42039,0.696,0 F,0,42039,42118,0,0.7239999 F,0,42118,42355,0.7239999,0 F,0,42355,42434,0,0.696 F,0,42434,42671,0.696,0 F,0,42671,42749,0,0.836 F,0,42749,42828,0.836,0 F,0,42828,42907,0,0.76 F,0,42907,42986,0.76,0 F,0,42986,43065,0,0.792 F,0,43065,43302,0.792,0 F,0,43302,43381,0,0.8200001 F,0,43381,,0.8200001 F,0,43381,43618,0.8200001,0 F,0,43618,43697,0,0.824 F,0,43697,43934,0.824,0 F,0,43934,44013,0,0.684 F,0,44013,44249,0.684,0 F,0,44249,44328,0,0.76 F,0,44328,44565,0.76,0 F,0,44565,44644,0,0.8120001 F,0,44644,44881,0.8120001,0 F,0,44881,44960,0,0.7559999 F,0,44960,45434,0.7559999,0 F,0,45592,45828,0.84,0 F,0,45828,45907,0,0.8079998 F,0,45907,46144,0.8079998,0 F,0,46144,46223,0,0.7639999 F,0,46223,46460,0.7639999,0 F,0,46460,46539,0,0.764 F,0,46539,46776,0.764,0 F,0,46776,46855,0,0.788 F,0,46855,47092,0.788,0 F,0,47092,47171,0,0.736 F,0,47171,47407,0.736,0 F,0,47407,47486,0,0.8119999 F,0,47486,47723,0.8119999,0 F,0,47723,47802,0,0.768 F,0,47802,48118,0.768,0 S,0,48749,48907,0.815999,0.8639989 F,0,48749,49223,0.748,0 S,0,48907,49223,0.8639989,0.8799988 S,0,49381,49539,0.8159989,0.8559989 F,0,49381,50013,0.872,0 S,0,49539,50013,0.8559989,0.879999 S,0,50328,,0.815999 F,0,50328,50565,0.808,0 F,0,81276,81749,1,0 F,0,81907,82381,1,0 F,0,82381,82539,0,1 F,0,82539,82776,1,0 F,0,82776,82855,0,1 F,0,82855,82934,1,0 F,0,82934,83013,0,1 F,0,83013,83092,1,0 F,0,83092,83171,0,1 F,0,83171,83644,1,0 F,0,83802,84276,1,0 F,0,84434,84907,1,0 F,0,85065,85302,1,0 F,0,85302,85381,0,1 F,0,85381,85539,1,0 F,0,85539,85618,0,1 F,0,85618,85776,1,0 F,0,85776,85855,0,1 F,0,85855,86013,1,0 F,0,86328,86802,1,0 F,0,86960,87434,1,0 F,0,87592,88065,1,0 F,0,88223,88697,1,0 F,0,88855,89328,1,0 F,0,89486,89960,1,0 F,0,90118,90592,1,0 F,0,90749,91065,1,0 F,0,91381,91855,1,0 F,0,92013,92486,1,0 F,0,92644,93118,1,0 F,0,93276,93592,1,0 F,0,93907,94381,1,0 F,0,94539,95013,1,0 F,0,95171,95644,1,0.04000004 F,0,95802,96118,1,0 F,0,96434,96907,1,0 F,0,97065,97539,1,0 F,0,97697,98171,1,0 F,0,98328,98644,1,0 F,0,98960,99434,1,0 F,0,99592,100065,1,0.01599998 F,0,100223,100697,1,0.05999992 F,0,100855,101171,1,0 F,0,101486,101960,1,0 F,0,102118,102592,1,0 F,0,102749,103223,1,0 F,0,103381,103697,1,0 F,0,104013,104486,1,0 F,0,104644,105118,1,0 F,0,105276,105749,1,0 F,0,105907,106223,1,0 F,0,106539,107013,1,0 F,0,107171,107644,1,0 F,0,107802,108276,1,0 F,0,108434,108907,1,0 F,0,109065,109539,1,0 F,0,109697,110171,1,0 F,0,111592,111828,1,0 F,0,111828,111907,0,1 F,0,111907,112144,1,0 F,0,112144,112223,0,1 F,0,112223,112460,1,0 F,0,112460,112539,0,1 F,0,112539,112776,1,0 F,0,112776,112855,0,1 F,0,112855,113092,1,0 F,0,113092,113171,0,1 F,0,113171,113249,1,0.04799996 F,0,113249,113328,0.04799996,1 F,0,113328,113644,1,0 F,0,113802,114039,1,0 F,0,114039,114118,0,1 F,0,114118,114355,1,0.06400002 F,0,114355,114434,0.06400002,1 F,0,114434,114671,1,0 F,0,114671,114749,0,1 F,0,114749,114986,1,0.08799995 F,0,114986,115065,0.08799995,1 F,0,115065,115302,1,0.01199997 F,0,115302,115381,0.01199997,1 F,0,115381,115618,1,0 F,0,115618,115697,0,1 F,0,115697,,1 F,0,115697,115855,1,0 F,0,115855,,0 F,0,115855,115934,0,1 F,0,115934,116013,1,0.03999992 F,0,116013,116092,0.03999992,1 F,0,116092,116249,1,0 F,0,116249,116328,0,1 F,0,116328,,1 F,0,116328,,1 F,0,116328,116407,1,0.356 F,0,116407,116486,0.356,1 F,0,116486,116565,1,0.104 F,0,116565,116644,0.104,1 F,0,116644,116881,1,0 F,0,116881,116960,0,1 F,0,116960,117197,1,0.02400002 F,0,117197,117276,0.02400002,1 F,0,117276,117513,1,0 F,0,117513,117592,0,1 F,0,117592,117828,1,0 F,0,117828,117907,0,1 F,0,117907,118144,1,0 F,0,118144,118223,0,1 F,0,118223,118302,1,0 F,0,118302,118381,0,1 F,0,118381,118697,1,0 F,0,118697,118855,0,1 F,0,118855,119092,1,0 F,0,119092,119171,0,1 F,0,119171,119407,1,0 F,0,119407,119486,0,1 F,0,119486,119723,1,0 F,0,119723,119802,0,1 F,0,119802,120039,1,0 F,0,120039,120118,0,1 F,0,120118,120276,1,0 F,0,120276,120355,0,1 F,0,120355,120434,1,0 F,0,120434,120513,0,1 F,0,120513,120671,1,0 F,0,120671,120749,0,1 F,0,120749,120828,1,0 F,0,120828,120907,0,1 F,0,120907,121065,1 F,0,121065,121381,1,0 F,0,132749,133381,1,0 F,0,134013,134644,1,0 F,0,135276,135907,1,0 F,0,136539,136618,1,0 F,0,136618,136697,0,1 F,0,136697,136855,1,0 F,0,137171,137407,1,0 F,0,137407,137486,0,1 F,0,137486,137644,1,0 F,0,137644,,0 F,0,137802,138039,1,0 F,0,138039,138118,0,1 F,0,138118,138355,1,0 F,0,138355,138434,0,1 F,0,138434,138671,1,0 F,0,138671,138749,0,1 F,0,138749,138986,1,0 F,0,138986,139065,0,1 F,0,139065,139302,1,0 F,0,139302,139381,0,1 F,0,139381,139460,1,0 F,0,139460,139539,0,1 F,0,139539,139618,1,0 F,0,139618,139697,0,1 F,0,139697,139934,1,0 F,0,139934,140013,0,1 F,0,140013,140328,1,0 F,0,141592,141828,1,0 F,0,141828,141907,0,1 F,0,141907,142144,1,0 F,0,142144,142223,0,1 F,0,142223,142460,1,0 F,0,142460,142539,0,1 F,0,142539,142776,1,0 F,0,142776,142855,0,1 F,0,142855,143092,1,0 F,0,143092,143171,0,1 F,0,143171,143407,1,0 F,0,143407,143486,0,1 F,0,143486,,1 F,0,143486,143723,1,0 F,0,143723,143802,0,1 F,0,143802,143881,1,0 F,0,143881,143960,0,1 F,0,143960,144039,1,0 F,0,144039,144118,0,1 F,0,144118,144355,1,0 F,0,144355,144434,0,1 F,0,144434,144671,1,0.1319998 F,0,144671,144749,0.1319998,1 F,0,144749,144986,1,0 F,0,144986,145065,0,1 F,0,145065,145302,1,0 F,0,145302,145381,0,1 F,0,145381,145618,1,0 F,0,145618,145697,0,1 F,0,145697,145934,1,0 F,0,145934,146013,0,1 F,0,146013,146249,1,0 F,0,146249,146328,0,1 F,0,146328,146565,1,0 F,0,146565,146644,0,1 F,0,146644,146881,1,0 F,0,146881,146960,0,1 F,0,146960,147197,1,0 F,0,147197,147276,0,1 F,0,147276,147513,1,0.06400002 F,0,147513,147592,0.06400002,1 F,0,147592,147828,1,0 F,0,147828,147907,0,1 F,0,147907,148144,1,0 F,0,148144,148223,0,1 F,0,148223,148460,1,0 F,0,148460,148539,0,1 F,0,148539,148776,1,0 F,0,148776,148855,0,1 F,0,148855,149092,1,0 F,0,149092,149171,0,1 F,0,149171,149407,1,0 F,0,149407,149486,0,1 F,0,149486,149723,1,0 F,0,149723,149802,0,1 F,0,149802,150039,1,0 F,0,150039,150118,0,1 F,0,150118,150355,1,0 F,0,150355,150434,0,1 F,0,150434,151065,1,0 F,0,152013,152249,1,0 F,0,152249,152328,0,1 F,0,152328,152565,1,0 F,0,152565,152644,0,1 F,0,152644,152881,1,0 F,0,152881,152960,0,1 F,0,152960,153197,1,0 F,0,153197,153276,0,1 F,0,153276,153513,1,0 F,0,153513,153592,0,1 F,0,153592,153828,1,0 F,0,153828,153907,0,1 F,0,153907,154144,1,0 F,0,154144,154223,0,1 F,0,154223,154460,1,0 F,0,154460,154539,0,1 F,0,154539,154776,1,0 F,0,154776,154855,0,1 F,0,154855,155092,1,0 F,0,155092,155171,0,1 F,0,155171,155407,1,0 F,0,155407,155486,0,1 F,0,155486,155565,1,0 F,0,155565,155644,0,1 F,0,155644,155723,1,0 F,0,155723,155802,0,1 F,0,155802,156039,1,0 F,0,156039,156118,0,1 F,0,156118,156355,1,0 F,0,156355,156434,0,1 F,0,156434,156513,1,0 F,0,156513,156592,0,1 F,0,156592,156671,1,0 F,0,156671,156749,0,1 F,0,156749,156986,1,0 F,0,156986,157065,0,1 F,0,157065,157302,1,0 F,0,157302,157381,0,1 F,0,157381,157618,1,0 F,0,157618,157697,0,1 F,0,157697,157934,1,0.08 F,0,157934,158013,0.08,1 F,0,158013,158249,1,0 F,0,158249,158328,0,1 F,0,158328,158565,1,0 F,0,158565,158644,0,1 F,0,158644,158881,1,0 F,0,158881,158960,0,1 F,0,158960,159197,1,0 F,0,159197,159276,0,1 F,0,159276,159513,1,0 F,0,159513,159592,0,1 F,0,159592,159828,1,0 F,0,159828,159907,0,1 F,0,159907,160144,1,0 F,0,160144,160223,0,1 F,0,160223,160460,1,0 F,0,160460,160539,0,1 F,0,160539,160618,1,0 F,0,160618,160697,0,1 F,0,160697,160776,1,0 F,0,160776,160855,0,1 F,0,160855,161092,1,0 F,0,161092,161171,0,1 F,0,161171,161328,1,0 F,0,161328,161407,0,1 F,0,161407,161565,1,0 F,0,161565,161644,0,1 F,0,161644,161802,1,0 F,0,324749,325381,1,0 S,0,324749,325381,0.815999,0.879999 F,0,327276,327907,1,0 S,0,327276,327907,0.8079993,0.879999
Sprite,Background,Centre,"skulls.jpg",320,240 F,0,171907,172223,1,0 F,0,172539,172855,1,0 F,0,173171,173486,1,0 F,0,174434,174671,1,0 F,0,174671,174749,0,1 F,0,174749,174986,1,0 F,0,175144,175302,1,0 F,0,175302,175381,0,1 F,0,175381,175618,1,0 F,0,175618,175697,0,1 F,0,175697,175855,1,0 F,0,175855,175934,0,1 F,0,175934,176171,1,0 F,0,176171,176328,0,1 F,0,176328,176486,1,0 F,0,176486,176565,0,1 F,0,176565,176723,1,0 F,0,176960,177592,1,0 F,0,178223,178855,1,0 F,0,179486,180118,1,0 F,0,180749,181065,1,0 F,0,181381,181539,1,0 F,0,181539,181618,0,1 F,0,181618,181776,1,0 F,0,181776,181855,0,1 F,0,181855,181934,1,0 F,0,181934,182013,0,1 F,0,182013,182328,1,0 F,0,182644,182960,1,0 F,0,183276,183592,1,0 F,0,183907,183986,1,0 F,0,183986,184065,0,1 F,0,184065,184223,1,0 F,0,184539,184855,1,0 F,0,185171,185486,1,0 F,0,185802,186039,1,0 F,0,186039,186118,0,1 F,0,186118,186197,1,0 F,0,186197,186276,0,1 F,0,186276,186355,1,0 F,0,186355,186434,0,1 F,0,186434,186513,1,0 F,0,186513,186592,0,1 F,0,186592,186671,1,0 F,0,187065,187381,1,0 F,0,187697,188013,1,0 F,0,188328,188644,1,0 F,0,188960,189118,1,0 F,0,189118,189197,0,1 F,0,189197,189276,1,0 F,0,189592,189907,1,0 F,0,190223,190539,1,0 F,0,190855,191171,1,0 F,0,191486,191644,1,0 F,0,191644,191723,0,1 F,0,191723,191802,1,0 F,0,192749,193065,1,0 F,0,193697,194013,1,0 F,0,195276,195592,1,0 F,0,197802,198118,1,0 F,0,198118,,0 M,0,207025,,321,246 F,0,212328,212565,1,0 F,0,212328,212644,1 F,0,212644,212881,1,0 F,0,212881,212960,0,1 F,0,212960,213197,1,0 F,0,213197,213276,0,1 F,0,213276,213513,1,0 F,0,213513,213592,0,1 F,0,213592,213828,1,0 F,0,213828,213907,0,1 F,0,213907,214144,1,0 F,0,214144,214223,0,1 F,0,214223,214381,1,0 F,0,214381,214460,0,1 F,0,214460,214697,1,0 F,0,214855,215092,1,0 F,0,215092,215171,0,1 F,0,215171,215407,1,0 F,0,215407,215486,0,1 F,0,215486,215723,1,0 F,0,215723,215802,0,1 F,0,215802,216039,1,0 F,0,216039,216118,0,1 F,0,216118,216355,1,0 F,0,216355,216434,0,1 F,0,216434,216749,1,0 F,0,217381,217618,1,0 F,0,217618,217697,0,1 F,0,217697,217934,1,0 F,0,217934,218013,0,1 F,0,218013,218249,1,0 F,0,218249,218328,0,1 F,0,218328,218565,1,0 F,0,218565,218644,0,1 F,0,218644,218881,1,0 F,0,218881,218960,0,1 F,0,218960,219197,1,0 F,0,219197,219276,0,1 F,0,219276,219355,1,0 F,0,219355,219434,0,1 F,0,219434,219592,1,0 F,0,219907,220144,1,0 F,0,220144,220223,0,1 F,0,220223,220460,1,0 F,0,220460,220539,0,1 F,0,220539,220776,1,0 F,0,220776,220855,0,1 F,0,220855,221092,1,0 F,0,221092,221171,0,1 F,0,221171,221328,1,0 F,0,221328,221407,0,1 F,0,221407,221486,1,0 F,0,221486,221565,0,1 F,0,221565,221723,1,0 F,0,221723,221802,0,1 F,0,221802,221881,1,0 F,0,221881,221960,0,1 F,0,221960,222039,1,0 F,0,222039,222118,0,1 F,0,222118,,1 F,0,222118,222434,1,0 F,0,222749,223065,1,0 F,0,223381,223697,1,0 F,0,224013,224328,1,0 F,0,224644,224723,1,0 F,0,224723,224802,0,1 F,0,224802,224881,1,0 F,0,225276,225592,1,0 F,0,225907,226223,1,0 F,0,226539,226855,1,0 F,0,227802,228118,1,0 F,0,228434,228749,1,0 F,0,229065,229381,1,0 F,0,229697,230013,1,0 F,0,230328,230644,1,0 F,0,230960,231276,1,0 F,0,263171,263407,1,0 F,0,263407,263486,0,1 F,0,263486,263723,1,0 F,0,263723,263802,0,1 F,0,263802,264039,1,0 F,0,264039,264118,0,1 F,0,264118,264355,1,0 F,0,264355,264434,0,1 F,0,264434,264671,1,0 F,0,264671,264749,0,1 F,0,264749,264986,1,0 F,0,264986,265065,0,1 F,0,265065,265144,1,0 F,0,265144,265223,0,1 F,0,265223,265302,1,0 F,0,265302,265381,0,1 F,0,265381,265618,1,0 F,0,265618,265697,0,1 F,0,265697,265934,1,0 F,0,265934,266013,0,1 F,0,266013,266249,1,0 F,0,266249,266328,0,1 F,0,266328,266565,1,0 F,0,266565,266644,0,1 F,0,266644,266881,1,0 F,0,266881,266960,0,1 F,0,266960,267197,1,0 F,0,267197,267276,0,1 F,0,267276,267592,1,0 F,0,267907,268144,1,0 F,0,268144,268223,0,1 F,0,268223,268460,1,0 F,0,268460,268539,0,1 F,0,268539,268776,1,0 F,0,268776,268855,0,1 F,0,268855,269092,1,0 F,0,269092,269171,0,1 F,0,269171,269407,1,0 F,0,269407,269486,0,1 F,0,269486,269723,1,0 F,0,269723,269802,0,1 F,0,269802,270039,1,0 F,0,270039,270118,0,1 F,0,270118,270355,1,0 F,0,270355,270434,0,1 F,0,270434,270671,1,0 F,0,270671,270749,0,1 F,0,270749,270986,1,0 F,0,270986,271065,0,1 F,0,271065,271302,1,0 F,0,271302,271381,0,1 F,0,271381,271618,1,0 F,0,271618,271697,0,1 F,0,271697,271776,1,0 F,0,271776,271855,0,1 F,0,271855,271934,1,0 F,0,271934,272013,0,1 F,0,272013,272249,1,0 F,0,272249,272328,0,1 F,0,272328,272565,1,0 F,0,272565,272644,0,1 F,0,272644,272723,1,0 F,0,272723,272802,0,1 F,0,272802,272881,1,0 F,0,272881,272960,0,1 F,0,272960,273276,1,0 F,0,273592,273907,1,0 F,0,274223,274539,1,0 F,0,274855,275171,1,0 F,0,275486,275802,1,0 F,0,276118,276434,1,0 F,0,276749,277065,1,0 F,0,277381,277697,1,0 F,0,278013,278328,1,0 F,0,278644,278960,1,0 F,0,279276,279592,1,0 F,0,279907,280223,1,0 F,0,280539,280855,1,0 F,0,281171,281486,1,0 F,0,281802,282276,1,0 F,0,282434,282592,1,0 F,0,282592,282671,0,1 F,0,282671,282828,1,0 F,0,282828,282907,0,1 F,0,282907,282986,1,0 F,0,282986,283065,0,1 F,0,283065,283381,1,0 F,0,283697,284013,1,0 F,0,284328,284644,1,0 F,0,284960,285276,1,0 F,0,285592,285907,1,0 F,0,286223,286539,1,0 F,0,286855,287171,1,0 F,0,287486,287802,1,0 F,0,288118,288434,1,0 F,0,288749,289065,1,0 F,0,289381,289697,1,0 F,0,290013,290328,1,0 F,0,290644,290960,1,0 F,0,291276,291592,1,0 F,0,291907,291986,1,0 F,0,291986,292065,0,1 F,0,292065,292223,1,0 F,0,292539,292618,1,0 F,0,292618,292697,0,1 F,0,292697,292776,1,0 F,0,292776,292855,0,1 F,0,292855,292934,1,0 F,0,293092,293171,1,0 F,0,293171,293249,0,1 F,0,293249,293486,1,0 F,0,293802,294118,1,0 F,0,294434,294749,1,0 F,0,295065,295381,1,0 F,0,295697,296013,1,0 F,0,296328,296644,1,0 F,0,296960,297276,1,0 F,0,297592,297907,1,0 F,0,298223,298539,1,0 F,0,298855,299171,1,0 F,0,299486,299802,1,0 F,0,300118,300434,1,0 F,0,300749,301065,1,0 F,0,301381,301697,1,0 F,0,302013,302328,1,0 F,0,302644,302960,1,0 F,0,303276,303592,1,0 F,0,303907,304223,1,0 F,0,304539,304855,1,0 F,0,305171,305486,1,0 F,0,305802,306118,1,0 F,0,306434,306749,1,0 F,0,307065,307381,1,0 F,0,308328,308644,1,0 F,0,308960,309276,1,0 F,0,309592,309671,1,0 F,0,309671,309749,0,1 F,0,309749,309907,1,0 F,0,310223,310381,1,0 F,0,310381,310460,0,1 F,0,310460,310539,1,0 F,0,310855,311171,1,0 F,0,311486,311802,1,0 F,0,312118,312434,1,0 F,0,312749,313065,1,0 F,0,313381,313697,1,0 F,0,314013,314328,1,0 F,0,314644,314960,1,0 F,0,315276,315592,1,0 F,0,315907,316223,1,0 F,0,316539,316855,1,0 F,0,317171,317486,1,0 F,0,317802,318118,1,0 F,0,318434,318749,1,0 F,0,319065,319381,1,0 F,0,319697,320013,1,0 F,0,320328,320644,1,0 F,0,320960,321276,1,0 F,0,321592,321907,1,0 F,0,322223,322302,1,0 F,0,322302,322381,0,1 F,0,322381,322539,1,0 F,0,322855,323013,1,0 F,0,323013,323092,0,1 F,0,323092,323171,1,0 F,0,323486,323960,1,0 S,0,323486,323960,0.8240001,0.8800002 F,0,326013,326486,1,0 S,0,326013,326486,0.808,0.8800001 S,0,327907,,0.808 F,0,327907,328065,1,0 F,0,328065,328144,0,1 F,0,328144,328302,1,0 F,0,328302,328381,0,1 F,0,328381,328539,1,0 F,0,329328,330434,1,0 S,0,329328,330434,0.8239999,0.88
//Storyboard Layer 1 (Fail)
//Storyboard Layer 2 (Pass)
//Storyboard Layer 3 (Foreground)
Sprite,Foreground,Centre,"name 1.png",320,240 M,0,38013,,509,247 S,0,38013,,0.9897602 F,0,38013,38644,0,1 F,0,38644,70223,1 F,0,70223,70855,1,0 F,0,70855,141592,0,0.00316453 F,0,141592,142223,0.00316453,1 F,0,142223,171276,1,0.9938153 F,0,171276,171907,0.9938153,0 F,0,171907,262855,0,0.001574967 F,0,262855,263486,0.001574967,1 F,0,263486,292539,1,0.9969028 F,0,292539,293171,0.9969028,0
Sprite,Foreground,Centre,"name 2.png",320,240 M,0,5171,,176,419 S,0,5171,,0.8873605 F,0,5171,5802,0,1 F,0,5802,37381,1 F,0,37381,38013,1,0 F,0,38013,111276,0 F,0,111276,111907,0,1 F,0,111907,140960,1,0.9891427 F,0,140960,141592,0.9891427,0 F,0,141592,212328,0 F,0,212328,212960,0,0.989257 F,0,212960,252118,0.989257,0.9877166 F,0,252118,252749,0.9877166,0
Sprite,Foreground,Centre,"name 3.png",320,240 M,0,80328,,199,101 S,0,80328,,0.8156801 F,0,80328,80960,0,1 F,0,81592,110644,1,0.9922571 F,0,110644,111276,0.9922571,0 F,0,111276,171907,0 F,0,171907,172539,0,1 F,0,172539,,1 F,0,200999,201631,1,0 F,0,201631,293171,0 F,0,293171,,0 F,0,293171,,0 F,0,293171,,0 F,0,293171,293802,0,1 F,0,293802,329171,1,0.9984441 F,0,329171,329525,0.9984441,0
//Storyboard Sound Samples

[TimingPoints]
118,315.789473684211,4,2,0,70,1,0
5170,-100,4,2,0,50,0,0
10223,-100,4,1,0,40,0,0
21591,-66.6666666666667,4,1,0,40,0,0
22381,-100,4,1,0,40,0,0
27275,-100,4,2,0,70,0,0
27907,-100,4,1,0,50,0,0
28539,-100,4,2,0,70,0,0
29170,-100,4,1,0,40,0,0
29802,-100,4,2,0,70,0,0
30433,-100,4,1,0,40,0,0
48433,-66.6666666666667,4,1,0,40,0,0
49381,-100,4,1,0,40,0,0
50012,-133.333333333333,4,1,0,25,0,0
50644,-100,4,1,0,40,0,1
70854,-100,4,1,0,40,0,0
121381,-100,4,1,0,40,0,1
130223,-100,4,1,0,5,0,1
130539,-100,4,1,0,15,0,1
130854,-100,4,1,0,25,0,1
131170,-100,4,1,0,35,0,1
131486,-100,4,1,0,40,0,0
150433,-100,4,1,0,10,0,0
150749,-100,4,1,0,20,0,0
151065,-100,4,1,0,25,0,0
151381,-100,4,1,0,35,0,0
151696,-100,4,1,0,40,0,0
161802,-100,4,1,0,40,0,1
171907,-100,4,1,0,40,0,0
176960,-200,4,2,0,50,0,0
182012,-100,4,1,0,40,0,0
193381,-100,4,1,0,50,0,0
194644,-100,4,1,0,60,0,0
195907,-100,4,1,0,40,0,0
219907,-66.6666666666667,4,1,0,50,0,0
220065,-100,4,1,0,40,0,0
232539,-100,4,1,0,40,0,1
252749,-100,4,1,0,5,0,0
262855,-100,4,1,0,40,0,0
298223,-100,4,1,0,40,0,1
307696,-100,4,2,0,40,0,1
308328,-100,4,1,0,40,0,1
323486,-100,4,1,0,40,0,0
329249,-100,4,1,0,40,0,1
329328,-100,4,1,0,40,0,0

[Colours]
Combo1 : 0,124,249
Combo2 : 0,255,255
Combo3 : 128,128,255
SliderBorder : 198,250,250

[HitObjects]
156,128,5170,6,0,B|212:20|336:52,2,200,0|0|8,0:0|0:0|0:0,0:0:0:0:
156,328,6118,1,0,0:0:0:0:
352,296,6433,5,8,0:0:0:0:
364,288,6512,1,0,0:0:0:0:
372,276,6591,1,0,0:0:0:0:
380,264,6670,1,0,0:0:0:0:
384,248,6749,1,0,0:0:0:0:
388,148,6907,1,0,0:0:0:0:
288,148,7065,1,8,0:0:0:0:
288,48,7223,1,0,0:0:0:0:
188,52,7381,1,0,0:0:0:0:
52,200,7696,6,0,B|80:248|48:300|48:300|104:300|124:352,2,200,0|0|8,0:0|0:0|0:0,0:0:0:0:
248,156,8644,1,0,0:0:0:0:
352,324,8960,5,8,0:0:0:0:
352,324,9039,1,0,0:0:0:0:
352,324,9118,1,0,0:0:0:0:
424,256,9275,1,8,0:0:0:0:
424,256,9354,1,0,0:0:0:0:
424,256,9433,1,0,0:0:0:0:
440,156,9591,2,0,L|488:132,2,50,8|0|0,0:0|0:0|0:0,0:0:0:0:
388,72,9907,2,0,L|388:20,2,50,4|0|0,0:0|0:0|0:0,0:0:0:0:
324,152,10223,5,4,0:0:0:0:
308,132,10302,1,0,0:0:0:0:
288,116,10381,1,0,0:0:0:0:
264,104,10460,1,0,0:0:0:0:
240,96,10539,1,8,0:0:0:0:
140,92,10696,2,0,B|40:92,1,100,0|8,0:0|0:0,0:0:0:0:
40,116,10933,1,0,0:0:0:0:
40,140,11012,2,0,B|40:248,1,100
100,320,11328,1,0,0:0:0:0:
200,316,11486,5,4,0:0:0:0:
224,332,11565,1,0,0:0:0:0:
252,340,11644,1,0,0:0:0:0:
284,340,11723,1,0,0:0:0:0:
312,332,11802,1,8,0:0:0:0:
268,240,11960,1,0,0:0:0:0:
340,168,12118,1,8,0:0:0:0:
316,152,12196,1,0,0:0:0:0:
288,144,12275,1,0,0:0:0:0:
256,144,12354,1,0,0:0:0:0:
228,152,12433,1,8,0:0:0:0:
156,220,12591,1,0,0:0:0:0:
84,148,12749,6,0,B|32:104,4,50
156,76,13223,1,0,0:0:0:0:
256,68,13381,2,0,B|256:16,4,50,8|0|0|0|8,0:0|0:0|0:0|0:0|0:0,0:0:0:0:
356,76,13854,1,0,0:0:0:0:
396,168,14012,6,0,B|424:216|396:263,1,100,4|0,0:0|0:0,0:0:0:0:
296,268,14328,2,0,B|281:321|228:335,1,100,8|0,0:0|0:0,0:0:0:0:
156,268,14644,2,0,B|107:295|61:268,1,100,8|0,0:0|0:0,0:0:0:0:
80,88,14960,1,8,0:0:0:0:
112,76,15039,1,0,0:0:0:0:
144,88,15118,1,0,0:0:0:0:
172,184,15275,5,4,0:0:0:0:
172,184,15354,1,0,0:0:0:0:
172,184,15433,1,0,0:0:0:0:
204,280,15591,1,8,0:0:0:0:
304,280,15749,1,0,0:0:0:0:
336,184,15907,1,8,0:0:0:0:
336,184,15986,1,0,0:0:0:0:
336,184,16065,1,0,0:0:0:0:
336,184,16144,1,0,0:0:0:0:
336,184,16223,1,8,0:0:0:0:
256,128,16381,1,0,0:0:0:0:
348,88,16539,6,0,B|392:60,4,50,4|0|0|0|8,0:0|0:0|0:0|0:0|0:0,0:0:0:0:
256,128,17012,1,0,0:0:0:0:
164,88,17170,2,0,B|120:60,4,50,8|0|0|0|8,0:0|0:0|0:0|0:0|0:0,0:0:0:0:
256,128,17644,1,0,0:0:0:0:
256,228,17802,5,4,0:0:0:0:
256,192,17881,12,4,20012,0:0:0:0:
256,40,20328,6,0,B|244:88|244:88|256:140,1,100,8|0,0:0|0:0,0:0:0:0:
256,344,20960,2,0,B|268:296|268:296|256:244,1,100,8|0,0:0|0:0,0:0:0:0:
402,124,21591,6,0,B|448:192|404:266,1,150.000005722046,8|0,0:0|0:0,0:0:0:0:
107,266,22223,2,0,B|64:192|109:124,1,150.000005722046,8|0,0:0|0:0,0:0:0:0:
256,332,22854,6,0,B|256:220,1,100,8|0,0:0|0:0,0:0:0:0:
256,52,23486,2,0,B|256:164,1,100,8|0,0:0|0:0,0:0:0:0:
452,196,24118,5,8,0:0:0:0:
352,196,24275,1,0,0:0:0:0:
60,196,24749,1,8,0:0:0:0:
160,196,24907,1,0,0:0:0:0:
256,20,25381,5,8,0:0:0:0:
256,120,25539,1,0,0:0:0:0:
256,364,26012,1,8,0:0:0:0:
256,264,26170,1,0,0:0:0:0:
184,192,26644,6,0,B|132:172|84:192,1,100,8|0,0:0|0:0,0:0:0:0:
328,192,27275,2,0,B|380:212|428:192,1,100,2|0,0:0|0:0,0:0:0:0:
168,44,27907,5,8,0:0:0:0:
100,116,28065,1,0,0:0:0:0:
412,116,28539,1,2,0:0:0:0:
344,44,28696,1,0,0:0:0:0:
344,340,29170,5,8,0:0:0:0:
412,268,29328,1,0,0:0:0:0:
100,268,29802,1,2,0:0:0:0:
168,340,29960,1,0,0:0:0:0:
340,88,30433,6,0,B|328:140|276:164,1,100,4|0,0:0|0:0,0:0:0:0:
360,276,30749,2,0,B|308:264|284:212,1,100,8|0,0:0|0:0,0:0:0:0:
172,296,31065,2,0,B|184:244|236:220,1,100,0|0,0:0|0:0,0:0:0:0:
152,108,31381,2,0,B|204:120|227:172,1,100,8|0,0:0|0:0,0:0:0:0:
252,72,31696,5,0,0:0:0:0:
104,192,31854,1,0,0:0:0:0:
256,324,32012,1,8,0:0:0:0:
408,192,32170,1,0,0:0:0:0:
260,192,32328,1,8,0:0:0:0:
260,192,32407,1,0,0:0:0:0:
260,192,32486,1,8,0:0:0:0:
256,324,32644,1,4,0:0:0:0:
84,100,32960,6,0,P|128:72|132:28,1,100,4|0,0:0|0:0,0:0:0:0:
428,100,33275,2,0,P|384:72|380:28,1,100,8|0,0:0|0:0,0:0:0:0:
428,284,33591,2,0,P|384:312|380:356,1,100,0|0,0:0|0:0,0:0:0:0:
84,284,33907,2,0,P|128:312|132:356,1,100,8|0,0:0|0:0,0:0:0:0:
228,312,34223,5,0,0:0:0:0:
228,288,34302,1,0,0:0:0:0:
228,264,34381,1,0,0:0:0:0:
292,76,34539,1,8,0:0:0:0:
292,100,34618,1,0,0:0:0:0:
292,124,34696,1,0,0:0:0:0:
204,168,34854,1,8,0:0:0:0:
164,76,35012,1,8,0:0:0:0:
88,140,35170,1,0,0:0:0:0:
176,267,35486,6,0,B|108:340,1,100,4|0,0:0|0:0,0:0:0:0:
335,267,35802,2,0,B|404:340,1,100,8|0,0:0|0:0,0:0:0:0:
335,116,36118,2,0,B|404:44,1,100
176,116,36433,2,0,B|108:44,1,100,8|0,0:0|0:0,0:0:0:0:
64,132,36749,5,0,0:0:0:0:
64,132,36907,1,0,0:0:0:0:
64,234,37065,2,0,B|64:272|80:288,2,50,8|0|0,0:0|0:0|0:0,0:0:0:0:
176,280,37381,2,0,B|176:242|160:226,2,50,8|0|8,0:0|0:0|0:0,0:0:0:0:
160,129,37696,1,4,0:0:0:0:
340,44,38012,6,0,P|400:64|428:100,1,100,4|0,0:0|0:0,0:0:0:0:
423,293,38328,2,0,P|400:320|340:340,1,100,8|0,0:0|0:0,0:0:0:0:
172,340,38644,2,0,P|112:320|88:293,1,100,0|0,0:0|0:0,0:0:0:0:
88,90,38960,2,0,P|112:64|172:44,1,100,8|0,0:0|0:0,0:0:0:0:
272,44,39275,5,0,0:0:0:0:
244,140,39433,1,0,0:0:0:0:
244,140,39512,1,0,0:0:0:0:
244,140,39591,1,8,0:0:0:0:
272,240,39749,1,0,0:0:0:0:
272,240,39828,1,0,0:0:0:0:
272,240,39907,1,0,0:0:0:0:
244,336,40065,1,0,0:0:0:0:
244,336,40144,1,0,0:0:0:0:
244,336,40223,1,8,0:0:0:0:
384,320,40539,5,4,0:0:0:0:
384,320,40696,1,0,0:0:0:0:
384,64,40854,1,8,0:0:0:0:
384,64,41012,1,0,0:0:0:0:
128,64,41170,1,0,0:0:0:0:
128,64,41328,1,0,0:0:0:0:
128,320,41486,1,8,0:0:0:0:
128,320,41644,1,0,0:0:0:0:
172,192,41802,6,0,B|124:208|124:208|77:192,1,100
340,192,42118,2,0,B|388:208|388:208|434:192,1,100,8|0,0:0|0:0,0:0:0:0:
256,32,42433,2,0,B|256:132,1,100
256,352,42749,2,0,B|300:352,4,25
156,364,43065,5,0,0:0:0:0:
60,336,43223,1,0,0:0:0:0:
148,292,43381,1,8,0:0:0:0:
40,264,43539,1,0,0:0:0:0:
144,224,43696,1,0,0:0:0:0:
20,192,43854,1,0,0:0:0:0:
136,148,44012,2,0,P|100:104|96:44,1,100,8|0,0:0|0:0,0:0:0:0:
188,28,44328,5,0,0:0:0:0:
256,104,44486,1,0,0:0:0:0:
320,28,44644,1,8,0:0:0:0:
388,104,44802,1,0,0:0:0:0:
464,36,44960,1,8,0:0:0:0:
464,36,45039,1,0,0:0:0:0:
464,36,45118,1,8,0:0:0:0:
388,104,45275,1,8,0:0:0:0:
256,192,45591,6,0,P|304:152|312:108,1,100,8|0,0:0|0:0,0:0:0:0:
256,192,45907,2,0,P|216:144|172:136,1,100,8|0,0:0|0:0,0:0:0:0:
256,192,46223,2,0,P|208:232|200:276,1,100,8|0,0:0|0:0,0:0:0:0:
256,192,46539,2,0,P|296:240|340:248,1,100,8|0,0:0|0:0,0:0:0:0:
348,148,46854,6,0,P|376:96|360:52,1,100,8|0,0:0|0:0,0:0:0:0:
212,100,47170,2,0,P|160:72|116:88,1,100,8|0,0:0|0:0,0:0:0:0:
164,236,47486,2,0,P|136:288|152:332,1,100,8|0,0:0|0:0,0:0:0:0:
300,284,47802,2,0,P|352:312|396:296,1,100,8|0,0:0|0:0,0:0:0:0:
448,88,48118,5,0,0:0:0:0:
448,96,48433,2,0,B|448:248,1,150.000005722046,12|0,0:0|0:0,0:0:0:0:
448,246,48749,1,0,0:0:0:0:
64,296,49065,2,0,B|64:144,1,150.000005722046,12|0,0:0|0:0,0:0:0:0:
64,146,49381,1,0,0:0:0:0:
256,192,49696,1,12,0:0:0:0:
256,192,49854,1,0,0:0:0:0:
256,292,50012,6,0,L|256:380,2,75.0000028610231
97,77,50644,6,0,B|124:32|184:44,1,100,4|0,0:0|0:0,0:0:0:0:
327,44,50960,2,0,B|388:32|414:77,1,100,8|0,0:0|0:0,0:0:0:0:
448,172,51275,1,0,0:0:0:0:
440,272,51433,1,0,0:0:0:0:
356,328,51591,2,0,B|303:359|263:326,1,100,8|0,0:0|0:0,0:0:0:0:
164,328,51907,5,0,0:0:0:0:
92,260,52065,1,0,0:0:0:0:
164,192,52223,1,8,0:0:0:0:
96,120,52381,1,0,0:0:0:0:
168,48,52539,2,0,B|272:48,2,100,0|0|4,0:0|0:0|0:0,0:0:0:0:
368,48,53170,5,0,0:0:0:0:
424,132,53328,1,0,0:0:0:0:
368,216,53486,2,0,B|424:304,1,100,8|0,0:0|0:0,0:0:0:0:
324,324,53802,1,0,0:0:0:0:
272,236,53960,1,0,0:0:0:0:
225,340,54118,2,0,B|172:256,1,100,8|0,0:0|0:0,0:0:0:0:
128,356,54433,5,0,0:0:0:0:
76,272,54591,1,0,0:0:0:0:
76,172,54749,2,8,B|148:92,1,100,8|0,0:0|0:0,0:0:0:0:
244,96,55065,1,0,0:0:0:0:
244,96,55144,1,0,0:0:0:0:
244,96,55223,1,0,0:0:0:0:
142,97,55381,1,8,0:0:0:0:
344,96,55696,5,0,0:0:0:0:
420,160,55854,1,0,0:0:0:0:
456,248,56012,2,8,B|424:292|366:282,1,100,8|0,0:0|0:0,0:0:0:0:
268,284,56328,1,0,0:0:0:0:
268,184,56486,1,0,0:0:0:0:
268,84,56644,2,8,B|208:80|184:128,1,100,8|0,0:0|0:0,0:0:0:0:
88,72,56960,5,0,0:0:0:0:
88,72,57118,1,0,0:0:0:0:
88,72,57275,2,8,B|64:148|104:192,1,100,8|0,0:0|0:0,0:0:0:0:
36,256,57591,1,0,0:0:0:0:
44,304,57670,1,0,0:0:0:0:
88,328,57749,1,0,0:0:0:0:
132,240,57907,1,8,0:0:0:0:
312,328,58223,5,0,0:0:0:0:
312,228,58381,1,0,0:0:0:0:
400,276,58539,2,0,B|423:229|400:179,1,100,8|0,0:0|0:0,0:0:0:0:
312,228,58854,1,0,0:0:0:0:
200,228,59012,1,0,0:0:0:0:
124,272,59170,2,0,B|100:225|123:175,1,100,8|0,0:0|0:0,0:0:0:0:
124,72,59486,5,0,0:0:0:0:
212,120,59644,1,0,0:0:0:0:
212,120,59723,1,0,0:0:0:0:
212,120,59802,1,8,0:0:0:0:
296,68,59960,1,0,0:0:0:0:
296,68,60039,1,0,0:0:0:0:
296,68,60118,1,0,0:0:0:0:
380,120,60275,1,0,0:0:0:0:
380,120,60354,1,0,0:0:0:0:
380,120,60433,1,8,0:0:0:0:
464,300,60749,5,4,0:0:0:0:
396,224,60907,1,0,0:0:0:0:
324,292,61065,1,8,0:0:0:0:
256,220,61223,1,0,0:0:0:0:
188,296,61381,1,0,0:0:0:0:
120,224,61539,1,0,0:0:0:0:
57,293,61696,2,0,B|66:236|120:224,1,100,8|0,0:0|0:0,0:0:0:0:
88,24,62012,5,0,0:0:0:0:
24,100,62170,1,0,0:0:0:0:
120,124,62328,2,8,B|220:124,1,100,8|0,0:0|0:0,0:0:0:0:
284,48,62644,1,0,0:0:0:0:
296,60,62723,1,0,0:0:0:0:
304,72,62802,1,0,0:0:0:0:
404,60,62960,2,0,B|444:60,4,25
356,148,63275,5,0,0:0:0:0:
356,248,63433,1,0,0:0:0:0:
408,336,63591,2,0,B|360:356|309:338,1,100,8|0,0:0|0:0,0:0:0:0:
212,340,63907,1,0,0:0:0:0:
124,292,64065,1,0,0:0:0:0:
124,192,64223,2,0,B|172:172|223:190,1,100,8|0,0:0|0:0,0:0:0:0:
264,100,64539,5,0,0:0:0:0:
352,56,64696,1,0,0:0:0:0:
440,108,64854,1,8,0:0:0:0:
440,108,64933,1,0,0:0:0:0:
440,108,65012,1,0,0:0:0:0:
440,208,65170,1,0,0:0:0:0:
440,224,65249,1,0,0:0:0:0:
440,240,65328,1,0,0:0:0:0:
440,340,65486,1,8,0:0:0:0:
256,264,65802,6,0,B|200:264|200:264|160:228,1,100,4|0,0:0|0:0,0:0:0:0:
256,120,66118,2,0,B|200:120|200:120|160:156,1,100,8|0,0:0|0:0,0:0:0:0:
76,192,66433,2,0,L|24:192,4,50,0|0|0|0|8,0:0|0:0|0:0|0:0|0:0,0:0:0:0:
256,120,67065,6,0,B|312:120|312:120|344:149,1,100,4|0,0:0|0:0,0:0:0:0:
256,264,67381,2,0,B|312:264|312:264|344:234,1,100,8|0,0:0|0:0,0:0:0:0:
436,192,67696,2,0,L|488:192,4,50,0|0|0|0|8,0:0|0:0|0:0|0:0|0:0,0:0:0:0:
304,44,68328,6,0,P|248:28|204:48,1,100,4|0,0:0|0:0,0:0:0:0:
208,340,68644,2,0,P|264:356|308:336,1,100,8|0,0:0|0:0,0:0:0:0:
256,252,68960,1,0,0:0:0:0:
256,220,69039,1,0,0:0:0:0:
256,192,69118,1,0,0:0:0:0:
256,164,69196,1,0,0:0:0:0:
256,136,69275,1,8,0:0:0:0:
256,192,69591,12,4,70854,0:0:0:0:
184,248,80960,5,4,0:0:0:0:
184,232,81039,1,0,0:0:0:0:
184,216,81118,1,0,0:0:0:0:
128,132,81275,2,0,B|104:80|48:68,1,100,8|0,0:0|0:0,0:0:0:0:
184,216,81591,5,0,0:0:0:0:
292,108,81749,1,0,0:0:0:0:
128,180,81907,1,8,0:0:0:0:
256,52,82065,1,0,0:0:0:0:
328,136,82223,5,0,0:0:0:0:
328,152,82302,1,0,0:0:0:0:
328,168,82381,1,0,0:0:0:0:
384,252,82539,2,0,B|408:304|464:316,1,100,8|0,0:0|0:0,0:0:0:0:
328,168,82854,5,0,0:0:0:0:
220,276,83012,1,0,0:0:0:0:
384,204,83170,1,8,0:0:0:0:
256,332,83328,1,0,0:0:0:0:
168,104,83486,6,0,B|120:84,2,50
328,168,83802,2,0,B|272:176|236:132,1,100,8|0,0:0|0:0,0:0:0:0:
76,204,84118,1,0,0:0:0:0:
238,134,84275,1,0,0:0:0:0:
76,204,84433,1,8,0:0:0:0:
238,134,84591,1,0,0:0:0:0:
112,284,84749,6,0,B|84:328,2,50
240,136,85065,2,0,B|240:84,2,50,8|0|0,0:0|0:0|0:0,0:0:0:0:
344,288,85381,1,0,0:0:0:0:
372,276,85460,1,0,0:0:0:0:
392,256,85539,1,0,0:0:0:0:
404,228,85618,1,8,0:0:0:0:
412,200,85696,1,8,0:0:0:0:
412,172,85775,1,0,0:0:0:0:
404,144,85854,1,8,0:0:0:0:
388,120,85933,1,0,0:0:0:0:
364,104,86012,6,0,B|321:71|269:84,1,100,4|0,0:2|0:0,0:0:0:0:
120,180,86328,2,0,B|162:212|214:199,1,100,8|0,0:0|0:0,0:0:0:0:
208,12,86644,2,0,B|172:51|180:104,1,100
284,272,86960,2,0,B|319:232|311:179,1,100,8|0,0:0|0:0,0:0:0:0:
360,64,87275,6,0,B|312:39|263:61,1,100
104,244,87591,2,0,B|151:268|200:246,1,100,8|0,0:0|0:0,0:0:0:0:
165,45,87907,2,0,B|137:90|154:140,1,100
310,267,88223,2,0,B|338:222|321:171,1,100,8|0,0:0|0:0,0:0:0:0:
212,28,88539,5,0,0:0:0:0:
164,44,88618,1,0,0:0:0:0:
116,60,88696,1,0,0:0:0:0:
40,184,88854,1,8,0:0:0:0:
88,168,88933,1,0,0:0:0:0:
136,152,89012,1,0,0:0:0:0:
268,200,89170,1,0,0:0:0:0:
220,216,89249,1,0,0:0:0:0:
172,232,89328,1,0,0:0:0:0:
104,352,89486,1,8,0:0:0:0:
152,336,89565,1,0,0:0:0:0:
200,320,89644,1,0,0:0:0:0:
396,344,89802,6,0,B|448:316|432:256,1,100
396,40,90118,2,0,B|448:68|432:128,1,100,8|0,0:0|0:0,0:0:0:0:
256,276,90433,1,0,0:0:0:0:
220,278,90512,1,0,0:0:0:0:
187,269,90591,1,8,0:0:0:0:
157,249,90670,1,0,0:0:0:0:
131,227,90749,1,8,0:0:0:0:
116,194,90828,1,0,0:0:0:0:
107,163,90907,1,8,0:0:0:0:
110,128,90986,1,0,0:0:0:0:
120,96,91065,6,0,B|136:44|200:40,1,100,4|0,0:2|0:0,0:0:0:0:
336,188,91381,2,0,B|320:240|256:244,1,100,8|0,0:0|0:0,0:0:0:0:
68,184,91696,2,0,B|172:184,1,100
360,244,92012,2,0,B|260:244,1,100,8|0,0:0|0:0,0:0:0:0:
114,99,92328,6,0,B|168:184,1,100
313,328,92644,2,0,B|260:244,1,100,8|0,0:0|0:0,0:0:0:0:
192,56,92960,1,0,0:0:0:0:
220,348,93118,1,8,0:0:0:0:
192,56,93275,1,8,0:0:0:0:
220,348,93433,1,8,0:0:0:0:
96,192,93591,6,0,B|136:176|160:208|196:192,1,100,4|0,0:2|0:0,0:0:0:0:
272,272,93907,1,8,0:0:0:0:
240,112,94065,1,0,0:0:0:0:
416,192,94223,2,0,B|376:208|352:176|316:192,1,100,0|0,0:0|0:0,0:0:0:0:
188,308,94539,1,8,0:0:0:0:
324,76,94696,1,0,0:0:0:0:
212,124,94854,6,0,B|184:172|208:220,1,100,0|0,0:0|0:0,0:0:0:0:
300,260,95170,2,0,B|328:212|304:164,1,100,8|0,0:0|0:0,0:0:0:0:
212,124,95486,1,0,0:0:0:0:
380,324,95644,1,8,0:0:0:0:
280,48,95802,1,8,0:0:0:0:
429,244,95960,1,8,0:0:0:0:
168,192,96118,5,4,0:2:0:0:
152,192,96196,1,0,0:0:0:0:
136,192,96275,1,0,0:0:0:0:
120,192,96354,1,0,0:0:0:0:
104,192,96433,2,0,B|76:200|76:200|36:180|36:180|4:192,2,100,8|0|0,0:0|0:0|0:0,0:0:0:0:
256,192,96907,1,0,0:0:0:0:
104,192,97065,2,0,B|104:244|140:288,1,100,8|0,0:0|0:0,0:0:0:0:
344,192,97381,5,0,0:0:0:0:
360,192,97460,1,0,0:0:0:0:
376,192,97539,1,0,0:0:0:0:
392,192,97618,1,0,0:0:0:0:
408,192,97696,2,0,B|436:184|436:184|476:204|476:204|508:192,2,100,8|0|0,0:0|0:0|0:0,0:0:0:0:
256,192,98170,1,8,0:0:0:0:
408,192,98328,2,0,B|408:140|372:96,1,100,8|8,0:0|0:0,0:0:0:0:
176,256,98644,6,0,B|164:308|164:308|120:344,2,100,4|0|8,0:2|0:0|0:0,0:0:0:0:
176,256,99118,1,0,0:0:0:0:
336,256,99275,2,0,B|348:308|348:308|392:344,2,100,0|0|8,0:0|0:0|0:0,0:0:0:0:
336,256,99749,1,0,0:0:0:0:
257,166,99907,6,0,B|264:140|264:140|248:104|248:104|256:72,2,100,0|0|8,0:0|0:0|0:0,0:0:0:0:
256,368,100381,1,0,0:0:0:0:
152,328,100539,1,0,0:0:0:0:
360,328,100696,1,8,0:0:0:0:
112,248,100854,1,8,0:0:0:0:
400,248,101012,1,8,0:0:0:0:
368,64,101170,5,4,0:2:0:0:
368,64,101249,1,0,0:0:0:0:
368,64,101328,1,0,0:0:0:0:
368,64,101407,1,0,0:0:0:0:
368,64,101486,2,0,B|360:120|312:144,1,100,8|0,0:0|0:0,0:0:0:0:
120,192,101802,2,0,B|80:156|60:104,2,100,0|0|8,0:0|0:0|0:0,0:0:0:0:
256,340,102275,1,0,0:0:0:0:
392,192,102433,5,0,0:0:0:0:
392,192,102512,1,0,0:0:0:0:
392,192,102591,1,0,0:0:0:0:
392,192,102670,1,0,0:0:0:0:
392,192,102749,2,0,B|340:176|324:120,1,100,8|0,0:0|0:0,0:0:0:0:
124,112,103065,2,0,B|96:68|52:40,2,100,0|8|8,0:0|0:0|0:0,0:0:0:0:
256,264,103539,1,8,0:0:0:0:
108,260,103696,6,0,B|84:304,6,50,4|0|0|0|8|0|0,0:2|0:0|0:0|0:0|0:0|0:0|0:0,0:0:0:0:
256,36,104328,2,0,B|216:68|160:56,1,100
108,260,104644,2,0,B|96:204|128:164,1,100,8|0,0:0|0:0,0:0:0:0:
404,124,104960,6,0,B|428:80,6,50,0|0|0|0|8|0|0,0:2|0:0|0:0|0:0|0:0|0:0|0:0,0:0:0:0:
256,348,105591,2,0,B|296:316|352:328,1,100,0|8,0:0|0:0,0:0:0:0:
404,124,105907,2,0,B|416:180|384:220,1,100,8|0,0:0|0:0,0:0:0:0:
144,316,106223,6,0,B|104:280|104:228,2,100,4|0|8,0:2|0:0|0:0,0:0:0:0:
144,316,106696,1,0,0:0:0:0:
256,148,106854,1,0,0:0:0:0:
144,316,107012,1,0,0:0:0:0:
340,348,107170,1,8,0:0:0:0:
144,316,107328,1,0,0:0:0:0:
372,224,107486,6,0,B|408:184|400:128,2,100,0|0|8,0:0|0:0|0:0,0:0:0:0:
372,224,107960,1,0,0:0:0:0:
176,192,108118,1,0,0:0:0:0:
372,224,108275,1,8,0:0:0:0:
220,352,108433,1,8,0:0:0:0:
372,224,108591,1,8,0:0:0:0:
256,64,108749,6,0,B|204:76|180:124,1,100,4|0,0:2|0:0,0:0:0:0:
256,320,109065,2,0,B|308:308|332:260,1,100,8|0,0:0|0:0,0:0:0:0:
156,160,109381,1,0,0:0:0:0:
356,224,109539,1,0,0:0:0:0:
164,276,109696,1,8,0:0:0:0:
348,108,109854,1,0,0:0:0:0:
96,192,110012,6,0,B|120:240|176:248,1,100
416,192,110328,2,0,B|392:144|336:136,1,100,8|0,0:0|0:0,0:0:0:0:
148,300,110644,1,0,0:0:0:0:
364,84,110802,1,8,0:0:0:0:
300,336,110960,1,8,0:0:0:0:
212,48,111118,1,8,0:0:0:0:
304,240,111275,6,0,P|352:260|416:240,1,100,4|0,0:0|0:0,0:0:0:0:
208,144,111591,2,0,P|160:124|96:144,1,100,8|0,0:0|0:0,0:0:0:0:
304,144,111907,2,0,P|324:96|304:32,1,100
208,240,112223,2,0,P|188:288|208:352,1,100,8|0,0:0|0:0,0:0:0:0:
100,356,112539,5,0,0:0:0:0:
24,292,112696,1,0,0:0:0:0:
16,192,112854,1,8,0:0:0:0:
24,92,113012,1,0,0:0:0:0:
108,36,113170,2,0,B|108:88,2,50
208,36,113486,1,8,0:0:0:0:
433,135,113802,6,0,P|376:116|348:68,1,100,4|0,0:0|0:0,0:0:0:0:
433,248,114118,2,0,P|376:268|348:316,1,100,8|0,0:0|0:0,0:0:0:0:
256,272,114433,1,0,0:0:0:0:
312,192,114591,1,0,0:0:0:0:
256,108,114749,1,8,0:0:0:0:
200,192,114907,1,0,0:0:0:0:
256,272,115065,5,0,0:0:0:0:
101,45,115223,2,0,B|53:77|68:132,1,100,0|8,0:0|0:0,0:0:0:0:
101,339,115539,2,0,B|53:307|68:252,1,100,0|8,0:0|0:0,0:0:0:0:
252,56,115854,1,0,0:0:0:0:
252,80,115933,1,0,0:0:0:0:
252,104,116012,1,4,0:0:0:0:
404,244,116170,1,0,0:0:0:0:
336,192,116328,5,4,0:0:0:0:
410,336,116486,2,0,B|352:344|332:289,1,100,0|8,0:0|0:0,0:0:0:0:
256,160,116802,2,0,B|256:260,1,100
102,336,117118,2,0,B|160:344|180:289,1,100,0|8,0:0|0:0,0:0:0:0:
64,192,117433,1,0,0:0:0:0:
164,180,117591,5,0,0:0:0:0:
164,80,117749,2,0,B|272:80,1,100,0|8,0:0|0:0,0:0:0:0:
348,260,118065,2,0,B|240:260,1,100
20,180,118381,2,0,B|120:180,1,100,0|8,0:0|0:0,0:0:0:0:
152,276,118696,1,0,0:0:0:0:
212,356,118854,5,0,0:0:0:0:
308,360,119012,1,0,0:0:0:0:
404,328,119170,1,8,0:0:0:0:
448,240,119328,1,0,0:0:0:0:
436,140,119486,1,0,0:0:0:0:
356,80,119644,1,0,0:0:0:0:
256,80,119802,1,8,0:0:0:0:
176,140,119960,1,0,0:0:0:0:
256,192,120118,12,4,121223,0:0:0:0:
156,52,121381,5,0,0:0:0:0:
256,52,121539,2,0,B|312:52,2,50,0|0|8,0:0|0:0|0:0,0:0:0:0:
156,52,121854,1,0,0:0:0:0:
208,136,122012,1,0,0:0:0:0:
176,284,122170,1,0,0:0:0:0:
320,320,122328,2,0,B|368:296|372:240,1,100,8|0,0:0|0:0,0:0:0:0:
192,64,122644,6,0,B|144:88|140:144,1,100,4|0,0:0|0:0,0:0:0:0:
372,144,122960,2,0,B|368:88|320:64,1,100,8|0,0:0|0:0,0:0:0:0:
256,192,123275,1,0,0:0:0:0:
140,240,123433,2,0,B|144:296|192:320,1,100,0|8,0:0|0:0,0:0:0:0:
220,332,123670,2,0,B|262:334,2,25
256,196,123907,5,4,0:0:0:0:
256,132,124065,1,0,0:0:0:0:
336,192,124223,1,8,0:0:0:0:
256,252,124381,1,0,0:0:0:0:
180,188,124539,1,0,0:0:0:0:
256,60,124696,1,0,0:0:0:0:
408,192,124854,1,8,0:0:0:0:
256,320,125012,1,0,0:0:0:0:
108,188,125170,5,4,0:0:0:0:
300,236,125328,2,0,P|348:252|378:298,2,100,0|8|0,0:0|0:0|0:0,0:0:0:0:
212,148,125802,2,0,P|156:128|133:85,2,100,0|0|8,0:0|0:0|0:0,0:0:0:0:
236,164,126196,1,0,0:0:0:0:
340,124,126433,5,4,0:0:0:0:
432,88,126591,1,0,0:0:0:0:
340,124,126749,1,8,0:0:0:0:
460,196,126907,1,0,0:0:0:0:
340,124,127065,1,0,0:0:0:0:
404,292,127223,1,0,0:0:0:0:
340,124,127381,1,8,0:0:0:0:
300,284,127539,1,0,0:0:0:0:
340,124,127696,5,4,0:0:0:0:
228,344,127854,2,0,B|276:368|276:368|328:368,1,100,0|8,0:0|0:0,0:0:0:0:
212,120,128170,2,0,B|88:120,1,100,0|0,0:0|0:0,0:0:0:0:
300,264,128486,2,0,B|424:264,1,100,0|8,0:0|0:0,0:0:0:0:
400,264,128723,1,0,0:0:0:0:
400,264,128802,1,0,0:0:0:0:
464,188,128960,5,4,0:0:0:0:
360,80,129118,1,0,0:0:0:0:
256,188,129275,1,8,0:0:0:0:
152,80,129433,1,0,0:0:0:0:
48,188,129591,1,0,0:0:0:0:
148,300,129749,1,0,0:0:0:0:
256,188,129907,1,8,0:0:0:0:
364,300,130065,1,0,0:0:0:0:
256,192,130223,12,4,131486,0:0:0:0:
48,48,132749,5,4,0:0:0:0:
464,336,134012,1,4,0:0:0:0:
48,336,135275,1,4,0:0:0:0:
464,48,136539,5,8,0:0:0:0:
464,148,136696,1,0,0:0:0:0:
464,148,136775,1,0,0:0:0:0:
464,148,136854,1,0,0:0:0:0:
380,92,137012,1,0,0:0:0:0:
380,192,137170,2,0,B|380:296,1,100,8|0,0:0|0:0,0:0:0:0:
292,336,137486,1,0,0:0:0:0:
276,336,137565,1,0,0:0:0:0:
260,336,137644,1,0,0:0:0:0:
244,336,137723,1,0,0:0:0:0:
228,336,137802,5,8,0:0:0:0:
188,244,137960,1,0,0:0:0:0:
156,96,138118,1,0,0:0:0:0:
156,248,138275,1,0,0:0:0:0:
184,100,138433,1,8,0:0:0:0:
124,236,138591,1,0,0:0:0:0:
212,116,138749,1,0,0:0:0:0:
308,136,138907,6,0,B|358:136|390:82,1,100
204,236,139223,2,0,B|168:272|184:332,1,100,0|8,0:0|0:0,0:0:0:0:
328,328,139539,2,0,B|344:272|308:236,1,100,0|8,0:0|0:0,0:0:0:0:
123,84,139854,2,0,B|153:136|204:136,1,100,0|8,0:0|0:0,0:0:0:0:
256,52,140170,1,0,0:0:0:0:
256,192,140328,12,0,141433,0:0:0:0:
80,232,141591,5,4,0:0:0:0:
136,152,141749,1,0,0:0:0:0:
88,72,141907,1,8,0:0:0:0:
88,72,142065,1,0,0:0:0:0:
188,72,142223,1,0,0:0:0:0:
188,72,142381,1,0,0:0:0:0:
288,72,142539,1,8,0:0:0:0:
288,72,142696,1,0,0:0:0:0:
384,100,142854,6,0,B|456:180,1,100
452,276,143170,2,8,B|400:368,1,100,8|0,0:0|0:0,0:0:0:0:
316,312,143486,1,0,0:0:0:0:
316,312,143644,1,0,0:0:0:0:
316,212,143802,2,0,B|316:168,4,25
155,50,144118,5,4,0:0:0:0:
155,50,144275,2,0,B|136:112|184:140,1,100,0|8,0:0|0:0,0:0:0:0:
356,333,144591,2,0,B|376:272|328:244,1,100,0|0,0:0|0:0,0:0:0:0:
404,192,144907,1,0,0:0:0:0:
404,192,145065,1,8,0:0:0:0:
96,192,145223,1,0,0:0:0:0:
96,192,145381,5,0,0:0:0:0:
256,320,145539,1,0,0:0:0:0:
256,192,145696,1,8,0:0:0:0:
256,192,145854,1,0,0:0:0:0:
256,192,146012,1,0,0:0:0:0:
396,48,146328,1,8,0:0:0:0:
116,48,146486,1,0,0:0:0:0:
116,48,146565,1,0,0:0:0:0:
116,48,146644,5,4,0:0:0:0:
256,100,146802,1,0,0:0:0:0:
332,164,146960,2,0,B|352:212|352:212|344:268,1,100,8|0,0:0|0:0,0:0:0:0:
166,259,147275,2,0,B|160:212|160:212|179:164,1,100
200,36,147591,1,8,0:0:0:0:
312,36,147749,1,0,0:0:0:0:
256,196,147907,6,0,L|256:324,1,100
108,312,148223,2,0,P|88:248|112:200,1,100,8|0,0:0|0:0,0:0:0:0:
256,196,148539,2,0,L|256:68,1,100
404,72,148854,2,0,P|424:136|400:184,1,100,8|0,0:0|0:0,0:0:0:0:
352,264,149170,5,0,0:0:0:0:
316,100,149328,1,0,0:0:0:0:
264,204,149486,1,8,0:0:0:0:
264,204,149565,1,0,0:0:0:0:
264,204,149644,1,0,0:0:0:0:
156,192,149802,1,0,0:0:0:0:
256,92,149960,1,0,0:0:0:0:
368,192,150118,1,8,0:0:0:0:
256,292,150275,1,0,0:0:0:0:
256,192,150433,12,0,151539,0:0:0:0:
256,192,151696,6,0,L|144:236,1,100,4|0,0:0|0:0,0:0:0:0:
96,160,152012,1,8,0:0:0:0:
96,160,152170,1,0,0:0:0:0:
96,64,152328,1,0,0:0:0:0:
96,64,152486,1,0,0:0:0:0:
192,64,152644,1,8,0:0:0:0:
192,64,152802,1,0,0:0:0:0:
270,112,152960,6,0,B|216:128|223:189,1,100
264,280,153275,2,0,B|318:264|311:202,1,100,8|0,0:0|0:0,0:0:0:0:
352,112,153591,2,0,B|432:112,2,50
311,203,153907,1,8,0:0:0:0:
128,320,154223,5,0,0:0:0:0:
96,224,154381,1,0,0:0:0:0:
96,124,154539,2,8,B|112:76|161:51,1,100,8|0,0:0|0:0,0:0:0:0:
256,84,154854,1,0,0:0:0:0:
256,84,155012,1,0,0:0:0:0:
350,51,155170,2,8,B|400:76|416:124,1,100,8|0,0:0|0:0,0:0:0:0:
432,236,155486,6,0,B|432:284,2,50
432,236,155802,1,8,0:0:0:0:
80,236,156118,1,0,0:0:0:0:
80,236,156275,2,0,B|80:284,2,50,0|0|8,0:0|0:0|0:0,0:0:0:0:
80,48,156749,6,0,B|64:128|128:160,1,100
416,48,157065,2,0,B|432:128|368:160,1,100,8|0,0:0|0:0,0:0:0:0:
80,336,157381,2,0,B|64:256|128:224,1,100,0|0,0:0|0:0,0:0:0:0:
432,336,157696,2,0,B|448:255|384:223,1,100,8|0,0:0|0:0,0:0:0:0:
256,320,158012,5,0,0:0:0:0:
356,192,158170,1,0,0:0:0:0:
256,64,158328,1,8,0:0:0:0:
160,192,158486,1,0,0:0:0:0:
256,192,158644,1,0,0:0:0:0:
256,192,158723,1,0,0:0:0:0:
256,192,158802,1,0,0:0:0:0:
256,192,158960,1,8,0:0:0:0:
256,192,159275,12,4,160539,0:2:0:0:
256,192,160618,12,4,161486,0:0:0:0:
256,80,161802,5,4,0:0:0:0:
256,180,161960,1,0,0:0:0:0:
416,224,162118,2,8,B|384:288|304:288,1,100,8|0,0:0|0:0,0:0:0:0:
256,336,162433,1,0,0:0:0:0:
192,256,162591,1,0,0:0:0:0:
128,336,162749,2,8,B|64:304|48:256,1,100,8|0,0:0|0:0,0:0:0:0:
80,176,163065,5,0,0:0:0:0:
144,96,163223,1,0,0:0:0:0:
208,176,163381,2,8,B|320:176,1,100,8|0,0:0|0:0,0:0:0:0:
416,176,163696,2,0,B|416:224,2,50
416,176,164012,1,8,0:0:0:0:
304,336,164328,5,0,0:0:0:0:
240,256,164486,1,0,0:0:0:0:
316,188,164644,2,0,P|304:128|260:96,1,100,8|0,0:0|0:0,0:0:0:0:
180,84,164960,1,0,0:0:0:0:
84,116,165118,1,0,0:0:0:0:
32,200,165275,2,0,P|44:260|88:292,1,100,8|0,0:0|0:0,0:0:0:0:
160,320,165591,5,0,0:0:0:0:
160,320,165670,1,0,0:0:0:0:
160,320,165749,1,0,0:0:0:0:
160,320,165907,1,8,0:0:0:0:
256,144,166223,1,0,0:0:0:0:
352,320,166460,1,0,0:0:0:0:
352,320,166539,1,8,0:0:0:0:
400,128,166854,5,0,0:0:0:0:
336,64,167012,1,0,0:0:0:0:
272,128,167170,1,8,0:0:0:0:
208,64,167328,1,0,0:0:0:0:
144,128,167486,1,0,0:0:0:0:
208,204,167644,1,0,0:0:0:0:
144,280,167802,2,0,B|188:316|240:296,1,100,8|0,0:0|0:0,0:0:0:0:
336,288,168118,5,0,0:0:0:0:
336,288,168196,1,0,0:0:0:0:
336,288,168275,1,0,0:0:0:0:
336,288,168433,1,8,0:0:0:0:
496,192,168749,1,0,0:0:0:0:
468,340,168986,1,0,0:0:0:0:
468,340,169065,1,8,0:0:0:0:
352,60,169381,5,0,0:0:0:0:
280,128,169539,1,0,0:0:0:0:
212,56,169696,2,8,B|144:48|112:100,1,100,8|0,0:0|0:0,0:0:0:0:
60,168,170012,1,0,0:0:0:0:
56,268,170170,1,0,0:0:0:0:
136,328,170328,2,8,B|204:336|236:284,1,100,8|0,0:0|0:0,0:0:0:0:
328,300,170644,5,0,0:0:0:0:
328,300,170723,1,0,0:0:0:0:
328,300,170802,1,0,0:0:0:0:
328,300,170960,1,8,0:0:0:0:
160,188,171275,1,0,0:0:0:0:
328,80,171512,1,0,0:0:0:0:
328,80,171591,1,8,0:0:0:0:
256,268,171907,6,0,B|256:108,1,150,8|0,0:0|0:0,0:0:0:0:
496,40,172539,2,0,B|464:64|424:56|424:56|412:92|376:110,1,150,8|0,0:0|0:0,0:0:0:0:
16,40,173170,2,0,B|48:64|88:56|88:56|100:92|135:110,1,150,8|0,0:0|0:0,0:0:0:0:
356,80,174433,6,0,B|256:192,1,150,8|0,0:0|0:0,0:0:0:0:
156,304,175065,2,0,B|260:188,1,150,8|0,0:0|0:0,0:0:0:0:
156,80,175696,2,0,B|256:192,1,150,8|0,0:0|0:0,0:0:0:0:
356,304,176328,2,0,B|252:188,1,150,8|0,0:0|0:0,0:0:0:0:
56,40,176960,6,0,P|152:160|360:176,1,350,4|2,0:0|0:0,0:0:0:0:
456,40,178223,2,0,P|360:160|152:176,1,350,4|2,0:0|0:0,0:0:0:0:
96,244,179486,2,0,B|128:328|208:328|256:288|256:288|304:332|384:332|416:242,1,400,4|4,0:0|0:0,0:0:0:0:
256,192,180828,12,0,181854,0:0:0:0:
256,28,182012,5,4,0:0:0:0:
340,124,182170,1,0,0:0:0:0:
292,228,182328,2,0,B|356:304,1,100,8|0,0:0|0:0,0:0:0:0:
220,156,182644,2,0,B|156:80,1,100,0|0,0:0|0:0,0:0:0:0:
220,228,182960,2,0,B|156:304,1,100,8|0,0:0|0:0,0:0:0:0:
292,156,183275,6,0,B|356:80,1,100
256,344,183591,2,0,B|256:240,1,100,8|0,0:0|0:0,0:0:0:0:
256,40,183907,1,0,0:0:0:0:
256,92,183986,1,0,0:0:0:0:
256,144,184065,1,0,0:0:0:0:
104,192,184223,2,0,B|208:192,1,100,8|0,0:0|0:0,0:0:0:0:
408,192,184539,6,0,B|304:192,1,100
124,108,184854,2,0,B|80:136|80:196,1,100,8|0,0:0|0:0,0:0:0:0:
388,276,185170,2,0,B|432:248|432:188,1,100
88,104,185486,2,0,B|44:132|44:192,1,100,8|0,0:0|0:0,0:0:0:0:
424,280,185802,6,0,B|468:252|468:192,1,100
256,192,186118,2,0,B|256:144,2,50,8|0|0,0:0|0:0|0:0,0:0:0:0:
124,264,186433,1,0,0:0:0:0:
388,120,186591,1,8,0:0:0:0:
232,312,186749,1,8,0:0:0:0:
280,72,186907,1,8,0:0:0:0:
192,256,187065,5,0,0:0:0:0:
166,240,187144,1,0,0:0:0:0:
148,215,187223,1,8,0:0:0:0:
143,185,187302,1,0,0:0:0:0:
145,155,187381,2,0,B|161:99|217:91,1,100,8|8,0:0|0:0,0:0:0:0:
400,56,187696,1,0,0:0:0:0:
384,204,187854,1,8,0:0:0:0:
324,48,188012,1,8,0:0:0:0:
308,192,188170,1,8,0:0:0:0:
192,32,188328,5,0,0:0:0:0:
219,44,188407,1,0,0:0:0:0:
238,66,188486,1,8,0:0:0:0:
250,93,188565,1,0,0:0:0:0:
252,122,188644,2,0,B|241:177|187:192,1,100,8|8,0:0|0:0,0:0:0:0:
96,328,188960,1,0,0:0:0:0:
112,180,189118,1,8,0:0:0:0:
172,336,189276,1,8,0:0:0:0:
188,192,189434,1,8,0:0:0:0:
256,48,189591,6,0,B|204:36,2,50,0|0|8,0:0|0:0|0:0,0:0:0:0:
452,96,189907,1,8,0:0:0:0:
316,244,190065,1,8,0:0:0:0:
116,192,190223,1,0,0:0:0:0:
396,192,190381,1,8,0:0:0:0:
157,290,190539,1,8,0:0:0:0:
354,93,190696,1,8,0:0:0:0:
256,336,190854,6,0,B|308:348,2,50,0|0|8,0:0|0:0|0:0,0:0:0:0:
60,288,191170,1,8,0:0:0:0:
212,160,191328,1,8,0:0:0:0:
396,192,191486,1,0,0:0:0:0:
116,192,191644,1,8,0:0:0:0:
354,93,191802,1,8,0:0:0:0:
157,290,191960,1,8,0:0:0:0:
256,192,192118,6,0,B|256:136,8,50,0|0|0|0|0|0|0|0|8,0:0|0:0|0:0|0:0|0:0|0:0|0:0|0:0|0:0,0:0:0:0:
256,192,193381,6,0,B|256:244,8,50
256,192,194644,6,0,B|312:192,8,50,0|0|0|0|0|0|0|0|8,0:0|0:0|0:0|0:0|0:0|0:0|0:0|0:0|0:0,0:0:0:0:
184,192,195907,5,0,0:0:0:0:
52,344,196223,1,0,0:0:0:0:
52,40,196539,1,0,0:0:0:0:
84,192,196854,2,0,B|24:192,2,50,0|0|8,0:0|0:0|0:0,0:0:0:0:
256,88,197170,6,0,P|344:192|257:302,2,300,0|0|4,0:0|0:0|0:0,0:0:0:0:
256,192,198433,1,0,0:0:0:0:
456,192,198591,1,8,0:0:0:0:
256,192,198749,1,8,0:0:0:0:
56,192,198907,1,8,0:0:0:0:
256,192,199065,2,0,B|360:192,1,100
140,72,199696,6,0,B|140:132,7,50
140,172,200328,2,0,B|140:224,4,50
276,320,200960,1,0,0:0:0:0:
340,128,201275,1,0,0:0:0:0:
44,340,202223,5,0,0:0:0:0:
468,340,202539,1,0,0:0:0:0:
256,192,202854,1,4,0:0:0:0:
80,40,212328,5,4,0:0:0:0:
44,132,212486,1,0,0:0:0:0:
136,172,212644,1,8,0:0:0:0:
180,80,212802,1,0,0:0:0:0:
272,36,212960,1,0,0:0:0:0:
304,128,213118,1,0,0:0:0:0:
212,172,213275,1,8,0:0:0:0:
180,268,213433,1,0,0:0:0:0:
180,284,213512,1,0,0:0:0:0:
180,300,213591,5,4,0:0:0:0:
284,328,213749,1,0,0:0:0:0:
360,200,213907,1,8,0:0:0:0:
212,172,214065,1,0,0:0:0:0:
108,64,214223,1,0,0:0:0:0:
84,60,214302,1,0,0:0:0:0:
64,72,214381,1,0,0:0:0:0:
48,92,214460,1,0,0:0:0:0:
44,116,214539,1,8,0:0:0:0:
8,208,214696,1,0,0:0:0:0:
84,272,214854,5,4,0:0:0:0:
212,172,215012,1,0,0:0:0:0:
376,128,215170,1,8,0:0:0:0:
376,128,215249,1,0,0:0:0:0:
376,128,215328,1,0,0:0:0:0:
376,128,215407,1,0,0:0:0:0:
377,130,215486,2,0,B|418:169|406:228,1,100
134,253,215802,2,0,B|93:214|105:155,1,100,8|0,0:0|0:0,0:0:0:0:
256,192,216118,5,4,0:0:0:0:
376,128,216275,2,0,B|368:72|312:48,1,100,0|8,0:0|0:0,0:0:0:0:
136,256,216591,2,0,B|144:312|200:336,1,100
208,336,216828,1,0,0:0:0:0:
224,336,216907,1,0,0:0:0:0:
240,336,216986,1,0,0:0:0:0:
256,336,217065,1,8,0:0:0:0:
272,336,217144,1,0,0:0:0:0:
288,336,217223,1,0,0:0:0:0:
380,296,217381,6,0,B|380:220,2,50,8|0|0,0:0|0:0|0:0,0:0:0:0:
380,88,217696,2,0,B|380:164,2,50,8|0|0,0:0|0:0|0:0,0:0:0:0:
132,88,218012,2,0,B|132:164,2,50,8|0|0,0:0|0:0|0:0,0:0:0:0:
132,296,218328,2,0,B|132:220,2,50,8|0|0,0:0|0:0|0:0,0:0:0:0:
256,188,218644,5,8,0:0:0:0:
256,188,218802,1,0,0:0:0:0:
256,188,218960,1,8,0:0:0:0:
456,192,219275,1,8,0:0:0:0:
456,192,219354,1,0,0:0:0:0:
456,192,219433,1,0,0:0:0:0:
56,192,219591,1,8,0:0:0:0:
252,184,219907,6,0,P|316:212|388:188,1,150.000005722046
324,116,220223,5,8,0:0:0:0:
256,40,220381,1,0,0:0:0:0:
188,116,220539,1,0,0:0:0:0:
256,188,220696,1,0,0:0:0:0:
324,268,220854,1,8,0:0:0:0:
256,344,221012,1,0,0:0:0:0:
188,268,221170,5,4,0:0:0:0:
124,192,221328,2,0,B|200:192,2,50,0|0|8,0:0|0:0|0:0,0:0:0:0:
388,192,221644,2,0,B|312:192,2,50,0|0|8,0:0|0:0|0:0,0:0:0:0:
256,40,221960,2,0,B|256:116,2,50,0|0|8,0:0|0:0|0:0,0:0:0:0:
356,336,222433,6,0,B|416:328|428:272,1,100,4|0,0:0|0:0,0:0:0:0:
428,176,222749,1,8,0:0:0:0:
340,128,222907,1,0,0:0:0:0:
420,68,223065,1,0,0:0:0:0:
332,16,223223,2,0,B|220:16,1,100,0|8,0:0|0:0,0:0:0:0:
140,68,223539,1,0,0:0:0:0:
220,128,223696,5,4,0:0:0:0:
132,176,223854,1,0,0:0:0:0:
216,232,224012,2,0,P|204:276|216:340,1,100,8|0,0:0|0:0,0:0:0:0:
304,284,224328,1,0,0:0:0:0:
364,204,224486,1,0,0:0:0:0:
356,104,224644,2,0,B|392:104,4,25
272,52,224960,6,0,B|208:40|180:104,1,100,4|0,0:0|0:0,0:0:0:0:
272,132,225275,2,0,B|240:75|167:94,1,100,8|0,0:0|0:0,0:0:0:0:
212,180,225591,2,0,B|234:119|176:80,1,100
84,100,225907,1,8,0:0:0:0:
84,100,226065,1,0,0:0:0:0:
52,196,226223,5,4,0:0:0:0:
52,196,226302,1,0,0:0:0:0:
52,196,226381,1,0,0:0:0:0:
92,292,226539,1,8,0:0:0:0:
92,292,226696,1,0,0:0:0:0:
176,348,226854,1,0,0:0:0:0:
256,188,227012,1,0,0:0:0:0:
336,348,227170,1,8,0:0:0:0:
456,172,227486,6,0,B|456:132|456:132|452:128|452:128|456:128|456:128|460:128|460:128|456:124|456:124|456:76,1,100
272,172,227802,2,0,B|272:212|272:212|276:216|276:216|272:216|272:216|268:216|268:216|272:220|272:220|272:268,1,100,8|0,0:0|0:0,0:0:0:0:
92,172,228118,2,0,B|92:132|92:132|96:128|96:128|92:128|92:128|88:128|88:128|92:124|92:124|92:76,1,100,8|0,0:0|0:0,0:0:0:0:
192,84,228433,1,8,0:0:0:0:
344,80,228591,1,0,0:0:0:0:
272,212,228749,5,4,0:0:0:0:
192,84,228907,1,0,0:0:0:0:
344,80,229065,1,8,0:0:0:0:
420,212,229223,1,0,0:0:0:0:
348,344,229381,1,8,0:0:0:0:
348,344,229460,1,0,0:0:0:0:
348,344,229539,1,0,0:0:0:0:
248,344,229696,2,0,B|140:344,1,100,8|0,0:0|0:0,0:0:0:0:
76,272,230012,6,0,B|196:272,1,100,4|0,0:0|0:0,0:0:0:0:
108,200,230328,2,0,B|-8:200,1,100,8|0,0:0|0:0,0:0:0:0:
52,108,230644,2,0,B|68:36|148:40,1,100,8|0,0:0|0:0,0:0:0:0:
204,92,230960,1,8,0:0:0:0:
292,48,231118,1,0,0:0:0:0:
256,192,231275,12,0,232381,0:0:0:0:
256,188,232539,5,4,0:0:0:0:
304,68,232696,2,0,B|408:140,1,100,0|8,0:0|0:0,0:0:0:0:
304,316,233012,2,0,B|408:244,1,100
304,184,233328,1,0,0:0:0:0:
224,260,233486,2,0,B|306:316,1,100,8|0,0:0|0:0,0:0:0:0:
304,184,233802,5,4,0:0:0:0:
224,125,233960,2,0,B|306:68,1,100,0|8,0:0|0:0,0:0:0:0:
408,68,234275,1,0,0:0:0:0:
420,76,234354,1,0,0:0:0:0:
432,84,234433,1,0,0:0:0:0:
436,184,234591,1,0,0:0:0:0:
280,304,234749,2,0,B|280:336,4,25
172,160,235065,5,4,0:0:0:0:
208,52,235223,1,0,0:0:0:0:
324,144,235381,1,8,0:0:0:0:
228,28,235539,1,0,0:0:0:0:
296,160,235696,1,0,0:0:0:0:
144,284,235854,6,0,P|192:336|220:332,1,100,0|8,0:0|0:0,0:0:0:0:
368,284,236170,2,0,P|320:336|292:332,1,100,0|4,0:0|0:0,0:0:0:0:
368,100,236486,2,0,P|320:48|292:52,1,100,0|8,0:0|0:0,0:0:0:0:
144,100,236802,2,0,P|192:48|220:52,1,100,0|4,0:0|0:0,0:0:0:0:
256,144,237118,1,0,0:0:0:0:
356,204,237275,1,8,0:0:0:0:
156,200,237433,1,0,0:0:0:0:
184,296,237591,6,0,B|208:304|248:324|256:360|256:360|264:324|308:304|332:292,2,200,4|8|0,0:0|0:0|0:0,0:0:0:0:
156,200,238381,1,0,0:0:0:0:
256,200,238539,1,8,0:0:0:0:
356,204,238696,1,0,0:0:0:0:
308,116,238854,6,0,B|304:60|252:32,1,100,4|0,0:0|0:0,0:0:0:0:
208,116,239170,2,0,B|212:60|260:32,1,100,8|0,0:0|0:0,0:0:0:0:
257,33,239486,2,0,B|364:52,1,100
257,33,239802,2,0,B|144:56,1,100,8|0,0:0|0:0,0:0:0:0:
159,53,240118,6,0,B|176:168,1,100,4|0,0:0|0:0,0:0:0:0:
352,53,240433,2,0,B|336:168,1,100,8|0,0:0|0:0,0:0:0:0:
256,280,240749,2,0,B|352:224,1,100
256,280,241065,2,0,B|160:224,1,100,8|0,0:0|0:0,0:0:0:0:
342,229,241381,6,0,B|244:172,1,100,4|0,0:0|0:0,0:0:0:0:
169,229,241696,2,0,B|268:172,1,100,8|0,0:0|0:0,0:0:0:0:
256,80,242012,1,0,0:0:0:0:
356,80,242170,1,0,0:0:0:0:
256,80,242328,1,8,0:0:0:0:
156,84,242486,1,0,0:0:0:0:
148,284,242644,6,0,B|248:248,1,100,4|0,0:0|0:0,0:0:0:0:
242,250,242960,1,8,0:0:0:0:
156,196,243118,2,0,B|252:156,1,100
248,157,243433,1,0,0:0:0:0:
348,136,243591,1,8,0:0:0:0:
372,136,243670,1,0,0:0:0:0:
396,144,243749,1,0,0:0:0:0:
412,164,243828,1,0,0:0:0:0:
416,188,243907,5,4,0:0:0:0:
288,340,244065,2,0,B|188:304,1,100,0|8,0:0|0:0,0:0:0:0:
100,272,244381,1,0,0:0:0:0:
280,252,244539,2,0,B|184:212,1,100
92,180,244854,2,0,B|52:180,4,25
104,64,245170,5,0,0:0:0:0:
196,20,245328,1,0,0:0:0:0:
284,68,245486,1,8,0:0:0:0:
376,28,245644,1,0,0:0:0:0:
464,80,245802,2,0,B|488:128|464:176,1,100
328,308,246118,2,0,B|304:260|328:212,1,100,8|0,0:0|0:0,0:0:0:0:
220,184,246433,5,4,0:0:0:0:
160,264,246591,1,0,0:0:0:0:
108,180,246749,1,8,0:0:0:0:
164,96,246907,1,0,0:0:0:0:
240,156,247065,1,0,0:0:0:0:
240,172,247144,1,0,0:0:0:0:
240,188,247223,1,0,0:0:0:0:
240,204,247302,1,0,0:0:0:0:
240,220,247381,1,8,0:0:0:0:
240,236,247460,1,0,0:0:0:0:
240,252,247539,1,0,0:0:0:0:
108,348,247696,5,4,0:0:0:0:
56,264,247854,1,0,0:0:0:0:
108,180,248012,1,8,0:0:0:0:
160,264,248170,1,0,0:0:0:0:
108,348,248328,1,0,0:0:0:0:
208,352,248486,1,0,0:0:0:0:
208,352,248644,2,0,B|348:352,1,100,8|0,0:0|0:0,0:0:0:0:
360,268,248960,5,4,0:0:0:0:
416,352,249118,1,0,0:0:0:0:
468,268,249275,1,8,0:0:0:0:
416,184,249433,2,0,B|416:68,1,100
320,52,249749,2,0,B|212:52,1,100,0|8,0:0|0:0,0:0:0:0:
120,56,250065,1,0,0:0:0:0:
168,144,250223,5,4,0:0:0:0:
68,144,250381,1,0,0:0:0:0:
116,232,250539,2,0,B|116:336,1,100,8|0,0:0|0:0,0:0:0:0:
216,348,250854,2,0,B|236:300|236:300|236:244,1,100
296,36,251170,2,0,B|276:84|276:84|276:140,1,100,8|0,0:0|0:0,0:0:0:0:
256,192,251486,12,0,252749,0:0:0:0:
312,104,262854,6,0,B|368:92|403:132,1,100,4|0,0:0|0:0,0:0:0:0:
420,228,263170,1,8,0:0:0:0:
388,324,263328,1,0,0:0:0:0:
292,356,263486,2,0,B|232:368|199:328,1,100,0|0,0:0|0:0,0:0:0:0:
196,232,263802,1,8,0:0:0:0:
196,132,263960,1,0,0:0:0:0:
260,56,264118,6,8,B|296:20|353:34,1,100,0|0,0:0|0:0,0:0:0:0:
356,136,264433,1,8,0:0:0:0:
456,136,264591,1,0,0:0:0:0:
456,236,264749,2,0,B|420:272|362:257,1,100,0|0,0:0|0:0,0:0:0:0:
276,308,265065,2,0,B|276:344,4,25,8|0|0|0|0,0:0|0:0|0:0|0:0|0:0,0:0:0:0:
176,308,265381,5,0,0:0:0:0:
108,236,265539,1,0,0:0:0:0:
108,136,265696,2,8,B|140:80|188:64,1,100,8|0,0:0|0:0,0:0:0:0:
216,160,266012,1,0,0:0:0:0:
284,88,266170,1,0,0:0:0:0:
376,128,266328,2,8,B|344:184|296:200,1,100,8|0,0:0|0:0,0:0:0:0:
308,296,266644,5,0,0:0:0:0:
216,336,266802,1,0,0:0:0:0:
124,296,266960,2,8,B|124:188,1,100,8|0,0:0|0:0,0:0:0:0:
124,96,267275,1,0,0:0:0:0:
124,96,267433,1,0,0:0:0:0:
124,196,267591,1,8,0:0:0:0:
256,40,267907,5,0,0:0:0:0:
256,40,268065,1,0,0:0:0:0:
256,340,268223,1,8,0:0:0:0:
256,340,268381,1,0,0:0:0:0:
256,192,268539,1,0,0:0:0:0:
256,192,268696,1,0,0:0:0:0:
56,192,268854,2,0,B|168:192,1,100,8|0,0:0|0:0,0:0:0:0:
452,192,269170,6,0,B|336:192,1,100
256,40,269486,2,8,B|256:144,1,100,8|0,0:0|0:0,0:0:0:0:
256,340,269802,2,0,B|256:236,1,100
256,192,270118,1,8,0:0:0:0:
256,192,270275,1,0,0:0:0:0:
356,196,270433,6,0,B|412:272|380:328,1,100,0|0,0:0|0:0,0:0:0:0:
308,344,270749,1,8,0:0:0:0:
220,296,270907,1,0,0:0:0:0:
128,340,271065,1,0,0:0:0:0:
44,288,271223,2,0,B|24:220|40:176,1,100,0|8,0:0|0:0,0:0:0:0:
136,184,271539,1,0,0:0:0:0:
200,104,271696,5,0,0:0:0:0:
228,144,271775,1,0,0:0:0:0:
256,188,271854,1,0,0:0:0:0:
308,104,272012,1,8,0:0:0:0:
364,188,272170,1,0,0:0:0:0:
464,188,272328,1,0,0:0:0:0:
464,188,272407,1,0,0:0:0:0:
464,188,272486,1,0,0:0:0:0:
464,88,272644,1,8,0:0:0:0:
372,328,272960,6,0,B|232:328,1,100
212,248,273275,1,8,0:0:0:0:
272,168,273433,1,0,0:0:0:0:
212,88,273591,1,0,0:0:0:0:
292,40,273749,1,0,0:0:0:0:
392,40,273907,2,8,B|452:80|456:136,1,100,8|0,0:0|0:0,0:0:0:0:
460,216,274223,5,0,0:0:0:0:
360,216,274381,1,0,0:0:0:0:
260,216,274539,2,8,B|144:216,1,100,8|0,0:0|0:0,0:0:0:0:
60,212,274854,1,0,0:0:0:0:
60,212,274933,1,0,0:0:0:0:
60,212,275012,1,0,0:0:0:0:
60,312,275170,2,0,B|60:344,4,25,8|0|0|0|0,0:0|0:0|0:0|0:0|0:0,0:0:0:0:
144,260,275486,6,0,B|172:316|228:332,1,100
388,116,275802,2,0,B|360:60|304:44,1,100,8|0,0:0|0:0,0:0:0:0:
124,152,276118,1,0,0:0:0:0:
412,228,276275,1,0,0:0:0:0:
196,68,276433,1,8,0:0:0:0:
344,300,276591,1,0,0:0:0:0:
132,292,276749,6,0,B|220:220,1,100
372,88,277065,2,0,B|284:164,1,100,8|0,0:0|0:0,0:0:0:0:
256,196,277381,1,0,0:0:0:0:
256,196,277460,1,0,0:0:0:0:
256,196,277539,1,0,0:0:0:0:
424,160,277696,1,8,0:0:0:0:
424,169,278012,6,0,B|428:232|371:243,1,100
308,320,278328,1,8,0:0:0:0:
232,252,278486,1,0,0:0:0:0:
164,324,278644,2,8,B|64:324,1,100,0|0,0:0|0:0,0:0:0:0:
36,188,278960,2,0,B|136:188,1,100,8|0,0:0|0:0,0:0:0:0:
168,92,279275,5,0,0:0:0:0:
248,148,279433,1,0,0:0:0:0:
304,64,279591,1,8,0:0:0:0:
388,120,279749,2,0,B|444:131|441:194,1,100
452,292,280065,1,0,0:0:0:0:
356,320,280223,2,0,B|256:320,1,100,8|0,0:0|0:0,0:0:0:0:
192,208,280539,5,0,0:0:0:0:
132,372,280696,1,0,0:0:0:0:
68,252,280854,2,8,B|68:136,1,100,8|0,0:0|0:0,0:0:0:0:
72,52,281170,1,0,0:0:0:0:
156,104,281328,1,0,0:0:0:0:
240,52,281486,1,8,0:0:0:0:
328,104,281644,1,0,0:0:0:0:
256,192,281802,12,0,282907,0:0:0:0:
288,148,283065,5,4,0:0:0:0:
284,248,283223,1,0,0:0:0:0:
372,304,283381,1,8,0:0:0:0:
372,304,283539,1,0,0:0:0:0:
376,204,283696,1,0,0:0:0:0:
376,204,283854,1,0,0:0:0:0:
376,104,284012,2,8,B|356:56|356:56|304:56,1,100,8|0,0:0|0:0,0:0:0:0:
256,140,284328,5,0,0:0:0:0:
204,56,284486,1,0,0:0:0:0:
204,56,284644,2,8,B|156:56|156:56|136:104,1,100,8|0,0:0|0:0,0:0:0:0:
80,188,284960,1,0,0:0:0:0:
60,232,285039,1,0,0:0:0:0:
84,276,285118,1,0,0:0:0:0:
176,232,285275,2,0,B|216:232,4,25,8|0|0|0|0,0:0|0:0|0:0|0:0|0:0,0:0:0:0:
264,328,285591,6,0,B|312:356|360:324,1,100
460,324,285907,1,8,0:0:0:0:
500,232,286065,1,0,0:0:0:0:
448,148,286223,1,0,0:0:0:0:
496,60,286381,1,0,0:0:0:0:
396,60,286539,2,0,B|348:32|300:64,1,100,8|0,0:0|0:0,0:0:0:0:
200,64,286854,5,0,0:0:0:0:
132,136,287012,1,0,0:0:0:0:
56,200,287170,2,0,B|68:256|121:267,1,100,8|0,0:0|0:0,0:0:0:0:
224,292,287486,2,0,B|304:292,6,50
340,212,288118,5,0,0:0:0:0:
192,164,288275,1,0,0:0:0:0:
112,300,288433,2,0,B|160:320|212:300,1,100,8|0,0:0|0:0,0:0:0:0:
352,192,288749,2,0,B|304:172|252:192,1,100
80,240,289065,1,8,0:0:0:0:
80,240,289223,1,0,0:0:0:0:
172,64,289381,5,0,0:0:0:0:
172,64,289539,1,0,0:0:0:0:
260,244,289696,1,8,0:0:0:0:
260,244,289854,1,0,0:0:0:0:
348,64,290012,1,0,0:0:0:0:
348,64,290170,1,0,0:0:0:0:
432,244,290328,1,8,0:0:0:0:
432,244,290486,1,0,0:0:0:0:
220,156,290644,5,0,0:0:0:0:
292,228,290802,1,0,0:0:0:0:
292,156,290960,1,8,0:0:0:0:
220,228,291118,1,0,0:0:0:0:
152,100,291275,5,0,0:0:0:0:
360,284,291433,1,0,0:0:0:0:
376,92,291591,1,8,0:0:0:0:
136,292,291749,1,0,0:0:0:0:
256,184,291907,6,0,B|264:148|264:148|248:116|248:116|256:80,1,100
256,184,292223,2,0,B|292:192|292:192|324:176|324:176|360:184,1,100,8|0,0:0|0:0,0:0:0:0:
256,184,292539,2,0,B|248:220|248:220|264:252|264:252|256:288,1,100
256,184,292854,2,0,B|220:176|220:176|188:192|188:192|152:184,1,100,8|0,0:0|0:0,0:0:0:0:
352,156,293170,6,0,B|316:120|252:120,1,100,4|0,0:0|0:0,0:0:0:0:
460,152,293486,2,0,B|438:105|378:83,1,100,8|0,0:0|0:0,0:0:0:0:
256,36,293802,2,0,B|204:64|216:120,1,100
116,52,294118,2,0,B|94:106|139:142,1,100,8|0,0:0|0:0,0:0:0:0:
58,174,294433,6,0,B|77:230|134:228,1,100
93,305,294749,2,0,B|144:336|186:298,1,100,8|0,0:0|0:0,0:0:0:0:
256,200,295065,2,0,B|304:220,2,50
140,140,295381,1,8,0:0:0:0:
256,200,295539,1,0,0:0:0:0:
340,312,295696,6,0,B|384:276|372:212,1,100
268,128,296012,2,0,B|312:164|300:228,1,100,8|0,0:0|0:0,0:0:0:0:
196,312,296328,2,0,B|240:276|228:212,1,100
124,128,296644,2,0,B|168:164|156:228,1,100,8|0,0:0|0:0,0:0:0:0:
268,128,296960,6,0,B|312:104|328:52,1,100
376,184,297275,2,0,B|332:208|316:260,1,100,8|0,0:0|0:0,0:0:0:0:
196,312,297591,2,0,B|152:332,2,50
315,260,297907,1,8,0:0:0:0:
116,192,298223,5,0,0:0:0:0:
98,167,298302,1,0,0:0:0:0:
94,137,298381,1,0,0:0:0:0:
101,107,298460,1,0,0:0:0:0:
119,83,298539,2,0,B|152:42|209:54,1,100,8|0,0:0|0:0,0:0:0:0:
396,192,298854,5,0,0:0:0:0:
414,217,298933,1,0,0:0:0:0:
418,247,299012,1,0,0:0:0:0:
411,277,299091,1,0,0:0:0:0:
393,301,299170,2,0,B|360:342|303:330,1,100,8|0,0:0|0:0,0:0:0:0:
134,122,299486,5,0,0:0:0:0:
131,91,299565,1,0,0:0:0:0:
143,63,299644,1,0,0:0:0:0:
164,40,299723,1,0,0:0:0:0:
191,29,299802,2,0,B|240:10|284:48,1,100,8|0,0:0|0:0,0:0:0:0:
377,262,300118,5,0,0:0:0:0:
380,292,300196,1,0,0:0:0:0:
368,320,300275,1,0,0:0:0:0:
347,343,300354,1,0,0:0:0:0:
320,354,300433,2,0,B|271:373|227:335,1,100,8|0,0:0|0:0,0:0:0:0:
136,192,300749,5,0,0:0:0:0:
240,192,300907,1,0,0:0:0:0:
240,192,301065,2,0,B|344:192,1,100,8|0,0:0|0:0,0:0:0:0:
428,84,301381,2,0,B|376:108|332:76,1,100
192,72,301696,2,0,B|140:48|96:72,1,100,8|0,0:0|0:0,0:0:0:0:
24,192,302012,6,0,B|76:216|120:184,1,100
260,180,302328,2,0,B|312:156|356:180,1,100,8|0,0:0|0:0,0:0:0:0:
436,296,302644,2,0,B|384:320|340:288,1,100
200,284,302960,2,0,B|148:260|104:284,1,100,8|0,0:0|0:0,0:0:0:0:
212,192,303275,5,0,0:0:0:0:
212,192,303433,1,0,0:0:0:0:
256,60,303591,1,8,0:0:0:0:
256,60,303749,1,0,0:0:0:0:
296,196,303907,1,0,0:0:0:0:
296,196,304065,1,0,0:0:0:0:
256,332,304223,1,8,0:0:0:0:
256,332,304381,1,0,0:0:0:0:
112,192,304539,5,0,0:0:0:0:
256,60,304696,1,0,0:0:0:0:
408,192,304854,1,8,0:0:0:0:
256,332,305012,1,0,0:0:0:0:
320,124,305170,2,0,P|372:88|416:88,1,100
407,297,305486,2,0,P|358:291|320:260,1,100,8|0,0:0|0:0,0:0:0:0:
168,152,305802,6,0,P|92:124|52:224,1,200,0|8,0:0|0:0,0:0:0:0:
344,152,306433,2,0,P|420:124|460:224,1,200,0|8,0:0|0:0,0:0:0:0:
168,232,307065,6,0,P|92:260|52:160,1,200,0|8,0:0|0:0,0:0:0:0:
344,232,307696,2,0,P|420:260|460:160,1,200,0|8,0:0|0:0,0:0:0:0:
200,60,308328,6,0,B|96:60,1,100
296,128,308644,2,0,B|400:128,1,100,8|0,0:0|0:0,0:0:0:0:
188,216,308960,2,0,B|84:216,1,100
344,292,309275,2,0,B|448:292,1,100,8|0,0:0|0:0,0:0:0:0:
352,112,309591,6,0,B|328:160|272:172,1,100
336,288,309907,2,0,B|288:264|276:208,1,100,8|0,0:0|0:0,0:0:0:0:
160,272,310223,2,0,B|184:224|240:212,1,100
176,96,310539,2,0,B|224:120|236:176,1,100,8|0,0:0|0:0,0:0:0:0:
376,192,310854,6,0,B|376:92,1,100
136,192,311170,2,0,B|136:92,1,100,8|0,0:0|0:0,0:0:0:0:
376,192,311486,2,0,B|424:220|472:192,1,100
136,192,311802,2,0,B|88:220|40:192,1,100,8|0,0:0|0:0,0:0:0:0:
172,152,312118,5,0,0:0:0:0:
156,94,312275,1,8,0:0:0:0:
105,66,312433,1,8,0:0:0:0:
52,91,312591,1,8,0:0:0:0:
136,192,312749,5,0,0:0:0:0:
152,250,312907,1,8,0:0:0:0:
203,278,313065,1,8,0:0:0:0:
256,253,313223,1,8,0:0:0:0:
340,152,313381,5,0,0:0:0:0:
356,94,313539,1,8,0:0:0:0:
407,66,313696,1,8,0:0:0:0:
460,91,313854,1,8,0:0:0:0:
376,192,314012,5,0,0:0:0:0:
360,250,314170,1,8,0:0:0:0:
309,278,314328,1,8,0:0:0:0:
256,253,314486,1,8,0:0:0:0:
256,136,314644,6,0,B|264:100|264:100|248:68|248:68|256:32,2,100,0|0|8,0:0|0:0|0:0,0:0:0:0:
256,136,315118,1,0,0:0:0:0:
144,192,315275,1,0,0:0:0:0:
192,300,315433,1,0,0:0:0:0:
320,300,315591,1,8,0:0:0:0:
368,192,315749,1,0,0:0:0:0:
256,136,315907,6,0,B|236:76|180:76,1,100
64,76,316223,1,8,0:0:0:0:
64,76,316381,1,0,0:0:0:0:
36,192,316539,2,0,B|56:252|112:252,1,100
228,248,316854,1,8,0:0:0:0:
228,248,317012,1,0,0:0:0:0:
312,336,317170,6,0,B|364:352|412:336,1,100
476,236,317486,1,8,0:0:0:0:
476,236,317644,1,0,0:0:0:0:
400,140,317802,2,0,B|348:124|300:140,1,100,0|0,0:0|0:0,0:0:0:0:
192,192,318118,1,8,0:0:0:0:
192,192,318275,1,0,0:0:0:0:
76,56,318433,6,0,B|124:36|176:56,2,100,0|0|8,0:0|0:0|0:0,0:0:0:0:
76,56,318907,1,0,0:0:0:0:
240,128,319065,2,0,B|192:148|140:128,2,100,0|0|8,0:0|0:0|0:0,0:0:0:0:
240,128,319539,1,0,0:0:0:0:
84,220,319696,6,0,B|132:200|184:220,2,100,0|0|8,0:0|0:0|0:0,0:0:0:0:
84,220,320170,1,0,0:0:0:0:
248,292,320328,2,0,B|200:312|148:292,2,100,0|0|8,0:0|0:0|0:0,0:0:0:0:
248,292,320802,1,0,0:0:0:0:
384,336,320960,6,0,B|412:284|388:240,1,100
332,112,321275,1,8,0:0:0:0:
256,228,321433,1,0,0:0:0:0:
180,112,321591,2,0,B|132:132|124:192,1,100
156,324,321907,1,8,0:0:0:0:
256,228,322065,1,0,0:0:0:0:
389,164,322223,6,0,B|432:192,2,50
212,44,322539,1,8,0:0:0:0:
212,44,322618,1,0,0:0:0:0:
212,44,322696,1,0,0:0:0:0:
80,192,322854,2,0,B|128:200|160:248,1,100
312,348,323170,1,8,0:0:0:0:
312,348,323249,1,0,0:0:0:0:
312,348,323328,1,0,0:0:0:0:
256,192,323486,6,0,P|208:124|76:144,1,200,0|4,0:0|0:0,0:0:0:0:
256,192,324118,6,0,P|188:240|208:372,1,200,0|4,0:0|0:0,0:0:0:0:
256,192,324749,6,0,P|304:260|436:239,1,200,0|4,0:0|0:0,0:0:0:0:
256,192,325381,6,0,P|324:144|304:12,1,200,0|4,0:0|0:0,0:0:0:0:
256,324,326012,5,0,0:0:0:0:
256,324,326091,1,0,0:0:0:0:
256,324,326170,1,0,0:0:0:0:
256,324,326249,1,0,0:0:0:0:
256,324,326328,1,4,0:0:0:0:
388,104,326644,5,0,0:0:0:0:
388,104,326723,1,0,0:0:0:0:
388,104,326802,1,0,0:0:0:0:
388,104,326881,1,0,0:0:0:0:
388,104,326960,1,4,0:0:0:0:
132,104,327275,5,0,0:0:0:0:
132,104,327354,1,0,0:0:0:0:
132,104,327433,1,0,0:0:0:0:
132,104,327512,1,0,0:0:0:0:
132,104,327591,1,4,0:0:0:0:
256,324,327907,5,4,0:0:0:0:
388,104,328144,1,4,0:0:0:0:
132,104,328381,1,4,0:0:0:0:
256,192,328460,12,4,329249,0:0:0:0:
