osu file format v14

[General]
AudioFilename: audio.mp3
AudioLeadIn: 0
PreviewTime: 28246
Countdown: 0
SampleSet: Normal
StackLeniency: 0.3
Mode: 0
LetterboxInBreaks: 0
WidescreenStoryboard: 1

[Editor]
DistanceSpacing: 0.6
BeatDivisor: 8
GridSize: 16
TimelineZoom: 1

[Metadata]
Title:Taiyou to Himawari
TitleUnicode:太陽と向日葵
Artist:Flower
ArtistUnicode:Flower
Creator:z1085684963
Version:Insane
Source:
Tags:[mahua] yf_bmp tutuhaha Ellyu
BeatmapID:1018347
BeatmapSetID:476730

[Difficulty]
HPDrainRate:7
CircleSize:4
OverallDifficulty:8
ApproachRate:9
SliderMultiplier:2.6
SliderTickRate:1

[Events]
//Background and Video events
0,0,"kwan.jpg",0,0
//Break Periods
//Storyboard Layer 0 (Background)
//Storyboard Layer 1 (Fail)
//Storyboard Layer 2 (Pass)
//Storyboard Layer 3 (Foreground)
//Storyboard Sound Samples

[TimingPoints]
2532,659.340659340659,4,1,0,60,1,0
23630,-100,4,2,0,60,0,0
28905,-100,4,2,1,80,0,1
38466,-100,4,2,2,40,0,1
38630,-100,4,2,1,80,0,1
44400,-100,4,2,2,40,0,1
44564,-100,4,2,1,80,0,1
50004,-100,4,2,0,40,0,0
68466,-100,4,2,1,60,0,0
71103,-100,4,2,0,100,0,0
71268,-100,4,2,0,60,0,0
76378,-100,4,2,0,100,0,0
76542,-100,4,2,0,60,0,0
81652,-100,4,2,0,100,0,0
81817,-100,4,2,0,60,0,0
92202,-100,4,2,1,80,0,1
101762,-100,4,2,2,40,0,1
101927,-100,4,2,1,80,0,1
107696,-100,4,2,2,40,0,1
107861,-100,4,2,1,80,0,1
113301,-100,4,2,0,60,0,0
118575,674.157303370787,4,2,20,65,1,0
119923,697.674418604651,4,2,20,65,1,0
120271,857.142857142857,4,2,20,65,1,0
120699,923.076923076923,4,2,20,65,1,0
121160,937.5,4,2,20,65,1,0

[Colours]
Combo1 : 255,247,56
Combo2 : 64,99,0
Combo3 : 216,159,18
Combo4 : 137,165,28

[HitObjects]
112,112,23630,5,4,0:3:0:0:
128,128,24125,1,4,0:3:0:0:
128,128,24290,1,8,0:3:0:0:
144,144,24619,1,4,0:3:0:0:
160,160,24949,6,0,L|144:304,1,130,0|4,0:0|0:3,0:0:0:0:
176,368,25444,1,0,0:0:0:0:
16,352,25608,2,0,P|48:352|96:336,1,65,8|0,0:1|0:0,0:0:0:0:
288,256,25938,2,0,P|256:247|224:247,1,65
352,320,26268,5,4,0:3:0:0:
368,240,26433,1,0,0:0:0:0:
384,160,26597,1,4,0:3:0:0:
432,288,26762,1,0,0:0:0:0:
432,288,26845,1,0,0:0:0:0:
432,288,26927,5,4,0:3:0:0:
448,208,27092,1,0,0:0:0:0:
464,128,27256,1,0,0:0:0:0:
512,256,27422,1,0,0:0:0:0:
512,256,27504,1,0,0:0:0:0:
512,256,27586,5,0,0:0:0:0:
368,240,27751,1,0,0:0:0:0:
224,224,27916,2,8,L|144:240,1,65
112,304,28246,2,2,P|32:272|64:160,1,195,2|0,0:1|0:0,0:1:0:0:
32,80,28905,6,0,L|112:96,1,65,6|0,1:2|0:0,0:0:0:0:
224,224,29235,1,0,0:3:0:0:
336,128,29400,1,0,1:0:0:0:
336,128,29482,1,0,0:0:0:0:
336,128,29564,2,0,L|256:144,1,65,8|0,0:0|0:0,0:0:0:0:
208,64,29894,1,0,1:0:0:0:
416,112,30059,1,0,0:0:0:0:
416,112,30141,1,0,0:0:0:0:
416,112,30224,6,0,L|432:240,1,97.5
416,240,30553,2,0,P|448:224|496:240,1,65,0|0,1:0|0:0,0:0:0:0:
272,288,30883,1,8,0:0:0:0:
368,336,31048,2,0,P|416:336|448:368,1,65
429,344,31295,1,0,0:0:0:0:
429,344,31378,1,0,0:0:0:0:
192,368,31542,6,0,L|176:288,1,65,0|0,1:0|0:0,0:0:0:0:
256,112,31872,1,0,0:0:0:0:
64,224,32037,1,0,1:0:0:0:
64,224,32119,1,0,0:0:0:0:
64,224,32202,2,0,L|80:144,1,65,8|0,0:0|0:0,0:0:0:0:
176,32,32531,1,0,1:0:0:0:
16,80,32696,1,0,0:0:0:0:
16,80,32779,1,0,0:0:0:0:
16,80,32861,6,0,P|80:112|144:96,1,130,0|0,0:0|1:0,0:0:0:0:
176,32,33356,1,0,0:0:0:0:
224,224,33521,2,0,P|208:288|208:304,1,65,8|0,0:0|0:0,0:0:0:0:
431,190,33850,2,0,P|426:158|416:128,1,65,0|0,1:0|0:0,0:0:0:0:
336,320,34180,6,0,L|352:160,1,130,2|0,1:2|0:0,0:0:0:0:
384,48,34674,1,0,1:0:0:0:
496,160,34839,1,8,0:0:0:0:
496,160,35004,1,0,0:0:0:0:
240,80,35169,1,0,1:0:0:0:
272,160,35334,2,0,P|208:192|144:176,1,130
64,64,35828,6,0,L|80:144,1,65,0|0,1:0|0:0,0:0:0:0:
128,0,36158,1,8,0:0:0:0:
64,224,36323,2,0,L|80:304,1,65
64,304,36570,1,0,0:0:0:0:
96,301,36652,1,0,0:0:0:0:
127,309,36734,1,0,0:0:0:0:
153,328,36817,6,0,L|272:320,1,97.5,0|0,1:0|0:0,0:0:0:0:
272,336,37147,1,0,0:0:0:0:
400,352,37312,1,0,1:0:0:0:
352,240,37477,2,0,P|384:256|400:208,1,97.5,8|0,0:0|0:0,0:0:0:0:
336,144,37806,1,0,1:0:0:0:
160,176,37971,1,0,0:0:0:0:
224,16,38136,6,0,B|272:16|288:48|288:48|224:32|160:64,1,195
64,112,38795,2,0,L|48:192,1,65,8|0,0:0|0:0,0:0:0:0:
272,336,39125,2,0,L|284:272,1,65,0|0,1:0|0:0,0:0:0:0:
464,144,39455,2,0,L|451:80,1,65,4|0,1:2|0:0,0:0:0:0:
496,0,39784,1,0,0:0:0:0:
393,188,39949,1,0,1:0:0:0:
417,212,40032,1,0,0:0:0:0:
448,224,40115,2,0,L|435:287,1,65,8|0,0:0|0:0,0:0:0:0:
480,368,40443,1,0,1:0:0:0:
320,304,40608,1,0,0:0:0:0:
320,304,40691,1,0,0:0:0:0:
320,304,40773,6,0,L|192:288,1,97.5
208,272,41103,2,0,P|208:336|224:352,1,65,0|0,1:0|0:0,0:0:0:0:
32,256,41433,1,8,0:0:0:0:
128,160,41597,2,0,P|128:224|112:240,1,65
129,221,41845,1,0,0:0:0:0:
129,221,41927,1,0,0:0:0:0:
336,304,42092,6,0,L|320:224,1,65,0|0,1:0|0:0,0:0:0:0:
288,112,42422,1,0,0:0:0:0:
464,224,42586,1,0,1:0:0:0:
464,224,42669,1,0,0:0:0:0:
464,224,42751,2,0,L|480:144,1,65,8|0,0:0|0:0,0:0:0:0:
512,32,43081,1,0,1:0:0:0:
410,14,43246,5,0,0:0:0:0:
421,7,43328,1,0,0:0:0:0:
432,0,43411,2,0,P|352:0|304:32,1,130,0|0,0:0|1:0,0:0:0:0:
288,112,43905,1,0,0:0:0:0:
128,32,44070,2,0,P|176:32|224:48,2,97.5,8|0|0,0:0|0:0|0:0,0:0:0:0:
16,96,44729,5,0,1:0:0:0:
176,144,44977,1,0,0:0:0:0:
160,112,45059,1,0,0:0:0:0:
16,96,45224,1,0,1:0:0:0:
320,160,45389,5,8,0:0:0:0:
176,208,45637,1,0,0:0:0:0:
192,176,45719,1,0,1:0:0:0:
320,160,45884,1,0,0:0:0:0:
48,224,46048,5,0,0:0:0:0:
176,272,46296,1,0,0:0:0:0:
160,240,46378,1,0,1:0:0:0:
48,224,46543,1,0,0:0:0:0:
304,288,46707,5,8,0:0:0:0:
176,336,46955,1,0,0:0:0:0:
192,304,47037,1,0,0:0:0:0:
304,288,47202,1,0,0:0:0:0:
160,368,47367,5,0,1:0:0:0:
176,336,47531,1,0,0:0:0:0:
192,304,47696,1,0,0:0:0:0:
304,288,47861,2,0,L|256:272,1,32.5,0|0,1:0|0:0,0:0:0:0:
192,304,48026,1,8,0:0:0:0:
176,272,48190,1,0,0:0:0:0:
160,240,48355,1,0,1:0:0:0:
48,224,48520,2,0,L|96:208,1,32.5
160,240,48685,5,0,0:0:0:0:
176,208,48849,1,0,0:0:0:0:
192,176,49014,1,8,1:3:0:0:
320,160,49179,2,0,L|272:144,1,32.5
192,176,49345,1,8,0:0:0:0:
176,144,49509,1,8,0:0:0:0:
160,112,49674,1,4,0:3:0:0:
16,96,49839,2,0,L|64:80,1,32.5,8|0,0:0|0:0,0:0:0:0:
256,32,50004,5,0,0:0:0:0:
256,32,50993,2,0,P|288:64|336:64,1,65
480,48,51323,5,0,0:0:0:0:
480,48,51488,1,0,0:0:0:0:
384,0,51652,1,4,0:3:0:0:
400,112,51817,2,0,L|384:256,1,130,0|4,0:0|0:3,0:0:0:0:
224,224,52312,2,0,L|240:304,1,65
224,304,52641,5,4,0:3:0:0:
224,304,53630,1,0,0:0:0:0:
240,320,53795,1,0,0:0:0:0:
256,336,53960,6,0,L|320:336,1,65
176,384,54290,2,0,L|112:384,1,65,4|0,0:3|0:0,0:0:0:0:
32,272,54619,1,8,0:0:0:0:
160,368,54949,1,0,0:0:0:0:
16,192,55279,5,4,0:3:0:0:
16,192,56268,2,0,P|48:160|48:112,1,65
0,16,56597,5,0,0:0:0:0:
16,112,56762,1,0,0:0:0:0:
112,96,56927,1,4,0:3:0:0:
96,0,57092,2,0,B|160:16|160:16|240:0,1,130,0|4,0:0|0:3,0:0:0:0:
336,96,57586,2,0,L|288:160,1,65
304,176,57916,5,4,0:3:0:0:
304,176,58905,1,0,0:0:0:0:
288,192,59070,1,0,0:0:0:0:
272,208,59235,6,0,L|192:208,1,65
352,256,59564,2,0,L|432:256,1,65,4|0,0:3|0:0,0:0:0:0:
496,112,59894,1,0,0:0:0:0:
336,272,60224,1,0,0:0:0:0:
512,192,60553,5,4,0:3:0:0:
512,192,61542,2,0,P|480:224|480:272,1,65
432,320,61872,6,0,B|416:352|416:384|416:384|400:352|352:336,1,130,0|4,0:0|0:3,0:0:0:0:
288,304,62367,2,0,P|240:304|208:320,1,65
48,336,62696,1,4,0:3:0:0:
128,352,62861,2,0,P|80:352|48:336,1,65
208,320,63191,5,4,0:3:0:0:
208,320,64180,1,0,0:0:0:0:
224,304,64345,1,0,0:0:0:0:
240,288,64510,6,0,L|240:224,1,65
192,80,64839,2,0,L|192:145,1,65,4|0,0:3|0:0,0:0:0:0:
112,192,65169,1,0,0:0:0:0:
320,160,65499,1,0,0:0:0:0:
256,336,65828,5,10,0:0:0:0:
480,240,66323,1,8,0:0:0:0:
464,320,66488,1,8,0:0:0:0:
352,272,66817,1,8,0:0:0:0:
256,336,67312,5,8,0:0:0:0:
160,272,67477,1,8,0:0:0:0:
48,320,67641,1,8,0:0:0:0:
112,176,67807,5,8,0:0:0:0:
256,256,68136,1,8,0:0:0:0:
400,176,68466,6,0,P|384:128|400:96,1,65,8|0,0:0|0:0,0:0:0:0:
448,48,68795,1,0,0:0:0:0:
304,160,68960,5,8,0:0:0:0:
304,160,69042,1,0,0:0:0:0:
304,160,69125,2,0,P|288:112|304:80,1,65
352,32,69454,1,8,0:0:0:0:
208,144,69619,5,0,0:0:0:0:
208,144,69701,1,0,0:0:0:0:
208,144,69784,2,0,P|192:96|208:64,1,65
256,16,70113,1,8,0:0:0:0:
208,144,70279,5,0,0:0:0:0:
160,272,70444,2,0,L|176:336,1,65,8|0,0:0|0:0,0:0:0:0:
256,368,70773,2,0,P|320:336|336:256,1,130,0|2,0:0|0:0,0:0:0:0:
496,224,71433,5,0,0:0:0:0:
432,304,71597,1,4,0:3:0:0:
400,208,71762,2,0,P|400:144|416:128,1,65,4|0,0:3|0:0,0:0:0:0:
368,0,72092,2,0,P|368:64|352:80,1,65
350,68,72339,1,0,0:0:0:0:
336,80,72422,5,0,0:0:0:0:
480,128,72586,1,4,0:3:0:0:
288,160,72751,2,0,L|208:144,1,65,4|0,0:3|0:0,0:0:0:0:
16,224,73081,1,8,0:0:0:0:
160,208,73246,1,0,0:0:0:0:
96,336,73411,2,0,B|80:368|80:368|64:320,1,65
64,128,73740,6,0,B|80:48|80:48|112:112,1,130,4|0,0:3|0:0,0:0:0:0:
240,240,74235,1,4,0:3:0:0:
240,240,74400,2,0,P|320:256|368:208,2,130,4|4|0,0:3|0:3|0:0,0:0:0:0:
400,160,75224,5,4,0:3:0:0:
224,256,75389,2,0,P|208:208|208:176,1,65,4|0,0:3|0:0,0:0:0:0:
272,144,75718,1,8,0:0:0:0:
96,48,75883,1,0,0:0:0:0:
272,144,76048,2,0,P|288:96|288:64,1,65
240,16,76378,5,2,0:0:0:0:
176,144,76625,1,0,0:0:0:0:
32,160,76872,1,4,0:3:0:0:
112,208,77037,2,0,P|112:240|96:288,1,65,4|0,0:3|0:0,0:0:0:0:
336,368,77367,2,0,P|336:336|352:288,1,65,4|0,0:3|0:0,0:0:0:0:
432,288,77696,5,0,0:0:0:0:
304,224,77943,1,0,0:0:0:0:
288,80,78190,1,0,0:0:0:0:
352,16,78356,2,0,P|416:32|432:48,1,65,8|0,0:0|0:0,0:0:0:0:
416,160,78685,2,0,P|352:144|336:128,1,65
224,16,79015,5,4,0:3:0:0:
288,80,79180,2,0,L|128:96,1,130,0|4,0:0|0:3,0:0:0:0:
0,112,79674,1,4,0:3:0:0:
48,208,79839,2,0,L|208:224,1,130
0,288,80334,6,0,P|-16:336|-16:368,1,65,0|4,0:0|0:3,0:0:0:0:
256,336,80663,2,0,P|256:320|224:256,1,65,4|0,0:3|0:0,0:0:0:0:
272,112,80993,1,8,0:0:0:0:
256,192,81158,1,0,0:0:0:0:
320,256,81323,2,0,B|384:224|384:224|464:240,1,130,0|2,0:0|0:0,0:0:0:0:
464,48,81982,5,0,0:0:0:0:
512,144,82147,1,4,0:3:0:0:
400,128,82312,2,0,P|368:128|288:160,1,65,4|0,0:3|0:0,0:0:0:0:
208,64,82641,2,0,P|239:70|272:70,1,65,4|0,0:3|0:0,0:0:0:0:
256,89,82889,1,0,0:0:0:0:
248,112,82971,5,0,0:0:0:0:
336,0,83136,1,4,0:3:0:0:
272,208,83301,2,0,L|288:288,1,65,4|0,0:3|0:0,0:0:0:0:
256,352,83630,2,0,P|304:320|384:352,1,130,8|0,0:0|0:0,0:0:0:0:
464,384,84125,1,0,0:0:0:0:
512,288,84290,6,0,L|496:208,1,65,4|0,0:3|0:0,0:0:0:0:
464,112,84619,1,0,0:0:0:0:
464,112,84784,1,4,0:3:0:0:
464,112,84949,1,4,0:3:0:0:
320,96,85114,1,0,0:0:0:0:
464,112,85279,1,4,0:3:0:0:
384,160,85444,1,0,0:0:0:0:
400,48,85608,5,0,0:0:0:0:
384,160,85773,1,4,0:3:0:0:
320,96,85938,1,4,0:3:0:0:
464,112,86103,1,0,0:0:0:0:
304,80,86268,2,0,P|288:128|288:208,1,130,8|0,0:0|0:0,0:0:0:0:
287,206,86762,1,0,0:0:0:0:
256,288,86927,5,2,0:0:0:0:
432,320,87422,1,4,0:3:0:0:
336,336,87586,1,4,0:3:0:0:
480,240,87916,1,4,0:3:0:0:
256,288,88411,5,4,0:3:0:0:
176,336,88575,1,4,0:3:0:0:
80,320,88739,1,0,0:0:0:0:
32,240,88905,1,8,0:0:0:0:
64,320,89070,1,0,0:0:0:0:
144,352,89235,2,0,B|160:320|160:320|144:256,1,97.5
112,176,89564,6,0,P|128:128|112:96,1,65,4|0,0:3|0:0,0:0:0:0:
64,48,89893,1,4,0:3:0:0:
208,160,90058,1,0,0:0:0:0:
208,160,90140,1,0,0:0:0:0:
208,160,90224,6,0,P|224:112|208:80,1,65,4|0,0:3|0:0,0:0:0:0:
160,32,90552,1,4,0:3:0:0:
304,144,90717,1,0,0:0:0:0:
304,144,90801,1,0,0:0:0:0:
304,144,90883,6,0,P|320:96|304:64,1,65
256,16,91213,1,0,0:0:0:0:
304,144,91377,1,0,0:0:0:0:
352,272,91542,2,2,L|336:336,1,65,10|2,0:1|0:1,0:1:0:0:
256,368,91871,2,2,P|208:336|144:352,1,97.5,0|2,0:0|0:0,0:1:0:0:
32,304,92202,6,0,L|112:288,1,65,4|0,1:2|0:0,0:0:0:0:
224,160,92532,1,0,0:0:0:0:
336,256,92697,1,0,1:0:0:0:
336,256,92779,1,0,0:0:0:0:
336,256,92861,2,0,L|256:240,1,65,8|0,0:0|0:0,0:0:0:0:
208,320,93191,1,0,1:0:0:0:
416,272,93356,1,0,0:0:0:0:
416,272,93438,1,0,0:0:0:0:
416,272,93521,6,0,L|432:144,1,97.5
416,144,93850,2,0,P|464:144|496:176,1,65,0|0,1:0|0:0,0:0:0:0:
272,96,94180,1,8,0:0:0:0:
368,48,94345,2,0,P|416:48|448:16,1,65
436,32,94592,1,0,0:0:0:0:
439,23,94674,1,0,0:0:0:0:
192,16,94839,6,0,L|176:96,1,65,0|0,1:0|0:0,0:0:0:0:
256,272,95169,1,0,0:0:0:0:
64,160,95334,1,0,1:0:0:0:
64,160,95416,1,0,0:0:0:0:
64,160,95499,2,0,L|80:240,1,65
176,352,95828,1,0,1:0:0:0:
7,333,95993,5,0,0:0:0:0:
11,318,96076,1,0,0:0:0:0:
15,303,96159,2,0,P|72:272|135:282,1,130,0|0,0:0|1:0,0:0:0:0:
176,352,96653,1,0,0:0:0:0:
208,97,96818,2,0,P|213:129|224:160,1,65,8|0,0:0|0:0,0:0:0:0:
416,256,97147,2,0,P|432:192|432:176,1,65,0|0,1:0|0:0,0:0:0:0:
336,64,97477,6,0,L|352:224,1,130,0|0,1:0|0:0,0:0:0:0:
384,336,97971,1,0,1:0:0:0:
496,224,98136,1,8,0:0:0:0:
496,224,98301,1,0,0:0:0:0:
240,304,98466,1,0,1:0:0:0:
272,224,98631,6,0,P|208:192|144:208,1,130
64,320,99125,2,0,L|80:240,1,65,0|0,1:0|0:0,0:0:0:0:
128,384,99455,1,8,0:0:0:0:
64,160,99620,2,0,L|80:80,1,65
64,80,99867,1,0,0:0:0:0:
96,83,99949,1,0,0:0:0:0:
127,75,100031,1,0,0:0:0:0:
153,56,100114,6,0,L|272:64,1,97.5,0|0,1:0|0:0,0:0:0:0:
272,48,100444,1,0,0:0:0:0:
400,32,100609,1,0,0:0:0:0:
352,144,100774,2,0,P|384:128|400:176,1,97.5,8|0,0:0|0:0,0:0:0:0:
336,240,101103,1,0,1:0:0:0:
160,208,101268,1,0,0:0:0:0:
224,368,101433,6,0,B|272:368|288:336|288:336|240:320|160:352,1,195
64,272,102092,2,0,L|48:192,1,65,8|0,0:0|0:0,0:0:0:0:
272,48,102422,2,0,L|284:112,1,65,0|0,1:0|0:0,0:0:0:0:
464,240,102751,6,0,L|451:304,1,65,0|0,1:0|0:0,0:0:0:0:
496,384,103081,1,0,0:0:0:0:
498,166,103246,1,0,1:0:0:0:
474,160,103328,1,0,0:0:0:0:
448,160,103411,2,0,L|435:97,1,65,8|0,0:0|0:0,0:0:0:0:
480,16,103740,1,0,1:0:0:0:
324,104,103905,1,0,0:0:0:0:
322,92,103987,1,0,0:0:0:0:
320,80,104070,6,0,L|223:92,1,97.5
208,112,104400,2,0,P|208:48|224:32,1,65,0|0,1:0|0:0,0:0:0:0:
32,128,104730,1,8,0:0:0:0:
128,224,104894,2,0,P|128:160|112:144,1,65
129,163,105142,1,0,0:0:0:0:
129,163,105224,1,0,0:0:0:0:
336,80,105389,6,0,L|320:160,1,65,0|0,1:0|0:0,0:0:0:0:
288,272,105719,1,0,0:0:0:0:
464,160,105883,1,0,1:0:0:0:
464,160,105966,1,0,0:0:0:0:
464,160,106048,2,0,L|480:240,1,65,8|0,0:0|0:0,0:0:0:0:
512,352,106378,1,0,1:0:0:0:
432,384,106543,1,0,0:0:0:0:
432,384,106625,1,0,0:0:0:0:
432,384,106708,6,0,P|368:384|304:352,1,130,0|0,0:0|1:0,0:0:0:0:
288,272,107202,1,0,0:0:0:0:
368,208,107367,2,0,P|368:256|384:304,2,97.5,8|0|0,0:0|0:0|0:0,0:0:0:0:
416,96,108026,5,0,1:0:0:0:
256,144,108274,1,0,0:0:0:0:
272,112,108356,1,0,0:0:0:0:
416,96,108521,1,0,1:0:0:0:
96,160,108686,5,8,0:0:0:0:
256,208,108934,1,0,0:0:0:0:
240,176,109016,1,0,1:0:0:0:
96,160,109181,1,0,0:0:0:0:
416,224,109345,5,0,0:0:0:0:
256,272,109593,1,0,0:0:0:0:
272,240,109675,1,0,1:0:0:0:
416,224,109840,1,0,0:0:0:0:
96,288,110004,5,8,0:0:0:0:
256,336,110252,1,0,0:0:0:0:
240,304,110334,1,0,0:0:0:0:
96,288,110499,1,0,0:0:0:0:
272,368,110664,5,0,1:0:0:0:
256,336,110828,1,0,0:0:0:0:
240,304,110993,1,0,0:0:0:0:
96,288,111158,2,0,L|144:272,1,32.5,0|0,1:0|0:0,0:0:0:0:
240,304,111323,1,8,0:0:0:0:
256,272,111487,1,0,0:0:0:0:
272,240,111652,1,0,1:0:0:0:
416,224,111817,2,0,L|368:208,1,32.5
272,240,111982,5,0,0:0:0:0:
256,208,112146,1,0,0:0:0:0:
240,176,112311,1,8,0:3:0:0:
96,160,112476,2,0,L|144:144,1,32.5
240,176,112642,1,8,0:0:0:0:
256,144,112806,1,8,0:0:0:0:
272,112,112971,1,4,3:0:0:0:
416,96,113136,2,0,L|368:80,1,32.5,8|0,0:0|0:0,0:0:0:0:
240,32,113301,1,0,0:0:0:0:
