osu file format v14

[General]
AudioFilename: audio.mp3
AudioLeadIn: 0
PreviewTime: 69514
Countdown: 0
SampleSet: Soft
StackLeniency: 0.3
Mode: 0
LetterboxInBreaks: 1
WidescreenStoryboard: 1

[Editor]
DistanceSpacing: 1.2
BeatDivisor: 4
GridSize: 4
TimelineZoom: 0.8

[Metadata]
Title:Kurenai no Dress
TitleUnicode:紅のドレス
Artist:Flower
ArtistUnicode:Flower
Creator:Narcissu
Version:Red
Source:
Tags:japanese J-Pop Sony Music Associated Records 小竹正人 Hiroki Sagawa
BeatmapID:2702338
BeatmapSetID:1303060

[Difficulty]
HPDrainRate:6
CircleSize:4
OverallDifficulty:8
ApproachRate:9
SliderMultiplier:2
SliderTickRate:1

[Events]
//Background and Video events
0,0,"BG.jpg",0,0
//Break Periods
//Storyboard Layer 0 (Background)
Sprite,Background,Centre,"BG.jpg",320,240 F,0,-2000,69502,1 S,0,-2000,70599,0.5 F,2,69502,70599,1,0.3
Sprite,Background,Centre,"BG.jpg",320,240 F,0,94014,105721,0,1 S,0,94014,152551,0.5 F,0,105721,151453,1 F,2,151453,152551,1,0.3
Sprite,Background,Centre,"BG.jpg",320,240 F,0,198282,199380,0,0.4 S,0,198282,200843,0.5 F,0,199380,200843,0.4,0
Sprite,Background,Centre,"BG.jpg",320,240 F,0,252063,257916,0,1 S,0,252063,263770,0.5 F,0,257916,263770,1,0
Sprite,Background,Centre,"BG2.jpg",320,240 S,0,70599,,0.5 F,0,70599,94014,1 F,0,94014,105721,1,0
Sprite,Background,Centre,"BG2.jpg",320,240 F,0,152551,197916,1 S,0,152551,199380,0.5 F,0,197916,199380,1,0
Sprite,Background,Centre,"BG2.jpg",320,240 F,2,227185,228648,0,0.3 S,0,227185,228648,0.5
Sprite,Background,Centre,"BG2.jpg",320,240 F,0,228648,252063,1 S,0,228648,257916,0.5 F,0,252063,257916,1,0
Sprite,Background,Centre,"BG3.jpg",320,240 F,2,201209,202307,0,0.8 F,0,202307,225721,0.8 F,0,225721,227185,0.8,0 S,0,225721,227185,0.5
Sprite,Background,Centre,"SB\g.png",374,114 C,0,70599,227916,212,160,212 F,2,201209,202307,0,1 F,0,202307,225721,1 F,0,225721,227916,1,0 S,0,225721,227916,0.04
Sprite,Background,Centre,"SB\g.png",296,404 C,0,70599,227916,160,212,212 F,2,201209,202307,0,1 F,0,202307,225721,1 F,0,225721,227916,1,0 S,0,225721,227916,0.3
Sprite,Background,Centre,"SB\white.png",320,240 F,2,70599,72063,0.16,0 C,0,70599,72063,228,128,228 F,2,152551,154014,0.16,0 F,2,228648,230112,0.16,0
Sprite,Background,Centre,"sb\hb.png",320,240 R,0,47185,,0.1866696 V,0,47185,,45,2 F,0,47185,47916,0,0.08 M,0,47185,95477,320,275,320,15 P,0,47185,95477,A F,2,69868,70599,0.08,0.4 F,2,70599,71331,0.5,0.1 F,0,71331,94014,0.1 F,0,94014,95477,0.1,0
Sprite,Background,Centre,"sb\hb.png",320,240 R,0,47185,,1.466696 V,0,47185,,45,2 F,0,47185,47916,0,0.08 M,0,47185,95477,525,60,305,60 P,0,47185,95477,A F,2,69868,70599,0.08,0.4 F,2,70599,71331,0.5,0.1 F,0,71331,94014,0.1 F,0,94014,95477,0.1,0
Sprite,Background,Centre,"sb\hb.png",320,240 R,0,129136,,-0.1866696 V,0,129136,,45,2 F,0,129136,129868,0,0.08 M,0,129136,177429,320,315,320,55 P,0,129136,177429,A F,2,151819,152551,0.08,0.4 F,2,152551,153282,0.5,0.1 F,0,153282,175965,0.1 F,0,175965,177429,0.1,0
Sprite,Background,Centre,"sb\hb.png",320,240 R,0,129136,,-1.466696 V,0,129136,,45,2 F,0,129136,129868,0,0.08 M,0,129136,177429,330,60,550,60 P,0,129136,177429,A F,2,151819,152551,0.08,0.4 F,2,152551,153282,0.5,0.1 F,0,153282,175965,0.1 F,0,175965,177429,0.1,0
Sprite,Background,Centre,"sb\hb.png",320,240 R,0,227916,,0.1866696 V,0,227916,,45,2 F,2,227916,228648,0,0.2 M,0,227916,253526,320,150,320,100 P,0,227916,253526,A F,2,228648,229380,0.4,0.1 F,0,229380,252063,0.1 F,0,252063,253526,0.1,0
Sprite,Background,Centre,"sb\hb.png",320,240 R,0,227916,,0.1866696 V,0,227916,,45,2 F,2,227916,228648,0,0.2 M,0,227916,253526,320,148,320,260 P,0,227916,253526,A F,2,228648,229380,0.4,0.1 F,0,229380,252063,0.1 F,0,252063,253526,0.1,0
Sprite,Background,Centre,"sb\hb.png",320,240 R,0,227916,,0.1866696 V,0,227916,,45,2 F,2,227916,228648,0,0.2 M,0,227916,253526,320,140,320,460 P,0,227916,253526,A F,2,228648,229380,0.4,0.1 F,0,229380,252063,0.1 F,0,252063,253526,0.1,0
Sprite,Background,Centre,"sb\rs.png",92,387 M,1,70916,71648,92,387,-8,403 F,0,70916,71648,0.8,0 S,0,70916,71648,0.33 R,0,70916,71648,-0.07 C,0,70916,71648,53,22,98
Sprite,Background,Centre,"sb\rs.png",87,392 M,1,70833,71565,87,392,-13,420 F,0,70833,71565,0.8,0 S,0,70833,71565,0.32 R,0,70833,71565,-0.07 C,0,70833,71565,57,23,96
Sprite,Background,Centre,"sb\rs.png",175,320 M,1,70933,71665,175,320,75,347 F,0,70933,71665,0.8,0 S,0,70933,71665,0.49 R,0,70933,71665,-0.14 C,0,70933,71665,50,21,95
Sprite,Background,Centre,"sb\rs.png",134,288 M,1,71139,71871,134,288,34,322 F,0,71139,71871,0.8,0 S,0,71139,71871,0.31 R,0,71139,71871,-0.11 C,0,71139,71871,50,26,94
Sprite,Background,Centre,"sb\rs.png",158,373 M,1,71149,71881,158,373,58,384 F,0,71149,71881,0.8,0 S,0,71149,71881,0.32 R,0,71149,71881,-0.13 C,0,71149,71881,55,23,91
Sprite,Background,Centre,"sb\rs.png",41,383 M,1,71184,71916,41,383,-59,409 F,0,71184,71916,0.8,0 S,0,71184,71916,0.43 R,0,71184,71916,-0.03 C,0,71184,71916,51,23,93
Sprite,Background,Centre,"sb\rs.png",117,363 M,1,71286,72018,117,363,17,377 F,0,71286,72018,0.8,0 S,0,71286,72018,0.34 R,0,71286,72018,-0.09 C,0,71286,72018,60,26,95
Sprite,Background,Centre,"sb\rs.png",182,315 M,1,71551,72283,182,315,82,344 F,0,71551,72283,0.8,0 S,0,71551,72283,0.48 R,0,71551,72283,-0.15 C,0,71551,72283,50,25,95
Sprite,Background,Centre,"sb\rs.png",181,337 M,1,71491,72223,181,337,81,351 F,0,71491,72223,0.8,0 S,0,71491,72223,0.45 R,0,71491,72223,-0.15 C,0,71491,72223,50,24,92
Sprite,Background,Centre,"sb\rs.png",240,401 M,1,71547,72279,240,401,140,398 F,0,71547,72279,0.8,0 S,0,71547,72279,0.44 R,0,71547,72279,-0.19 C,0,71547,72279,54,26,87
Sprite,Background,Centre,"sb\rs.png",68,398 M,1,71627,72359,68,398,-32,415 F,0,71627,72359,0.8,0 S,0,71627,72359,0.3 R,0,71627,72359,-0.05 C,0,71627,72359,57,24,95
Sprite,Background,Centre,"sb\rs.png",101,297 M,1,71788,72520,101,297,1,328 F,0,71788,72520,0.8,0 S,0,71788,72520,0.45 R,0,71788,72520,-0.08 C,0,71788,72520,52,22,93
Sprite,Background,Centre,"sb\rs.png",310,392 M,1,71757,72489,310,392,210,391 F,0,71757,72489,0.8,0 S,0,71757,72489,0.35 R,0,71757,72489,-0.25 C,0,71757,72489,49,24,96
Sprite,Background,Centre,"sb\rs.png",67,402 M,1,71983,72715,67,402,-33,391 F,0,71983,72715,0.8,0 S,0,71983,72715,0.47 R,0,71983,72715,-0.05 C,0,71983,72715,55,25,91
Sprite,Background,Centre,"sb\rs.png",95,352 M,1,72035,72767,95,352,-5,370 F,0,72035,72767,0.8,0 S,0,72035,72767,0.47 R,0,72035,72767,-0.08 C,0,72035,72767,53,26,92
Sprite,Background,Centre,"sb\rs.png",46,333 M,1,72027,72759,46,333,-54,353 F,0,72027,72759,0.8,0 S,0,72027,72759,0.31 R,0,72027,72759,-0.04 C,0,72027,72759,56,26,97
Sprite,Background,Centre,"sb\rs.png",192,371 M,1,72293,73025,192,371,92,383 F,0,72293,73025,0.8,0 S,0,72293,73025,0.37 R,0,72293,73025,-0.15 C,0,72293,73025,50,24,90
Sprite,Background,Centre,"sb\rs.png",107,402 M,1,72185,72917,107,402,7,398 F,0,72185,72917,0.8,0 S,0,72185,72917,0.41 R,0,72185,72917,-0.09 C,0,72185,72917,59,21,97
Sprite,Background,Centre,"sb\rs.png",106,422 M,1,72526,73258,106,422,6,438 F,0,72526,73258,0.8,0 S,0,72526,73258,0.46 R,0,72526,73258,-0.09 C,0,72526,73258,59,22,88
Sprite,Background,Centre,"sb\rs.png",351,383 M,1,72380,73112,351,383,251,412 F,0,72380,73112,0.8,0 S,0,72380,73112,0.5 R,0,72380,73112,-0.28 C,0,72380,73112,58,25,95
Sprite,Background,Centre,"sb\rs.png",333,260 M,1,72482,73214,333,260,233,309 F,0,72482,73214,0.8,0 S,0,72482,73214,0.4 R,0,72482,73214,-0.27 C,0,72482,73214,54,27,88
Sprite,Background,Centre,"sb\rs.png",105,390 M,1,72682,73414,105,390,5,393 F,0,72682,73414,0.8,0 S,0,72682,73414,0.43 R,0,72682,73414,-0.08 C,0,72682,73414,58,27,89
Sprite,Background,Centre,"sb\rs.png",189,339 M,1,72748,73480,189,339,89,354 F,0,72748,73480,0.8,0 S,0,72748,73480,0.42 R,0,72748,73480,-0.15 C,0,72748,73480,51,25,86
Sprite,Background,Centre,"sb\rs.png",173,301 M,1,72893,73625,173,301,73,331 F,0,72893,73625,0.8,0 S,0,72893,73625,0.37 R,0,72893,73625,-0.14 C,0,72893,73625,57,22,89
Sprite,Background,Centre,"sb\rs.png",63,428 M,1,72840,73572,63,428,-37,402 F,0,72840,73572,0.8,0 S,0,72840,73572,0.46 R,0,72840,73572,-0.05 C,0,72840,73572,49,22,96
Sprite,Background,Centre,"sb\rs.png",328,280 M,1,73036,73768,328,280,228,311 F,0,73036,73768,0.8,0 S,0,73036,73768,0.46 R,0,73036,73768,-0.26 C,0,73036,73768,57,25,90
Sprite,Background,Centre,"sb\rs.png",273,263 M,1,73187,73919,273,263,173,303 F,0,73187,73919,0.8,0 S,0,73187,73919,0.44 R,0,73187,73919,-0.22 C,0,73187,73919,53,24,94
Sprite,Background,Centre,"sb\rs.png",207,401 M,1,73244,73976,207,401,107,426 F,0,73244,73976,0.8,0 S,0,73244,73976,0.41 R,0,73244,73976,-0.17 C,0,73244,73976,52,21,87
Sprite,Background,Centre,"sb\rs.png",251,256 M,1,73220,73952,251,256,151,292 F,0,73220,73952,0.8,0 S,0,73220,73952,0.48 R,0,73220,73952,-0.2 C,0,73220,73952,58,23,87
Sprite,Background,Centre,"sb\rs.png",202,272 M,1,73344,74076,202,272,102,313 F,0,73344,74076,0.8,0 S,0,73344,74076,0.35 R,0,73344,74076,-0.16 C,0,73344,74076,60,22,90
Sprite,Background,Centre,"sb\rs.png",126,301 M,1,73359,74091,126,301,26,331 F,0,73359,74091,0.8,0 S,0,73359,74091,0.33 R,0,73359,74091,-0.1 C,0,73359,74091,54,27,98
Sprite,Background,Centre,"sb\rs.png",311,321 M,1,73648,74380,311,321,211,350 F,0,73648,74380,0.8,0 S,0,73648,74380,0.44 R,0,73648,74380,-0.25 C,0,73648,74380,54,25,87
Sprite,Background,Centre,"sb\rs.png",246,395 M,1,73705,74437,246,395,146,414 F,0,73705,74437,0.8,0 S,0,73705,74437,0.36 R,0,73705,74437,-0.2 C,0,73705,74437,58,23,98
Sprite,Background,Centre,"sb\rs.png",354,315 M,1,73638,74370,354,315,254,342 F,0,73638,74370,0.8,0 S,0,73638,74370,0.3 R,0,73638,74370,-0.28 C,0,73638,74370,48,23,95
Sprite,Background,Centre,"sb\rs.png",379,236 M,1,73918,74650,379,236,279,298 F,0,73918,74650,0.8,0 S,0,73918,74650,0.43 R,0,73918,74650,-0.3 C,0,73918,74650,54,21,88
Sprite,Background,Centre,"sb\rs.png",183,289 M,1,73955,74687,183,289,83,320 F,0,73955,74687,0.8,0 S,0,73955,74687,0.43 R,0,73955,74687,-0.15 C,0,73955,74687,51,23,91
Sprite,Background,Centre,"sb\rs.png",258,373 M,1,74015,74747,258,373,158,399 F,0,74015,74747,0.8,0 S,0,74015,74747,0.49 R,0,74015,74747,-0.21 C,0,74015,74747,51,23,96
Sprite,Background,Centre,"sb\rs.png",233,415 M,1,74184,74916,233,415,133,441 F,0,74184,74916,0.8,0 S,0,74184,74916,0.43 R,0,74184,74916,-0.19 C,0,74184,74916,52,22,91
Sprite,Background,Centre,"sb\rs.png",142,321 M,1,74251,74983,142,321,42,348 F,0,74251,74983,0.8,0 S,0,74251,74983,0.42 R,0,74251,74983,-0.11 C,0,74251,74983,54,25,95
Sprite,Background,Centre,"sb\rs.png",380,369 M,1,74246,74978,380,369,280,390 F,0,74246,74978,0.8,0 S,0,74246,74978,0.44 R,0,74246,74978,-0.3 C,0,74246,74978,54,24,90
Sprite,Background,Centre,"sb\rs.png",339,304 M,1,74406,75138,339,304,239,334 F,0,74406,75138,0.8,0 S,0,74406,75138,0.44 R,0,74406,75138,-0.27 C,0,74406,75138,51,22,89
Sprite,Background,Centre,"sb\rs.png",147,415 M,1,74581,75313,147,415,47,402 F,0,74581,75313,0.8,0 S,0,74581,75313,0.37 R,0,74581,75313,-0.12 C,0,74581,75313,53,22,90
Sprite,Background,Centre,"sb\rs.png",66,303 M,1,74578,75310,66,303,-34,331 F,0,74578,75310,0.8,0 S,0,74578,75310,0.32 R,0,74578,75310,-0.05 C,0,74578,75310,58,25,91
Sprite,Background,Centre,"sb\rs.png",281,363 M,1,74539,75271,281,363,181,371 F,0,74539,75271,0.8,0 S,0,74539,75271,0.5 R,0,74539,75271,-0.22 C,0,74539,75271,51,23,94
Sprite,Background,Centre,"sb\rs.png",379,250 M,1,74764,75496,379,250,279,291 F,0,74764,75496,0.8,0 S,0,74764,75496,0.45 R,0,74764,75496,-0.3 C,0,74764,75496,58,25,86
Sprite,Background,Centre,"sb\rs.png",244,263 M,1,74964,75696,244,263,144,307 F,0,74964,75696,0.8,0 S,0,74964,75696,0.32 R,0,74964,75696,-0.2 C,0,74964,75696,59,22,95
Sprite,Background,Centre,"sb\rs.png",304,286 M,1,75055,75787,304,286,204,317 F,0,75055,75787,0.8,0 S,0,75055,75787,0.45 R,0,75055,75787,-0.24 C,0,75055,75787,53,25,87
Sprite,Background,Centre,"sb\rs.png",126,389 M,1,75086,75818,126,389,26,383 F,0,75086,75818,0.8,0 S,0,75086,75818,0.35 R,0,75086,75818,-0.1 C,0,75086,75818,56,26,90
Sprite,Background,Centre,"sb\rs.png",112,381 M,1,75214,75946,112,381,12,402 F,0,75214,75946,0.8,0 S,0,75214,75946,0.35 R,0,75214,75946,-0.09 C,0,75214,75946,51,23,91
Sprite,Background,Centre,"sb\rs.png",176,428 M,1,75103,75835,176,428,76,426 F,0,75103,75835,0.8,0 S,0,75103,75835,0.38 R,0,75103,75835,-0.14 C,0,75103,75835,51,25,91
Sprite,Background,Centre,"sb\rs.png",168,346 M,1,75172,75904,168,346,68,370 F,0,75172,75904,0.8,0 S,0,75172,75904,0.49 R,0,75172,75904,-0.13 C,0,75172,75904,56,23,89
Sprite,Background,Centre,"sb\rs.png",335,262 M,1,75473,76205,335,262,235,293 F,0,75473,76205,0.8,0 S,0,75473,76205,0.47 R,0,75473,76205,-0.27 C,0,75473,76205,58,27,93
Sprite,Background,Centre,"sb\rs.png",129,382 M,1,75511,76243,129,382,29,386 F,0,75511,76243,0.8,0 S,0,75511,76243,0.47 R,0,75511,76243,-0.1 C,0,75511,76243,57,27,97
Sprite,Background,Centre,"sb\rs.png",112,344 M,1,75600,76332,112,344,12,361 F,0,75600,76332,0.8,0 S,0,75600,76332,0.4 R,0,75600,76332,-0.09 C,0,75600,76332,49,27,87
Sprite,Background,Centre,"sb\rs.png",171,300 M,1,75554,76286,171,300,71,330 F,0,75554,76286,0.8,0 S,0,75554,76286,0.43 R,0,75554,76286,-0.14 C,0,75554,76286,56,24,90
Sprite,Background,Centre,"sb\rs.png",149,336 M,1,75821,76553,149,336,49,364 F,0,75821,76553,0.8,0 S,0,75821,76553,0.47 R,0,75821,76553,-0.12 C,0,75821,76553,56,25,98
Sprite,Background,Centre,"sb\rs.png",184,387 M,1,75949,76681,184,387,84,385 F,0,75949,76681,0.8,0 S,0,75949,76681,0.47 R,0,75949,76681,-0.15 C,0,75949,76681,54,21,87
Sprite,Background,Centre,"sb\rs.png",63,352 M,1,75793,76525,63,352,-37,363 F,0,75793,76525,0.8,0 S,0,75793,76525,0.36 R,0,75793,76525,-0.05 C,0,75793,76525,48,24,87
Sprite,Background,Centre,"sb\rs.png",326,326 M,1,75859,76591,326,326,226,354 F,0,75859,76591,0.8,0 S,0,75859,76591,0.42 R,0,75859,76591,-0.26 C,0,75859,76591,57,23,90
Sprite,Background,Centre,"sb\rs.png",349,300 M,1,76184,76916,349,300,249,330 F,0,76184,76916,0.8,0 S,0,76184,76916,0.5 R,0,76184,76916,-0.28 C,0,76184,76916,54,27,90
Sprite,Background,Centre,"sb\rs.png",211,387 M,1,76152,76884,211,387,111,384 F,0,76152,76884,0.8,0 S,0,76152,76884,0.35 R,0,76152,76884,-0.17 C,0,76152,76884,59,27,87
Sprite,Background,Centre,"sb\rs.png",221,330 M,1,76154,76886,221,330,121,347 F,0,76154,76886,0.8,0 S,0,76154,76886,0.35 R,0,76154,76886,-0.18 C,0,76154,76886,57,25,94
Sprite,Background,Centre,"sb\rs.png",148,319 M,1,76281,77013,148,319,48,344 F,0,76281,77013,0.8,0 S,0,76281,77013,0.31 R,0,76281,77013,-0.12 C,0,76281,77013,50,23,90
Sprite,Background,Centre,"sb\rs.png",197,313 M,1,76551,77283,197,313,97,343 F,0,76551,77283,0.8,0 S,0,76551,77283,0.41 R,0,76551,77283,-0.16 C,0,76551,77283,54,23,94
Sprite,Background,Centre,"sb\rs.png",326,388 M,1,76581,77313,326,388,226,416 F,0,76581,77313,0.8,0 S,0,76581,77313,0.44 R,0,76581,77313,-0.26 C,0,76581,77313,50,27,87
Sprite,Background,Centre,"sb\rs.png",278,355 M,1,76490,77222,278,355,178,359 F,0,76490,77222,0.8,0 S,0,76490,77222,0.42 R,0,76490,77222,-0.22 C,0,76490,77222,59,25,95
Sprite,Background,Centre,"sb\rs.png",352,239 M,1,76647,77379,352,239,252,288 F,0,76647,77379,0.8,0 S,0,76647,77379,0.31 R,0,76647,77379,-0.28 C,0,76647,77379,52,25,95
Sprite,Background,Centre,"sb\rs.png",156,438 M,1,76847,77579,156,438,56,468 F,0,76847,77579,0.8,0 S,0,76847,77579,0.42 R,0,76847,77579,-0.12 C,0,76847,77579,58,23,90
Sprite,Background,Centre,"sb\rs.png",142,438 M,1,77030,77762,142,438,42,454 F,0,77030,77762,0.8,0 S,0,77030,77762,0.4 R,0,77030,77762,-0.11 C,0,77030,77762,56,23,95
Sprite,Background,Centre,"sb\rs.png",108,360 M,1,76841,77573,108,360,8,381 F,0,76841,77573,0.8,0 S,0,76841,77573,0.33 R,0,76841,77573,-0.09 C,0,76841,77573,52,23,89
Sprite,Background,Centre,"sb\rs.png",133,356 M,1,77019,77751,133,356,33,368 F,0,77019,77751,0.8,0 S,0,77019,77751,0.32 R,0,77019,77751,-0.11 C,0,77019,77751,54,25,90
Sprite,Background,Centre,"sb\rs.png",188,296 M,1,77228,77960,188,296,88,328 F,0,77228,77960,0.8,0 S,0,77228,77960,0.45 R,0,77228,77960,-0.15 C,0,77228,77960,56,26,88
Sprite,Background,Centre,"sb\rs.png",136,417 M,1,77230,77962,136,417,36,395 F,0,77230,77962,0.8,0 S,0,77230,77962,0.43 R,0,77230,77962,-0.11 C,0,77230,77962,57,23,97
Sprite,Background,Centre,"sb\rs.png",103,366 M,1,77483,78215,103,366,3,389 F,0,77483,78215,0.8,0 S,0,77483,78215,0.39 R,0,77483,78215,-0.08 C,0,77483,78215,56,25,92
Sprite,Background,Centre,"sb\rs.png",227,275 M,1,77393,78125,227,275,127,316 F,0,77393,78125,0.8,0 S,0,77393,78125,0.43 R,0,77393,78125,-0.18 C,0,77393,78125,49,22,86
Sprite,Background,Centre,"sb\rs.png",99,418 M,1,77489,78221,99,418,-1,425 F,0,77489,78221,0.8,0 S,0,77489,78221,0.38 R,0,77489,78221,-0.08 C,0,77489,78221,53,27,97
Sprite,Background,Centre,"sb\rs.png",284,244 M,1,77742,78474,284,244,184,301 F,0,77742,78474,0.8,0 S,0,77742,78474,0.44 R,0,77742,78474,-0.23 C,0,77742,78474,59,26,94
Sprite,Background,Centre,"sb\rs.png",158,428 M,1,77725,78457,158,428,58,444 F,0,77725,78457,0.8,0 S,0,77725,78457,0.43 R,0,77725,78457,-0.13 C,0,77725,78457,58,26,86
Sprite,Background,Centre,"sb\rs.png",193,299 M,1,77700,78432,193,299,93,329 F,0,77700,78432,0.8,0 S,0,77700,78432,0.4 R,0,77700,78432,-0.15 C,0,77700,78432,54,24,87
Sprite,Background,Centre,"sb\rs.png",211,298 M,1,77954,78686,211,298,111,329 F,0,77954,78686,0.8,0 S,0,77954,78686,0.4 R,0,77954,78686,-0.17 C,0,77954,78686,52,22,97
Sprite,Background,Centre,"sb\rs.png",64,358 M,1,77866,78598,64,358,-36,376 F,0,77866,78598,0.8,0 S,0,77866,78598,0.49 R,0,77866,78598,-0.05 C,0,77866,78598,54,26,91
Sprite,Background,Centre,"sb\rs.png",348,302 M,1,78011,78743,348,302,248,331 F,0,78011,78743,0.8,0 S,0,78011,78743,0.4 R,0,78011,78743,-0.28 C,0,78011,78743,54,24,95
Sprite,Background,Centre,"sb\rs.png",105,339 M,1,78105,78837,105,339,5,354 F,0,78105,78837,0.8,0 S,0,78105,78837,0.37 R,0,78105,78837,-0.08 C,0,78105,78837,51,23,88
Sprite,Background,Centre,"sb\rs.png",351,270 M,1,78286,79018,351,270,251,301 F,0,78286,79018,0.8,0 S,0,78286,79018,0.43 R,0,78286,79018,-0.28 C,0,78286,79018,56,26,93
Sprite,Background,Centre,"sb\rs.png",153,301 M,1,78333,79065,153,301,53,331 F,0,78333,79065,0.8,0 S,0,78333,79065,0.37 R,0,78333,79065,-0.12 C,0,78333,79065,59,21,97
Sprite,Background,Centre,"sb\rs.png",248,261 M,1,78419,79151,248,261,148,298 F,0,78419,79151,0.8,0 S,0,78419,79151,0.4 R,0,78419,79151,-0.2 C,0,78419,79151,54,22,95
Sprite,Background,Centre,"sb\rs.png",224,320 M,1,78407,79139,224,320,124,342 F,0,78407,79139,0.8,0 S,0,78407,79139,0.38 R,0,78407,79139,-0.18 C,0,78407,79139,57,24,86
Sprite,Background,Centre,"sb\rs.png",183,295 M,1,78680,79412,183,295,83,325 F,0,78680,79412,0.8,0 S,0,78680,79412,0.34 R,0,78680,79412,-0.15 C,0,78680,79412,58,26,95
Sprite,Background,Centre,"sb\rs.png",50,314 M,1,78610,79342,50,314,-50,341 F,0,78610,79342,0.8,0 S,0,78610,79342,0.4 R,0,78610,79342,-0.04 C,0,78610,79342,58,24,88
Sprite,Background,Centre,"sb\rs.png",293,252 M,1,78662,79394,293,252,193,289 F,0,78662,79394,0.8,0 S,0,78662,79394,0.46 R,0,78662,79394,-0.23 C,0,78662,79394,59,26,92
Sprite,Background,Centre,"sb\rs.png",308,369 M,1,78940,79672,308,369,208,376 F,0,78940,79672,0.8,0 S,0,78940,79672,0.41 R,0,78940,79672,-0.25 C,0,78940,79672,55,26,96
Sprite,Background,Centre,"sb\rs.png",235,330 M,1,78966,79698,235,330,135,349 F,0,78966,79698,0.8,0 S,0,78966,79698,0.32 R,0,78966,79698,-0.19 C,0,78966,79698,51,23,91
Sprite,Background,Centre,"sb\rs.png",114,315 M,1,78997,79729,114,315,14,340 F,0,78997,79729,0.8,0 S,0,78997,79729,0.41 R,0,78997,79729,-0.09 C,0,78997,79729,56,25,89
Sprite,Background,Centre,"sb\rs.png",82,352 M,1,79287,80019,82,352,-18,356 F,0,79287,80019,0.8,0 S,0,79287,80019,0.33 R,0,79287,80019,-0.07 C,0,79287,80019,53,25,95
Sprite,Background,Centre,"sb\rs.png",295,307 M,1,79372,80104,295,307,195,336 F,0,79372,80104,0.8,0 S,0,79372,80104,0.39 R,0,79372,80104,-0.24 C,0,79372,80104,51,25,97
Sprite,Background,Centre,"sb\rs.png",194,300 M,1,79207,79939,194,300,94,330 F,0,79207,79939,0.8,0 S,0,79207,79939,0.49 R,0,79207,79939,-0.16 C,0,79207,79939,52,24,87
Sprite,Background,Centre,"sb\rs.png",204,420 M,1,79431,80163,204,420,104,397 F,0,79431,80163,0.8,0 S,0,79431,80163,0.39 R,0,79431,80163,-0.16 C,0,79431,80163,60,22,97
Sprite,Background,Centre,"sb\rs.png",71,315 M,1,79576,80308,71,315,-29,340 F,0,79576,80308,0.8,0 S,0,79576,80308,0.5 R,0,79576,80308,-0.06 C,0,79576,80308,50,22,90
Sprite,Background,Centre,"sb\rs.png",306,293 M,1,79606,80338,306,293,206,324 F,0,79606,80338,0.8,0 S,0,79606,80338,0.35 R,0,79606,80338,-0.25 C,0,79606,80338,52,26,98
Sprite,Background,Centre,"sb\rs.png",266,376 M,1,79703,80435,266,376,166,389 F,0,79703,80435,0.8,0 S,0,79703,80435,0.3 R,0,79703,80435,-0.21 C,0,79703,80435,55,21,88
Sprite,Background,Centre,"sb\rs.png",360,280 M,1,79781,80513,360,280,260,320 F,0,79781,80513,0.8,0 S,0,79781,80513,0.46 R,0,79781,80513,-0.29 C,0,79781,80513,52,24,96
Sprite,Background,Centre,"sb\rs.png",218,410 M,1,79944,80676,218,410,118,391 F,0,79944,80676,0.8,0 S,0,79944,80676,0.38 R,0,79944,80676,-0.17 C,0,79944,80676,59,25,94
Sprite,Background,Centre,"sb\rs.png",302,272 M,1,80079,80811,302,272,202,313 F,0,80079,80811,0.8,0 S,0,80079,80811,0.47 R,0,80079,80811,-0.24 C,0,80079,80811,53,25,86
Sprite,Background,Centre,"sb\rs.png",161,288 M,1,80086,80818,161,288,61,320 F,0,80086,80818,0.8,0 S,0,80086,80818,0.34 R,0,80086,80818,-0.13 C,0,80086,80818,53,25,95
Sprite,Background,Centre,"sb\rs.png",124,388 M,1,80150,80882,124,388,24,385 F,0,80150,80882,0.8,0 S,0,80150,80882,0.45 R,0,80150,80882,-0.1 C,0,80150,80882,54,22,89
Sprite,Background,Centre,"sb\rs.png",321,376 M,1,80141,80873,321,376,221,399 F,0,80141,80873,0.8,0 S,0,80141,80873,0.33 R,0,80141,80873,-0.26 C,0,80141,80873,59,25,88
Sprite,Background,Centre,"sb\rs.png",83,300 M,1,80261,80993,83,300,-17,330 F,0,80261,80993,0.8,0 S,0,80261,80993,0.46 R,0,80261,80993,-0.07 C,0,80261,80993,50,24,89
Sprite,Background,Centre,"sb\rs.png",107,333 M,1,80525,81257,107,333,7,348 F,0,80525,81257,0.8,0 S,0,80525,81257,0.31 R,0,80525,81257,-0.09 C,0,80525,81257,53,23,97
Sprite,Background,Centre,"sb\rs.png",237,338 M,1,80578,81310,237,338,137,360 F,0,80578,81310,0.8,0 S,0,80578,81310,0.34 R,0,80578,81310,-0.19 C,0,80578,81310,60,22,90
Sprite,Background,Centre,"sb\rs.png",360,288 M,1,80452,81184,360,288,260,320 F,0,80452,81184,0.8,0 S,0,80452,81184,0.43 R,0,80452,81184,-0.29 C,0,80452,81184,60,27,95
Sprite,Background,Centre,"sb\rs.png",312,264 M,1,80759,81491,312,264,212,299 F,0,80759,81491,0.8,0 S,0,80759,81491,0.35 R,0,80759,81491,-0.25 C,0,80759,81491,51,24,88
Sprite,Background,Centre,"sb\rs.png",173,433 M,1,80820,81552,173,433,73,408 F,0,80820,81552,0.8,0 S,0,80820,81552,0.47 R,0,80820,81552,-0.14 C,0,80820,81552,49,23,87
Sprite,Background,Centre,"sb\rs.png",261,264 M,1,80737,81469,261,264,161,297 F,0,80737,81469,0.8,0 S,0,80737,81469,0.42 R,0,80737,81469,-0.21 C,0,80737,81469,54,26,98
Sprite,Background,Centre,"sb\rs.png",155,328 M,1,81096,81828,155,328,55,355 F,0,81096,81828,0.8,0 S,0,81096,81828,0.49 R,0,81096,81828,-0.12 C,0,81096,81828,51,25,92
Sprite,Background,Centre,"sb\rs.png",131,364 M,1,80912,81644,131,364,31,364 F,0,80912,81644,0.8,0 S,0,80912,81644,0.33 R,0,80912,81644,-0.1 C,0,80912,81644,52,26,93
Sprite,Background,Centre,"sb\rs.png",269,300 M,1,81008,81740,269,300,169,330 F,0,81008,81740,0.8,0 S,0,81008,81740,0.4 R,0,81008,81740,-0.22 C,0,81008,81740,60,22,88
Sprite,Background,Centre,"sb\rs.png",279,389 M,1,81134,81866,279,389,179,401 F,0,81134,81866,0.8,0 S,0,81134,81866,0.34 R,0,81134,81866,-0.22 C,0,81134,81866,57,23,98
Sprite,Background,Centre,"sb\rs.png",45,445 M,1,81326,82058,45,445,-55,471 F,0,81326,82058,0.8,0 S,0,81326,82058,0.45 R,0,81326,82058,-0.04 C,0,81326,82058,59,26,96
Sprite,Background,Centre,"sb\rs.png",223,294 M,1,81495,82227,223,294,123,324 F,0,81495,82227,0.8,0 S,0,81495,82227,0.48 R,0,81495,82227,-0.18 C,0,81495,82227,50,25,94
Sprite,Background,Centre,"sb\rs.png",147,391 M,1,81358,82090,147,391,47,413 F,0,81358,82090,0.8,0 S,0,81358,82090,0.4 R,0,81358,82090,-0.12 C,0,81358,82090,58,24,87
Sprite,Background,Centre,"sb\rs.png",214,400 M,1,81612,82344,214,400,114,392 F,0,81612,82344,0.8,0 S,0,81612,82344,0.47 R,0,81612,82344,-0.17 C,0,81612,82344,55,25,93
Sprite,Background,Centre,"sb\rs.png",212,375 M,1,81530,82262,212,375,112,369 F,0,81530,82262,0.8,0 S,0,81530,82262,0.39 R,0,81530,82262,-0.17 C,0,81530,82262,48,23,90
Sprite,Background,Centre,"sb\rs.png",91,446 M,1,81717,82449,91,446,-9,474 F,0,81717,82449,0.8,0 S,0,81717,82449,0.44 R,0,81717,82449,-0.07 C,0,81717,82449,55,27,94
Sprite,Background,Centre,"sb\rs.png",78,452 M,1,81777,82509,78,452,-22,479 F,0,81777,82509,0.8,0 S,0,81777,82509,0.32 R,0,81777,82509,-0.06 C,0,81777,82509,50,24,88
Sprite,Background,Centre,"sb\rs.png",170,324 M,1,81945,82677,170,324,70,343 F,0,81945,82677,0.8,0 S,0,81945,82677,0.5 R,0,81945,82677,-0.14 C,0,81945,82677,56,25,90
Sprite,Background,Centre,"sb\rs.png",338,372 M,1,82030,82762,338,372,238,389 F,0,82030,82762,0.8,0 S,0,82030,82762,0.31 R,0,82030,82762,-0.27 C,0,82030,82762,57,26,87
Sprite,Background,Centre,"sb\rs.png",100,410 M,1,82220,82952,100,410,0,390 F,0,82220,82952,0.8,0 S,0,82220,82952,0.37 R,0,82220,82952,-0.08 C,0,82220,82952,51,23,90
Sprite,Background,Centre,"sb\rs.png",174,334 M,1,82104,82836,174,334,74,359 F,0,82104,82836,0.8,0 S,0,82104,82836,0.32 R,0,82104,82836,-0.14 C,0,82104,82836,56,24,86
Sprite,Background,Centre,"sb\rs.png",93,452 M,1,82444,83176,93,452,-7,419 F,0,82444,83176,0.8,0 S,0,82444,83176,0.45 R,0,82444,83176,-0.07 C,0,82444,83176,59,23,87
Sprite,Background,Centre,"sb\rs.png",285,388 M,1,82483,83215,285,388,185,383 F,0,82483,83215,0.8,0 S,0,82483,83215,0.35 R,0,82483,83215,-0.23 C,0,82483,83215,51,22,88
Sprite,Background,Centre,"sb\rs.png",115,291 M,1,82383,83115,115,291,15,322 F,0,82383,83115,0.8,0 S,0,82383,83115,0.38 R,0,82383,83115,-0.09 C,0,82383,83115,49,26,92
Sprite,Background,Centre,"sb\rs.png",46,408 M,1,82711,83443,46,408,-54,409 F,0,82711,83443,0.8,0 S,0,82711,83443,0.31 R,0,82711,83443,-0.04 C,0,82711,83443,50,23,92
Sprite,Background,Centre,"sb\rs.png",106,296 M,1,82755,83487,106,296,6,327 F,0,82755,83487,0.8,0 S,0,82755,83487,0.5 R,0,82755,83487,-0.08 C,0,82755,83487,48,21,95
Sprite,Background,Centre,"sb\rs.png",96,390 M,1,82778,83510,96,390,-4,375 F,0,82778,83510,0.8,0 S,0,82778,83510,0.39 R,0,82778,83510,-0.08 C,0,82778,83510,57,25,89
Sprite,Background,Centre,"sb\rs.png",182,374 M,1,82717,83449,182,374,82,380 F,0,82717,83449,0.8,0 S,0,82717,83449,0.48 R,0,82717,83449,-0.15 C,0,82717,83449,59,21,91
Sprite,Background,Centre,"sb\rs.png",170,400 M,1,83007,83739,170,400,70,401 F,0,83007,83739,0.8,0 S,0,83007,83739,0.32 R,0,83007,83739,-0.14 C,0,83007,83739,52,23,95
Sprite,Background,Centre,"sb\rs.png",176,431 M,1,83055,83787,176,431,76,459 F,0,83055,83787,0.8,0 S,0,83055,83787,0.33 R,0,83055,83787,-0.14 C,0,83055,83787,60,26,95
Sprite,Background,Centre,"sb\rs.png",334,272 M,1,83042,83774,334,272,234,313 F,0,83042,83774,0.8,0 S,0,83042,83774,0.41 R,0,83042,83774,-0.27 C,0,83042,83774,55,21,86
Sprite,Background,Centre,"sb\rs.png",187,409 M,1,83068,83800,187,409,87,389 F,0,83068,83800,0.8,0 S,0,83068,83800,0.43 R,0,83068,83800,-0.15 C,0,83068,83800,56,24,94
Sprite,Background,Centre,"sb\rs.png",177,323 M,1,83235,83967,177,323,77,349 F,0,83235,83967,0.8,0 S,0,83235,83967,0.32 R,0,83235,83967,-0.14 C,0,83235,83967,58,23,89
Sprite,Background,Centre,"sb\rs.png",110,424 M,1,83459,84191,110,424,10,398 F,0,83459,84191,0.8,0 S,0,83459,84191,0.37 R,0,83459,84191,-0.09 C,0,83459,84191,56,26,95
Sprite,Background,Centre,"sb\rs.png",43,399 M,1,83333,84065,43,399,-57,419 F,0,83333,84065,0.8,0 S,0,83333,84065,0.35 R,0,83333,84065,-0.03 C,0,83333,84065,48,24,93
Sprite,Background,Centre,"sb\rs.png",196,324 M,1,83518,84250,196,324,96,343 F,0,83518,84250,0.8,0 S,0,83518,84250,0.33 R,0,83518,84250,-0.16 C,0,83518,84250,50,26,96
Sprite,Background,Centre,"sb\rs.png",224,279 M,1,83570,84302,224,279,124,318 F,0,83570,84302,0.8,0 S,0,83570,84302,0.41 R,0,83570,84302,-0.18 C,0,83570,84302,55,22,94
Sprite,Background,Centre,"sb\rs.png",235,404 M,1,83714,84446,235,404,135,404 F,0,83714,84446,0.8,0 S,0,83714,84446,0.36 R,0,83714,84446,-0.19 C,0,83714,84446,60,26,94
Sprite,Background,Centre,"sb\rs.png",149,379 M,1,83947,84679,149,379,49,392 F,0,83947,84679,0.8,0 S,0,83947,84679,0.47 R,0,83947,84679,-0.12 C,0,83947,84679,52,24,90
Sprite,Background,Centre,"sb\rs.png",117,315 M,1,83780,84512,117,315,17,338 F,0,83780,84512,0.8,0 S,0,83780,84512,0.39 R,0,83780,84512,-0.09 C,0,83780,84512,54,23,88
Sprite,Background,Centre,"sb\rs.png",304,315 M,1,84124,84856,304,315,204,341 F,0,84124,84856,0.8,0 S,0,84124,84856,0.4 R,0,84124,84856,-0.24 C,0,84124,84856,53,24,87
Sprite,Background,Centre,"sb\rs.png",378,221 M,1,84103,84835,378,221,278,280 F,0,84103,84835,0.8,0 S,0,84103,84835,0.41 R,0,84103,84835,-0.3 C,0,84103,84835,59,21,93
Sprite,Background,Centre,"sb\rs.png",57,450 M,1,84210,84942,57,450,-43,419 F,0,84210,84942,0.8,0 S,0,84210,84942,0.37 R,0,84210,84942,-0.05 C,0,84210,84942,58,22,96
Sprite,Background,Centre,"sb\rs.png",378,343 M,1,84405,85137,378,343,278,354 F,0,84405,85137,0.8,0 S,0,84405,85137,0.36 R,0,84405,85137,-0.3 C,0,84405,85137,54,23,96
Sprite,Background,Centre,"sb\rs.png",254,268 M,1,84343,85075,254,268,154,310 F,0,84343,85075,0.8,0 S,0,84343,85075,0.47 R,0,84343,85075,-0.2 C,0,84343,85075,51,22,94
Sprite,Background,Centre,"sb\rs.png",208,311 M,1,84541,85273,208,311,108,340 F,0,84541,85273,0.8,0 S,0,84541,85273,0.31 R,0,84541,85273,-0.17 C,0,84541,85273,53,26,87
Sprite,Background,Centre,"sb\rs.png",372,274 M,1,84586,85318,372,274,272,314 F,0,84586,85318,0.8,0 S,0,84586,85318,0.37 R,0,84586,85318,-0.3 C,0,84586,85318,60,24,88
Sprite,Background,Centre,"sb\rs.png",228,269 M,1,84677,85409,228,269,128,306 F,0,84677,85409,0.8,0 S,0,84677,85409,0.32 R,0,84677,85409,-0.18 C,0,84677,85409,51,27,93
Sprite,Background,Centre,"sb\rs.png",90,311 M,1,84807,85539,90,311,-10,336 F,0,84807,85539,0.8,0 S,0,84807,85539,0.5 R,0,84807,85539,-0.07 C,0,84807,85539,58,24,87
Sprite,Background,Centre,"sb\rs.png",254,308 M,1,84881,85613,254,308,154,334 F,0,84881,85613,0.8,0 S,0,84881,85613,0.43 R,0,84881,85613,-0.2 C,0,84881,85613,56,22,98
Sprite,Background,Centre,"sb\rs.png",182,304 M,1,84872,85604,182,304,82,334 F,0,84872,85604,0.8,0 S,0,84872,85604,0.32 R,0,84872,85604,-0.15 C,0,84872,85604,50,26,90
Sprite,Background,Centre,"sb\rs.png",116,339 M,1,85012,85744,116,339,16,368 F,0,85012,85744,0.8,0 S,0,85012,85744,0.5 R,0,85012,85744,-0.09 C,0,85012,85744,58,24,89
Sprite,Background,Centre,"sb\rs.png",349,381 M,1,85129,85861,349,381,249,377 F,0,85129,85861,0.8,0 S,0,85129,85861,0.31 R,0,85129,85861,-0.28 C,0,85129,85861,50,22,87
Sprite,Background,Centre,"sb\rs.png",205,290 M,1,85207,85939,205,290,105,320 F,0,85207,85939,0.8,0 S,0,85207,85939,0.43 R,0,85207,85939,-0.16 C,0,85207,85939,55,22,88
Sprite,Background,Centre,"sb\rs.png",113,328 M,1,85399,86131,113,328,13,353 F,0,85399,86131,0.8,0 S,0,85399,86131,0.42 R,0,85399,86131,-0.09 C,0,85399,86131,58,25,97
Sprite,Background,Centre,"sb\rs.png",331,266 M,1,85465,86197,331,266,231,304 F,0,85465,86197,0.8,0 S,0,85465,86197,0.42 R,0,85465,86197,-0.27 C,0,85465,86197,52,26,98
Sprite,Background,Centre,"sb\rs.png",49,408 M,1,85458,86190,49,408,-51,414 F,0,85458,86190,0.8,0 S,0,85458,86190,0.46 R,0,85458,86190,-0.04 C,0,85458,86190,50,25,97
Sprite,Background,Centre,"sb\rs.png",272,266 M,1,85539,86271,272,266,172,311 F,0,85539,86271,0.8,0 S,0,85539,86271,0.34 R,0,85539,86271,-0.22 C,0,85539,86271,51,27,86
Sprite,Background,Centre,"sb\rs.png",294,331 M,1,85532,86264,294,331,194,350 F,0,85532,86264,0.8,0 S,0,85532,86264,0.38 R,0,85532,86264,-0.24 C,0,85532,86264,53,22,94
Sprite,Background,Centre,"sb\rs.png",326,373 M,1,85721,86453,326,373,226,383 F,0,85721,86453,0.8,0 S,0,85721,86453,0.38 R,0,85721,86453,-0.26 C,0,85721,86453,57,26,90
Sprite,Background,Centre,"sb\rs.png",87,364 M,1,85878,86610,87,364,-13,371 F,0,85878,86610,0.8,0 S,0,85878,86610,0.43 R,0,85878,86610,-0.07 C,0,85878,86610,59,26,96
Sprite,Background,Centre,"sb\rs.png",166,281 M,1,85831,86563,166,281,66,319 F,0,85831,86563,0.8,0 S,0,85831,86563,0.49 R,0,85831,86563,-0.13 C,0,85831,86563,58,23,88
Sprite,Background,Centre,"sb\rs.png",354,336 M,1,86074,86806,354,336,254,363 F,0,86074,86806,0.8,0 S,0,86074,86806,0.45 R,0,86074,86806,-0.28 C,0,86074,86806,54,27,94
Sprite,Background,Centre,"sb\rs.png",70,428 M,1,86003,86735,70,428,-30,440 F,0,86003,86735,0.8,0 S,0,86003,86735,0.38 R,0,86003,86735,-0.06 C,0,86003,86735,51,25,97
Sprite,Background,Centre,"sb\rs.png",183,281 M,1,86105,86837,183,281,83,319 F,0,86105,86837,0.8,0 S,0,86105,86837,0.43 R,0,86105,86837,-0.15 C,0,86105,86837,52,23,94
Sprite,Background,Centre,"sb\rs.png",117,306 M,1,86272,87004,117,306,17,335 F,0,86272,87004,0.8,0 S,0,86272,87004,0.36 R,0,86272,87004,-0.09 C,0,86272,87004,54,27,92
Sprite,Background,Centre,"sb\rs.png",100,384 M,1,86256,86988,100,384,0,414 F,0,86256,86988,0.8,0 S,0,86256,86988,0.41 R,0,86256,86988,-0.08 C,0,86256,86988,55,25,88
Sprite,Background,Centre,"sb\rs.png",56,444 M,1,86465,87197,56,444,-44,410 F,0,86465,87197,0.8,0 S,0,86465,87197,0.35 R,0,86465,87197,-0.04 C,0,86465,87197,49,25,96
Sprite,Background,Centre,"sb\rs.png",236,368 M,1,86392,87124,236,368,136,391 F,0,86392,87124,0.8,0 S,0,86392,87124,0.42 R,0,86392,87124,-0.19 C,0,86392,87124,55,26,89
Sprite,Background,Centre,"sb\rs.png",199,421 M,1,86684,87416,199,421,99,401 F,0,86684,87416,0.8,0 S,0,86684,87416,0.34 R,0,86684,87416,-0.16 C,0,86684,87416,54,26,87
Sprite,Background,Centre,"sb\rs.png",204,350 M,1,86750,87482,204,350,104,363 F,0,86750,87482,0.8,0 S,0,86750,87482,0.37 R,0,86750,87482,-0.16 C,0,86750,87482,50,26,96
Sprite,Background,Centre,"sb\rs.png",276,316 M,1,86898,87630,276,316,176,341 F,0,86898,87630,0.8,0 S,0,86898,87630,0.37 R,0,86898,87630,-0.22 C,0,86898,87630,52,25,91
Sprite,Background,Centre,"sb\rs.png",327,370 M,1,86924,87656,327,370,227,390 F,0,86924,87656,0.8,0 S,0,86924,87656,0.46 R,0,86924,87656,-0.26 C,0,86924,87656,56,25,97
Sprite,Background,Centre,"sb\rs.png",324,331 M,1,87125,87857,324,331,224,353 F,0,87125,87857,0.8,0 S,0,87125,87857,0.38 R,0,87125,87857,-0.26 C,0,87125,87857,59,22,91
Sprite,Background,Centre,"sb\rs.png",155,329 M,1,86957,87689,155,329,55,348 F,0,86957,87689,0.8,0 S,0,86957,87689,0.39 R,0,86957,87689,-0.12 C,0,86957,87689,59,27,93
Sprite,Background,Centre,"sb\rs.png",223,294 M,1,87026,87758,223,294,123,324 F,0,87026,87758,0.8,0 S,0,87026,87758,0.44 R,0,87026,87758,-0.18 C,0,87026,87758,53,23,89
Sprite,Background,Centre,"sb\rs.png",376,300 M,1,87222,87954,376,300,276,330 F,0,87222,87954,0.8,0 S,0,87222,87954,0.38 R,0,87222,87954,-0.3 C,0,87222,87954,56,25,88
Sprite,Background,Centre,"sb\rs.png",245,331 M,1,87286,88018,245,331,145,350 F,0,87286,88018,0.8,0 S,0,87286,88018,0.35 R,0,87286,88018,-0.2 C,0,87286,88018,48,26,90
Sprite,Background,Centre,"sb\rs.png",305,254 M,1,87416,88148,305,254,205,306 F,0,87416,88148,0.8,0 S,0,87416,88148,0.42 R,0,87416,88148,-0.24 C,0,87416,88148,54,23,92
Sprite,Background,Centre,"sb\rs.png",251,303 M,1,87408,88140,251,303,151,333 F,0,87408,88140,0.8,0 S,0,87408,88140,0.49 R,0,87408,88140,-0.2 C,0,87408,88140,53,27,88
Sprite,Background,Centre,"sb\rs.png",143,440 M,1,87641,88373,143,440,43,443 F,0,87641,88373,0.8,0 S,0,87641,88373,0.5 R,0,87641,88373,-0.11 C,0,87641,88373,58,24,96
Sprite,Background,Centre,"sb\rs.png",237,320 M,1,87694,88426,237,320,137,344 F,0,87694,88426,0.8,0 S,0,87694,88426,0.43 R,0,87694,88426,-0.19 C,0,87694,88426,50,21,94
Sprite,Background,Centre,"sb\rs.png",165,342 M,1,87698,88430,165,342,65,368 F,0,87698,88430,0.8,0 S,0,87698,88430,0.39 R,0,87698,88430,-0.13 C,0,87698,88430,53,23,88
Sprite,Background,Centre,"sb\rs.png",214,310 M,1,87937,88669,214,310,114,340 F,0,87937,88669,0.8,0 S,0,87937,88669,0.38 R,0,87937,88669,-0.17 C,0,87937,88669,56,21,89
Sprite,Background,Centre,"sb\rs.png",253,264 M,1,87870,88602,253,264,153,297 F,0,87870,88602,0.8,0 S,0,87870,88602,0.3 R,0,87870,88602,-0.2 C,0,87870,88602,52,27,86
Sprite,Background,Centre,"sb\rs.png",74,397 M,1,88207,88939,74,397,-26,397 F,0,88207,88939,0.8,0 S,0,88207,88939,0.37 R,0,88207,88939,-0.06 C,0,88207,88939,55,22,96
Sprite,Background,Centre,"sb\rs.png",108,330 M,1,88211,88943,108,330,8,352 F,0,88211,88943,0.8,0 S,0,88211,88943,0.31 R,0,88211,88943,-0.09 C,0,88211,88943,55,27,88
Sprite,Background,Centre,"sb\rs.png",147,294 M,1,88140,88872,147,294,47,325 F,0,88140,88872,0.8,0 S,0,88140,88872,0.31 R,0,88140,88872,-0.12 C,0,88140,88872,54,25,86
Sprite,Background,Centre,"sb\rs.png",146,429 M,1,88433,89165,146,429,46,442 F,0,88433,89165,0.8,0 S,0,88433,89165,0.39 R,0,88433,89165,-0.12 C,0,88433,89165,51,25,87
Sprite,Background,Centre,"sb\rs.png",51,427 M,1,88322,89054,51,427,-49,438 F,0,88322,89054,0.8,0 S,0,88322,89054,0.41 R,0,88322,89054,-0.04 C,0,88322,89054,56,23,90
Sprite,Background,Centre,"sb\rs.png",346,379 M,1,88394,89126,346,379,246,404 F,0,88394,89126,0.8,0 S,0,88394,89126,0.38 R,0,88394,89126,-0.28 C,0,88394,89126,55,24,93
Sprite,Background,Centre,"sb\rs.png",265,255 M,1,88680,89412,265,255,165,296 F,0,88680,89412,0.8,0 S,0,88680,89412,0.4 R,0,88680,89412,-0.21 C,0,88680,89412,52,22,88
Sprite,Background,Centre,"sb\rs.png",126,305 M,1,88587,89319,126,305,26,333 F,0,88587,89319,0.8,0 S,0,88587,89319,0.49 R,0,88587,89319,-0.1 C,0,88587,89319,59,23,93
Sprite,Background,Centre,"sb\rs.png",304,381 M,1,88667,89399,304,381,204,398 F,0,88667,89399,0.8,0 S,0,88667,89399,0.36 R,0,88667,89399,-0.24 C,0,88667,89399,57,26,87
Sprite,Background,Centre,"sb\rs.png",253,302 M,1,88823,89555,253,302,153,332 F,0,88823,89555,0.8,0 S,0,88823,89555,0.47 R,0,88823,89555,-0.2 C,0,88823,89555,50,25,95
Sprite,Background,Centre,"sb\rs.png",286,388 M,1,88952,89684,286,388,186,402 F,0,88952,89684,0.8,0 S,0,88952,89684,0.32 R,0,88952,89684,-0.23 C,0,88952,89684,54,25,94
Sprite,Background,Centre,"sb\rs.png",337,331 M,1,89025,89757,337,331,237,352 F,0,89025,89757,0.8,0 S,0,89025,89757,0.47 R,0,89025,89757,-0.27 C,0,89025,89757,55,22,94
Sprite,Background,Centre,"sb\rs.png",130,360 M,1,89206,89938,130,360,30,373 F,0,89206,89938,0.8,0 S,0,89206,89938,0.33 R,0,89206,89938,-0.1 C,0,89206,89938,52,25,87
Sprite,Background,Centre,"sb\rs.png",63,386 M,1,89108,89840,63,386,-37,381 F,0,89108,89840,0.8,0 S,0,89108,89840,0.43 R,0,89108,89840,-0.05 C,0,89108,89840,51,25,88
Sprite,Background,Centre,"sb\rs.png",105,427 M,1,89188,89920,105,427,5,446 F,0,89188,89920,0.8,0 S,0,89188,89920,0.45 R,0,89188,89920,-0.08 C,0,89188,89920,53,21,96
Sprite,Background,Centre,"sb\rs.png",84,435 M,1,89474,90206,84,435,-16,407 F,0,89474,90206,0.8,0 S,0,89474,90206,0.34 R,0,89474,90206,-0.07 C,0,89474,90206,55,25,91
Sprite,Background,Centre,"sb\rs.png",365,278 M,1,89536,90268,365,278,265,309 F,0,89536,90268,0.8,0 S,0,89536,90268,0.39 R,0,89536,90268,-0.29 C,0,89536,90268,56,26,97
Sprite,Background,Centre,"sb\rs.png",191,293 M,1,89693,90425,191,293,91,323 F,0,89693,90425,0.8,0 S,0,89693,90425,0.42 R,0,89693,90425,-0.15 C,0,89693,90425,53,21,95
Sprite,Background,Centre,"sb\rs.png",140,351 M,1,89552,90284,140,351,40,368 F,0,89552,90284,0.8,0 S,0,89552,90284,0.31 R,0,89552,90284,-0.11 C,0,89552,90284,55,22,87
Sprite,Background,Centre,"sb\rs.png",211,358 M,1,89895,90627,211,358,111,374 F,0,89895,90627,0.8,0 S,0,89895,90627,0.41 R,0,89895,90627,-0.17 C,0,89895,90627,51,26,89
Sprite,Background,Centre,"sb\rs.png",328,362 M,1,89790,90522,328,362,228,365 F,0,89790,90522,0.8,0 S,0,89790,90522,0.3 R,0,89790,90522,-0.26 C,0,89790,90522,53,27,88
Sprite,Background,Centre,"sb\rs.png",213,297 M,1,90055,90787,213,297,113,329 F,0,90055,90787,0.8,0 S,0,90055,90787,0.33 R,0,90055,90787,-0.17 C,0,90055,90787,57,25,93
Sprite,Background,Centre,"sb\rs.png",310,338 M,1,90144,90876,310,338,210,365 F,0,90144,90876,0.8,0 S,0,90144,90876,0.35 R,0,90144,90876,-0.25 C,0,90144,90876,53,21,92
Sprite,Background,Centre,"sb\rs.png",45,312 M,1,90183,90915,45,312,-55,339 F,0,90183,90915,0.8,0 S,0,90183,90915,0.34 R,0,90183,90915,-0.04 C,0,90183,90915,59,22,88
Sprite,Background,Centre,"sb\rs.png",198,352 M,1,90334,91066,198,352,98,371 F,0,90334,91066,0.8,0 S,0,90334,91066,0.4 R,0,90334,91066,-0.16 C,0,90334,91066,59,27,96
Sprite,Background,Centre,"sb\rs.png",224,277 M,1,90207,90939,224,277,124,314 F,0,90207,90939,0.8,0 S,0,90207,90939,0.38 R,0,90207,90939,-0.18 C,0,90207,90939,48,21,88
Sprite,Background,Centre,"sb\rs.png",372,352 M,1,90397,91129,372,352,272,358 F,0,90397,91129,0.8,0 S,0,90397,91129,0.36 R,0,90397,91129,-0.3 C,0,90397,91129,54,22,97
Sprite,Background,Centre,"sb\rs.png",111,413 M,1,90468,91200,111,413,11,407 F,0,90468,91200,0.8,0 S,0,90468,91200,0.34 R,0,90468,91200,-0.09 C,0,90468,91200,59,23,86
Sprite,Background,Centre,"sb\rs.png",332,325 M,1,90570,91302,332,325,232,353 F,0,90570,91302,0.8,0 S,0,90570,91302,0.33 R,0,90570,91302,-0.27 C,0,90570,91302,58,24,88
Sprite,Background,Centre,"sb\rs.png",161,379 M,1,90698,91430,161,379,61,371 F,0,90698,91430,0.8,0 S,0,90698,91430,0.33 R,0,90698,91430,-0.13 C,0,90698,91430,50,25,88
Sprite,Background,Centre,"sb\rs.png",267,376 M,1,90880,91612,267,376,167,370 F,0,90880,91612,0.8,0 S,0,90880,91612,0.45 R,0,90880,91612,-0.21 C,0,90880,91612,52,22,98
Sprite,Background,Centre,"sb\rs.png",97,426 M,1,90814,91546,97,426,-3,430 F,0,90814,91546,0.8,0 S,0,90814,91546,0.31 R,0,90814,91546,-0.08 C,0,90814,91546,58,26,90
Sprite,Background,Centre,"sb\rs.png",251,327 M,1,91032,91764,251,327,151,347 F,0,91032,91764,0.8,0 S,0,91032,91764,0.48 R,0,91032,91764,-0.2 C,0,91032,91764,55,22,95
Sprite,Background,Centre,"sb\rs.png",141,286 M,1,91107,91839,141,286,41,319 F,0,91107,91839,0.8,0 S,0,91107,91839,0.47 R,0,91107,91839,-0.11 C,0,91107,91839,49,22,92
Sprite,Background,Centre,"sb\rs.png",113,408 M,1,91195,91927,113,408,13,415 F,0,91195,91927,0.8,0 S,0,91195,91927,0.46 R,0,91195,91927,-0.09 C,0,91195,91927,53,26,89
Sprite,Background,Centre,"sb\rs.png",210,364 M,1,91221,91953,210,364,110,390 F,0,91221,91953,0.8,0 S,0,91221,91953,0.31 R,0,91221,91953,-0.17 C,0,91221,91953,60,27,93
Sprite,Background,Centre,"sb\rs.png",334,240 M,1,91291,92023,334,240,234,296 F,0,91291,92023,0.8,0 S,0,91291,92023,0.34 R,0,91291,92023,-0.27 C,0,91291,92023,59,24,90
Sprite,Background,Centre,"sb\rs.png",123,428 M,1,91250,91982,123,428,23,429 F,0,91250,91982,0.8,0 S,0,91250,91982,0.41 R,0,91250,91982,-0.1 C,0,91250,91982,58,24,93
Sprite,Background,Centre,"sb\rs.png",213,303 M,1,91479,92211,213,303,113,332 F,0,91479,92211,0.8,0 S,0,91479,92211,0.37 R,0,91479,92211,-0.17 C,0,91479,92211,54,22,94
Sprite,Background,Centre,"sb\rs.png",158,436 M,1,91621,92353,158,436,58,445 F,0,91621,92353,0.8,0 S,0,91621,92353,0.32 R,0,91621,92353,-0.13 C,0,91621,92353,59,26,94
Sprite,Background,Centre,"sb\rs.png",124,395 M,1,91749,92481,124,395,24,397 F,0,91749,92481,0.8,0 S,0,91749,92481,0.36 R,0,91749,92481,-0.1 C,0,91749,92481,52,25,87
Sprite,Background,Centre,"sb\rs.png",244,294 M,1,91779,92511,244,294,144,326 F,0,91779,92511,0.8,0 S,0,91779,92511,0.32 R,0,91779,92511,-0.2 C,0,91779,92511,52,23,96
Sprite,Background,Centre,"sb\rs.png",366,276 M,1,91804,92536,366,276,266,310 F,0,91804,92536,0.8,0 S,0,91804,92536,0.49 R,0,91804,92536,-0.29 C,0,91804,92536,49,26,92
Sprite,Background,Centre,"sb\rs.png",171,298 M,1,91881,92613,171,298,71,329 F,0,91881,92613,0.8,0 S,0,91881,92613,0.47 R,0,91881,92613,-0.14 C,0,91881,92613,50,22,97
Sprite,Background,Centre,"sb\rs.png",360,227 M,1,92147,92879,360,227,260,292 F,0,92147,92879,0.8,0 S,0,92147,92879,0.32 R,0,92147,92879,-0.29 C,0,92147,92879,54,21,90
Sprite,Background,Centre,"sb\rs.png",145,369 M,1,92077,92809,145,369,45,372 F,0,92077,92809,0.8,0 S,0,92077,92809,0.45 R,0,92077,92809,-0.12 C,0,92077,92809,55,24,87
Sprite,Background,Centre,"sb\rs.png",215,327 M,1,92174,92906,215,327,115,344 F,0,92174,92906,0.8,0 S,0,92174,92906,0.45 R,0,92174,92906,-0.17 C,0,92174,92906,60,22,89
Sprite,Background,Centre,"sb\rs.png",318,353 M,1,92403,93135,318,353,218,357 F,0,92403,93135,0.8,0 S,0,92403,93135,0.39 R,0,92403,93135,-0.25 C,0,92403,93135,51,24,95
Sprite,Background,Centre,"sb\rs.png",266,281 M,1,92456,93188,266,281,166,314 F,0,92456,93188,0.8,0 S,0,92456,93188,0.32 R,0,92456,93188,-0.21 C,0,92456,93188,50,27,95
Sprite,Background,Centre,"sb\rs.png",324,333 M,1,92363,93095,324,333,224,351 F,0,92363,93095,0.8,0 S,0,92363,93095,0.44 R,0,92363,93095,-0.26 C,0,92363,93095,58,22,92
Sprite,Background,Centre,"sb\rs.png",263,293 M,1,92530,93262,263,293,163,325 F,0,92530,93262,0.8,0 S,0,92530,93262,0.43 R,0,92530,93262,-0.21 C,0,92530,93262,58,26,95
Sprite,Background,Centre,"sb\rs.png",168,403 M,1,92623,93355,168,403,68,417 F,0,92623,93355,0.8,0 S,0,92623,93355,0.46 R,0,92623,93355,-0.13 C,0,92623,93355,58,22,96
Sprite,Background,Centre,"sb\rs.png",264,369 M,1,92884,93616,264,369,164,367 F,0,92884,93616,0.8,0 S,0,92884,93616,0.39 R,0,92884,93616,-0.21 C,0,92884,93616,48,23,90
Sprite,Background,Centre,"sb\rs.png",102,408 M,1,92791,93523,102,408,2,402 F,0,92791,93523,0.8,0 S,0,92791,93523,0.42 R,0,92791,93523,-0.08 C,0,92791,93523,48,22,92
Sprite,Background,Centre,"sb\rs.png",171,300 M,1,93047,93779,171,300,71,330 F,0,93047,93779,0.8,0 S,0,93047,93779,0.32 R,0,93047,93779,-0.14 C,0,93047,93779,52,23,88
Sprite,Background,Centre,"sb\rs.png",154,405 M,1,93112,93844,154,405,54,393 F,0,93112,93844,0.8,0 S,0,93112,93844,0.4 R,0,93112,93844,-0.12 C,0,93112,93844,53,26,89
Sprite,Background,Centre,"sb\rs.png",278,339 M,1,92973,93705,278,339,178,359 F,0,92973,93705,0.8,0 S,0,92973,93705,0.3 R,0,92973,93705,-0.22 C,0,92973,93705,58,23,89
Sprite,Background,Centre,"sb\rs.png",341,308 M,1,93149,93881,341,308,241,335 F,0,93149,93881,0.8,0 S,0,93149,93881,0.46 R,0,93149,93881,-0.27 C,0,93149,93881,52,25,94
Sprite,Background,Centre,"sb\rs.png",125,400 M,1,93233,93965,125,400,25,419 F,0,93233,93965,0.8,0 S,0,93233,93965,0.37 R,0,93233,93965,-0.1 C,0,93233,93965,51,24,94
Sprite,Background,Centre,"sb\rs.png",205,353 M,1,93474,94206,205,353,105,363 F,0,93474,94206,0.8,0 S,0,93474,94206,0.44 R,0,93474,94206,-0.16 C,0,93474,94206,56,24,90
Sprite,Background,Centre,"sb\rs.png",71,306 M,1,93398,94130,71,306,-29,334 F,0,93398,94130,0.8,0 S,0,93398,94130,0.36 R,0,93398,94130,-0.06 C,0,93398,94130,51,26,86
Sprite,Background,Centre,"sb\rs.png",41,309 M,1,93457,94189,41,309,-59,337 F,0,93457,94189,0.8,0 S,0,93457,94189,0.38 R,0,93457,94189,-0.03 C,0,93457,94189,59,21,97
Sprite,Background,Centre,"sb\rs.png",148,431 M,1,93731,94463,148,431,48,402 F,0,93731,94463,0.8,0 S,0,93731,94463,0.33 R,0,93731,94463,-0.12 C,0,93731,94463,53,22,87
Sprite,Background,Centre,"sb\rs.png",94,352 M,1,93850,94582,94,352,-6,364 F,0,93850,94582,0.8,0 S,0,93850,94582,0.36 R,0,93850,94582,-0.08 C,0,93850,94582,52,25,94
Sprite,Background,Centre,"sb\rs.png",297,357 M,1,152846,153578,297,357,197,373 F,0,152846,153578,0.8,0 S,0,152846,153578,0.39 R,0,152846,153578,-0.24 C,0,152846,153578,53,25,95
Sprite,Background,Centre,"sb\rs.png",163,303 M,1,152909,153641,163,303,63,332 F,0,152909,153641,0.8,0 S,0,152909,153641,0.49 R,0,152909,153641,-0.13 C,0,152909,153641,52,22,90
Sprite,Background,Centre,"sb\rs.png",198,333 M,1,152926,153658,198,333,98,350 F,0,152926,153658,0.8,0 S,0,152926,153658,0.45 R,0,152926,153658,-0.16 C,0,152926,153658,59,22,87
Sprite,Background,Centre,"sb\rs.png",242,270 M,1,153015,153747,242,270,142,306 F,0,153015,153747,0.8,0 S,0,153015,153747,0.47 R,0,153015,153747,-0.19 C,0,153015,153747,60,21,88
Sprite,Background,Centre,"sb\rs.png",134,286 M,1,153030,153762,134,286,34,319 F,0,153030,153762,0.8,0 S,0,153030,153762,0.48 R,0,153030,153762,-0.11 C,0,153030,153762,53,23,87
Sprite,Background,Centre,"sb\rs.png",286,245 M,1,153269,154001,286,245,186,277 F,0,153269,154001,0.8,0 S,0,153269,154001,0.37 R,0,153269,154001,-0.23 C,0,153269,154001,58,25,93
Sprite,Background,Centre,"sb\rs.png",269,327 M,1,153421,154153,269,327,169,355 F,0,153421,154153,0.8,0 S,0,153421,154153,0.47 R,0,153421,154153,-0.22 C,0,153421,154153,57,27,97
Sprite,Background,Centre,"sb\rs.png",158,363 M,1,153351,154083,158,363,58,390 F,0,153351,154083,0.8,0 S,0,153351,154083,0.38 R,0,153351,154083,-0.13 C,0,153351,154083,52,27,97
Sprite,Background,Centre,"sb\rs.png",219,364 M,1,153321,154053,219,364,119,367 F,0,153321,154053,0.8,0 S,0,153321,154053,0.32 R,0,153321,154053,-0.18 C,0,153321,154053,58,26,87
Sprite,Background,Centre,"sb\rs.png",301,264 M,1,153649,154381,301,264,201,306 F,0,153649,154381,0.8,0 S,0,153649,154381,0.44 R,0,153649,154381,-0.24 C,0,153649,154381,51,22,91
Sprite,Background,Centre,"sb\rs.png",287,276 M,1,153503,154235,287,276,187,310 F,0,153503,154235,0.8,0 S,0,153503,154235,0.4 R,0,153503,154235,-0.23 C,0,153503,154235,56,23,94
Sprite,Background,Centre,"sb\rs.png",250,315 M,1,153639,154371,250,315,150,344 F,0,153639,154371,0.8,0 S,0,153639,154371,0.33 R,0,153639,154371,-0.2 C,0,153639,154371,58,22,87
Sprite,Background,Centre,"sb\rs.png",313,394 M,1,153770,154502,313,394,213,390 F,0,153770,154502,0.8,0 S,0,153770,154502,0.45 R,0,153770,154502,-0.25 C,0,153770,154502,55,25,89
Sprite,Background,Centre,"sb\rs.png",205,405 M,1,153876,154608,205,405,105,430 F,0,153876,154608,0.8,0 S,0,153876,154608,0.48 R,0,153876,154608,-0.16 C,0,153876,154608,59,23,87
Sprite,Background,Centre,"sb\rs.png",229,418 M,1,154051,154783,229,418,129,430 F,0,154051,154783,0.8,0 S,0,154051,154783,0.33 R,0,154051,154783,-0.18 C,0,154051,154783,55,26,93
Sprite,Background,Centre,"sb\rs.png",223,342 M,1,154084,154816,223,342,123,363 F,0,154084,154816,0.8,0 S,0,154084,154816,0.37 R,0,154084,154816,-0.18 C,0,154084,154816,51,25,92
Sprite,Background,Centre,"sb\rs.png",271,336 M,1,154285,155017,271,336,171,365 F,0,154285,155017,0.8,0 S,0,154285,155017,0.31 R,0,154285,155017,-0.22 C,0,154285,155017,56,24,87
Sprite,Background,Centre,"sb\rs.png",91,391 M,1,154238,154970,91,391,-9,392 F,0,154238,154970,0.8,0 S,0,154238,154970,0.37 R,0,154238,154970,-0.07 C,0,154238,154970,48,26,97
Sprite,Background,Centre,"sb\rs.png",170,346 M,1,154305,155037,170,346,70,373 F,0,154305,155037,0.8,0 S,0,154305,155037,0.44 R,0,154305,155037,-0.14 C,0,154305,155037,48,26,89
Sprite,Background,Centre,"sb\rs.png",218,408 M,1,154455,155187,218,408,118,398 F,0,154455,155187,0.8,0 S,0,154455,155187,0.4 R,0,154455,155187,-0.17 C,0,154455,155187,59,23,97
Sprite,Background,Centre,"sb\rs.png",46,312 M,1,154634,155366,46,312,-54,337 F,0,154634,155366,0.8,0 S,0,154634,155366,0.41 R,0,154634,155366,-0.04 C,0,154634,155366,53,21,96
Sprite,Background,Centre,"sb\rs.png",148,426 M,1,154579,155311,148,426,48,419 F,0,154579,155311,0.8,0 S,0,154579,155311,0.48 R,0,154579,155311,-0.12 C,0,154579,155311,51,24,88
Sprite,Background,Centre,"sb\rs.png",280,298 M,1,154563,155295,280,298,180,328 F,0,154563,155295,0.8,0 S,0,154563,155295,0.37 R,0,154563,155295,-0.22 C,0,154563,155295,55,23,86
Sprite,Background,Centre,"sb\rs.png",131,408 M,1,154674,155406,131,408,31,394 F,0,154674,155406,0.8,0 S,0,154674,155406,0.43 R,0,154674,155406,-0.1 C,0,154674,155406,49,25,89
Sprite,Background,Centre,"sb\rs.png",366,259 M,1,154745,155477,366,259,266,303 F,0,154745,155477,0.8,0 S,0,154745,155477,0.35 R,0,154745,155477,-0.29 C,0,154745,155477,51,25,88
Sprite,Background,Centre,"sb\rs.png",318,326 M,1,154905,155637,318,326,218,354 F,0,154905,155637,0.8,0 S,0,154905,155637,0.44 R,0,154905,155637,-0.25 C,0,154905,155637,53,24,88
Sprite,Background,Centre,"sb\rs.png",143,367 M,1,154981,155713,143,367,43,378 F,0,154981,155713,0.8,0 S,0,154981,155713,0.47 R,0,154981,155713,-0.11 C,0,154981,155713,53,25,91
Sprite,Background,Centre,"sb\rs.png",293,304 M,1,155128,155860,293,304,193,334 F,0,155128,155860,0.8,0 S,0,155128,155860,0.34 R,0,155128,155860,-0.23 C,0,155128,155860,59,26,90
Sprite,Background,Centre,"sb\rs.png",352,249 M,1,155306,156038,352,249,252,292 F,0,155306,156038,0.8,0 S,0,155306,156038,0.4 R,0,155306,156038,-0.28 C,0,155306,156038,51,21,92
Sprite,Background,Centre,"sb\rs.png",302,313 M,1,155380,156112,302,313,202,341 F,0,155380,156112,0.8,0 S,0,155380,156112,0.38 R,0,155380,156112,-0.24 C,0,155380,156112,58,27,92
Sprite,Background,Centre,"sb\rs.png",122,310 M,1,155577,156309,122,310,22,337 F,0,155577,156309,0.8,0 S,0,155577,156309,0.34 R,0,155577,156309,-0.1 C,0,155577,156309,54,23,98
Sprite,Background,Centre,"sb\rs.png",112,331 M,1,155461,156193,112,331,12,353 F,0,155461,156193,0.8,0 S,0,155461,156193,0.49 R,0,155461,156193,-0.09 C,0,155461,156193,51,24,88
Sprite,Background,Centre,"sb\rs.png",245,402 M,1,155662,156394,245,402,145,389 F,0,155662,156394,0.8,0 S,0,155662,156394,0.31 R,0,155662,156394,-0.2 C,0,155662,156394,52,27,90
Sprite,Background,Centre,"sb\rs.png",236,361 M,1,155728,156460,236,361,136,362 F,0,155728,156460,0.8,0 S,0,155728,156460,0.49 R,0,155728,156460,-0.19 C,0,155728,156460,58,23,91
Sprite,Background,Centre,"sb\rs.png",332,288 M,1,155926,156658,332,288,232,320 F,0,155926,156658,0.8,0 S,0,155926,156658,0.5 R,0,155926,156658,-0.27 C,0,155926,156658,56,27,89
Sprite,Background,Centre,"sb\rs.png",111,292 M,1,155776,156508,111,292,11,322 F,0,155776,156508,0.8,0 S,0,155776,156508,0.32 R,0,155776,156508,-0.09 C,0,155776,156508,55,22,92
Sprite,Background,Centre,"sb\rs.png",379,357 M,1,155919,156651,379,357,279,381 F,0,155919,156651,0.8,0 S,0,155919,156651,0.33 R,0,155919,156651,-0.3 C,0,155919,156651,50,24,91
Sprite,Background,Centre,"sb\rs.png",349,282 M,1,156131,156863,349,282,249,313 F,0,156131,156863,0.8,0 S,0,156131,156863,0.46 R,0,156131,156863,-0.28 C,0,156131,156863,51,26,91
Sprite,Background,Centre,"sb\rs.png",305,329 M,1,156065,156797,305,329,205,357 F,0,156065,156797,0.8,0 S,0,156065,156797,0.31 R,0,156065,156797,-0.24 C,0,156065,156797,54,23,97
Sprite,Background,Centre,"sb\rs.png",229,328 M,1,156335,157067,229,328,129,355 F,0,156335,157067,0.8,0 S,0,156335,157067,0.36 R,0,156335,157067,-0.18 C,0,156335,157067,52,21,92
Sprite,Background,Centre,"sb\rs.png",163,343 M,1,156344,157076,163,343,63,372 F,0,156344,157076,0.8,0 S,0,156344,157076,0.38 R,0,156344,157076,-0.13 C,0,156344,157076,50,25,88
Sprite,Background,Centre,"sb\rs.png",288,391 M,1,156334,157066,288,391,188,395 F,0,156334,157066,0.8,0 S,0,156334,157066,0.46 R,0,156334,157066,-0.23 C,0,156334,157066,49,24,86
Sprite,Background,Centre,"sb\rs.png",351,275 M,1,156487,157219,351,275,251,311 F,0,156487,157219,0.8,0 S,0,156487,157219,0.43 R,0,156487,157219,-0.28 C,0,156487,157219,51,25,91
Sprite,Background,Centre,"sb\rs.png",159,354 M,1,156662,157394,159,354,59,376 F,0,156662,157394,0.8,0 S,0,156662,157394,0.42 R,0,156662,157394,-0.13 C,0,156662,157394,56,25,87
Sprite,Background,Centre,"sb\rs.png",124,318 M,1,156760,157492,124,318,24,342 F,0,156760,157492,0.8,0 S,0,156760,157492,0.46 R,0,156760,157492,-0.1 C,0,156760,157492,56,27,90
Sprite,Background,Centre,"sb\rs.png",136,428 M,1,156836,157568,136,428,36,399 F,0,156836,157568,0.8,0 S,0,156836,157568,0.33 R,0,156836,157568,-0.11 C,0,156836,157568,56,27,95
Sprite,Background,Centre,"sb\rs.png",191,310 M,1,156948,157680,191,310,91,337 F,0,156948,157680,0.8,0 S,0,156948,157680,0.42 R,0,156948,157680,-0.15 C,0,156948,157680,50,24,93
Sprite,Background,Centre,"sb\rs.png",373,261 M,1,157037,157769,373,261,273,297 F,0,157037,157769,0.8,0 S,0,157037,157769,0.37 R,0,157037,157769,-0.3 C,0,157037,157769,55,25,89
Sprite,Background,Centre,"sb\rs.png",203,421 M,1,157151,157883,203,421,103,432 F,0,157151,157883,0.8,0 S,0,157151,157883,0.44 R,0,157151,157883,-0.16 C,0,157151,157883,56,24,92
Sprite,Background,Centre,"sb\rs.png",70,456 M,1,157101,157833,70,456,-30,423 F,0,157101,157833,0.8,0 S,0,157101,157833,0.4 R,0,157101,157833,-0.06 C,0,157101,157833,53,23,88
Sprite,Background,Centre,"sb\rs.png",326,276 M,1,157362,158094,326,276,226,315 F,0,157362,158094,0.8,0 S,0,157362,158094,0.48 R,0,157362,158094,-0.26 C,0,157362,158094,49,26,97
Sprite,Background,Centre,"sb\rs.png",74,301 M,1,157303,158035,74,301,-26,331 F,0,157303,158035,0.8,0 S,0,157303,158035,0.39 R,0,157303,158035,-0.06 C,0,157303,158035,57,26,88
Sprite,Background,Centre,"sb\rs.png",96,400 M,1,157361,158093,96,400,-4,422 F,0,157361,158093,0.8,0 S,0,157361,158093,0.3 R,0,157361,158093,-0.08 C,0,157361,158093,59,22,92
Sprite,Background,Centre,"sb\rs.png",364,376 M,1,157648,158380,364,376,264,378 F,0,157648,158380,0.8,0 S,0,157648,158380,0.47 R,0,157648,158380,-0.29 C,0,157648,158380,55,24,95
Sprite,Background,Centre,"sb\rs.png",329,288 M,1,157500,158232,329,288,229,318 F,0,157500,158232,0.8,0 S,0,157500,158232,0.33 R,0,157500,158232,-0.26 C,0,157500,158232,56,24,90
Sprite,Background,Centre,"sb\rs.png",266,275 M,1,157758,158490,266,275,166,311 F,0,157758,158490,0.8,0 S,0,157758,158490,0.33 R,0,157758,158490,-0.21 C,0,157758,158490,56,21,96
Sprite,Background,Centre,"sb\rs.png",276,303 M,1,157692,158424,276,303,176,332 F,0,157692,158424,0.8,0 S,0,157692,158424,0.48 R,0,157692,158424,-0.22 C,0,157692,158424,59,24,97
Sprite,Background,Centre,"sb\rs.png",366,360 M,1,157957,158689,366,360,266,388 F,0,157957,158689,0.8,0 S,0,157957,158689,0.44 R,0,157957,158689,-0.29 C,0,157957,158689,58,27,89
Sprite,Background,Centre,"sb\rs.png",213,367 M,1,157895,158627,213,367,113,384 F,0,157895,158627,0.8,0 S,0,157895,158627,0.35 R,0,157895,158627,-0.17 C,0,157895,158627,54,24,92
Sprite,Background,Centre,"sb\rs.png",343,276 M,1,157963,158695,343,276,243,310 F,0,157963,158695,0.8,0 S,0,157963,158695,0.31 R,0,157963,158695,-0.27 C,0,157963,158695,56,25,92
Sprite,Background,Centre,"sb\rs.png",292,287 M,1,158006,158738,292,287,192,321 F,0,158006,158738,0.8,0 S,0,158006,158738,0.5 R,0,158006,158738,-0.23 C,0,158006,158738,51,25,94
Sprite,Background,Centre,"sb\rs.png",201,401 M,1,158269,159001,201,401,101,422 F,0,158269,159001,0.8,0 S,0,158269,159001,0.48 R,0,158269,159001,-0.16 C,0,158269,159001,49,22,89
Sprite,Background,Centre,"sb\rs.png",81,376 M,1,158340,159072,81,376,-19,375 F,0,158340,159072,0.8,0 S,0,158340,159072,0.41 R,0,158340,159072,-0.06 C,0,158340,159072,57,22,88
Sprite,Background,Centre,"sb\rs.png",140,304 M,1,158537,159269,140,304,40,332 F,0,158537,159269,0.8,0 S,0,158537,159269,0.36 R,0,158537,159269,-0.11 C,0,158537,159269,58,25,89
Sprite,Background,Centre,"sb\rs.png",128,419 M,1,158625,159357,128,419,28,391 F,0,158625,159357,0.8,0 S,0,158625,159357,0.36 R,0,158625,159357,-0.1 C,0,158625,159357,58,23,91
Sprite,Background,Centre,"sb\rs.png",89,327 M,1,158681,159413,89,327,-11,354 F,0,158681,159413,0.8,0 S,0,158681,159413,0.44 R,0,158681,159413,-0.07 C,0,158681,159413,55,25,91
Sprite,Background,Centre,"sb\rs.png",137,337 M,1,158786,159518,137,337,37,366 F,0,158786,159518,0.8,0 S,0,158786,159518,0.45 R,0,158786,159518,-0.11 C,0,158786,159518,53,26,87
Sprite,Background,Centre,"sb\rs.png",263,338 M,1,158758,159490,263,338,163,355 F,0,158758,159490,0.8,0 S,0,158758,159490,0.36 R,0,158758,159490,-0.21 C,0,158758,159490,49,26,89
Sprite,Background,Centre,"sb\rs.png",201,357 M,1,158830,159562,201,357,101,381 F,0,158830,159562,0.8,0 S,0,158830,159562,0.37 R,0,158830,159562,-0.16 C,0,158830,159562,57,23,98
Sprite,Background,Centre,"sb\rs.png",347,288 M,1,158853,159585,347,288,247,321 F,0,158853,159585,0.8,0 S,0,158853,159585,0.46 R,0,158853,159585,-0.28 C,0,158853,159585,57,22,92
Sprite,Background,Centre,"sb\rs.png",336,360 M,1,159042,159774,336,360,236,363 F,0,159042,159774,0.8,0 S,0,159042,159774,0.5 R,0,159042,159774,-0.27 C,0,159042,159774,53,22,89
Sprite,Background,Centre,"sb\rs.png",56,402 M,1,159265,159997,56,402,-44,413 F,0,159265,159997,0.8,0 S,0,159265,159997,0.48 R,0,159265,159997,-0.04 C,0,159265,159997,59,24,95
Sprite,Background,Centre,"sb\rs.png",349,256 M,1,159261,159993,349,256,249,307 F,0,159261,159993,0.8,0 S,0,159261,159993,0.48 R,0,159261,159993,-0.28 C,0,159261,159993,56,23,90
Sprite,Background,Centre,"sb\rs.png",365,227 M,1,159200,159932,365,227,265,281 F,0,159200,159932,0.8,0 S,0,159200,159932,0.34 R,0,159200,159932,-0.29 C,0,159200,159932,55,26,89
Sprite,Background,Centre,"sb\rs.png",53,420 M,1,159379,160111,53,420,-47,394 F,0,159379,160111,0.8,0 S,0,159379,160111,0.48 R,0,159379,160111,-0.04 C,0,159379,160111,52,25,91
Sprite,Background,Centre,"sb\rs.png",319,312 M,1,159354,160086,319,312,219,339 F,0,159354,160086,0.8,0 S,0,159354,160086,0.39 R,0,159354,160086,-0.26 C,0,159354,160086,57,24,86
Sprite,Background,Centre,"sb\rs.png",161,363 M,1,159518,160250,161,363,61,366 F,0,159518,160250,0.8,0 S,0,159518,160250,0.36 R,0,159518,160250,-0.13 C,0,159518,160250,49,24,89
Sprite,Background,Centre,"sb\rs.png",311,383 M,1,159701,160433,311,383,211,372 F,0,159701,160433,0.8,0 S,0,159701,160433,0.39 R,0,159701,160433,-0.25 C,0,159701,160433,57,23,90
Sprite,Background,Centre,"sb\rs.png",116,444 M,1,159626,160358,116,444,16,422 F,0,159626,160358,0.8,0 S,0,159626,160358,0.37 R,0,159626,160358,-0.09 C,0,159626,160358,53,24,93
Sprite,Background,Centre,"sb\rs.png",247,340 M,1,159983,160715,247,340,147,366 F,0,159983,160715,0.8,0 S,0,159983,160715,0.41 R,0,159983,160715,-0.2 C,0,159983,160715,59,25,90
Sprite,Background,Centre,"sb\rs.png",344,333 M,1,159959,160691,344,333,244,357 F,0,159959,160691,0.8,0 S,0,159959,160691,0.32 R,0,159959,160691,-0.28 C,0,159959,160691,50,22,95
Sprite,Background,Centre,"sb\rs.png",107,445 M,1,159892,160624,107,445,7,458 F,0,159892,160624,0.8,0 S,0,159892,160624,0.39 R,0,159892,160624,-0.09 C,0,159892,160624,48,24,94
Sprite,Background,Centre,"sb\rs.png",88,406 M,1,160071,160803,88,406,-12,398 F,0,160071,160803,0.8,0 S,0,160071,160803,0.44 R,0,160071,160803,-0.07 C,0,160071,160803,60,23,93
Sprite,Background,Centre,"sb\rs.png",150,326 M,1,160166,160898,150,326,50,356 F,0,160166,160898,0.8,0 S,0,160166,160898,0.38 R,0,160166,160898,-0.12 C,0,160166,160898,51,22,87
Sprite,Background,Centre,"sb\rs.png",339,343 M,1,160202,160934,339,343,239,355 F,0,160202,160934,0.8,0 S,0,160202,160934,0.39 R,0,160202,160934,-0.27 C,0,160202,160934,49,23,95
Sprite,Background,Centre,"sb\rs.png",112,332 M,1,160369,161101,112,332,12,360 F,0,160369,161101,0.8,0 S,0,160369,161101,0.38 R,0,160369,161101,-0.09 C,0,160369,161101,56,21,86
Sprite,Background,Centre,"sb\rs.png",310,254 M,1,160564,161296,310,254,210,289 F,0,160564,161296,0.8,0 S,0,160564,161296,0.46 R,0,160564,161296,-0.25 C,0,160564,161296,58,25,91
Sprite,Background,Centre,"sb\rs.png",94,358 M,1,160580,161312,94,358,-6,385 F,0,160580,161312,0.8,0 S,0,160580,161312,0.37 R,0,160580,161312,-0.08 C,0,160580,161312,56,22,92
Sprite,Background,Centre,"sb\rs.png",365,228 M,1,160627,161359,365,228,265,282 F,0,160627,161359,0.8,0 S,0,160627,161359,0.45 R,0,160627,161359,-0.29 C,0,160627,161359,55,25,88
Sprite,Background,Centre,"sb\rs.png",99,304 M,1,160685,161417,99,304,-1,333 F,0,160685,161417,0.8,0 S,0,160685,161417,0.32 R,0,160685,161417,-0.08 C,0,160685,161417,58,27,89
Sprite,Background,Centre,"sb\rs.png",197,369 M,1,160810,161542,197,369,97,380 F,0,160810,161542,0.8,0 S,0,160810,161542,0.46 R,0,160810,161542,-0.16 C,0,160810,161542,58,24,88
Sprite,Background,Centre,"sb\rs.png",241,364 M,1,160860,161592,241,364,141,378 F,0,160860,161592,0.8,0 S,0,160860,161592,0.39 R,0,160860,161592,-0.19 C,0,160860,161592,55,22,98
Sprite,Background,Centre,"sb\rs.png",54,323 M,1,160869,161601,54,323,-46,353 F,0,160869,161601,0.8,0 S,0,160869,161601,0.5 R,0,160869,161601,-0.04 C,0,160869,161601,52,27,87
Sprite,Background,Centre,"sb\rs.png",279,367 M,1,161157,161889,279,367,179,383 F,0,161157,161889,0.8,0 S,0,161157,161889,0.42 R,0,161157,161889,-0.22 C,0,161157,161889,54,25,90
Sprite,Background,Centre,"sb\rs.png",279,382 M,1,161278,162010,279,382,179,376 F,0,161278,162010,0.8,0 S,0,161278,162010,0.35 R,0,161278,162010,-0.22 C,0,161278,162010,53,26,95
Sprite,Background,Centre,"sb\rs.png",169,294 M,1,161398,162130,169,294,69,325 F,0,161398,162130,0.8,0 S,0,161398,162130,0.48 R,0,161398,162130,-0.13 C,0,161398,162130,52,24,98
Sprite,Background,Centre,"sb\rs.png",156,371 M,1,161324,162056,156,371,56,366 F,0,161324,162056,0.8,0 S,0,161324,162056,0.37 R,0,161324,162056,-0.12 C,0,161324,162056,57,27,92
Sprite,Background,Centre,"sb\rs.png",276,393 M,1,161358,162090,276,393,176,384 F,0,161358,162090,0.8,0 S,0,161358,162090,0.38 R,0,161358,162090,-0.22 C,0,161358,162090,52,23,87
Sprite,Background,Centre,"sb\rs.png",165,350 M,1,161692,162424,165,350,65,375 F,0,161692,162424,0.8,0 S,0,161692,162424,0.33 R,0,161692,162424,-0.13 C,0,161692,162424,58,25,88
Sprite,Background,Centre,"sb\rs.png",230,395 M,1,161550,162282,230,395,130,407 F,0,161550,162282,0.8,0 S,0,161550,162282,0.4 R,0,161550,162282,-0.18 C,0,161550,162282,49,27,97
Sprite,Background,Centre,"sb\rs.png",154,318 M,1,161650,162382,154,318,54,342 F,0,161650,162382,0.8,0 S,0,161650,162382,0.41 R,0,161650,162382,-0.12 C,0,161650,162382,59,24,92
Sprite,Background,Centre,"sb\rs.png",152,318 M,1,161920,162652,152,318,52,339 F,0,161920,162652,0.8,0 S,0,161920,162652,0.39 R,0,161920,162652,-0.12 C,0,161920,162652,59,26,93
Sprite,Background,Centre,"sb\rs.png",235,315 M,1,161939,162671,235,315,135,340 F,0,161939,162671,0.8,0 S,0,161939,162671,0.47 R,0,161939,162671,-0.19 C,0,161939,162671,51,24,95
Sprite,Background,Centre,"sb\rs.png",193,295 M,1,162027,162759,193,295,93,327 F,0,162027,162759,0.8,0 S,0,162027,162759,0.36 R,0,162027,162759,-0.15 C,0,162027,162759,56,22,90
Sprite,Background,Centre,"sb\rs.png",309,247 M,1,161961,162693,309,247,209,300 F,0,161961,162693,0.8,0 S,0,161961,162693,0.44 R,0,161961,162693,-0.25 C,0,161961,162693,59,21,89
Sprite,Background,Centre,"sb\rs.png",63,400 M,1,162137,162869,63,400,-37,423 F,0,162137,162869,0.8,0 S,0,162137,162869,0.31 R,0,162137,162869,-0.05 C,0,162137,162869,53,23,94
Sprite,Background,Centre,"sb\rs.png",287,333 M,1,162364,163096,287,333,187,349 F,0,162364,163096,0.8,0 S,0,162364,163096,0.35 R,0,162364,163096,-0.23 C,0,162364,163096,53,25,91
Sprite,Background,Centre,"sb\rs.png",263,333 M,1,162503,163235,263,333,163,352 F,0,162503,163235,0.8,0 S,0,162503,163235,0.47 R,0,162503,163235,-0.21 C,0,162503,163235,58,25,94
Sprite,Background,Centre,"sb\rs.png",296,263 M,1,162532,163264,296,263,196,303 F,0,162532,163264,0.8,0 S,0,162532,163264,0.37 R,0,162532,163264,-0.24 C,0,162532,163264,52,23,96
Sprite,Background,Centre,"sb\rs.png",260,255 M,1,162660,163392,260,255,160,295 F,0,162660,163392,0.8,0 S,0,162660,163392,0.5 R,0,162660,163392,-0.21 C,0,162660,163392,59,27,92
Sprite,Background,Centre,"sb\rs.png",216,305 M,1,162570,163302,216,305,116,333 F,0,162570,163302,0.8,0 S,0,162570,163302,0.4 R,0,162570,163302,-0.17 C,0,162570,163302,60,25,90
Sprite,Background,Centre,"sb\rs.png",59,385 M,1,162807,163539,59,385,-41,406 F,0,162807,163539,0.8,0 S,0,162807,163539,0.32 R,0,162807,163539,-0.05 C,0,162807,163539,59,27,91
Sprite,Background,Centre,"sb\rs.png",228,378 M,1,162896,163628,228,378,128,394 F,0,162896,163628,0.8,0 S,0,162896,163628,0.36 R,0,162896,163628,-0.18 C,0,162896,163628,58,24,91
Sprite,Background,Centre,"sb\rs.png",73,413 M,1,162800,163532,73,413,-27,439 F,0,162800,163532,0.8,0 S,0,162800,163532,0.37 R,0,162800,163532,-0.06 C,0,162800,163532,52,24,87
Sprite,Background,Centre,"sb\rs.png",350,357 M,1,162922,163654,350,357,250,384 F,0,162922,163654,0.8,0 S,0,162922,163654,0.35 R,0,162922,163654,-0.28 C,0,162922,163654,52,24,95
Sprite,Background,Centre,"sb\rs.png",317,377 M,1,162933,163665,317,377,217,376 F,0,162933,163665,0.8,0 S,0,162933,163665,0.38 R,0,162933,163665,-0.25 C,0,162933,163665,50,26,89
Sprite,Background,Centre,"sb\rs.png",309,286 M,1,163047,163779,309,286,209,316 F,0,163047,163779,0.8,0 S,0,163047,163779,0.49 R,0,163047,163779,-0.25 C,0,163047,163779,55,24,88
Sprite,Background,Centre,"sb\rs.png",283,397 M,1,163229,163961,283,397,183,381 F,0,163229,163961,0.8,0 S,0,163229,163961,0.44 R,0,163229,163961,-0.23 C,0,163229,163961,50,23,92
Sprite,Background,Centre,"sb\rs.png",94,410 M,1,163342,164074,94,410,-6,417 F,0,163342,164074,0.8,0 S,0,163342,164074,0.39 R,0,163342,164074,-0.08 C,0,163342,164074,57,26,97
Sprite,Background,Centre,"sb\rs.png",168,367 M,1,163329,164061,168,367,68,367 F,0,163329,164061,0.8,0 S,0,163329,164061,0.39 R,0,163329,164061,-0.13 C,0,163329,164061,56,23,95
Sprite,Background,Centre,"sb\rs.png",165,339 M,1,163438,164170,165,339,65,368 F,0,163438,164170,0.8,0 S,0,163438,164170,0.31 R,0,163438,164170,-0.13 C,0,163438,164170,57,24,91
Sprite,Background,Centre,"sb\rs.png",70,348 M,1,163577,164309,70,348,-30,377 F,0,163577,164309,0.8,0 S,0,163577,164309,0.49 R,0,163577,164309,-0.06 C,0,163577,164309,59,25,96
Sprite,Background,Centre,"sb\rs.png",308,338 M,1,163613,164345,308,338,208,363 F,0,163613,164345,0.8,0 S,0,163613,164345,0.41 R,0,163613,164345,-0.25 C,0,163613,164345,49,22,86
Sprite,Background,Centre,"sb\rs.png",199,371 M,1,163706,164438,199,371,99,371 F,0,163706,164438,0.8,0 S,0,163706,164438,0.39 R,0,163706,164438,-0.16 C,0,163706,164438,50,25,91
Sprite,Background,Centre,"sb\rs.png",191,390 M,1,163781,164513,191,390,91,379 F,0,163781,164513,0.8,0 S,0,163781,164513,0.42 R,0,163781,164513,-0.15 C,0,163781,164513,51,22,91
Sprite,Background,Centre,"sb\rs.png",69,358 M,1,163932,164664,69,358,-31,385 F,0,163932,164664,0.8,0 S,0,163932,164664,0.4 R,0,163932,164664,-0.05 C,0,163932,164664,57,26,89
Sprite,Background,Centre,"sb\rs.png",249,310 M,1,163977,164709,249,310,149,335 F,0,163977,164709,0.8,0 S,0,163977,164709,0.39 R,0,163977,164709,-0.2 C,0,163977,164709,51,23,90
Sprite,Background,Centre,"sb\rs.png",72,355 M,1,164233,164965,72,355,-28,360 F,0,164233,164965,0.8,0 S,0,164233,164965,0.49 R,0,164233,164965,-0.06 C,0,164233,164965,51,21,87
Sprite,Background,Centre,"sb\rs.png",203,312 M,1,164247,164979,203,312,103,342 F,0,164247,164979,0.8,0 S,0,164247,164979,0.35 R,0,164247,164979,-0.16 C,0,164247,164979,55,26,90
Sprite,Background,Centre,"sb\rs.png",329,384 M,1,164244,164976,329,384,229,376 F,0,164244,164976,0.8,0 S,0,164244,164976,0.32 R,0,164244,164976,-0.26 C,0,164244,164976,56,25,98
Sprite,Background,Centre,"sb\rs.png",288,384 M,1,164534,165266,288,384,188,376 F,0,164534,165266,0.8,0 S,0,164534,165266,0.36 R,0,164534,165266,-0.23 C,0,164534,165266,55,27,88
Sprite,Background,Centre,"sb\rs.png",225,264 M,1,164639,165371,225,264,125,299 F,0,164639,165371,0.8,0 S,0,164639,165371,0.47 R,0,164639,165371,-0.18 C,0,164639,165371,51,25,90
Sprite,Background,Centre,"sb\rs.png",110,295 M,1,164566,165298,110,295,10,326 F,0,164566,165298,0.8,0 S,0,164566,165298,0.49 R,0,164566,165298,-0.09 C,0,164566,165298,51,24,93
Sprite,Background,Centre,"sb\rs.png",317,243 M,1,164621,165353,317,243,217,274 F,0,164621,165353,0.8,0 S,0,164621,165353,0.48 R,0,164621,165353,-0.25 C,0,164621,165353,51,25,88
Sprite,Background,Centre,"sb\rs.png",212,315 M,1,164645,165377,212,315,112,343 F,0,164645,165377,0.8,0 S,0,164645,165377,0.46 R,0,164645,165377,-0.17 C,0,164645,165377,55,23,97
Sprite,Background,Centre,"sb\rs.png",172,314 M,1,164810,165542,172,314,72,344 F,0,164810,165542,0.8,0 S,0,164810,165542,0.42 R,0,164810,165542,-0.14 C,0,164810,165542,52,25,97
Sprite,Background,Centre,"sb\rs.png",256,281 M,1,164931,165663,256,281,156,318 F,0,164931,165663,0.8,0 S,0,164931,165663,0.49 R,0,164931,165663,-0.2 C,0,164931,165663,53,25,92
Sprite,Background,Centre,"sb\rs.png",275,369 M,1,165030,165762,275,369,175,397 F,0,165030,165762,0.8,0 S,0,165030,165762,0.4 R,0,165030,165762,-0.22 C,0,165030,165762,50,27,87
Sprite,Background,Centre,"sb\rs.png",245,410 M,1,165031,165763,245,410,145,425 F,0,165031,165763,0.8,0 S,0,165031,165763,0.49 R,0,165031,165763,-0.2 C,0,165031,165763,50,25,96
Sprite,Background,Centre,"sb\rs.png",203,380 M,1,165095,165827,203,380,103,406 F,0,165095,165827,0.8,0 S,0,165095,165827,0.5 R,0,165095,165827,-0.16 C,0,165095,165827,53,22,93
Sprite,Background,Centre,"sb\rs.png",63,322 M,1,165389,166121,63,322,-37,344 F,0,165389,166121,0.8,0 S,0,165389,166121,0.32 R,0,165389,166121,-0.05 C,0,165389,166121,50,26,93
Sprite,Background,Centre,"sb\rs.png",198,327 M,1,165298,166030,198,327,98,352 F,0,165298,166030,0.8,0 S,0,165298,166030,0.47 R,0,165298,166030,-0.16 C,0,165298,166030,57,24,97
Sprite,Background,Centre,"sb\rs.png",364,265 M,1,165370,166102,364,265,264,310 F,0,165370,166102,0.8,0 S,0,165370,166102,0.36 R,0,165370,166102,-0.29 C,0,165370,166102,53,22,92
Sprite,Background,Centre,"sb\rs.png",361,267 M,1,165699,166431,361,267,261,304 F,0,165699,166431,0.8,0 S,0,165699,166431,0.32 R,0,165699,166431,-0.29 C,0,165699,166431,50,24,88
Sprite,Background,Centre,"sb\rs.png",66,359 M,1,165550,166282,66,359,-34,376 F,0,165550,166282,0.8,0 S,0,165550,166282,0.4 R,0,165550,166282,-0.05 C,0,165550,166282,50,25,87
Sprite,Background,Centre,"sb\rs.png",181,321 M,1,165712,166444,181,321,81,347 F,0,165712,166444,0.8,0 S,0,165712,166444,0.37 R,0,165712,166444,-0.14 C,0,165712,166444,60,25,87
Sprite,Background,Centre,"sb\rs.png",304,366 M,1,165801,166533,304,366,204,393 F,0,165801,166533,0.8,0 S,0,165801,166533,0.42 R,0,165801,166533,-0.24 C,0,165801,166533,58,24,88
Sprite,Background,Centre,"sb\rs.png",108,439 M,1,166090,166822,108,439,8,409 F,0,166090,166822,0.8,0 S,0,166090,166822,0.43 R,0,166090,166822,-0.09 C,0,166090,166822,48,24,91
Sprite,Background,Centre,"sb\rs.png",218,351 M,1,166082,166814,218,351,118,361 F,0,166082,166814,0.8,0 S,0,166082,166814,0.44 R,0,166082,166814,-0.17 C,0,166082,166814,49,21,92
Sprite,Background,Centre,"sb\rs.png",70,327 M,1,166117,166849,70,327,-30,353 F,0,166117,166849,0.8,0 S,0,166117,166849,0.46 R,0,166117,166849,-0.06 C,0,166117,166849,58,25,96
Sprite,Background,Centre,"sb\rs.png",234,308 M,1,166322,167054,234,308,134,335 F,0,166322,167054,0.8,0 S,0,166322,167054,0.34 R,0,166322,167054,-0.19 C,0,166322,167054,59,23,91
Sprite,Background,Centre,"sb\rs.png",360,359 M,1,166192,166924,360,359,260,360 F,0,166192,166924,0.8,0 S,0,166192,166924,0.41 R,0,166192,166924,-0.29 C,0,166192,166924,52,25,89
Sprite,Background,Centre,"sb\rs.png",227,349 M,1,166313,167045,227,349,127,366 F,0,166313,167045,0.8,0 S,0,166313,167045,0.45 R,0,166313,167045,-0.18 C,0,166313,167045,49,27,91
Sprite,Background,Centre,"sb\rs.png",151,387 M,1,166519,167251,151,387,51,406 F,0,166519,167251,0.8,0 S,0,166519,167251,0.39 R,0,166519,167251,-0.12 C,0,166519,167251,58,22,93
Sprite,Background,Centre,"sb\rs.png",80,416 M,1,166491,167223,80,416,-20,418 F,0,166491,167223,0.8,0 S,0,166491,167223,0.45 R,0,166491,167223,-0.06 C,0,166491,167223,58,23,95
Sprite,Background,Centre,"sb\rs.png",89,352 M,1,166691,167423,89,352,-11,370 F,0,166691,167423,0.8,0 S,0,166691,167423,0.34 R,0,166691,167423,-0.07 C,0,166691,167423,50,21,92
Sprite,Background,Centre,"sb\rs.png",235,314 M,1,166630,167362,235,314,135,341 F,0,166630,167362,0.8,0 S,0,166630,167362,0.3 R,0,166630,167362,-0.19 C,0,166630,167362,53,24,88
Sprite,Background,Centre,"sb\rs.png",123,405 M,1,166781,167513,123,405,23,417 F,0,166781,167513,0.8,0 S,0,166781,167513,0.46 R,0,166781,167513,-0.1 C,0,166781,167513,54,26,95
Sprite,Background,Centre,"sb\rs.png",203,286 M,1,166924,167656,203,286,103,317 F,0,166924,167656,0.8,0 S,0,166924,167656,0.36 R,0,166924,167656,-0.16 C,0,166924,167656,57,26,93
Sprite,Background,Centre,"sb\rs.png",61,452 M,1,166929,167661,61,452,-39,417 F,0,166929,167661,0.8,0 S,0,166929,167661,0.39 R,0,166929,167661,-0.05 C,0,166929,167661,51,24,87
Sprite,Background,Centre,"sb\rs.png",141,295 M,1,167279,168011,141,295,41,325 F,0,167279,168011,0.8,0 S,0,167279,168011,0.34 R,0,167279,168011,-0.11 C,0,167279,168011,59,22,92
Sprite,Background,Centre,"sb\rs.png",121,355 M,1,167228,167960,121,355,21,370 F,0,167228,167960,0.8,0 S,0,167228,167960,0.48 R,0,167228,167960,-0.1 C,0,167228,167960,49,23,95
Sprite,Background,Centre,"sb\rs.png",40,421 M,1,167197,167929,40,421,-60,439 F,0,167197,167929,0.8,0 S,0,167197,167929,0.38 R,0,167197,167929,-0.03 C,0,167197,167929,51,24,93
Sprite,Background,Centre,"sb\rs.png",121,321 M,1,167311,168043,121,321,21,346 F,0,167311,168043,0.8,0 S,0,167311,168043,0.4 R,0,167311,168043,-0.1 C,0,167311,168043,50,23,98
Sprite,Background,Centre,"sb\rs.png",280,250 M,1,167467,168199,280,250,180,284 F,0,167467,168199,0.8,0 S,0,167467,168199,0.42 R,0,167467,168199,-0.22 C,0,167467,168199,52,23,96
Sprite,Background,Centre,"sb\rs.png",375,369 M,1,167442,168174,375,369,275,375 F,0,167442,168174,0.8,0 S,0,167442,168174,0.35 R,0,167442,168174,-0.3 C,0,167442,168174,54,22,97
Sprite,Background,Centre,"sb\rs.png",143,415 M,1,167647,168379,143,415,43,436 F,0,167647,168379,0.8,0 S,0,167647,168379,0.48 R,0,167647,168379,-0.11 C,0,167647,168379,60,21,90
Sprite,Background,Centre,"sb\rs.png",206,422 M,1,167800,168532,206,422,106,403 F,0,167800,168532,0.8,0 S,0,167800,168532,0.5 R,0,167800,168532,-0.16 C,0,167800,168532,54,25,87
Sprite,Background,Centre,"sb\rs.png",62,411 M,1,167758,168490,62,411,-38,394 F,0,167758,168490,0.8,0 S,0,167758,168490,0.45 R,0,167758,168490,-0.05 C,0,167758,168490,60,25,96
Sprite,Background,Centre,"sb\rs.png",193,371 M,1,168067,168799,193,371,93,379 F,0,168067,168799,0.8,0 S,0,168067,168799,0.41 R,0,168067,168799,-0.15 C,0,168067,168799,55,27,97
Sprite,Background,Centre,"sb\rs.png",139,294 M,1,168167,168899,139,294,39,325 F,0,168167,168899,0.8,0 S,0,168167,168899,0.32 R,0,168167,168899,-0.11 C,0,168167,168899,52,25,91
Sprite,Background,Centre,"sb\rs.png",351,258 M,1,168218,168950,351,258,251,308 F,0,168218,168950,0.8,0 S,0,168218,168950,0.48 R,0,168218,168950,-0.28 C,0,168218,168950,50,23,92
Sprite,Background,Centre,"sb\rs.png",352,323 M,1,168277,169009,352,323,252,346 F,0,168277,169009,0.8,0 S,0,168277,169009,0.43 R,0,168277,169009,-0.28 C,0,168277,169009,50,26,87
Sprite,Background,Centre,"sb\rs.png",337,242 M,1,168404,169136,337,242,237,300 F,0,168404,169136,0.8,0 S,0,168404,169136,0.32 R,0,168404,169136,-0.27 C,0,168404,169136,58,24,88
Sprite,Background,Centre,"sb\rs.png",92,309 M,1,168512,169244,92,309,-8,338 F,0,168512,169244,0.8,0 S,0,168512,169244,0.45 R,0,168512,169244,-0.07 C,0,168512,169244,52,23,93
Sprite,Background,Centre,"sb\rs.png",346,381 M,1,168546,169278,346,381,246,407 F,0,168546,169278,0.8,0 S,0,168546,169278,0.44 R,0,168546,169278,-0.28 C,0,168546,169278,51,25,88
Sprite,Background,Centre,"sb\rs.png",72,398 M,1,168708,169440,72,398,-28,394 F,0,168708,169440,0.8,0 S,0,168708,169440,0.45 R,0,168708,169440,-0.06 C,0,168708,169440,60,27,90
Sprite,Background,Centre,"sb\rs.png",303,386 M,1,168515,169247,303,386,203,400 F,0,168515,169247,0.8,0 S,0,168515,169247,0.41 R,0,168515,169247,-0.24 C,0,168515,169247,56,26,89
Sprite,Background,Centre,"sb\rs.png",162,395 M,1,168896,169628,162,395,62,389 F,0,168896,169628,0.8,0 S,0,168896,169628,0.49 R,0,168896,169628,-0.13 C,0,168896,169628,48,23,90
Sprite,Background,Centre,"sb\rs.png",76,384 M,1,168926,169658,76,384,-24,401 F,0,168926,169658,0.8,0 S,0,168926,169658,0.35 R,0,168926,169658,-0.06 C,0,168926,169658,54,25,88
Sprite,Background,Centre,"sb\rs.png",279,341 M,1,168894,169626,279,341,179,367 F,0,168894,169626,0.8,0 S,0,168894,169626,0.46 R,0,168894,169626,-0.22 C,0,168894,169626,50,26,90
Sprite,Background,Centre,"sb\rs.png",366,382 M,1,168920,169652,366,382,266,401 F,0,168920,169652,0.8,0 S,0,168920,169652,0.48 R,0,168920,169652,-0.29 C,0,168920,169652,49,21,94
Sprite,Background,Centre,"sb\rs.png",262,253 M,1,169092,169824,262,253,162,288 F,0,169092,169824,0.8,0 S,0,169092,169824,0.33 R,0,169092,169824,-0.21 C,0,169092,169824,48,21,93
Sprite,Background,Centre,"sb\rs.png",203,316 M,1,169057,169789,203,316,103,342 F,0,169057,169789,0.8,0 S,0,169057,169789,0.44 R,0,169057,169789,-0.16 C,0,169057,169789,52,23,94
Sprite,Background,Centre,"sb\rs.png",85,402 M,1,169439,170171,85,402,-15,420 F,0,169439,170171,0.8,0 S,0,169439,170171,0.32 R,0,169439,170171,-0.07 C,0,169439,170171,51,22,94
Sprite,Background,Centre,"sb\rs.png",215,314 M,1,169399,170131,215,314,115,343 F,0,169399,170131,0.8,0 S,0,169399,170131,0.43 R,0,169399,170131,-0.17 C,0,169399,170131,50,24,88
Sprite,Background,Centre,"sb\rs.png",64,319 M,1,169332,170064,64,319,-36,344 F,0,169332,170064,0.8,0 S,0,169332,170064,0.38 R,0,169332,170064,-0.05 C,0,169332,170064,57,22,97
Sprite,Background,Centre,"sb\rs.png",123,430 M,1,169700,170432,123,430,23,425 F,0,169700,170432,0.8,0 S,0,169700,170432,0.47 R,0,169700,170432,-0.1 C,0,169700,170432,50,25,96
Sprite,Background,Centre,"sb\rs.png",58,307 M,1,169603,170335,58,307,-42,335 F,0,169603,170335,0.8,0 S,0,169603,170335,0.35 R,0,169603,170335,-0.05 C,0,169603,170335,56,21,87
Sprite,Background,Centre,"sb\rs.png",314,242 M,1,169592,170324,314,242,214,280 F,0,169592,170324,0.8,0 S,0,169592,170324,0.42 R,0,169592,170324,-0.25 C,0,169592,170324,53,24,91
Sprite,Background,Centre,"sb\rs.png",354,271 M,1,169708,170440,354,271,254,309 F,0,169708,170440,0.8,0 S,0,169708,170440,0.48 R,0,169708,170440,-0.28 C,0,169708,170440,55,23,88
Sprite,Background,Centre,"sb\rs.png",349,227 M,1,169973,170705,349,227,249,266 F,0,169973,170705,0.8,0 S,0,169973,170705,0.42 R,0,169973,170705,-0.28 C,0,169973,170705,59,27,94
Sprite,Background,Centre,"sb\rs.png",183,284 M,1,170010,170742,183,284,83,319 F,0,170010,170742,0.8,0 S,0,170010,170742,0.36 R,0,170010,170742,-0.15 C,0,170010,170742,54,22,93
Sprite,Background,Centre,"sb\rs.png",203,337 M,1,170197,170929,203,337,103,351 F,0,170197,170929,0.8,0 S,0,170197,170929,0.31 R,0,170197,170929,-0.16 C,0,170197,170929,52,26,97
Sprite,Background,Centre,"sb\rs.png",313,244 M,1,170171,170903,313,244,213,282 F,0,170171,170903,0.8,0 S,0,170171,170903,0.4 R,0,170171,170903,-0.25 C,0,170171,170903,53,24,88
Sprite,Background,Centre,"sb\rs.png",129,368 M,1,170356,171088,129,368,29,391 F,0,170356,171088,0.8,0 S,0,170356,171088,0.41 R,0,170356,171088,-0.1 C,0,170356,171088,55,26,92
Sprite,Background,Centre,"sb\rs.png",198,330 M,1,170238,170970,198,330,98,352 F,0,170238,170970,0.8,0 S,0,170238,170970,0.43 R,0,170238,170970,-0.16 C,0,170238,170970,57,21,96
Sprite,Background,Centre,"sb\rs.png",198,269 M,1,170573,171305,198,269,98,300 F,0,170573,171305,0.8,0 S,0,170573,171305,0.43 R,0,170573,171305,-0.16 C,0,170573,171305,51,22,92
Sprite,Background,Centre,"sb\rs.png",237,259 M,1,170531,171263,237,259,137,295 F,0,170531,171263,0.8,0 S,0,170531,171263,0.35 R,0,170531,171263,-0.19 C,0,170531,171263,50,25,95
Sprite,Background,Centre,"sb\rs.png",166,352 M,1,170586,171318,166,352,66,381 F,0,170586,171318,0.8,0 S,0,170586,171318,0.4 R,0,170586,171318,-0.13 C,0,170586,171318,56,24,92
Sprite,Background,Centre,"sb\rs.png",280,350 M,1,170630,171362,280,350,180,374 F,0,170630,171362,0.8,0 S,0,170630,171362,0.34 R,0,170630,171362,-0.22 C,0,170630,171362,49,27,94
Sprite,Background,Centre,"sb\rs.png",371,278 M,1,170837,171569,371,278,271,318 F,0,170837,171569,0.8,0 S,0,170837,171569,0.39 R,0,170837,171569,-0.3 C,0,170837,171569,50,24,97
Sprite,Background,Centre,"sb\rs.png",181,427 M,1,171060,171792,181,427,81,438 F,0,171060,171792,0.8,0 S,0,171060,171792,0.46 R,0,171060,171792,-0.15 C,0,171060,171792,53,22,96
Sprite,Background,Centre,"sb\rs.png",240,270 M,1,170860,171592,240,270,140,304 F,0,170860,171592,0.8,0 S,0,170860,171592,0.45 R,0,170860,171592,-0.19 C,0,170860,171592,57,22,96
Sprite,Background,Centre,"sb\rs.png",357,341 M,1,171083,171815,357,341,257,365 F,0,171083,171815,0.8,0 S,0,171083,171815,0.33 R,0,171083,171815,-0.29 C,0,171083,171815,60,24,87
Sprite,Background,Centre,"sb\rs.png",208,305 M,1,171266,171998,208,305,108,335 F,0,171266,171998,0.8,0 S,0,171266,171998,0.5 R,0,171266,171998,-0.17 C,0,171266,171998,58,26,96
Sprite,Background,Centre,"sb\rs.png",293,380 M,1,171284,172016,293,380,193,378 F,0,171284,172016,0.8,0 S,0,171284,172016,0.31 R,0,171284,172016,-0.23 C,0,171284,172016,54,22,89
Sprite,Background,Centre,"sb\rs.png",226,372 M,1,171235,171967,226,372,126,393 F,0,171235,171967,0.8,0 S,0,171235,171967,0.5 R,0,171235,171967,-0.18 C,0,171235,171967,59,23,98
Sprite,Background,Centre,"sb\rs.png",118,391 M,1,171358,172090,118,391,18,408 F,0,171358,172090,0.8,0 S,0,171358,172090,0.34 R,0,171358,172090,-0.09 C,0,171358,172090,57,23,97
Sprite,Background,Centre,"sb\rs.png",313,339 M,1,171397,172129,313,339,213,368 F,0,171397,172129,0.8,0 S,0,171397,172129,0.32 R,0,171397,172129,-0.25 C,0,171397,172129,59,23,88
Sprite,Background,Centre,"sb\rs.png",137,407 M,1,171495,172227,137,407,37,423 F,0,171495,172227,0.8,0 S,0,171495,172227,0.37 R,0,171495,172227,-0.11 C,0,171495,172227,55,23,98
Sprite,Background,Centre,"sb\rs.png",93,426 M,1,171626,172358,93,426,-7,440 F,0,171626,172358,0.8,0 S,0,171626,172358,0.36 R,0,171626,172358,-0.07 C,0,171626,172358,50,23,88
Sprite,Background,Centre,"sb\rs.png",363,312 M,1,171672,172404,363,312,263,339 F,0,171672,172404,0.8,0 S,0,171672,172404,0.38 R,0,171672,172404,-0.29 C,0,171672,172404,53,23,88
Sprite,Background,Centre,"sb\rs.png",364,319 M,1,171825,172557,364,319,264,349 F,0,171825,172557,0.8,0 S,0,171825,172557,0.33 R,0,171825,172557,-0.29 C,0,171825,172557,57,24,94
Sprite,Background,Centre,"sb\rs.png",52,460 M,1,172139,172871,52,460,-48,488 F,0,172139,172871,0.8,0 S,0,172139,172871,0.4 R,0,172139,172871,-0.04 C,0,172139,172871,56,23,97
Sprite,Background,Centre,"sb\rs.png",249,272 M,1,172110,172842,249,272,149,310 F,0,172110,172842,0.8,0 S,0,172110,172842,0.33 R,0,172110,172842,-0.2 C,0,172110,172842,51,22,94
Sprite,Background,Centre,"sb\rs.png",291,371 M,1,172103,172835,291,371,191,391 F,0,172103,172835,0.8,0 S,0,172103,172835,0.34 R,0,172103,172835,-0.23 C,0,172103,172835,57,23,96
Sprite,Background,Centre,"sb\rs.png",134,345 M,1,172405,173137,134,345,34,356 F,0,172405,173137,0.8,0 S,0,172405,173137,0.45 R,0,172405,173137,-0.11 C,0,172405,173137,53,27,89
Sprite,Background,Centre,"sb\rs.png",134,418 M,1,172323,173055,134,418,34,428 F,0,172323,173055,0.8,0 S,0,172323,173055,0.43 R,0,172323,173055,-0.11 C,0,172323,173055,53,27,88
Sprite,Background,Centre,"sb\rs.png",175,340 M,1,172321,173053,175,340,75,366 F,0,172321,173053,0.8,0 S,0,172321,173053,0.39 R,0,172321,173053,-0.14 C,0,172321,173053,57,24,98
Sprite,Background,Centre,"sb\rs.png",214,404 M,1,172589,173321,214,404,114,389 F,0,172589,173321,0.8,0 S,0,172589,173321,0.41 R,0,172589,173321,-0.17 C,0,172589,173321,54,26,96
Sprite,Background,Centre,"sb\rs.png",174,334 M,1,172552,173284,174,334,74,347 F,0,172552,173284,0.8,0 S,0,172552,173284,0.31 R,0,172552,173284,-0.14 C,0,172552,173284,60,22,95
Sprite,Background,Centre,"sb\rs.png",234,411 M,1,172815,173547,234,411,134,419 F,0,172815,173547,0.8,0 S,0,172815,173547,0.38 R,0,172815,173547,-0.19 C,0,172815,173547,52,22,94
Sprite,Background,Centre,"sb\rs.png",129,396 M,1,172653,173385,129,396,29,418 F,0,172653,173385,0.8,0 S,0,172653,173385,0.41 R,0,172653,173385,-0.1 C,0,172653,173385,59,24,91
Sprite,Background,Centre,"sb\rs.png",201,333 M,1,172926,173658,201,333,101,358 F,0,172926,173658,0.8,0 S,0,172926,173658,0.43 R,0,172926,173658,-0.16 C,0,172926,173658,59,25,89
Sprite,Background,Centre,"sb\rs.png",108,315 M,1,173039,173771,108,315,8,345 F,0,173039,173771,0.8,0 S,0,173039,173771,0.41 R,0,173039,173771,-0.09 C,0,173039,173771,49,23,89
Sprite,Background,Centre,"sb\rs.png",298,249 M,1,173041,173773,298,249,198,285 F,0,173041,173773,0.8,0 S,0,173041,173773,0.45 R,0,173041,173773,-0.24 C,0,173041,173773,57,23,92
Sprite,Background,Centre,"sb\rs.png",123,300 M,1,173060,173792,123,300,23,330 F,0,173060,173792,0.8,0 S,0,173060,173792,0.33 R,0,173060,173792,-0.1 C,0,173060,173792,60,23,92
Sprite,Background,Centre,"sb\rs.png",77,335 M,1,173369,174101,77,335,-23,352 F,0,173369,174101,0.8,0 S,0,173369,174101,0.35 R,0,173369,174101,-0.06 C,0,173369,174101,51,26,89
Sprite,Background,Centre,"sb\rs.png",338,296 M,1,173299,174031,338,296,238,327 F,0,173299,174031,0.8,0 S,0,173299,174031,0.34 R,0,173299,174031,-0.27 C,0,173299,174031,50,27,92
Sprite,Background,Centre,"sb\rs.png",370,381 M,1,173487,174219,370,381,270,376 F,0,173487,174219,0.8,0 S,0,173487,174219,0.32 R,0,173487,174219,-0.3 C,0,173487,174219,57,23,96
Sprite,Background,Centre,"sb\rs.png",266,388 M,1,173654,174386,266,388,166,378 F,0,173654,174386,0.8,0 S,0,173654,174386,0.37 R,0,173654,174386,-0.21 C,0,173654,174386,56,22,94
Sprite,Background,Centre,"sb\rs.png",102,333 M,1,173734,174466,102,333,2,347 F,0,173734,174466,0.8,0 S,0,173734,174466,0.39 R,0,173734,174466,-0.08 C,0,173734,174466,53,25,96
Sprite,Background,Centre,"sb\rs.png",340,235 M,1,173826,174558,340,235,240,266 F,0,173826,174558,0.8,0 S,0,173826,174558,0.35 R,0,173826,174558,-0.27 C,0,173826,174558,55,25,93
Sprite,Background,Centre,"sb\rs.png",246,386 M,1,173896,174628,246,386,146,410 F,0,173896,174628,0.8,0 S,0,173896,174628,0.34 R,0,173896,174628,-0.2 C,0,173896,174628,48,21,94
Sprite,Background,Centre,"sb\rs.png",83,380 M,1,173808,174540,83,380,-17,402 F,0,173808,174540,0.8,0 S,0,173808,174540,0.44 R,0,173808,174540,-0.07 C,0,173808,174540,57,25,91
Sprite,Background,Centre,"sb\rs.png",291,340 M,1,173995,174727,291,340,191,351 F,0,173995,174727,0.8,0 S,0,173995,174727,0.44 R,0,173995,174727,-0.23 C,0,173995,174727,51,22,88
Sprite,Background,Centre,"sb\rs.png",365,229 M,1,174071,174803,365,229,265,275 F,0,174071,174803,0.8,0 S,0,174071,174803,0.41 R,0,174071,174803,-0.29 C,0,174071,174803,53,25,93
Sprite,Background,Centre,"sb\rs.png",160,392 M,1,174174,174906,160,392,60,383 F,0,174174,174906,0.8,0 S,0,174174,174906,0.36 R,0,174174,174906,-0.13 C,0,174174,174906,53,26,88
Sprite,Background,Centre,"sb\rs.png",213,362 M,1,174253,174985,213,362,113,391 F,0,174253,174985,0.8,0 S,0,174253,174985,0.32 R,0,174253,174985,-0.17 C,0,174253,174985,56,25,90
Sprite,Background,Centre,"sb\rs.png",76,390 M,1,174287,175019,76,390,-24,407 F,0,174287,175019,0.8,0 S,0,174287,175019,0.5 R,0,174287,175019,-0.06 C,0,174287,175019,50,26,91
Sprite,Background,Centre,"sb\rs.png",83,396 M,1,174545,175277,83,396,-17,393 F,0,174545,175277,0.8,0 S,0,174545,175277,0.32 R,0,174545,175277,-0.07 C,0,174545,175277,53,23,92
Sprite,Background,Centre,"sb\rs.png",101,298 M,1,174384,175116,101,298,1,328 F,0,174384,175116,0.8,0 S,0,174384,175116,0.5 R,0,174384,175116,-0.08 C,0,174384,175116,50,24,94
Sprite,Background,Centre,"sb\rs.png",372,370 M,1,174680,175412,372,370,272,369 F,0,174680,175412,0.8,0 S,0,174680,175412,0.49 R,0,174680,175412,-0.3 C,0,174680,175412,56,24,97
Sprite,Background,Centre,"sb\rs.png",344,316 M,1,174602,175334,344,316,244,340 F,0,174602,175334,0.8,0 S,0,174602,175334,0.41 R,0,174602,175334,-0.28 C,0,174602,175334,54,23,95
Sprite,Background,Centre,"sb\rs.png",275,261 M,1,174720,175452,275,261,175,305 F,0,174720,175452,0.8,0 S,0,174720,175452,0.41 R,0,174720,175452,-0.22 C,0,174720,175452,52,23,90
Sprite,Background,Centre,"sb\rs.png",155,320 M,1,174749,175481,155,320,55,347 F,0,174749,175481,0.8,0 S,0,174749,175481,0.36 R,0,174749,175481,-0.12 C,0,174749,175481,54,22,88
Sprite,Background,Centre,"sb\rs.png",371,281 M,1,174940,175672,371,281,271,314 F,0,174940,175672,0.8,0 S,0,174940,175672,0.48 R,0,174940,175672,-0.3 C,0,174940,175672,56,24,96
Sprite,Background,Centre,"sb\rs.png",377,241 M,1,175094,175826,377,241,277,295 F,0,175094,175826,0.8,0 S,0,175094,175826,0.33 R,0,175094,175826,-0.3 C,0,175094,175826,52,24,92
Sprite,Background,Centre,"sb\rs.png",121,442 M,1,175124,175856,121,442,21,441 F,0,175124,175856,0.8,0 S,0,175124,175856,0.46 R,0,175124,175856,-0.1 C,0,175124,175856,53,25,90
Sprite,Background,Centre,"sb\rs.png",161,288 M,1,175352,176084,161,288,61,319 F,0,175352,176084,0.8,0 S,0,175352,176084,0.43 R,0,175352,176084,-0.13 C,0,175352,176084,54,25,88
Sprite,Background,Centre,"sb\rs.png",117,294 M,1,175343,176075,117,294,17,325 F,0,175343,176075,0.8,0 S,0,175343,176075,0.34 R,0,175343,176075,-0.09 C,0,175343,176075,55,25,94
Sprite,Background,Centre,"sb\rs.png",234,267 M,1,175474,176206,234,267,134,313 F,0,175474,176206,0.8,0 S,0,175474,176206,0.49 R,0,175474,176206,-0.19 C,0,175474,176206,54,27,97
Sprite,Background,Centre,"sb\rs.png",256,394 M,1,175548,176280,256,394,156,393 F,0,175548,176280,0.8,0 S,0,175548,176280,0.35 R,0,175548,176280,-0.2 C,0,175548,176280,59,27,93
Sprite,Background,Centre,"sb\rs.png",55,349 M,1,175534,176266,55,349,-45,362 F,0,175534,176266,0.8,0 S,0,175534,176266,0.48 R,0,175534,176266,-0.04 C,0,175534,176266,57,23,94
Sprite,Background,Centre,"sb\rs.png",292,260 M,1,175757,176489,292,260,192,306 F,0,175757,176489,0.8,0 S,0,175757,176489,0.38 R,0,175757,176489,-0.23 C,0,175757,176489,59,24,86
Sprite,Background,Centre,"sb\rs.png",238,267 M,1,228910,229642,238,267,138,298 F,0,228910,229642,0.8,0 S,0,228910,229642,0.5 R,0,228910,229642,-0.19 C,0,228910,229642,54,26,89
Sprite,Background,Centre,"sb\rs.png",204,289 M,1,228785,229517,204,289,104,325 F,0,228785,229517,0.8,0 S,0,228785,229517,0.44 R,0,228785,229517,-0.16 C,0,228785,229517,58,27,87
Sprite,Background,Centre,"sb\rs.png",364,265 M,1,228915,229647,364,265,264,307 F,0,228915,229647,0.8,0 S,0,228915,229647,0.45 R,0,228915,229647,-0.29 C,0,228915,229647,59,21,89
Sprite,Background,Centre,"sb\rs.png",276,278 M,1,228975,229707,276,278,176,310 F,0,228975,229707,0.8,0 S,0,228975,229707,0.38 R,0,228975,229707,-0.22 C,0,228975,229707,54,25,97
Sprite,Background,Centre,"sb\rs.png",203,368 M,1,229234,229966,203,368,103,368 F,0,229234,229966,0.8,0 S,0,229234,229966,0.32 R,0,229234,229966,-0.16 C,0,229234,229966,58,23,96
Sprite,Background,Centre,"sb\rs.png",138,414 M,1,229360,230092,138,414,38,390 F,0,229360,230092,0.8,0 S,0,229360,230092,0.41 R,0,229360,230092,-0.11 C,0,229360,230092,59,22,91
Sprite,Background,Centre,"sb\rs.png",216,387 M,1,229359,230091,216,387,116,411 F,0,229359,230091,0.8,0 S,0,229359,230091,0.31 R,0,229359,230091,-0.17 C,0,229359,230091,55,27,91
Sprite,Background,Centre,"sb\rs.png",167,327 M,1,229359,230091,167,327,67,352 F,0,229359,230091,0.8,0 S,0,229359,230091,0.48 R,0,229359,230091,-0.13 C,0,229359,230091,50,22,89
Sprite,Background,Centre,"sb\rs.png",154,363 M,1,229429,230161,154,363,54,369 F,0,229429,230161,0.8,0 S,0,229429,230161,0.32 R,0,229429,230161,-0.12 C,0,229429,230161,59,26,90
Sprite,Background,Centre,"sb\rs.png",307,380 M,1,229734,230466,307,380,207,391 F,0,229734,230466,0.8,0 S,0,229734,230466,0.46 R,0,229734,230466,-0.25 C,0,229734,230466,57,25,94
Sprite,Background,Centre,"sb\rs.png",290,264 M,1,229827,230559,290,264,190,312 F,0,229827,230559,0.8,0 S,0,229827,230559,0.37 R,0,229827,230559,-0.23 C,0,229827,230559,58,26,94
Sprite,Background,Centre,"sb\rs.png",277,347 M,1,229782,230514,277,347,177,372 F,0,229782,230514,0.8,0 S,0,229782,230514,0.31 R,0,229782,230514,-0.22 C,0,229782,230514,48,22,95
Sprite,Background,Centre,"sb\rs.png",269,310 M,1,229860,230592,269,310,169,340 F,0,229860,230592,0.8,0 S,0,229860,230592,0.41 R,0,229860,230592,-0.22 C,0,229860,230592,50,27,95
Sprite,Background,Centre,"sb\rs.png",128,408 M,1,229919,230651,128,408,28,406 F,0,229919,230651,0.8,0 S,0,229919,230651,0.4 R,0,229919,230651,-0.1 C,0,229919,230651,49,27,90
Sprite,Background,Centre,"sb\rs.png",344,342 M,1,230053,230785,344,342,244,368 F,0,230053,230785,0.8,0 S,0,230053,230785,0.39 R,0,230053,230785,-0.28 C,0,230053,230785,50,23,97
Sprite,Background,Centre,"sb\rs.png",113,405 M,1,230073,230805,113,405,13,392 F,0,230073,230805,0.8,0 S,0,230073,230805,0.46 R,0,230073,230805,-0.09 C,0,230073,230805,52,27,91
Sprite,Background,Centre,"sb\rs.png",226,310 M,1,230229,230961,226,310,126,339 F,0,230229,230961,0.8,0 S,0,230229,230961,0.44 R,0,230229,230961,-0.18 C,0,230229,230961,50,24,89
Sprite,Background,Centre,"sb\rs.png",219,303 M,1,230463,231195,219,303,119,332 F,0,230463,231195,0.8,0 S,0,230463,231195,0.41 R,0,230463,231195,-0.17 C,0,230463,231195,60,25,87
Sprite,Background,Centre,"sb\rs.png",318,283 M,1,230304,231036,318,283,218,320 F,0,230304,231036,0.8,0 S,0,230304,231036,0.3 R,0,230304,231036,-0.25 C,0,230304,231036,50,22,94
Sprite,Background,Centre,"sb\rs.png",41,406 M,1,230596,231328,41,406,-59,416 F,0,230596,231328,0.8,0 S,0,230596,231328,0.43 R,0,230596,231328,-0.03 C,0,230596,231328,56,23,95
Sprite,Background,Centre,"sb\rs.png",226,386 M,1,230770,231502,226,386,126,385 F,0,230770,231502,0.8,0 S,0,230770,231502,0.38 R,0,230770,231502,-0.18 C,0,230770,231502,53,27,90
Sprite,Background,Centre,"sb\rs.png",355,318 M,1,230647,231379,355,318,255,346 F,0,230647,231379,0.8,0 S,0,230647,231379,0.36 R,0,230647,231379,-0.28 C,0,230647,231379,51,23,98
Sprite,Background,Centre,"sb\rs.png",332,244 M,1,230784,231516,332,244,232,274 F,0,230784,231516,0.8,0 S,0,230784,231516,0.35 R,0,230784,231516,-0.27 C,0,230784,231516,52,27,94
Sprite,Background,Centre,"sb\rs.png",269,361 M,1,230751,231483,269,361,169,383 F,0,230751,231483,0.8,0 S,0,230751,231483,0.3 R,0,230751,231483,-0.21 C,0,230751,231483,53,22,88
Sprite,Background,Centre,"sb\rs.png",308,352 M,1,231054,231786,308,352,208,367 F,0,231054,231786,0.8,0 S,0,231054,231786,0.36 R,0,231054,231786,-0.25 C,0,231054,231786,55,26,86
Sprite,Background,Centre,"sb\rs.png",155,335 M,1,231187,231919,155,335,55,356 F,0,231187,231919,0.8,0 S,0,231187,231919,0.48 R,0,231187,231919,-0.12 C,0,231187,231919,48,21,88
Sprite,Background,Centre,"sb\rs.png",346,332 M,1,231029,231761,346,332,246,359 F,0,231029,231761,0.8,0 S,0,231029,231761,0.5 R,0,231029,231761,-0.28 C,0,231029,231761,52,26,94
Sprite,Background,Centre,"sb\rs.png",164,412 M,1,231370,232102,164,412,64,439 F,0,231370,232102,0.8,0 S,0,231370,232102,0.44 R,0,231370,232102,-0.13 C,0,231370,232102,49,23,95
Sprite,Background,Centre,"sb\rs.png",353,287 M,1,231484,232216,353,287,253,321 F,0,231484,232216,0.8,0 S,0,231484,232216,0.4 R,0,231484,232216,-0.28 C,0,231484,232216,52,24,89
Sprite,Background,Centre,"sb\rs.png",98,391 M,1,231533,232265,98,391,-2,379 F,0,231533,232265,0.8,0 S,0,231533,232265,0.31 R,0,231533,232265,-0.08 C,0,231533,232265,50,22,90
Sprite,Background,Centre,"sb\rs.png",162,282 M,1,231410,232142,162,282,62,320 F,0,231410,232142,0.8,0 S,0,231410,232142,0.46 R,0,231410,232142,-0.13 C,0,231410,232142,58,23,87
Sprite,Background,Centre,"sb\rs.png",297,282 M,1,231720,232452,297,282,197,316 F,0,231720,232452,0.8,0 S,0,231720,232452,0.37 R,0,231720,232452,-0.24 C,0,231720,232452,49,24,93
Sprite,Background,Centre,"sb\rs.png",84,379 M,1,231799,232531,84,379,-16,406 F,0,231799,232531,0.8,0 S,0,231799,232531,0.48 R,0,231799,232531,-0.07 C,0,231799,232531,50,23,91
Sprite,Background,Centre,"sb\rs.png",162,400 M,1,231669,232401,162,400,62,424 F,0,231669,232401,0.8,0 S,0,231669,232401,0.33 R,0,231669,232401,-0.13 C,0,231669,232401,57,26,88
Sprite,Background,Centre,"sb\rs.png",101,392 M,1,231933,232665,101,392,1,386 F,0,231933,232665,0.8,0 S,0,231933,232665,0.48 R,0,231933,232665,-0.08 C,0,231933,232665,53,25,91
Sprite,Background,Centre,"sb\rs.png",57,397 M,1,231903,232635,57,397,-43,419 F,0,231903,232635,0.8,0 S,0,231903,232635,0.33 R,0,231903,232635,-0.05 C,0,231903,232635,50,22,88
Sprite,Background,Centre,"sb\rs.png",81,330 M,1,231971,232703,81,330,-19,359 F,0,231971,232703,0.8,0 S,0,231971,232703,0.32 R,0,231971,232703,-0.06 C,0,231971,232703,58,24,89
Sprite,Background,Centre,"sb\rs.png",167,386 M,1,232115,232847,167,386,67,410 F,0,232115,232847,0.8,0 S,0,232115,232847,0.36 R,0,232115,232847,-0.13 C,0,232115,232847,58,22,96
Sprite,Background,Centre,"sb\rs.png",326,270 M,1,232238,232970,326,270,226,310 F,0,232238,232970,0.8,0 S,0,232238,232970,0.33 R,0,232238,232970,-0.26 C,0,232238,232970,58,21,91
Sprite,Background,Centre,"sb\rs.png",372,356 M,1,232256,232988,372,356,272,376 F,0,232256,232988,0.8,0 S,0,232256,232988,0.3 R,0,232256,232988,-0.3 C,0,232256,232988,58,26,89
Sprite,Background,Centre,"sb\rs.png",88,453 M,1,232509,233241,88,453,-12,476 F,0,232509,233241,0.8,0 S,0,232509,233241,0.33 R,0,232509,233241,-0.07 C,0,232509,233241,49,21,93
Sprite,Background,Centre,"sb\rs.png",115,387 M,1,232423,233155,115,387,15,375 F,0,232423,233155,0.8,0 S,0,232423,233155,0.34 R,0,232423,233155,-0.09 C,0,232423,233155,55,27,95
Sprite,Background,Centre,"sb\rs.png",160,292 M,1,232500,233232,160,292,60,325 F,0,232500,233232,0.8,0 S,0,232500,233232,0.49 R,0,232500,233232,-0.13 C,0,232500,233232,57,24,88
Sprite,Background,Centre,"sb\rs.png",316,319 M,1,232748,233480,316,319,216,348 F,0,232748,233480,0.8,0 S,0,232748,233480,0.39 R,0,232748,233480,-0.25 C,0,232748,233480,55,21,96
Sprite,Background,Centre,"sb\rs.png",369,344 M,1,232653,233385,369,344,269,360 F,0,232653,233385,0.8,0 S,0,232653,233385,0.3 R,0,232653,233385,-0.3 C,0,232653,233385,56,27,96
Sprite,Background,Centre,"sb\rs.png",185,300 M,1,232982,233714,185,300,85,330 F,0,232982,233714,0.8,0 S,0,232982,233714,0.34 R,0,232982,233714,-0.15 C,0,232982,233714,49,22,93
Sprite,Background,Centre,"sb\rs.png",127,420 M,1,232827,233559,127,420,27,407 F,0,232827,233559,0.8,0 S,0,232827,233559,0.42 R,0,232827,233559,-0.1 C,0,232827,233559,49,26,87
Sprite,Background,Centre,"sb\rs.png",157,349 M,1,232985,233717,157,349,57,361 F,0,232985,233717,0.8,0 S,0,232985,233717,0.45 R,0,232985,233717,-0.13 C,0,232985,233717,51,21,90
Sprite,Background,Centre,"sb\rs.png",346,372 M,1,233080,233812,346,372,246,383 F,0,233080,233812,0.8,0 S,0,233080,233812,0.32 R,0,233080,233812,-0.28 C,0,233080,233812,52,22,89
Sprite,Background,Centre,"sb\rs.png",60,378 M,1,233213,233945,60,378,-40,396 F,0,233213,233945,0.8,0 S,0,233213,233945,0.38 R,0,233213,233945,-0.05 C,0,233213,233945,53,24,89
Sprite,Background,Centre,"sb\rs.png",250,332 M,1,233262,233994,250,332,150,357 F,0,233262,233994,0.8,0 S,0,233262,233994,0.47 R,0,233262,233994,-0.2 C,0,233262,233994,53,21,96
Sprite,Background,Centre,"sb\rs.png",350,368 M,1,233406,234138,350,368,250,373 F,0,233406,234138,0.8,0 S,0,233406,234138,0.44 R,0,233406,234138,-0.28 C,0,233406,234138,53,22,88
Sprite,Background,Centre,"sb\rs.png",306,259 M,1,233499,234231,306,259,206,301 F,0,233499,234231,0.8,0 S,0,233499,234231,0.41 R,0,233499,234231,-0.24 C,0,233499,234231,58,24,96
Sprite,Background,Centre,"sb\rs.png",282,393 M,1,233674,234406,282,393,182,388 F,0,233674,234406,0.8,0 S,0,233674,234406,0.38 R,0,233674,234406,-0.23 C,0,233674,234406,59,25,86
Sprite,Background,Centre,"sb\rs.png",56,385 M,1,233783,234515,56,385,-44,381 F,0,233783,234515,0.8,0 S,0,233783,234515,0.33 R,0,233783,234515,-0.04 C,0,233783,234515,57,26,89
Sprite,Background,Centre,"sb\rs.png",165,358 M,1,233784,234516,165,358,65,367 F,0,233784,234516,0.8,0 S,0,233784,234516,0.46 R,0,233784,234516,-0.13 C,0,233784,234516,57,22,91
Sprite,Background,Centre,"sb\rs.png",372,313 M,1,233856,234588,372,313,272,337 F,0,233856,234588,0.8,0 S,0,233856,234588,0.34 R,0,233856,234588,-0.3 C,0,233856,234588,50,26,93
Sprite,Background,Centre,"sb\rs.png",213,332 M,1,233953,234685,213,332,113,347 F,0,233953,234685,0.8,0 S,0,233953,234685,0.42 R,0,233953,234685,-0.17 C,0,233953,234685,57,22,90
Sprite,Background,Centre,"sb\rs.png",269,363 M,1,234002,234734,269,363,169,365 F,0,234002,234734,0.8,0 S,0,234002,234734,0.44 R,0,234002,234734,-0.21 C,0,234002,234734,59,22,93
Sprite,Background,Centre,"sb\rs.png",77,364 M,1,234128,234860,77,364,-23,378 F,0,234128,234860,0.8,0 S,0,234128,234860,0.35 R,0,234128,234860,-0.06 C,0,234128,234860,49,24,86
Sprite,Background,Centre,"sb\rs.png",172,403 M,1,234330,235062,172,403,72,400 F,0,234330,235062,0.8,0 S,0,234330,235062,0.4 R,0,234330,235062,-0.14 C,0,234330,235062,48,24,97
Sprite,Background,Centre,"sb\rs.png",78,341 M,1,234178,234910,78,341,-22,357 F,0,234178,234910,0.8,0 S,0,234178,234910,0.49 R,0,234178,234910,-0.06 C,0,234178,234910,50,25,87
Sprite,Background,Centre,"sb\rs.png",95,357 M,1,234365,235097,95,357,-5,379 F,0,234365,235097,0.8,0 S,0,234365,235097,0.34 R,0,234365,235097,-0.08 C,0,234365,235097,57,22,90
Sprite,Background,Centre,"sb\rs.png",59,310 M,1,234380,235112,59,310,-41,335 F,0,234380,235112,0.8,0 S,0,234380,235112,0.48 R,0,234380,235112,-0.05 C,0,234380,235112,49,27,93
Sprite,Background,Centre,"sb\rs.png",191,393 M,1,234733,235465,191,393,91,416 F,0,234733,235465,0.8,0 S,0,234733,235465,0.41 R,0,234733,235465,-0.15 C,0,234733,235465,53,23,89
Sprite,Background,Centre,"sb\rs.png",280,261 M,1,234707,235439,280,261,180,292 F,0,234707,235439,0.8,0 S,0,234707,235439,0.33 R,0,234707,235439,-0.22 C,0,234707,235439,54,23,90
Sprite,Background,Centre,"sb\rs.png",282,274 M,1,234652,235384,282,274,182,316 F,0,234652,235384,0.8,0 S,0,234652,235384,0.34 R,0,234652,235384,-0.23 C,0,234652,235384,50,25,89
Sprite,Background,Centre,"sb\rs.png",267,296 M,1,234716,235448,267,296,167,326 F,0,234716,235448,0.8,0 S,0,234716,235448,0.33 R,0,234716,235448,-0.21 C,0,234716,235448,56,23,95
Sprite,Background,Centre,"sb\rs.png",76,435 M,1,234815,235547,76,435,-24,400 F,0,234815,235547,0.8,0 S,0,234815,235547,0.33 R,0,234815,235547,-0.06 C,0,234815,235547,51,24,95
Sprite,Background,Centre,"sb\rs.png",45,314 M,1,234934,235666,45,314,-55,342 F,0,234934,235666,0.8,0 S,0,234934,235666,0.4 R,0,234934,235666,-0.04 C,0,234934,235666,59,25,91
Sprite,Background,Centre,"sb\rs.png",57,330 M,1,235179,235911,57,330,-43,360 F,0,235179,235911,0.8,0 S,0,235179,235911,0.44 R,0,235179,235911,-0.05 C,0,235179,235911,50,27,92
Sprite,Background,Centre,"sb\rs.png",354,301 M,1,235248,235980,354,301,254,331 F,0,235248,235980,0.8,0 S,0,235248,235980,0.35 R,0,235248,235980,-0.28 C,0,235248,235980,54,23,92
Sprite,Background,Centre,"sb\rs.png",336,356 M,1,235456,236188,336,356,236,366 F,0,235456,236188,0.8,0 S,0,235456,236188,0.44 R,0,235456,236188,-0.27 C,0,235456,236188,55,25,92
Sprite,Background,Centre,"sb\rs.png",137,375 M,1,235388,236120,137,375,37,385 F,0,235388,236120,0.8,0 S,0,235388,236120,0.5 R,0,235388,236120,-0.11 C,0,235388,236120,59,26,97
Sprite,Background,Centre,"sb\rs.png",188,396 M,1,235595,236327,188,396,88,396 F,0,235595,236327,0.8,0 S,0,235595,236327,0.4 R,0,235595,236327,-0.15 C,0,235595,236327,56,23,89
Sprite,Background,Centre,"sb\rs.png",156,322 M,1,235721,236453,156,322,56,348 F,0,235721,236453,0.8,0 S,0,235721,236453,0.49 R,0,235721,236453,-0.12 C,0,235721,236453,56,25,89
Sprite,Background,Centre,"sb\rs.png",299,363 M,1,235674,236406,299,363,199,385 F,0,235674,236406,0.8,0 S,0,235674,236406,0.36 R,0,235674,236406,-0.24 C,0,235674,236406,51,26,97
Sprite,Background,Centre,"sb\rs.png",143,378 M,1,235632,236364,143,378,43,392 F,0,235632,236364,0.8,0 S,0,235632,236364,0.33 R,0,235632,236364,-0.11 C,0,235632,236364,58,26,96
Sprite,Background,Centre,"sb\rs.png",263,403 M,1,235784,236516,263,403,163,420 F,0,235784,236516,0.8,0 S,0,235784,236516,0.31 R,0,235784,236516,-0.21 C,0,235784,236516,56,21,89
Sprite,Background,Centre,"sb\rs.png",371,349 M,1,235815,236547,371,349,271,374 F,0,235815,236547,0.8,0 S,0,235815,236547,0.43 R,0,235815,236547,-0.3 C,0,235815,236547,59,21,90
Sprite,Background,Centre,"sb\rs.png",153,340 M,1,235920,236652,153,340,53,359 F,0,235920,236652,0.8,0 S,0,235920,236652,0.44 R,0,235920,236652,-0.12 C,0,235920,236652,52,22,96
Sprite,Background,Centre,"sb\rs.png",169,345 M,1,236061,236793,169,345,69,363 F,0,236061,236793,0.8,0 S,0,236061,236793,0.38 R,0,236061,236793,-0.14 C,0,236061,236793,49,25,90
Sprite,Background,Centre,"sb\rs.png",53,458 M,1,236164,236896,53,458,-47,452 F,0,236164,236896,0.8,0 S,0,236164,236896,0.37 R,0,236164,236896,-0.04 C,0,236164,236896,52,22,90
Sprite,Background,Centre,"sb\rs.png",174,364 M,1,236344,237076,174,364,74,369 F,0,236344,237076,0.8,0 S,0,236344,237076,0.4 R,0,236344,237076,-0.14 C,0,236344,237076,51,25,96
Sprite,Background,Centre,"sb\rs.png",269,347 M,1,236278,237010,269,347,169,359 F,0,236278,237010,0.8,0 S,0,236278,237010,0.36 R,0,236278,237010,-0.22 C,0,236278,237010,60,27,90
Sprite,Background,Centre,"sb\rs.png",163,405 M,1,236409,237141,163,405,63,396 F,0,236409,237141,0.8,0 S,0,236409,237141,0.41 R,0,236409,237141,-0.13 C,0,236409,237141,50,24,97
Sprite,Background,Centre,"sb\rs.png",186,344 M,1,236487,237219,186,344,86,354 F,0,236487,237219,0.8,0 S,0,236487,237219,0.33 R,0,236487,237219,-0.15 C,0,236487,237219,56,26,95
Sprite,Background,Centre,"sb\rs.png",284,322 M,1,236557,237289,284,322,184,341 F,0,236557,237289,0.8,0 S,0,236557,237289,0.36 R,0,236557,237289,-0.23 C,0,236557,237289,54,22,94
Sprite,Background,Centre,"sb\rs.png",177,410 M,1,236769,237501,177,410,77,432 F,0,236769,237501,0.8,0 S,0,236769,237501,0.32 R,0,236769,237501,-0.14 C,0,236769,237501,50,21,94
Sprite,Background,Centre,"sb\rs.png",252,381 M,1,236939,237671,252,381,152,374 F,0,236939,237671,0.8,0 S,0,236939,237671,0.35 R,0,236939,237671,-0.2 C,0,236939,237671,53,26,90
Sprite,Background,Centre,"sb\rs.png",114,382 M,1,237041,237773,114,382,14,391 F,0,237041,237773,0.8,0 S,0,237041,237773,0.47 R,0,237041,237773,-0.09 C,0,237041,237773,57,26,96
Sprite,Background,Centre,"sb\rs.png",239,399 M,1,237137,237869,239,399,139,386 F,0,237137,237869,0.8,0 S,0,237137,237869,0.38 R,0,237137,237869,-0.19 C,0,237137,237869,58,25,91
Sprite,Background,Centre,"sb\rs.png",267,395 M,1,237047,237779,267,395,167,418 F,0,237047,237779,0.8,0 S,0,237047,237779,0.48 R,0,237047,237779,-0.21 C,0,237047,237779,50,23,91
Sprite,Background,Centre,"sb\rs.png",66,459 M,1,237254,237986,66,459,-34,472 F,0,237254,237986,0.8,0 S,0,237254,237986,0.44 R,0,237254,237986,-0.05 C,0,237254,237986,53,25,94
Sprite,Background,Centre,"sb\rs.png",148,411 M,1,237147,237879,148,411,48,425 F,0,237147,237879,0.8,0 S,0,237147,237879,0.4 R,0,237147,237879,-0.12 C,0,237147,237879,57,27,91
Sprite,Background,Centre,"sb\rs.png",97,375 M,1,237501,238233,97,375,-3,383 F,0,237501,238233,0.8,0 S,0,237501,238233,0.49 R,0,237501,238233,-0.08 C,0,237501,238233,49,23,93
Sprite,Background,Centre,"sb\rs.png",91,455 M,1,237600,238332,91,455,-9,453 F,0,237600,238332,0.8,0 S,0,237600,238332,0.49 R,0,237600,238332,-0.07 C,0,237600,238332,59,24,92
Sprite,Background,Centre,"sb\rs.png",92,336 M,1,237487,238219,92,336,-8,350 F,0,237487,238219,0.8,0 S,0,237487,238219,0.48 R,0,237487,238219,-0.07 C,0,237487,238219,57,24,89
Sprite,Background,Centre,"sb\rs.png",99,306 M,1,237559,238291,99,306,-1,334 F,0,237559,238291,0.8,0 S,0,237559,238291,0.44 R,0,237559,238291,-0.08 C,0,237559,238291,58,22,92
Sprite,Background,Centre,"sb\rs.png",98,369 M,1,237601,238333,98,369,-2,381 F,0,237601,238333,0.8,0 S,0,237601,238333,0.42 R,0,237601,238333,-0.08 C,0,237601,238333,54,23,90
Sprite,Background,Centre,"sb\rs.png",61,417 M,1,237951,238683,61,417,-39,408 F,0,237951,238683,0.8,0 S,0,237951,238683,0.38 R,0,237951,238683,-0.05 C,0,237951,238683,57,24,86
Sprite,Background,Centre,"sb\rs.png",322,390 M,1,238007,238739,322,390,222,403 F,0,238007,238739,0.8,0 S,0,238007,238739,0.37 R,0,238007,238739,-0.26 C,0,238007,238739,58,26,93
Sprite,Background,Centre,"sb\rs.png",301,349 M,1,238069,238801,301,349,201,374 F,0,238069,238801,0.8,0 S,0,238069,238801,0.48 R,0,238069,238801,-0.24 C,0,238069,238801,50,26,90
Sprite,Background,Centre,"sb\rs.png",323,286 M,1,238223,238955,323,286,223,317 F,0,238223,238955,0.8,0 S,0,238223,238955,0.46 R,0,238223,238955,-0.26 C,0,238223,238955,48,25,95
Sprite,Background,Centre,"sb\rs.png",90,307 M,1,238157,238889,90,307,-10,334 F,0,238157,238889,0.8,0 S,0,238157,238889,0.46 R,0,238157,238889,-0.07 C,0,238157,238889,59,25,93
Sprite,Background,Centre,"sb\rs.png",246,397 M,1,238217,238949,246,397,146,415 F,0,238217,238949,0.8,0 S,0,238217,238949,0.35 R,0,238217,238949,-0.2 C,0,238217,238949,54,23,94
Sprite,Background,Centre,"sb\rs.png",245,311 M,1,238401,239133,245,311,145,340 F,0,238401,239133,0.8,0 S,0,238401,239133,0.32 R,0,238401,239133,-0.2 C,0,238401,239133,49,26,93
Sprite,Background,Centre,"sb\rs.png",352,230 M,1,238588,239320,352,230,252,264 F,0,238588,239320,0.8,0 S,0,238588,239320,0.42 R,0,238588,239320,-0.28 C,0,238588,239320,57,22,91
Sprite,Background,Centre,"sb\rs.png",272,330 M,1,238510,239242,272,330,172,345 F,0,238510,239242,0.8,0 S,0,238510,239242,0.42 R,0,238510,239242,-0.22 C,0,238510,239242,55,25,95
Sprite,Background,Centre,"sb\rs.png",213,287 M,1,238656,239388,213,287,113,318 F,0,238656,239388,0.8,0 S,0,238656,239388,0.4 R,0,238656,239388,-0.17 C,0,238656,239388,50,22,94
Sprite,Background,Centre,"sb\rs.png",286,278 M,1,238813,239545,286,278,186,319 F,0,238813,239545,0.8,0 S,0,238813,239545,0.48 R,0,238813,239545,-0.23 C,0,238813,239545,57,23,87
Sprite,Background,Centre,"sb\rs.png",285,390 M,1,238750,239482,285,390,185,408 F,0,238750,239482,0.8,0 S,0,238750,239482,0.43 R,0,238750,239482,-0.23 C,0,238750,239482,60,26,89
Sprite,Background,Centre,"sb\rs.png",200,406 M,1,238936,239668,200,406,100,419 F,0,238936,239668,0.8,0 S,0,238936,239668,0.44 R,0,238936,239668,-0.16 C,0,238936,239668,60,26,93
Sprite,Background,Centre,"sb\rs.png",77,348 M,1,238895,239627,77,348,-23,372 F,0,238895,239627,0.8,0 S,0,238895,239627,0.43 R,0,238895,239627,-0.06 C,0,238895,239627,55,25,98
Sprite,Background,Centre,"sb\rs.png",278,376 M,1,239198,239930,278,376,178,389 F,0,239198,239930,0.8,0 S,0,239198,239930,0.43 R,0,239198,239930,-0.22 C,0,239198,239930,53,26,86
Sprite,Background,Centre,"sb\rs.png",67,425 M,1,239298,240030,67,425,-33,418 F,0,239298,240030,0.8,0 S,0,239298,240030,0.37 R,0,239298,240030,-0.05 C,0,239298,240030,57,22,88
Sprite,Background,Centre,"sb\rs.png",329,293 M,1,239295,240027,329,293,229,324 F,0,239295,240027,0.8,0 S,0,239295,240027,0.46 R,0,239295,240027,-0.26 C,0,239295,240027,54,24,90
Sprite,Background,Centre,"sb\rs.png",210,317 M,1,239340,240072,210,317,110,345 F,0,239340,240072,0.8,0 S,0,239340,240072,0.47 R,0,239340,240072,-0.17 C,0,239340,240072,53,27,90
Sprite,Background,Centre,"sb\rs.png",256,265 M,1,239385,240117,256,265,156,303 F,0,239385,240117,0.8,0 S,0,239385,240117,0.37 R,0,239385,240117,-0.2 C,0,239385,240117,55,25,95
Sprite,Background,Centre,"sb\rs.png",157,398 M,1,239557,240289,157,398,57,420 F,0,239557,240289,0.8,0 S,0,239557,240289,0.43 R,0,239557,240289,-0.13 C,0,239557,240289,52,27,94
Sprite,Background,Centre,"sb\rs.png",274,356 M,1,239681,240413,274,356,174,375 F,0,239681,240413,0.8,0 S,0,239681,240413,0.34 R,0,239681,240413,-0.22 C,0,239681,240413,54,26,94
Sprite,Background,Centre,"sb\rs.png",144,378 M,1,239733,240465,144,378,44,382 F,0,239733,240465,0.8,0 S,0,239733,240465,0.48 R,0,239733,240465,-0.12 C,0,239733,240465,54,22,96
Sprite,Background,Centre,"sb\rs.png",96,353 M,1,239734,240466,96,353,-4,377 F,0,239734,240466,0.8,0 S,0,239734,240466,0.42 R,0,239734,240466,-0.08 C,0,239734,240466,53,27,87
Sprite,Background,Centre,"sb\rs.png",181,341 M,1,239984,240716,181,341,81,365 F,0,239984,240716,0.8,0 S,0,239984,240716,0.37 R,0,239984,240716,-0.15 C,0,239984,240716,59,25,91
Sprite,Background,Centre,"sb\rs.png",171,408 M,1,240124,240856,171,408,71,420 F,0,240124,240856,0.8,0 S,0,240124,240856,0.46 R,0,240124,240856,-0.14 C,0,240124,240856,51,22,91
Sprite,Background,Centre,"sb\rs.png",273,388 M,1,240048,240780,273,388,173,391 F,0,240048,240780,0.8,0 S,0,240048,240780,0.38 R,0,240048,240780,-0.22 C,0,240048,240780,53,23,94
Sprite,Background,Centre,"sb\rs.png",193,337 M,1,240243,240975,193,337,93,367 F,0,240243,240975,0.8,0 S,0,240243,240975,0.44 R,0,240243,240975,-0.15 C,0,240243,240975,53,26,97
Sprite,Background,Centre,"sb\rs.png",282,372 M,1,240371,241103,282,372,182,387 F,0,240371,241103,0.8,0 S,0,240371,241103,0.43 R,0,240371,241103,-0.23 C,0,240371,241103,58,25,89
Sprite,Background,Centre,"sb\rs.png",337,276 M,1,240287,241019,337,276,237,318 F,0,240287,241019,0.8,0 S,0,240287,241019,0.36 R,0,240287,241019,-0.27 C,0,240287,241019,52,24,93
Sprite,Background,Centre,"sb\rs.png",151,338 M,1,240496,241228,151,338,51,354 F,0,240496,241228,0.8,0 S,0,240496,241228,0.39 R,0,240496,241228,-0.12 C,0,240496,241228,49,23,92
Sprite,Background,Centre,"sb\rs.png",106,360 M,1,240542,241274,106,360,6,384 F,0,240542,241274,0.8,0 S,0,240542,241274,0.42 R,0,240542,241274,-0.08 C,0,240542,241274,48,21,93
Sprite,Background,Centre,"sb\rs.png",105,329 M,1,240746,241478,105,329,5,357 F,0,240746,241478,0.8,0 S,0,240746,241478,0.41 R,0,240746,241478,-0.08 C,0,240746,241478,53,23,91
Sprite,Background,Centre,"sb\rs.png",248,399 M,1,240669,241401,248,399,148,414 F,0,240669,241401,0.8,0 S,0,240669,241401,0.49 R,0,240669,241401,-0.2 C,0,240669,241401,60,24,95
Sprite,Background,Centre,"sb\rs.png",192,371 M,1,240919,241651,192,371,92,376 F,0,240919,241651,0.8,0 S,0,240919,241651,0.48 R,0,240919,241651,-0.15 C,0,240919,241651,51,26,88
Sprite,Background,Centre,"sb\rs.png",250,402 M,1,240796,241528,250,402,150,411 F,0,240796,241528,0.8,0 S,0,240796,241528,0.48 R,0,240796,241528,-0.2 C,0,240796,241528,55,26,92
Sprite,Background,Centre,"sb\rs.png",154,364 M,1,241069,241801,154,364,54,387 F,0,241069,241801,0.8,0 S,0,241069,241801,0.46 R,0,241069,241801,-0.12 C,0,241069,241801,58,21,92
Sprite,Background,Centre,"sb\rs.png",243,409 M,1,241101,241833,243,409,143,412 F,0,241101,241833,0.8,0 S,0,241101,241833,0.42 R,0,241101,241833,-0.19 C,0,241101,241833,57,23,92
Sprite,Background,Centre,"sb\rs.png",313,348 M,1,241097,241829,313,348,213,371 F,0,241097,241829,0.8,0 S,0,241097,241829,0.33 R,0,241097,241829,-0.25 C,0,241097,241829,57,25,95
Sprite,Background,Centre,"sb\rs.png",204,410 M,1,241103,241835,204,410,104,419 F,0,241103,241835,0.8,0 S,0,241103,241835,0.46 R,0,241103,241835,-0.16 C,0,241103,241835,56,26,95
Sprite,Background,Centre,"sb\rs.png",95,437 M,1,241236,241968,95,437,-5,432 F,0,241236,241968,0.8,0 S,0,241236,241968,0.41 R,0,241236,241968,-0.08 C,0,241236,241968,55,26,88
Sprite,Background,Centre,"sb\rs.png",160,299 M,1,241349,242081,160,299,60,329 F,0,241349,242081,0.8,0 S,0,241349,242081,0.49 R,0,241349,242081,-0.13 C,0,241349,242081,50,25,96
Sprite,Background,Centre,"sb\rs.png",270,399 M,1,241642,242374,270,399,170,403 F,0,241642,242374,0.8,0 S,0,241642,242374,0.37 R,0,241642,242374,-0.22 C,0,241642,242374,55,23,95
Sprite,Background,Centre,"sb\rs.png",67,418 M,1,241499,242231,67,418,-33,448 F,0,241499,242231,0.8,0 S,0,241499,242231,0.36 R,0,241499,242231,-0.05 C,0,241499,242231,57,25,89
Sprite,Background,Centre,"sb\rs.png",114,436 M,1,241677,242409,114,436,14,456 F,0,241677,242409,0.8,0 S,0,241677,242409,0.46 R,0,241677,242409,-0.09 C,0,241677,242409,49,26,93
Sprite,Background,Centre,"sb\rs.png",358,305 M,1,241716,242448,358,305,258,332 F,0,241716,242448,0.8,0 S,0,241716,242448,0.33 R,0,241716,242448,-0.29 C,0,241716,242448,57,27,86
Sprite,Background,Centre,"sb\rs.png",338,260 M,1,241901,242633,338,260,238,301 F,0,241901,242633,0.8,0 S,0,241901,242633,0.36 R,0,241901,242633,-0.27 C,0,241901,242633,54,23,96
Sprite,Background,Centre,"sb\rs.png",118,319 M,1,241952,242684,118,319,18,346 F,0,241952,242684,0.8,0 S,0,241952,242684,0.48 R,0,241952,242684,-0.09 C,0,241952,242684,52,22,91
Sprite,Background,Centre,"sb\rs.png",240,356 M,1,242156,242888,240,356,140,377 F,0,242156,242888,0.8,0 S,0,242156,242888,0.35 R,0,242156,242888,-0.19 C,0,242156,242888,56,26,86
Sprite,Background,Centre,"sb\rs.png",357,313 M,1,242136,242868,357,313,257,341 F,0,242136,242868,0.8,0 S,0,242136,242868,0.33 R,0,242136,242868,-0.29 C,0,242136,242868,48,22,93
Sprite,Background,Centre,"sb\rs.png",296,345 M,1,242355,243087,296,345,196,361 F,0,242355,243087,0.8,0 S,0,242355,243087,0.38 R,0,242355,243087,-0.24 C,0,242355,243087,54,23,97
Sprite,Background,Centre,"sb\rs.png",138,361 M,1,242362,243094,138,361,38,372 F,0,242362,243094,0.8,0 S,0,242362,243094,0.48 R,0,242362,243094,-0.11 C,0,242362,243094,49,25,86
Sprite,Background,Centre,"sb\rs.png",338,298 M,1,242371,243103,338,298,238,328 F,0,242371,243103,0.8,0 S,0,242371,243103,0.3 R,0,242371,243103,-0.27 C,0,242371,243103,58,27,87
Sprite,Background,Centre,"sb\rs.png",196,296 M,1,242478,243210,196,296,96,328 F,0,242478,243210,0.8,0 S,0,242478,243210,0.4 R,0,242478,243210,-0.16 C,0,242478,243210,55,23,91
Sprite,Background,Centre,"sb\rs.png",101,444 M,1,242521,243253,101,444,1,455 F,0,242521,243253,0.8,0 S,0,242521,243253,0.46 R,0,242521,243253,-0.08 C,0,242521,243253,56,24,91
Sprite,Background,Centre,"sb\rs.png",86,331 M,1,242569,243301,86,331,-14,357 F,0,242569,243301,0.8,0 S,0,242569,243301,0.32 R,0,242569,243301,-0.07 C,0,242569,243301,55,26,98
Sprite,Background,Centre,"sb\rs.png",118,313 M,1,242856,243588,118,313,18,337 F,0,242856,243588,0.8,0 S,0,242856,243588,0.32 R,0,242856,243588,-0.09 C,0,242856,243588,49,26,95
Sprite,Background,Centre,"sb\rs.png",97,404 M,1,242848,243580,97,404,-3,419 F,0,242848,243580,0.8,0 S,0,242848,243580,0.38 R,0,242848,243580,-0.08 C,0,242848,243580,49,23,92
Sprite,Background,Centre,"sb\rs.png",232,274 M,1,243048,243780,232,274,132,305 F,0,243048,243780,0.8,0 S,0,243048,243780,0.34 R,0,243048,243780,-0.19 C,0,243048,243780,58,27,95
Sprite,Background,Centre,"sb\rs.png",104,351 M,1,242942,243674,104,351,4,365 F,0,242942,243674,0.8,0 S,0,242942,243674,0.31 R,0,242942,243674,-0.08 C,0,242942,243674,53,25,92
Sprite,Background,Centre,"sb\rs.png",148,286 M,1,243178,243910,148,286,48,320 F,0,243178,243910,0.8,0 S,0,243178,243910,0.32 R,0,243178,243910,-0.12 C,0,243178,243910,59,22,88
Sprite,Background,Centre,"sb\rs.png",121,413 M,1,243282,244014,121,413,21,389 F,0,243282,244014,0.8,0 S,0,243282,244014,0.44 R,0,243282,244014,-0.1 C,0,243282,244014,50,27,89
Sprite,Background,Centre,"sb\rs.png",327,321 M,1,243321,244053,327,321,227,343 F,0,243321,244053,0.8,0 S,0,243321,244053,0.5 R,0,243321,244053,-0.26 C,0,243321,244053,50,21,95
Sprite,Background,Centre,"sb\rs.png",173,332 M,1,243488,244220,173,332,73,354 F,0,243488,244220,0.8,0 S,0,243488,244220,0.5 R,0,243488,244220,-0.14 C,0,243488,244220,52,25,88
Sprite,Background,Centre,"sb\rs.png",158,391 M,1,243438,244170,158,391,58,410 F,0,243438,244170,0.8,0 S,0,243438,244170,0.34 R,0,243438,244170,-0.13 C,0,243438,244170,59,25,96
Sprite,Background,Centre,"sb\rs.png",170,367 M,1,243455,244187,170,367,70,396 F,0,243455,244187,0.8,0 S,0,243455,244187,0.48 R,0,243455,244187,-0.14 C,0,243455,244187,54,26,91
Sprite,Background,Centre,"sb\rs.png",208,287 M,1,243559,244291,208,287,108,319 F,0,243559,244291,0.8,0 S,0,243559,244291,0.36 R,0,243559,244291,-0.17 C,0,243559,244291,56,25,94
Sprite,Background,Centre,"sb\rs.png",117,292 M,1,243846,244578,117,292,17,325 F,0,243846,244578,0.8,0 S,0,243846,244578,0.45 R,0,243846,244578,-0.09 C,0,243846,244578,60,27,95
Sprite,Background,Centre,"sb\rs.png",57,338 M,1,243973,244705,57,338,-43,352 F,0,243973,244705,0.8,0 S,0,243973,244705,0.36 R,0,243973,244705,-0.05 C,0,243973,244705,56,25,91
Sprite,Background,Centre,"sb\rs.png",328,327 M,1,243874,244606,328,327,228,345 F,0,243874,244606,0.8,0 S,0,243874,244606,0.35 R,0,243874,244606,-0.26 C,0,243874,244606,57,25,97
Sprite,Background,Centre,"sb\rs.png",213,281 M,1,243915,244647,213,281,113,318 F,0,243915,244647,0.8,0 S,0,243915,244647,0.45 R,0,243915,244647,-0.17 C,0,243915,244647,54,26,95
Sprite,Background,Centre,"sb\rs.png",278,336 M,1,244191,244923,278,336,178,360 F,0,244191,244923,0.8,0 S,0,244191,244923,0.46 R,0,244191,244923,-0.22 C,0,244191,244923,49,24,90
Sprite,Background,Centre,"sb\rs.png",278,405 M,1,244154,244886,278,405,178,401 F,0,244154,244886,0.8,0 S,0,244154,244886,0.49 R,0,244154,244886,-0.22 C,0,244154,244886,57,25,87
Sprite,Background,Centre,"sb\rs.png",177,393 M,1,244379,245111,177,393,77,415 F,0,244379,245111,0.8,0 S,0,244379,245111,0.41 R,0,244379,245111,-0.14 C,0,244379,245111,58,26,96
Sprite,Background,Centre,"sb\rs.png",185,289 M,1,244477,245209,185,289,85,321 F,0,244477,245209,0.8,0 S,0,244477,245209,0.46 R,0,244477,245209,-0.15 C,0,244477,245209,56,23,94
Sprite,Background,Centre,"sb\rs.png",160,376 M,1,244632,245364,160,376,60,389 F,0,244632,245364,0.8,0 S,0,244632,245364,0.37 R,0,244632,245364,-0.13 C,0,244632,245364,53,23,89
Sprite,Background,Centre,"sb\rs.png",70,449 M,1,244484,245216,70,449,-30,413 F,0,244484,245216,0.8,0 S,0,244484,245216,0.37 R,0,244484,245216,-0.06 C,0,244484,245216,58,26,98
Sprite,Background,Centre,"sb\rs.png",161,340 M,1,244747,245479,161,340,61,358 F,0,244747,245479,0.8,0 S,0,244747,245479,0.35 R,0,244747,245479,-0.13 C,0,244747,245479,52,27,96
Sprite,Background,Centre,"sb\rs.png",144,316 M,1,244667,245399,144,316,44,342 F,0,244667,245399,0.8,0 S,0,244667,245399,0.39 R,0,244667,245399,-0.12 C,0,244667,245399,54,22,91
Sprite,Background,Centre,"sb\rs.png",127,321 M,1,244912,245644,127,321,27,347 F,0,244912,245644,0.8,0 S,0,244912,245644,0.34 R,0,244912,245644,-0.1 C,0,244912,245644,57,23,88
Sprite,Background,Centre,"sb\rs.png",226,300 M,1,244804,245536,226,300,126,330 F,0,244804,245536,0.8,0 S,0,244804,245536,0.37 R,0,244804,245536,-0.18 C,0,244804,245536,54,25,96
Sprite,Background,Centre,"sb\rs.png",226,299 M,1,244989,245721,226,299,126,330 F,0,244989,245721,0.8,0 S,0,244989,245721,0.41 R,0,244989,245721,-0.18 C,0,244989,245721,50,21,94
Sprite,Background,Centre,"sb\rs.png",294,381 M,1,245042,245774,294,381,194,379 F,0,245042,245774,0.8,0 S,0,245042,245774,0.38 R,0,245042,245774,-0.23 C,0,245042,245774,48,25,89
Sprite,Background,Centre,"sb\rs.png",44,437 M,1,245308,246040,44,437,-56,435 F,0,245308,246040,0.8,0 S,0,245308,246040,0.47 R,0,245308,246040,-0.03 C,0,245308,246040,60,21,87
Sprite,Background,Centre,"sb\rs.png",358,327 M,1,245187,245919,358,327,258,347 F,0,245187,245919,0.8,0 S,0,245187,245919,0.4 R,0,245187,245919,-0.29 C,0,245187,245919,56,22,92
Sprite,Background,Centre,"sb\rs.png",155,353 M,1,245349,246081,155,353,55,371 F,0,245349,246081,0.8,0 S,0,245349,246081,0.35 R,0,245349,246081,-0.12 C,0,245349,246081,50,25,91
Sprite,Background,Centre,"sb\rs.png",336,384 M,1,245491,246223,336,384,236,378 F,0,245491,246223,0.8,0 S,0,245491,246223,0.49 R,0,245491,246223,-0.27 C,0,245491,246223,55,25,94
Sprite,Background,Centre,"sb\rs.png",297,277 M,1,245432,246164,297,277,197,313 F,0,245432,246164,0.8,0 S,0,245432,246164,0.38 R,0,245432,246164,-0.24 C,0,245432,246164,59,24,88
Sprite,Background,Centre,"sb\rs.png",261,280 M,1,245640,246372,261,280,161,318 F,0,245640,246372,0.8,0 S,0,245640,246372,0.48 R,0,245640,246372,-0.21 C,0,245640,246372,59,22,86
Sprite,Background,Centre,"sb\rs.png",257,347 M,1,245705,246437,257,347,157,373 F,0,245705,246437,0.8,0 S,0,245705,246437,0.45 R,0,245705,246437,-0.21 C,0,245705,246437,50,25,90
Sprite,Background,Centre,"sb\rs.png",155,400 M,1,245841,246573,155,400,55,400 F,0,245841,246573,0.8,0 S,0,245841,246573,0.33 R,0,245841,246573,-0.12 C,0,245841,246573,52,24,91
Sprite,Background,Centre,"sb\rs.png",91,414 M,1,246031,246763,91,414,-9,435 F,0,246031,246763,0.8,0 S,0,246031,246763,0.43 R,0,246031,246763,-0.07 C,0,246031,246763,53,21,96
Sprite,Background,Centre,"sb\rs.png",246,309 M,1,246107,246839,246,309,146,338 F,0,246107,246839,0.8,0 S,0,246107,246839,0.39 R,0,246107,246839,-0.2 C,0,246107,246839,60,26,98
Sprite,Background,Centre,"sb\rs.png",335,326 M,1,246172,246904,335,326,235,350 F,0,246172,246904,0.8,0 S,0,246172,246904,0.35 R,0,246172,246904,-0.27 C,0,246172,246904,49,23,88
Sprite,Background,Centre,"sb\rs.png",155,430 M,1,246151,246883,155,430,55,458 F,0,246151,246883,0.8,0 S,0,246151,246883,0.42 R,0,246151,246883,-0.12 C,0,246151,246883,56,25,94
Sprite,Background,Centre,"sb\rs.png",175,275 M,1,246284,247016,175,275,75,310 F,0,246284,247016,0.8,0 S,0,246284,247016,0.5 R,0,246284,247016,-0.14 C,0,246284,247016,53,22,98
Sprite,Background,Centre,"sb\rs.png",130,288 M,1,246464,247196,130,288,30,323 F,0,246464,247196,0.8,0 S,0,246464,247196,0.42 R,0,246464,247196,-0.1 C,0,246464,247196,57,21,86
Sprite,Background,Centre,"sb\rs.png",379,352 M,1,246498,247230,379,352,279,359 F,0,246498,247230,0.8,0 S,0,246498,247230,0.39 R,0,246498,247230,-0.3 C,0,246498,247230,59,23,95
Sprite,Background,Centre,"sb\rs.png",241,354 M,1,246414,247146,241,354,141,376 F,0,246414,247146,0.8,0 S,0,246414,247146,0.43 R,0,246414,247146,-0.19 C,0,246414,247146,58,24,95
Sprite,Background,Centre,"sb\rs.png",115,304 M,1,246508,247240,115,304,15,333 F,0,246508,247240,0.8,0 S,0,246508,247240,0.42 R,0,246508,247240,-0.09 C,0,246508,247240,59,24,93
Sprite,Background,Centre,"sb\rs.png",247,333 M,1,246823,247555,247,333,147,359 F,0,246823,247555,0.8,0 S,0,246823,247555,0.39 R,0,246823,247555,-0.2 C,0,246823,247555,49,24,88
Sprite,Background,Centre,"sb\rs.png",216,274 M,1,246964,247696,216,274,116,305 F,0,246964,247696,0.8,0 S,0,246964,247696,0.47 R,0,246964,247696,-0.17 C,0,246964,247696,54,26,90
Sprite,Background,Centre,"sb\rs.png",157,320 M,1,246859,247591,157,320,57,342 F,0,246859,247591,0.8,0 S,0,246859,247591,0.35 R,0,246859,247591,-0.13 C,0,246859,247591,51,21,88
Sprite,Background,Centre,"sb\rs.png",339,304 M,1,246952,247684,339,304,239,334 F,0,246952,247684,0.8,0 S,0,246952,247684,0.34 R,0,246952,247684,-0.27 C,0,246952,247684,59,22,98
Sprite,Background,Centre,"sb\rs.png",93,371 M,1,247227,247959,93,371,-7,378 F,0,247227,247959,0.8,0 S,0,247227,247959,0.48 R,0,247227,247959,-0.07 C,0,247227,247959,58,25,94
Sprite,Background,Centre,"sb\rs.png",193,347 M,1,247187,247919,193,347,93,355 F,0,247187,247919,0.8,0 S,0,247187,247919,0.39 R,0,247187,247919,-0.15 C,0,247187,247919,60,23,91
Sprite,Background,Centre,"sb\rs.png",170,401 M,1,247350,248082,170,401,70,385 F,0,247350,248082,0.8,0 S,0,247350,248082,0.31 R,0,247350,248082,-0.14 C,0,247350,248082,50,24,87
Sprite,Background,Centre,"sb\rs.png",96,296 M,1,247498,248230,96,296,-4,327 F,0,247498,248230,0.8,0 S,0,247498,248230,0.34 R,0,247498,248230,-0.08 C,0,247498,248230,52,23,95
Sprite,Background,Centre,"sb\rs.png",364,233 M,1,247359,248091,364,233,264,285 F,0,247359,248091,0.8,0 S,0,247359,248091,0.36 R,0,247359,248091,-0.29 C,0,247359,248091,58,23,87
Sprite,Background,Centre,"sb\rs.png",161,384 M,1,247618,248350,161,384,61,402 F,0,247618,248350,0.8,0 S,0,247618,248350,0.31 R,0,247618,248350,-0.13 C,0,247618,248350,52,26,94
Sprite,Background,Centre,"sb\rs.png",47,388 M,1,247682,248414,47,388,-53,402 F,0,247682,248414,0.8,0 S,0,247682,248414,0.36 R,0,247682,248414,-0.04 C,0,247682,248414,50,26,92
Sprite,Background,Centre,"sb\rs.png",175,275 M,1,247666,248398,175,275,75,311 F,0,247666,248398,0.8,0 S,0,247666,248398,0.44 R,0,247666,248398,-0.14 C,0,247666,248398,51,22,97
Sprite,Background,Centre,"sb\rs.png",238,381 M,1,247730,248462,238,381,138,372 F,0,247730,248462,0.8,0 S,0,247730,248462,0.46 R,0,247730,248462,-0.19 C,0,247730,248462,48,26,90
Sprite,Background,Centre,"sb\rs.png",148,376 M,1,248042,248774,148,376,48,391 F,0,248042,248774,0.8,0 S,0,248042,248774,0.31 R,0,248042,248774,-0.12 C,0,248042,248774,54,23,88
Sprite,Background,Centre,"sb\rs.png",75,320 M,1,247887,248619,75,320,-25,341 F,0,247887,248619,0.8,0 S,0,247887,248619,0.49 R,0,247887,248619,-0.06 C,0,247887,248619,54,22,98
Sprite,Background,Centre,"sb\rs.png",186,295 M,1,248109,248841,186,295,86,325 F,0,248109,248841,0.8,0 S,0,248109,248841,0.38 R,0,248109,248841,-0.15 C,0,248109,248841,57,26,93
Sprite,Background,Centre,"sb\rs.png",91,380 M,1,248192,248924,91,380,-9,391 F,0,248192,248924,0.8,0 S,0,248192,248924,0.33 R,0,248192,248924,-0.07 C,0,248192,248924,53,25,91
Sprite,Background,Centre,"sb\rs.png",365,330 M,1,248180,248912,365,330,265,353 F,0,248180,248912,0.8,0 S,0,248180,248912,0.4 R,0,248180,248912,-0.29 C,0,248180,248912,57,26,89
Sprite,Background,Centre,"sb\rs.png",42,433 M,1,248231,248963,42,433,-58,424 F,0,248231,248963,0.8,0 S,0,248231,248963,0.41 R,0,248231,248963,-0.03 C,0,248231,248963,58,27,89
Sprite,Background,Centre,"sb\rs.png",261,338 M,1,248511,249243,261,338,161,363 F,0,248511,249243,0.8,0 S,0,248511,249243,0.43 R,0,248511,249243,-0.21 C,0,248511,249243,59,21,88
Sprite,Background,Centre,"sb\rs.png",142,384 M,1,248525,249257,142,384,42,405 F,0,248525,249257,0.8,0 S,0,248525,249257,0.46 R,0,248525,249257,-0.11 C,0,248525,249257,59,27,97
Sprite,Background,Centre,"sb\rs.png",183,382 M,1,248585,249317,183,382,83,409 F,0,248585,249317,0.8,0 S,0,248585,249317,0.31 R,0,248585,249317,-0.15 C,0,248585,249317,50,23,93
Sprite,Background,Centre,"sb\rs.png",256,408 M,1,248615,249347,256,408,156,416 F,0,248615,249347,0.8,0 S,0,248615,249347,0.38 R,0,248615,249347,-0.2 C,0,248615,249347,54,23,91
Sprite,Background,Centre,"sb\rs.png",369,331 M,1,248796,249528,369,331,269,348 F,0,248796,249528,0.8,0 S,0,248796,249528,0.41 R,0,248796,249528,-0.3 C,0,248796,249528,59,25,92
Sprite,Background,Centre,"sb\rs.png",110,426 M,1,248748,249480,110,426,10,432 F,0,248748,249480,0.8,0 S,0,248748,249480,0.46 R,0,248748,249480,-0.09 C,0,248748,249480,55,21,90
Sprite,Background,Centre,"sb\rs.png",173,412 M,1,248845,249577,173,412,73,404 F,0,248845,249577,0.8,0 S,0,248845,249577,0.32 R,0,248845,249577,-0.14 C,0,248845,249577,57,25,96
Sprite,Background,Centre,"sb\rs.png",187,376 M,1,249172,249904,187,376,87,380 F,0,249172,249904,0.8,0 S,0,249172,249904,0.38 R,0,249172,249904,-0.15 C,0,249172,249904,50,25,96
Sprite,Background,Centre,"sb\rs.png",323,311 M,1,249119,249851,323,311,223,341 F,0,249119,249851,0.8,0 S,0,249119,249851,0.45 R,0,249119,249851,-0.26 C,0,249119,249851,59,25,93
Sprite,Background,Centre,"sb\rs.png",235,304 M,1,249113,249845,235,304,135,333 F,0,249113,249845,0.8,0 S,0,249113,249845,0.48 R,0,249113,249845,-0.19 C,0,249113,249845,55,27,94
Sprite,Background,Centre,"sb\rs.png",68,431 M,1,249384,250116,68,431,-32,453 F,0,249384,250116,0.8,0 S,0,249384,250116,0.44 R,0,249384,250116,-0.05 C,0,249384,250116,59,23,91
Sprite,Background,Centre,"sb\rs.png",164,305 M,1,249372,250104,164,305,64,333 F,0,249372,250104,0.8,0 S,0,249372,250104,0.32 R,0,249372,250104,-0.13 C,0,249372,250104,52,24,98
Sprite,Background,Centre,"sb\rs.png",115,330 M,1,249569,250301,115,330,15,355 F,0,249569,250301,0.8,0 S,0,249569,250301,0.42 R,0,249569,250301,-0.09 C,0,249569,250301,50,24,94
Sprite,Background,Centre,"sb\rs.png",256,333 M,1,249505,250237,256,333,156,354 F,0,249505,250237,0.8,0 S,0,249505,250237,0.39 R,0,249505,250237,-0.2 C,0,249505,250237,58,25,90
Sprite,Background,Centre,"sb\rs.png",120,373 M,1,249658,250390,120,373,20,393 F,0,249658,250390,0.8,0 S,0,249658,250390,0.4 R,0,249658,250390,-0.1 C,0,249658,250390,56,22,93
Sprite,Background,Centre,"sb\rs.png",357,268 M,1,249817,250549,357,268,257,305 F,0,249817,250549,0.8,0 S,0,249817,250549,0.45 R,0,249817,250549,-0.29 C,0,249817,250549,55,24,96
Sprite,Background,Centre,"sb\rs.png",259,368 M,1,249872,250604,259,368,159,393 F,0,249872,250604,0.8,0 S,0,249872,250604,0.33 R,0,249872,250604,-0.21 C,0,249872,250604,57,25,90
Sprite,Background,Centre,"sb\rs.png",94,366 M,1,250045,250777,94,366,-6,374 F,0,250045,250777,0.8,0 S,0,250045,250777,0.41 R,0,250045,250777,-0.07 C,0,250045,250777,54,22,94
Sprite,Background,Centre,"sb\rs.png",83,374 M,1,249960,250692,83,374,-17,394 F,0,249960,250692,0.8,0 S,0,249960,250692,0.47 R,0,249960,250692,-0.07 C,0,249960,250692,53,23,88
Sprite,Background,Centre,"sb\rs.png",99,307 M,1,250147,250879,99,307,-1,336 F,0,250147,250879,0.8,0 S,0,250147,250879,0.33 R,0,250147,250879,-0.08 C,0,250147,250879,56,26,93
Sprite,Background,Centre,"sb\rs.png",88,302 M,1,250286,251018,88,302,-12,332 F,0,250286,251018,0.8,0 S,0,250286,251018,0.5 R,0,250286,251018,-0.07 C,0,250286,251018,49,26,92
Sprite,Background,Centre,"sb\rs.png",190,343 M,1,250188,250920,190,343,90,361 F,0,250188,250920,0.8,0 S,0,250188,250920,0.47 R,0,250188,250920,-0.15 C,0,250188,250920,57,22,93
Sprite,Background,Centre,"sb\rs.png",230,332 M,1,250515,251247,230,332,130,358 F,0,250515,251247,0.8,0 S,0,250515,251247,0.45 R,0,250515,251247,-0.18 C,0,250515,251247,52,24,88
Sprite,Background,Centre,"sb\rs.png",260,280 M,1,250532,251264,260,280,160,312 F,0,250532,251264,0.8,0 S,0,250532,251264,0.48 R,0,250532,251264,-0.21 C,0,250532,251264,49,26,93
Sprite,Background,Centre,"sb\rs.png",136,395 M,1,250703,251435,136,395,36,380 F,0,250703,251435,0.8,0 S,0,250703,251435,0.4 R,0,250703,251435,-0.11 C,0,250703,251435,53,22,89
Sprite,Background,Centre,"sb\rs.png",148,333 M,1,250823,251555,148,333,48,360 F,0,250823,251555,0.8,0 S,0,250823,251555,0.45 R,0,250823,251555,-0.12 C,0,250823,251555,57,23,87
Sprite,Background,Centre,"sb\rs.png",336,346 M,1,250883,251615,336,346,236,360 F,0,250883,251615,0.8,0 S,0,250883,251615,0.46 R,0,250883,251615,-0.27 C,0,250883,251615,57,21,96
Sprite,Background,Centre,"sb\rs.png",193,355 M,1,250779,251511,193,355,93,380 F,0,250779,251511,0.8,0 S,0,250779,251511,0.32 R,0,250779,251511,-0.15 C,0,250779,251511,56,25,94
Sprite,Background,Centre,"sb\rs.png",98,401 M,1,250952,251684,98,401,-2,393 F,0,250952,251684,0.8,0 S,0,250952,251684,0.43 R,0,250952,251684,-0.08 C,0,250952,251684,48,21,88
Sprite,Background,Centre,"sb\rs.png",88,328 M,1,250974,251706,88,328,-12,350 F,0,250974,251706,0.8,0 S,0,250974,251706,0.34 R,0,250974,251706,-0.07 C,0,250974,251706,56,24,94
Sprite,Background,Centre,"sb\rs.png",357,372 M,1,251160,251892,357,372,257,399 F,0,251160,251892,0.8,0 S,0,251160,251892,0.37 R,0,251160,251892,-0.29 C,0,251160,251892,49,21,95
Sprite,Background,Centre,"sb\rs.png",110,372 M,1,251229,251961,110,372,10,383 F,0,251229,251961,0.8,0 S,0,251229,251961,0.44 R,0,251229,251961,-0.09 C,0,251229,251961,48,24,96
Sprite,Background,Centre,"sb\rs.png",191,316 M,1,251395,252127,191,316,91,341 F,0,251395,252127,0.8,0 S,0,251395,252127,0.3 R,0,251395,252127,-0.15 C,0,251395,252127,51,25,95
Sprite,Background,Centre,"sb\rs.png",315,341 M,1,251398,252130,315,341,215,368 F,0,251398,252130,0.8,0 S,0,251398,252130,0.49 R,0,251398,252130,-0.25 C,0,251398,252130,58,22,97
Sprite,Background,Centre,"sb\rs.png",89,312 M,1,251373,252105,89,312,-11,341 F,0,251373,252105,0.8,0 S,0,251373,252105,0.37 R,0,251373,252105,-0.07 C,0,251373,252105,56,25,95
Sprite,Background,Centre,"sb\rs.png",66,444 M,1,251557,252289,66,444,-34,430 F,0,251557,252289,0.8,0 S,0,251557,252289,0.33 R,0,251557,252289,-0.05 C,0,251557,252289,59,22,90
Sprite,Background,Centre,"sb\rs.png",129,337 M,1,251727,252459,129,337,29,353 F,0,251727,252459,0.8,0 S,0,251727,252459,0.49 R,0,251727,252459,-0.1 C,0,251727,252459,55,21,88
Sprite,Background,Centre,"sb\rs.png",292,350 M,1,251888,252620,292,350,192,373 F,0,251888,252620,0.8,0 S,0,251888,252620,0.36 R,0,251888,252620,-0.23 C,0,251888,252620,53,25,95
Sprite,Background,Centre,"sb\rs.png",184,213 M,1,228925,229657,184,213,84,252 F,0,228925,229657,0.8,0 S,0,228925,229657,0.5 R,0,228925,229657,-0.15 C,0,228925,229657,53,22,97
Sprite,Background,Centre,"sb\rs.png",56,183 M,1,228958,229690,56,183,-44,254 F,0,228958,229690,0.8,0 S,0,228958,229690,0.43 R,0,228958,229690,-0.04 C,0,228958,229690,56,26,87
Sprite,Background,Centre,"sb\rs.png",166,78 M,1,229235,229967,166,78,66,170 F,0,229235,229967,0.8,0 S,0,229235,229967,0.44 R,0,229235,229967,-0.13 C,0,229235,229967,51,23,93
Sprite,Background,Centre,"sb\rs.png",170,220 M,1,229414,230146,170,220,70,276 F,0,229414,230146,0.8,0 S,0,229414,230146,0.5 R,0,229414,230146,-0.14 C,0,229414,230146,53,26,92
Sprite,Background,Centre,"sb\rs.png",75,172 M,1,229487,230219,75,172,-25,217 F,0,229487,230219,0.8,0 S,0,229487,230219,0.34 R,0,229487,230219,-0.06 C,0,229487,230219,54,22,95
Sprite,Background,Centre,"sb\rs.png",141,130 M,1,229904,230636,141,130,41,177 F,0,229904,230636,0.8,0 S,0,229904,230636,0.39 R,0,229904,230636,-0.11 C,0,229904,230636,49,26,92
Sprite,Background,Centre,"sb\rs.png",197,166 M,1,229926,230658,197,166,97,247 F,0,229926,230658,0.8,0 S,0,229926,230658,0.49 R,0,229926,230658,-0.16 C,0,229926,230658,49,21,94
Sprite,Background,Centre,"sb\rs.png",196,213 M,1,230217,230949,196,213,96,280 F,0,230217,230949,0.8,0 S,0,230217,230949,0.5 R,0,230217,230949,-0.16 C,0,230217,230949,60,21,97
Sprite,Background,Centre,"sb\rs.png",183,131 M,1,230379,231111,183,131,83,173 F,0,230379,231111,0.8,0 S,0,230379,231111,0.42 R,0,230379,231111,-0.15 C,0,230379,231111,53,27,88
Sprite,Background,Centre,"sb\rs.png",95,95 M,1,230417,231149,95,95,-5,190 F,0,230417,231149,0.8,0 S,0,230417,231149,0.48 R,0,230417,231149,-0.08 C,0,230417,231149,55,22,94
Sprite,Background,Centre,"sb\rs.png",180,100 M,1,230746,231478,180,100,80,225 F,0,230746,231478,0.8,0 S,0,230746,231478,0.31 R,0,230746,231478,-0.14 C,0,230746,231478,49,24,88
Sprite,Background,Centre,"sb\rs.png",52,107 M,1,230734,231466,52,107,-48,155 F,0,230734,231466,0.8,0 S,0,230734,231466,0.46 R,0,230734,231466,-0.04 C,0,230734,231466,53,22,98
Sprite,Background,Centre,"sb\rs.png",155,110 M,1,230885,231617,155,110,55,182 F,0,230885,231617,0.8,0 S,0,230885,231617,0.43 R,0,230885,231617,-0.12 C,0,230885,231617,52,26,90
Sprite,Background,Centre,"sb\rs.png",66,201 M,1,231152,231884,66,201,-34,277 F,0,231152,231884,0.8,0 S,0,231152,231884,0.44 R,0,231152,231884,-0.05 C,0,231152,231884,53,26,88
Sprite,Background,Centre,"sb\rs.png",217,132 M,1,231399,232131,217,132,117,223 F,0,231399,232131,0.8,0 S,0,231399,232131,0.34 R,0,231399,232131,-0.17 C,0,231399,232131,58,22,97
Sprite,Background,Centre,"sb\rs.png",40,258 M,1,231592,232324,40,258,-60,291 F,0,231592,232324,0.8,0 S,0,231592,232324,0.37 R,0,231592,232324,-0.03 C,0,231592,232324,59,26,89
Sprite,Background,Centre,"sb\rs.png",144,220 M,1,231727,232459,144,220,44,282 F,0,231727,232459,0.8,0 S,0,231727,232459,0.36 R,0,231727,232459,-0.12 C,0,231727,232459,51,24,98
Sprite,Background,Centre,"sb\rs.png",110,182 M,1,231802,232534,110,182,10,221 F,0,231802,232534,0.8,0 S,0,231802,232534,0.33 R,0,231802,232534,-0.09 C,0,231802,232534,58,22,94
Sprite,Background,Centre,"sb\rs.png",112,178 M,1,232124,232856,112,178,12,257 F,0,232124,232856,0.8,0 S,0,232124,232856,0.35 R,0,232124,232856,-0.09 C,0,232124,232856,59,23,89
Sprite,Background,Centre,"sb\rs.png",168,204 M,1,232148,232880,168,204,68,253 F,0,232148,232880,0.8,0 S,0,232148,232880,0.38 R,0,232148,232880,-0.13 C,0,232148,232880,56,24,94
Sprite,Background,Centre,"sb\rs.png",211,183 M,1,232359,233091,211,183,111,215 F,0,232359,233091,0.8,0 S,0,232359,233091,0.36 R,0,232359,233091,-0.17 C,0,232359,233091,53,27,95
Sprite,Background,Centre,"sb\rs.png",187,180 M,1,232593,233325,187,180,87,243 F,0,232593,233325,0.8,0 S,0,232593,233325,0.36 R,0,232593,233325,-0.15 C,0,232593,233325,48,24,88
Sprite,Background,Centre,"sb\rs.png",178,83 M,1,232792,233524,178,83,78,125 F,0,232792,233524,0.8,0 S,0,232792,233524,0.45 R,0,232792,233524,-0.14 C,0,232792,233524,49,23,92
Sprite,Background,Centre,"sb\rs.png",149,107 M,1,232895,233627,149,107,49,206 F,0,232895,233627,0.8,0 S,0,232895,233627,0.34 R,0,232895,233627,-0.12 C,0,232895,233627,49,25,90
Sprite,Background,Centre,"sb\rs.png",120,182 M,1,233070,233802,120,182,20,218 F,0,233070,233802,0.8,0 S,0,233070,233802,0.31 R,0,233070,233802,-0.1 C,0,233070,233802,59,25,96
Sprite,Background,Centre,"sb\rs.png",166,111 M,1,233385,234117,166,111,66,186 F,0,233385,234117,0.8,0 S,0,233385,234117,0.44 R,0,233385,234117,-0.13 C,0,233385,234117,53,23,86
Sprite,Background,Centre,"sb\rs.png",36,264 M,1,233510,234242,36,264,-64,306 F,0,233510,234242,0.8,0 S,0,233510,234242,0.48 R,0,233510,234242,-0.03 C,0,233510,234242,59,22,91
Sprite,Background,Centre,"sb\rs.png",205,220 M,1,233661,234393,205,220,105,253 F,0,233661,234393,0.8,0 S,0,233661,234393,0.45 R,0,233661,234393,-0.16 C,0,233661,234393,53,23,94
Sprite,Background,Centre,"sb\rs.png",145,172 M,1,233785,234517,145,172,45,211 F,0,233785,234517,0.8,0 S,0,233785,234517,0.39 R,0,233785,234517,-0.12 C,0,233785,234517,60,24,92
Sprite,Background,Centre,"sb\rs.png",219,190 M,1,233973,234705,219,190,119,248 F,0,233973,234705,0.8,0 S,0,233973,234705,0.45 R,0,233973,234705,-0.18 C,0,233973,234705,51,25,95
Sprite,Background,Centre,"sb\rs.png",209,161 M,1,234318,235050,209,161,109,239 F,0,234318,235050,0.8,0 S,0,234318,235050,0.4 R,0,234318,235050,-0.17 C,0,234318,235050,51,22,98
Sprite,Background,Centre,"sb\rs.png",63,189 M,1,234509,235241,63,189,-37,253 F,0,234509,235241,0.8,0 S,0,234509,235241,0.44 R,0,234509,235241,-0.05 C,0,234509,235241,49,26,90
Sprite,Background,Centre,"sb\rs.png",63,144 M,1,234661,235393,63,144,-37,208 F,0,234661,235393,0.8,0 S,0,234661,235393,0.36 R,0,234661,235393,-0.05 C,0,234661,235393,58,26,92
Sprite,Background,Centre,"sb\rs.png",227,138 M,1,234685,235417,227,138,127,193 F,0,234685,235417,0.8,0 S,0,234685,235417,0.37 R,0,234685,235417,-0.18 C,0,234685,235417,59,26,88
Sprite,Background,Centre,"sb\rs.png",130,208 M,1,234891,235623,130,208,30,263 F,0,234891,235623,0.8,0 S,0,234891,235623,0.31 R,0,234891,235623,-0.1 C,0,234891,235623,57,22,93
Sprite,Background,Centre,"sb\rs.png",155,182 M,1,235133,235865,155,182,55,246 F,0,235133,235865,0.8,0 S,0,235133,235865,0.36 R,0,235133,235865,-0.12 C,0,235133,235865,52,23,92
Sprite,Background,Centre,"sb\rs.png",159,178 M,1,235191,235923,159,178,59,234 F,0,235191,235923,0.8,0 S,0,235191,235923,0.47 R,0,235191,235923,-0.13 C,0,235191,235923,58,22,95
Sprite,Background,Centre,"sb\rs.png",175,192 M,1,235486,236218,175,192,75,262 F,0,235486,236218,0.8,0 S,0,235486,236218,0.33 R,0,235486,236218,-0.14 C,0,235486,236218,59,26,91
Sprite,Background,Centre,"sb\rs.png",137,187 M,1,235739,236471,137,187,37,258 F,0,235739,236471,0.8,0 S,0,235739,236471,0.45 R,0,235739,236471,-0.11 C,0,235739,236471,51,22,95
Sprite,Background,Centre,"sb\rs.png",221,132 M,1,235765,236497,221,132,121,198 F,0,235765,236497,0.8,0 S,0,235765,236497,0.41 R,0,235765,236497,-0.18 C,0,235765,236497,57,25,89
Sprite,Background,Centre,"sb\rs.png",224,74 M,1,236000,236732,224,74,124,181 F,0,236000,236732,0.8,0 S,0,236000,236732,0.32 R,0,236000,236732,-0.18 C,0,236000,236732,51,26,92
Sprite,Background,Centre,"sb\rs.png",157,145 M,1,236272,237004,157,145,57,239 F,0,236272,237004,0.8,0 S,0,236272,237004,0.38 R,0,236272,237004,-0.13 C,0,236272,237004,54,24,86
Sprite,Background,Centre,"sb\rs.png",72,231 M,1,236407,237139,72,231,-28,294 F,0,236407,237139,0.8,0 S,0,236407,237139,0.38 R,0,236407,237139,-0.06 C,0,236407,237139,55,25,89
Sprite,Background,Centre,"sb\rs.png",106,171 M,1,236571,237303,106,171,6,249 F,0,236571,237303,0.8,0 S,0,236571,237303,0.49 R,0,236571,237303,-0.08 C,0,236571,237303,57,27,89
Sprite,Background,Centre,"sb\rs.png",155,145 M,1,236751,237483,155,145,55,251 F,0,236751,237483,0.8,0 S,0,236751,237483,0.44 R,0,236751,237483,-0.12 C,0,236751,237483,53,21,88
Sprite,Background,Centre,"sb\rs.png",171,200 M,1,236877,237609,171,200,71,266 F,0,236877,237609,0.8,0 S,0,236877,237609,0.3 R,0,236877,237609,-0.14 C,0,236877,237609,52,26,93
Sprite,Background,Centre,"sb\rs.png",87,142 M,1,237272,238004,87,142,-13,173 F,0,237272,238004,0.8,0 S,0,237272,238004,0.39 R,0,237272,238004,-0.07 C,0,237272,238004,54,26,91
Sprite,Background,Centre,"sb\rs.png",162,202 M,1,237348,238080,162,202,62,244 F,0,237348,238080,0.8,0 S,0,237348,238080,0.47 R,0,237348,238080,-0.13 C,0,237348,238080,56,25,89
Sprite,Background,Centre,"sb\rs.png",155,208 M,1,237639,238371,155,208,55,248 F,0,237639,238371,0.8,0 S,0,237639,238371,0.48 R,0,237639,238371,-0.12 C,0,237639,238371,55,21,92
Sprite,Background,Centre,"sb\rs.png",122,172 M,1,237667,238399,122,172,22,251 F,0,237667,238399,0.8,0 S,0,237667,238399,0.42 R,0,237667,238399,-0.1 C,0,237667,238399,58,24,86
Sprite,Background,Centre,"sb\rs.png",38,181 M,1,237747,238479,38,181,-62,265 F,0,237747,238479,0.8,0 S,0,237747,238479,0.31 R,0,237747,238479,-0.03 C,0,237747,238479,48,26,92
Sprite,Background,Centre,"sb\rs.png",48,217 M,1,238132,238864,48,217,-52,283 F,0,238132,238864,0.8,0 S,0,238132,238864,0.33 R,0,238132,238864,-0.04 C,0,238132,238864,51,26,91
Sprite,Background,Centre,"sb\rs.png",134,225 M,1,238194,238926,134,225,34,273 F,0,238194,238926,0.8,0 S,0,238194,238926,0.44 R,0,238194,238926,-0.11 C,0,238194,238926,52,26,95
Sprite,Background,Centre,"sb\rs.png",220,176 M,1,238343,239075,220,176,120,232 F,0,238343,239075,0.8,0 S,0,238343,239075,0.38 R,0,238343,239075,-0.18 C,0,238343,239075,54,22,95
Sprite,Background,Centre,"sb\rs.png",87,115 M,1,238678,239410,87,115,-13,217 F,0,238678,239410,0.8,0 S,0,238678,239410,0.48 R,0,238678,239410,-0.07 C,0,238678,239410,60,24,90
Sprite,Background,Centre,"sb\rs.png",126,243 M,1,238889,239621,126,243,26,292 F,0,238889,239621,0.8,0 S,0,238889,239621,0.37 R,0,238889,239621,-0.1 C,0,238889,239621,58,27,89
Sprite,Background,Centre,"sb\rs.png",109,193 M,1,239080,239812,109,193,9,276 F,0,239080,239812,0.8,0 S,0,239080,239812,0.44 R,0,239080,239812,-0.09 C,0,239080,239812,59,23,87
Sprite,Background,Centre,"sb\rs.png",185,207 M,1,239139,239871,185,207,85,252 F,0,239139,239871,0.8,0 S,0,239139,239871,0.35 R,0,239139,239871,-0.15 C,0,239139,239871,59,24,88
Sprite,Background,Centre,"sb\rs.png",105,173 M,1,239349,240081,105,173,5,262 F,0,239349,240081,0.8,0 S,0,239349,240081,0.41 R,0,239349,240081,-0.08 C,0,239349,240081,52,22,96
Sprite,Background,Centre,"sb\rs.png",69,240 M,1,239524,240256,69,240,-31,294 F,0,239524,240256,0.8,0 S,0,239524,240256,0.45 R,0,239524,240256,-0.06 C,0,239524,240256,50,24,88
Sprite,Background,Centre,"sb\rs.png",200,147 M,1,239695,240427,200,147,100,184 F,0,239695,240427,0.8,0 S,0,239695,240427,0.33 R,0,239695,240427,-0.16 C,0,239695,240427,59,24,88
Sprite,Background,Centre,"sb\rs.png",38,242 M,1,239927,240659,38,242,-62,279 F,0,239927,240659,0.8,0 S,0,239927,240659,0.47 R,0,239927,240659,-0.03 C,0,239927,240659,56,26,88
Sprite,Background,Centre,"sb\rs.png",65,141 M,1,239873,240605,65,141,-35,235 F,0,239873,240605,0.8,0 S,0,239873,240605,0.5 R,0,239873,240605,-0.05 C,0,239873,240605,48,21,88
Sprite,Background,Centre,"sb\rs.png",53,256 M,1,240172,240904,53,256,-47,301 F,0,240172,240904,0.8,0 S,0,240172,240904,0.34 R,0,240172,240904,-0.04 C,0,240172,240904,56,26,91
Sprite,Background,Centre,"sb\rs.png",37,158 M,1,240273,241005,37,158,-63,212 F,0,240273,241005,0.8,0 S,0,240273,241005,0.5 R,0,240273,241005,-0.03 C,0,240273,241005,58,22,97
Sprite,Background,Centre,"sb\rs.png",110,240 M,1,240509,241241,110,240,10,275 F,0,240509,241241,0.8,0 S,0,240509,241241,0.35 R,0,240509,241241,-0.09 C,0,240509,241241,52,25,95
Sprite,Background,Centre,"sb\rs.png",49,161 M,1,240602,241334,49,161,-51,194 F,0,240602,241334,0.8,0 S,0,240602,241334,0.3 R,0,240602,241334,-0.04 C,0,240602,241334,49,24,87
Sprite,Background,Centre,"sb\rs.png",161,109 M,1,240904,241636,161,109,61,223 F,0,240904,241636,0.8,0 S,0,240904,241636,0.35 R,0,240904,241636,-0.13 C,0,240904,241636,50,24,86
Sprite,Background,Centre,"sb\rs.png",154,119 M,1,240980,241712,154,119,54,188 F,0,240980,241712,0.8,0 S,0,240980,241712,0.46 R,0,240980,241712,-0.12 C,0,240980,241712,49,26,93
Sprite,Background,Centre,"sb\rs.png",38,252 M,1,241225,241957,38,252,-62,287 F,0,241225,241957,0.8,0 S,0,241225,241957,0.38 R,0,241225,241957,-0.03 C,0,241225,241957,56,22,92
Sprite,Background,Centre,"sb\rs.png",46,147 M,1,241520,242252,46,147,-54,206 F,0,241520,242252,0.8,0 S,0,241520,242252,0.31 R,0,241520,242252,-0.04 C,0,241520,242252,55,24,89
Sprite,Background,Centre,"sb\rs.png",182,81 M,1,241727,242459,182,81,82,111 F,0,241727,242459,0.8,0 S,0,241727,242459,0.31 R,0,241727,242459,-0.15 C,0,241727,242459,50,25,94
Sprite,Background,Centre,"sb\rs.png",192,70 M,1,241919,242651,192,70,92,121 F,0,241919,242651,0.8,0 S,0,241919,242651,0.45 R,0,241919,242651,-0.15 C,0,241919,242651,51,23,92
Sprite,Background,Centre,"sb\rs.png",164,204 M,1,242047,242779,164,204,64,262 F,0,242047,242779,0.8,0 S,0,242047,242779,0.46 R,0,242047,242779,-0.13 C,0,242047,242779,51,24,96
Sprite,Background,Centre,"sb\rs.png",149,208 M,1,242246,242978,149,208,49,272 F,0,242246,242978,0.8,0 S,0,242246,242978,0.32 R,0,242246,242978,-0.12 C,0,242246,242978,55,23,97
Sprite,Background,Centre,"sb\rs.png",211,117 M,1,242281,243013,211,117,111,231 F,0,242281,243013,0.8,0 S,0,242281,243013,0.4 R,0,242281,243013,-0.17 C,0,242281,243013,54,24,98
Sprite,Background,Centre,"sb\rs.png",97,190 M,1,242526,243258,97,190,-3,255 F,0,242526,243258,0.8,0 S,0,242526,243258,0.46 R,0,242526,243258,-0.08 C,0,242526,243258,59,27,93
Sprite,Background,Centre,"sb\rs.png",135,114 M,1,242582,243314,135,114,35,212 F,0,242582,243314,0.8,0 S,0,242582,243314,0.42 R,0,242582,243314,-0.11 C,0,242582,243314,59,21,97
Sprite,Background,Centre,"sb\rs.png",159,116 M,1,242933,243665,159,116,59,167 F,0,242933,243665,0.8,0 S,0,242933,243665,0.49 R,0,242933,243665,-0.13 C,0,242933,243665,49,26,89
Sprite,Background,Centre,"sb\rs.png",52,147 M,1,243040,243772,52,147,-48,225 F,0,243040,243772,0.8,0 S,0,243040,243772,0.32 R,0,243040,243772,-0.04 C,0,243040,243772,58,26,89
Sprite,Background,Centre,"sb\rs.png",124,165 M,1,243371,244103,124,165,24,256 F,0,243371,244103,0.8,0 S,0,243371,244103,0.39 R,0,243371,244103,-0.1 C,0,243371,244103,57,22,95
Sprite,Background,Centre,"sb\rs.png",109,248 M,1,243572,244304,109,248,9,283 F,0,243572,244304,0.8,0 S,0,243572,244304,0.44 R,0,243572,244304,-0.09 C,0,243572,244304,52,25,96
Sprite,Background,Centre,"sb\rs.png",181,107 M,1,243668,244400,181,107,81,144 F,0,243668,244400,0.8,0 S,0,243668,244400,0.49 R,0,243668,244400,-0.14 C,0,243668,244400,52,26,88
Sprite,Background,Centre,"sb\rs.png",211,135 M,1,243812,244544,211,135,111,186 F,0,243812,244544,0.8,0 S,0,243812,244544,0.3 R,0,243812,244544,-0.17 C,0,243812,244544,59,27,94
Sprite,Background,Centre,"sb\rs.png",33,195 M,1,244059,244791,33,195,-67,243 F,0,244059,244791,0.8,0 S,0,244059,244791,0.49 R,0,244059,244791,-0.03 C,0,244059,244791,53,23,89
Sprite,Background,Centre,"sb\rs.png",144,163 M,1,244193,244925,144,163,44,246 F,0,244193,244925,0.8,0 S,0,244193,244925,0.41 R,0,244193,244925,-0.12 C,0,244193,244925,51,22,88
Sprite,Background,Centre,"sb\rs.png",229,188 M,1,244475,245207,229,188,129,255 F,0,244475,245207,0.8,0 S,0,244475,245207,0.32 R,0,244475,245207,-0.18 C,0,244475,245207,53,22,92
Sprite,Background,Centre,"sb\rs.png",102,243 M,1,244641,245373,102,243,2,277 F,0,244641,245373,0.8,0 S,0,244641,245373,0.31 R,0,244641,245373,-0.08 C,0,244641,245373,55,24,98
Sprite,Background,Centre,"sb\rs.png",88,251 M,1,244730,245462,88,251,-12,290 F,0,244730,245462,0.8,0 S,0,244730,245462,0.32 R,0,244730,245462,-0.07 C,0,244730,245462,54,25,96
Sprite,Background,Centre,"sb\rs.png",210,146 M,1,244756,245488,210,146,110,198 F,0,244756,245488,0.8,0 S,0,244756,245488,0.37 R,0,244756,245488,-0.17 C,0,244756,245488,54,23,93
Sprite,Background,Centre,"sb\rs.png",221,134 M,1,245009,245741,221,134,121,209 F,0,245009,245741,0.8,0 S,0,245009,245741,0.32 R,0,245009,245741,-0.18 C,0,245009,245741,55,24,92
Sprite,Background,Centre,"sb\rs.png",48,135 M,1,245204,245936,48,135,-52,225 F,0,245204,245936,0.8,0 S,0,245204,245936,0.43 R,0,245204,245936,-0.04 C,0,245204,245936,55,23,87
Sprite,Background,Centre,"sb\rs.png",62,180 M,1,245456,246188,62,180,-38,253 F,0,245456,246188,0.8,0 S,0,245456,246188,0.39 R,0,245456,246188,-0.05 C,0,245456,246188,57,23,90
Sprite,Background,Centre,"sb\rs.png",179,94 M,1,245504,246236,179,94,79,205 F,0,245504,246236,0.8,0 S,0,245504,246236,0.46 R,0,245504,246236,-0.14 C,0,245504,246236,60,22,90
Sprite,Background,Centre,"sb\rs.png",184,79 M,1,245761,246493,184,79,84,154 F,0,245761,246493,0.8,0 S,0,245761,246493,0.36 R,0,245761,246493,-0.15 C,0,245761,246493,49,23,94
Sprite,Background,Centre,"sb\rs.png",73,102 M,1,246013,246745,73,102,-27,195 F,0,246013,246745,0.8,0 S,0,246013,246745,0.3 R,0,246013,246745,-0.06 C,0,246013,246745,59,22,88
Sprite,Background,Centre,"sb\rs.png",33,135 M,1,246247,246979,33,135,-67,170 F,0,246247,246979,0.8,0 S,0,246247,246979,0.34 R,0,246247,246979,-0.03 C,0,246247,246979,58,22,96
Sprite,Background,Centre,"sb\rs.png",32,261 M,1,246317,247049,32,261,-68,300 F,0,246317,247049,0.8,0 S,0,246317,247049,0.38 R,0,246317,247049,-0.03 C,0,246317,247049,54,22,94
Sprite,Background,Centre,"sb\rs.png",48,244 M,1,246557,247289,48,244,-52,278 F,0,246557,247289,0.8,0 S,0,246557,247289,0.43 R,0,246557,247289,-0.04 C,0,246557,247289,48,22,95
Sprite,Background,Centre,"sb\rs.png",112,201 M,1,246615,247347,112,201,12,263 F,0,246615,247347,0.8,0 S,0,246615,247347,0.48 R,0,246615,247347,-0.09 C,0,246615,247347,52,24,95
Sprite,Background,Centre,"sb\rs.png",186,142 M,1,246743,247475,186,142,86,202 F,0,246743,247475,0.8,0 S,0,246743,247475,0.32 R,0,246743,247475,-0.15 C,0,246743,247475,56,23,95
Sprite,Background,Centre,"sb\rs.png",54,242 M,1,247009,247741,54,242,-46,293 F,0,247009,247741,0.8,0 S,0,247009,247741,0.36 R,0,247009,247741,-0.04 C,0,247009,247741,48,25,88
Sprite,Background,Centre,"sb\rs.png",51,196 M,1,247155,247887,51,196,-49,266 F,0,247155,247887,0.8,0 S,0,247155,247887,0.48 R,0,247155,247887,-0.04 C,0,247155,247887,58,24,97
Sprite,Background,Centre,"sb\rs.png",204,207 M,1,247390,248122,204,207,104,269 F,0,247390,248122,0.8,0 S,0,247390,248122,0.44 R,0,247390,248122,-0.16 C,0,247390,248122,58,26,94
Sprite,Background,Centre,"sb\rs.png",212,106 M,1,247723,248455,212,106,112,212 F,0,247723,248455,0.8,0 S,0,247723,248455,0.44 R,0,247723,248455,-0.17 C,0,247723,248455,60,24,97
Sprite,Background,Centre,"sb\rs.png",39,153 M,1,247627,248359,39,153,-61,185 F,0,247627,248359,0.8,0 S,0,247627,248359,0.35 R,0,247627,248359,-0.03 C,0,247627,248359,53,24,96
Sprite,Background,Centre,"sb\rs.png",137,124 M,1,247850,248582,137,124,37,193 F,0,247850,248582,0.8,0 S,0,247850,248582,0.36 R,0,247850,248582,-0.11 C,0,247850,248582,57,24,93
Sprite,Background,Centre,"sb\rs.png",94,199 M,1,248053,248785,94,199,-6,273 F,0,248053,248785,0.8,0 S,0,248053,248785,0.42 R,0,248053,248785,-0.08 C,0,248053,248785,52,25,96
Sprite,Background,Centre,"sb\rs.png",108,235 M,1,248396,249128,108,235,8,281 F,0,248396,249128,0.8,0 S,0,248396,249128,0.31 R,0,248396,249128,-0.09 C,0,248396,249128,55,24,90
Sprite,Background,Centre,"sb\rs.png",85,248 M,1,248454,249186,85,248,-15,280 F,0,248454,249186,0.8,0 S,0,248454,249186,0.44 R,0,248454,249186,-0.07 C,0,248454,249186,57,25,96
Sprite,Background,Centre,"sb\rs.png",156,147 M,1,248570,249302,156,147,56,216 F,0,248570,249302,0.8,0 S,0,248570,249302,0.47 R,0,248570,249302,-0.12 C,0,248570,249302,51,24,88
Sprite,Background,Centre,"sb\rs.png",34,185 M,1,248854,249586,34,185,-66,238 F,0,248854,249586,0.8,0 S,0,248854,249586,0.36 R,0,248854,249586,-0.03 C,0,248854,249586,58,23,95
Sprite,Background,Centre,"sb\rs.png",178,79 M,1,249110,249842,178,79,78,214 F,0,249110,249842,0.8,0 S,0,249110,249842,0.31 R,0,249110,249842,-0.14 C,0,249110,249842,53,22,88
Sprite,Background,Centre,"sb\rs.png",196,77 M,1,249105,249837,196,77,96,178 F,0,249105,249837,0.8,0 S,0,249105,249837,0.44 R,0,249105,249837,-0.16 C,0,249105,249837,58,24,94
Sprite,Background,Centre,"sb\rs.png",65,262 M,1,249477,250209,65,262,-35,300 F,0,249477,250209,0.8,0 S,0,249477,250209,0.32 R,0,249477,250209,-0.05 C,0,249477,250209,54,24,96
Sprite,Background,Centre,"sb\rs.png",182,105 M,1,249675,250407,182,105,82,203 F,0,249675,250407,0.8,0 S,0,249675,250407,0.34 R,0,249675,250407,-0.15 C,0,249675,250407,52,26,97
Sprite,Background,Centre,"sb\rs.png",30,240 M,1,249842,250574,30,240,-70,291 F,0,249842,250574,0.8,0 S,0,249842,250574,0.33 R,0,249842,250574,-0.02 C,0,249842,250574,51,25,86
Sprite,Background,Centre,"sb\rs.png",84,128 M,1,250033,250765,84,128,-16,221 F,0,250033,250765,0.8,0 S,0,250033,250765,0.3 R,0,250033,250765,-0.07 C,0,250033,250765,59,23,87
Sprite,Background,Centre,"sb\rs.png",127,128 M,1,250070,250802,127,128,27,233 F,0,250070,250802,0.8,0 S,0,250070,250802,0.38 R,0,250070,250802,-0.1 C,0,250070,250802,49,24,93
Sprite,Background,Centre,"sb\rs.png",202,92 M,1,250336,251068,202,92,102,155 F,0,250336,251068,0.8,0 S,0,250336,251068,0.38 R,0,250336,251068,-0.16 C,0,250336,251068,58,24,88
Sprite,Background,Centre,"sb\rs.png",181,181 M,1,250509,251241,181,181,81,239 F,0,250509,251241,0.8,0 S,0,250509,251241,0.37 R,0,250509,251241,-0.15 C,0,250509,251241,49,26,95
Sprite,Background,Centre,"sb\rs.png",167,128 M,1,250722,251454,167,128,67,201 F,0,250722,251454,0.8,0 S,0,250722,251454,0.3 R,0,250722,251454,-0.13 C,0,250722,251454,59,22,87
Sprite,Background,Centre,"sb\rs.png",111,241 M,1,250678,251410,111,241,11,289 F,0,250678,251410,0.8,0 S,0,250678,251410,0.43 R,0,250678,251410,-0.09 C,0,250678,251410,53,24,86
Sprite,Background,Centre,"sb\rs.png",65,106 M,1,250890,251622,65,106,-35,231 F,0,250890,251622,0.8,0 S,0,250890,251622,0.43 R,0,250890,251622,-0.05 C,0,250890,251622,54,22,96
Sprite,Background,Centre,"sb\rs.png",53,205 M,1,251257,251989,53,205,-47,241 F,0,251257,251989,0.8,0 S,0,251257,251989,0.4 R,0,251257,251989,-0.04 C,0,251257,251989,59,26,93
Sprite,Background,Centre,"sb\rs.png",167,214 M,1,251492,252224,167,214,67,253 F,0,251492,252224,0.8,0 S,0,251492,252224,0.45 R,0,251492,252224,-0.13 C,0,251492,252224,59,27,97
Sprite,Background,Centre,"sb\rs.png",91,120 M,1,251569,252301,91,120,-9,207 F,0,251569,252301,0.8,0 S,0,251569,252301,0.4 R,0,251569,252301,-0.07 C,0,251569,252301,59,23,97
Sprite,Background,Centre,"sb\rs.png",48,249 M,1,251621,252353,48,249,-52,293 F,0,251621,252353,0.8,0 S,0,251621,252353,0.36 R,0,251621,252353,-0.04 C,0,251621,252353,53,26,90
Sprite,Background,Centre,"sb\rs.png",86,112 M,1,152719,153451,86,112,-14,185 F,0,152719,153451,0.8,0 S,0,152719,153451,0.3 R,0,152719,153451,-0.07 C,0,152719,153451,52,21,88
Sprite,Background,Centre,"sb\rs.png",228,204 M,1,152946,153678,228,204,128,257 F,0,152946,153678,0.8,0 S,0,152946,153678,0.4 R,0,152946,153678,-0.18 C,0,152946,153678,58,21,97
Sprite,Background,Centre,"sb\rs.png",151,225 M,1,153125,153857,151,225,51,284 F,0,153125,153857,0.8,0 S,0,153125,153857,0.47 R,0,153125,153857,-0.12 C,0,153125,153857,56,27,92
Sprite,Background,Centre,"sb\rs.png",61,169 M,1,153218,153950,61,169,-39,216 F,0,153218,153950,0.8,0 S,0,153218,153950,0.31 R,0,153218,153950,-0.05 C,0,153218,153950,52,22,87
Sprite,Background,Centre,"sb\rs.png",38,226 M,1,153381,154113,38,226,-62,259 F,0,153381,154113,0.8,0 S,0,153381,154113,0.33 R,0,153381,154113,-0.03 C,0,153381,154113,54,26,94
Sprite,Background,Centre,"sb\rs.png",161,128 M,1,153517,154249,161,128,61,187 F,0,153517,154249,0.8,0 S,0,153517,154249,0.48 R,0,153517,154249,-0.13 C,0,153517,154249,53,23,96
Sprite,Background,Centre,"sb\rs.png",54,199 M,1,153772,154504,54,199,-46,252 F,0,153772,154504,0.8,0 S,0,153772,154504,0.47 R,0,153772,154504,-0.04 C,0,153772,154504,59,23,97
Sprite,Background,Centre,"sb\rs.png",61,148 M,1,154167,154899,61,148,-39,194 F,0,154167,154899,0.8,0 S,0,154167,154899,0.47 R,0,154167,154899,-0.05 C,0,154167,154899,51,25,97
Sprite,Background,Centre,"sb\rs.png",40,194 M,1,154261,154993,40,194,-60,245 F,0,154261,154993,0.8,0 S,0,154261,154993,0.37 R,0,154261,154993,-0.03 C,0,154261,154993,52,24,88
Sprite,Background,Centre,"sb\rs.png",190,152 M,1,154364,155096,190,152,90,184 F,0,154364,155096,0.8,0 S,0,154364,155096,0.44 R,0,154364,155096,-0.15 C,0,154364,155096,54,21,92
Sprite,Background,Centre,"sb\rs.png",94,217 M,1,154674,155406,94,217,-6,253 F,0,154674,155406,0.8,0 S,0,154674,155406,0.35 R,0,154674,155406,-0.07 C,0,154674,155406,50,22,95
Sprite,Background,Centre,"sb\rs.png",194,68 M,1,154763,155495,194,68,94,159 F,0,154763,155495,0.8,0 S,0,154763,155495,0.48 R,0,154763,155495,-0.16 C,0,154763,155495,50,22,92
Sprite,Background,Centre,"sb\rs.png",92,218 M,1,154891,155623,92,218,-8,273 F,0,154891,155623,0.8,0 S,0,154891,155623,0.44 R,0,154891,155623,-0.07 C,0,154891,155623,51,26,89
Sprite,Background,Centre,"sb\rs.png",66,184 M,1,154965,155697,66,184,-34,234 F,0,154965,155697,0.8,0 S,0,154965,155697,0.37 R,0,154965,155697,-0.05 C,0,154965,155697,59,22,89
Sprite,Background,Centre,"sb\rs.png",221,127 M,1,155330,156062,221,127,121,210 F,0,155330,156062,0.8,0 S,0,155330,156062,0.36 R,0,155330,156062,-0.18 C,0,155330,156062,58,22,96
Sprite,Background,Centre,"sb\rs.png",64,229 M,1,155503,156235,64,229,-36,262 F,0,155503,156235,0.8,0 S,0,155503,156235,0.41 R,0,155503,156235,-0.05 C,0,155503,156235,52,25,96
Sprite,Background,Centre,"sb\rs.png",98,112 M,1,155638,156370,98,112,-2,235 F,0,155638,156370,0.8,0 S,0,155638,156370,0.43 R,0,155638,156370,-0.08 C,0,155638,156370,58,25,97
Sprite,Background,Centre,"sb\rs.png",45,218 M,1,155933,156665,45,218,-55,261 F,0,155933,156665,0.8,0 S,0,155933,156665,0.48 R,0,155933,156665,-0.04 C,0,155933,156665,55,22,89
Sprite,Background,Centre,"sb\rs.png",96,242 M,1,156074,156806,96,242,-4,293 F,0,156074,156806,0.8,0 S,0,156074,156806,0.48 R,0,156074,156806,-0.08 C,0,156074,156806,55,22,88
Sprite,Background,Centre,"sb\rs.png",181,111 M,1,156217,156949,181,111,81,231 F,0,156217,156949,0.8,0 S,0,156217,156949,0.44 R,0,156217,156949,-0.14 C,0,156217,156949,50,24,95
Sprite,Background,Centre,"sb\rs.png",69,207 M,1,156503,157235,69,207,-31,239 F,0,156503,157235,0.8,0 S,0,156503,157235,0.39 R,0,156503,157235,-0.06 C,0,156503,157235,54,24,92
Sprite,Background,Centre,"sb\rs.png",90,234 M,1,156615,157347,90,234,-10,267 F,0,156615,157347,0.8,0 S,0,156615,157347,0.34 R,0,156615,157347,-0.07 C,0,156615,157347,53,25,91
Sprite,Background,Centre,"sb\rs.png",80,109 M,1,156575,157307,80,109,-20,193 F,0,156575,157307,0.8,0 S,0,156575,157307,0.43 R,0,156575,157307,-0.06 C,0,156575,157307,58,25,88
Sprite,Background,Centre,"sb\rs.png",159,139 M,1,156969,157701,159,139,59,198 F,0,156969,157701,0.8,0 S,0,156969,157701,0.49 R,0,156969,157701,-0.13 C,0,156969,157701,50,23,96
Sprite,Background,Centre,"sb\rs.png",123,229 M,1,157121,157853,123,229,23,274 F,0,157121,157853,0.8,0 S,0,157121,157853,0.32 R,0,157121,157853,-0.1 C,0,157121,157853,59,22,91
Sprite,Background,Centre,"sb\rs.png",70,142 M,1,157193,157925,70,142,-30,245 F,0,157193,157925,0.8,0 S,0,157193,157925,0.44 R,0,157193,157925,-0.06 C,0,157193,157925,52,26,94
Sprite,Background,Centre,"sb\rs.png",46,114 M,1,157334,158066,46,114,-54,174 F,0,157334,158066,0.8,0 S,0,157334,158066,0.45 R,0,157334,158066,-0.04 C,0,157334,158066,51,23,93
Sprite,Background,Centre,"sb\rs.png",122,186 M,1,157758,158490,122,186,22,255 F,0,157758,158490,0.8,0 S,0,157758,158490,0.42 R,0,157758,158490,-0.1 C,0,157758,158490,57,22,92
Sprite,Background,Centre,"sb\rs.png",83,209 M,1,157661,158393,83,209,-17,278 F,0,157661,158393,0.8,0 S,0,157661,158393,0.31 R,0,157661,158393,-0.07 C,0,157661,158393,56,22,92
Sprite,Background,Centre,"sb\rs.png",160,153 M,1,158082,158814,160,153,60,206 F,0,158082,158814,0.8,0 S,0,158082,158814,0.39 R,0,158082,158814,-0.13 C,0,158082,158814,53,23,88
Sprite,Background,Centre,"sb\rs.png",171,145 M,1,158189,158921,171,145,71,206 F,0,158189,158921,0.8,0 S,0,158189,158921,0.31 R,0,158189,158921,-0.14 C,0,158189,158921,53,23,91
Sprite,Background,Centre,"sb\rs.png",97,218 M,1,158216,158948,97,218,-3,267 F,0,158216,158948,0.8,0 S,0,158216,158948,0.42 R,0,158216,158948,-0.08 C,0,158216,158948,53,26,95
Sprite,Background,Centre,"sb\rs.png",79,160 M,1,158529,159261,79,160,-21,215 F,0,158529,159261,0.8,0 S,0,158529,159261,0.41 R,0,158529,159261,-0.06 C,0,158529,159261,52,24,97
Sprite,Background,Centre,"sb\rs.png",41,199 M,1,158732,159464,41,199,-59,271 F,0,158732,159464,0.8,0 S,0,158732,159464,0.34 R,0,158732,159464,-0.03 C,0,158732,159464,54,21,93
Sprite,Background,Centre,"sb\rs.png",136,128 M,1,158910,159642,136,128,36,183 F,0,158910,159642,0.8,0 S,0,158910,159642,0.33 R,0,158910,159642,-0.11 C,0,158910,159642,59,23,95
Sprite,Background,Centre,"sb\rs.png",219,75 M,1,159111,159843,219,75,119,146 F,0,159111,159843,0.8,0 S,0,159111,159843,0.39 R,0,159111,159843,-0.18 C,0,159111,159843,56,21,95
Sprite,Background,Centre,"sb\rs.png",148,186 M,1,159162,159894,148,186,48,216 F,0,159162,159894,0.8,0 S,0,159162,159894,0.39 R,0,159162,159894,-0.12 C,0,159162,159894,54,26,87
Sprite,Background,Centre,"sb\rs.png",102,244 M,1,159429,160161,102,244,2,281 F,0,159429,160161,0.8,0 S,0,159429,160161,0.38 R,0,159429,160161,-0.08 C,0,159429,160161,56,24,95
Sprite,Background,Centre,"sb\rs.png",131,238 M,1,159504,160236,131,238,31,289 F,0,159504,160236,0.8,0 S,0,159504,160236,0.34 R,0,159504,160236,-0.11 C,0,159504,160236,53,24,89
Sprite,Background,Centre,"sb\rs.png",130,115 M,1,159645,160377,130,115,30,168 F,0,159645,160377,0.8,0 S,0,159645,160377,0.38 R,0,159645,160377,-0.1 C,0,159645,160377,48,23,97
Sprite,Background,Centre,"sb\rs.png",32,213 M,1,159833,160565,32,213,-68,245 F,0,159833,160565,0.8,0 S,0,159833,160565,0.36 R,0,159833,160565,-0.03 C,0,159833,160565,48,22,93
Sprite,Background,Centre,"sb\rs.png",36,184 M,1,160090,160822,36,184,-64,246 F,0,160090,160822,0.8,0 S,0,160090,160822,0.31 R,0,160090,160822,-0.03 C,0,160090,160822,49,23,94
Sprite,Background,Centre,"sb\rs.png",53,153 M,1,160211,160943,53,153,-47,215 F,0,160211,160943,0.8,0 S,0,160211,160943,0.31 R,0,160211,160943,-0.04 C,0,160211,160943,56,26,94
Sprite,Background,Centre,"sb\rs.png",175,92 M,1,160453,161185,175,92,75,136 F,0,160453,161185,0.8,0 S,0,160453,161185,0.37 R,0,160453,161185,-0.14 C,0,160453,161185,50,22,88
Sprite,Background,Centre,"sb\rs.png",179,204 M,1,160750,161482,179,204,79,279 F,0,160750,161482,0.8,0 S,0,160750,161482,0.35 R,0,160750,161482,-0.14 C,0,160750,161482,53,25,90
Sprite,Background,Centre,"sb\rs.png",44,166 M,1,160869,161601,44,166,-56,246 F,0,160869,161601,0.8,0 S,0,160869,161601,0.48 R,0,160869,161601,-0.04 C,0,160869,161601,57,26,96
Sprite,Background,Centre,"sb\rs.png",102,175 M,1,160904,161636,102,175,2,238 F,0,160904,161636,0.8,0 S,0,160904,161636,0.35 R,0,160904,161636,-0.08 C,0,160904,161636,53,23,87
Sprite,Background,Centre,"sb\rs.png",210,118 M,1,161207,161939,210,118,110,162 F,0,161207,161939,0.8,0 S,0,161207,161939,0.47 R,0,161207,161939,-0.17 C,0,161207,161939,55,26,90
Sprite,Background,Centre,"sb\rs.png",145,108 M,1,161454,162186,145,108,45,157 F,0,161454,162186,0.8,0 S,0,161454,162186,0.33 R,0,161454,162186,-0.12 C,0,161454,162186,55,22,94
Sprite,Background,Centre,"sb\rs.png",32,159 M,1,161555,162287,32,159,-68,197 F,0,161555,162287,0.8,0 S,0,161555,162287,0.36 R,0,161555,162287,-0.03 C,0,161555,162287,59,25,97
Sprite,Background,Centre,"sb\rs.png",187,109 M,1,161693,162425,187,109,87,149 F,0,161693,162425,0.8,0 S,0,161693,162425,0.48 R,0,161693,162425,-0.15 C,0,161693,162425,53,22,96
Sprite,Background,Centre,"sb\rs.png",192,180 M,1,161811,162543,192,180,92,248 F,0,161811,162543,0.8,0 S,0,161811,162543,0.33 R,0,161811,162543,-0.15 C,0,161811,162543,49,27,97
Sprite,Background,Centre,"sb\rs.png",191,227 M,1,162020,162752,191,227,91,279 F,0,162020,162752,0.8,0 S,0,162020,162752,0.4 R,0,162020,162752,-0.15 C,0,162020,162752,52,27,98
Sprite,Background,Centre,"sb\rs.png",213,115 M,1,162168,162900,213,115,113,147 F,0,162168,162900,0.8,0 S,0,162168,162900,0.37 R,0,162168,162900,-0.17 C,0,162168,162900,55,25,95
Sprite,Background,Centre,"sb\rs.png",123,171 M,1,162621,163353,123,171,23,232 F,0,162621,163353,0.8,0 S,0,162621,163353,0.48 R,0,162621,163353,-0.1 C,0,162621,163353,53,22,94
Sprite,Background,Centre,"sb\rs.png",189,141 M,1,162704,163436,189,141,89,175 F,0,162704,163436,0.8,0 S,0,162704,163436,0.3 R,0,162704,163436,-0.15 C,0,162704,163436,51,24,90
Sprite,Background,Centre,"sb\rs.png",83,101 M,1,162760,163492,83,101,-17,132 F,0,162760,163492,0.8,0 S,0,162760,163492,0.38 R,0,162760,163492,-0.07 C,0,162760,163492,51,24,88
Sprite,Background,Centre,"sb\rs.png",106,238 M,1,162966,163698,106,238,6,269 F,0,162966,163698,0.8,0 S,0,162966,163698,0.43 R,0,162966,163698,-0.08 C,0,162966,163698,48,25,94
Sprite,Background,Centre,"sb\rs.png",229,186 M,1,163066,163798,229,186,129,222 F,0,163066,163798,0.8,0 S,0,163066,163798,0.43 R,0,163066,163798,-0.18 C,0,163066,163798,51,21,90
Sprite,Background,Centre,"sb\rs.png",171,118 M,1,163360,164092,171,118,71,149 F,0,163360,164092,0.8,0 S,0,163360,164092,0.3 R,0,163360,164092,-0.14 C,0,163360,164092,57,26,92
Sprite,Background,Centre,"sb\rs.png",97,162 M,1,163618,164350,97,162,-3,223 F,0,163618,164350,0.8,0 S,0,163618,164350,0.44 R,0,163618,164350,-0.08 C,0,163618,164350,53,26,88
Sprite,Background,Centre,"sb\rs.png",135,233 M,1,163838,164570,135,233,35,291 F,0,163838,164570,0.8,0 S,0,163838,164570,0.41 R,0,163838,164570,-0.11 C,0,163838,164570,54,26,88
Sprite,Background,Centre,"sb\rs.png",132,228 M,1,163838,164570,132,228,32,280 F,0,163838,164570,0.8,0 S,0,163838,164570,0.36 R,0,163838,164570,-0.11 C,0,163838,164570,58,24,89
Sprite,Background,Centre,"sb\rs.png",218,100 M,1,164087,164819,218,100,118,162 F,0,164087,164819,0.8,0 S,0,164087,164819,0.36 R,0,164087,164819,-0.17 C,0,164087,164819,52,25,94
Sprite,Background,Centre,"sb\rs.png",211,181 M,1,164173,164905,211,181,111,221 F,0,164173,164905,0.8,0 S,0,164173,164905,0.47 R,0,164173,164905,-0.17 C,0,164173,164905,55,23,92
Sprite,Background,Centre,"sb\rs.png",34,216 M,1,164311,165043,34,216,-66,259 F,0,164311,165043,0.8,0 S,0,164311,165043,0.32 R,0,164311,165043,-0.03 C,0,164311,165043,50,22,86
Sprite,Background,Centre,"sb\rs.png",166,90 M,1,164785,165517,166,90,66,203 F,0,164785,165517,0.8,0 S,0,164785,165517,0.43 R,0,164785,165517,-0.13 C,0,164785,165517,48,22,95
Sprite,Background,Centre,"sb\rs.png",115,223 M,1,164827,165559,115,223,15,288 F,0,164827,165559,0.8,0 S,0,164827,165559,0.44 R,0,164827,165559,-0.09 C,0,164827,165559,58,22,89
Sprite,Background,Centre,"sb\rs.png",112,236 M,1,165138,165870,112,236,12,281 F,0,165138,165870,0.8,0 S,0,165138,165870,0.49 R,0,165138,165870,-0.09 C,0,165138,165870,56,25,94
Sprite,Background,Centre,"sb\rs.png",38,233 M,1,165044,165776,38,233,-62,279 F,0,165044,165776,0.8,0 S,0,165044,165776,0.49 R,0,165044,165776,-0.03 C,0,165044,165776,52,25,90
Sprite,Background,Centre,"sb\rs.png",170,81 M,1,165387,166119,170,81,70,171 F,0,165387,166119,0.8,0 S,0,165387,166119,0.33 R,0,165387,166119,-0.14 C,0,165387,166119,56,23,95
Sprite,Background,Centre,"sb\rs.png",151,229 M,1,165457,166189,151,229,51,290 F,0,165457,166189,0.8,0 S,0,165457,166189,0.45 R,0,165457,166189,-0.12 C,0,165457,166189,49,22,96
Sprite,Background,Centre,"sb\rs.png",192,121 M,1,165662,166394,192,121,92,231 F,0,165662,166394,0.8,0 S,0,165662,166394,0.46 R,0,165662,166394,-0.15 C,0,165662,166394,55,22,93
Sprite,Background,Centre,"sb\rs.png",93,154 M,1,166031,166763,93,154,-7,221 F,0,166031,166763,0.8,0 S,0,166031,166763,0.37 R,0,166031,166763,-0.07 C,0,166031,166763,53,25,91
Sprite,Background,Centre,"sb\rs.png",89,224 M,1,165959,166691,89,224,-11,291 F,0,165959,166691,0.8,0 S,0,165959,166691,0.47 R,0,165959,166691,-0.07 C,0,165959,166691,58,25,88
Sprite,Background,Centre,"sb\rs.png",125,221 M,1,166389,167121,125,221,25,270 F,0,166389,167121,0.8,0 S,0,166389,167121,0.4 R,0,166389,167121,-0.1 C,0,166389,167121,57,23,93
Sprite,Background,Centre,"sb\rs.png",151,199 M,1,166326,167058,151,199,51,233 F,0,166326,167058,0.8,0 S,0,166326,167058,0.46 R,0,166326,167058,-0.12 C,0,166326,167058,53,22,92
Sprite,Background,Centre,"sb\rs.png",49,259 M,1,166600,167332,49,259,-51,303 F,0,166600,167332,0.8,0 S,0,166600,167332,0.36 R,0,166600,167332,-0.04 C,0,166600,167332,57,24,86
Sprite,Background,Centre,"sb\rs.png",176,210 M,1,166751,167483,176,210,76,255 F,0,166751,167483,0.8,0 S,0,166751,167483,0.42 R,0,166751,167483,-0.14 C,0,166751,167483,53,23,91
Sprite,Background,Centre,"sb\rs.png",139,123 M,1,167067,167799,139,123,39,162 F,0,167067,167799,0.8,0 S,0,167067,167799,0.45 R,0,167067,167799,-0.11 C,0,167067,167799,59,23,94
Sprite,Background,Centre,"sb\rs.png",192,124 M,1,167048,167780,192,124,92,231 F,0,167048,167780,0.8,0 S,0,167048,167780,0.31 R,0,167048,167780,-0.15 C,0,167048,167780,48,22,97
Sprite,Background,Centre,"sb\rs.png",61,168 M,1,167213,167945,61,168,-39,237 F,0,167213,167945,0.8,0 S,0,167213,167945,0.4 R,0,167213,167945,-0.05 C,0,167213,167945,55,23,98
Sprite,Background,Centre,"sb\rs.png",187,82 M,1,167646,168378,187,82,87,114 F,0,167646,168378,0.8,0 S,0,167646,168378,0.44 R,0,167646,168378,-0.15 C,0,167646,168378,54,25,87
Sprite,Background,Centre,"sb\rs.png",203,109 M,1,167771,168503,203,109,103,171 F,0,167771,168503,0.8,0 S,0,167771,168503,0.31 R,0,167771,168503,-0.16 C,0,167771,168503,51,26,94
Sprite,Background,Centre,"sb\rs.png",228,171 M,1,167977,168709,228,171,128,218 F,0,167977,168709,0.8,0 S,0,167977,168709,0.35 R,0,167977,168709,-0.18 C,0,167977,168709,54,22,92
Sprite,Background,Centre,"sb\rs.png",194,77 M,1,167969,168701,194,77,94,195 F,0,167969,168701,0.8,0 S,0,167969,168701,0.32 R,0,167969,168701,-0.15 C,0,167969,168701,53,27,92
Sprite,Background,Centre,"sb\rs.png",189,191 M,1,168162,168894,189,191,89,252 F,0,168162,168894,0.8,0 S,0,168162,168894,0.36 R,0,168162,168894,-0.15 C,0,168162,168894,49,24,87
Sprite,Background,Centre,"sb\rs.png",33,177 M,1,168417,169149,33,177,-67,262 F,0,168417,169149,0.8,0 S,0,168417,169149,0.38 R,0,168417,169149,-0.03 C,0,168417,169149,59,22,92
Sprite,Background,Centre,"sb\rs.png",75,230 M,1,168600,169332,75,230,-25,272 F,0,168600,169332,0.8,0 S,0,168600,169332,0.47 R,0,168600,169332,-0.06 C,0,168600,169332,58,23,90
Sprite,Background,Centre,"sb\rs.png",215,159 M,1,168897,169629,215,159,115,197 F,0,168897,169629,0.8,0 S,0,168897,169629,0.32 R,0,168897,169629,-0.17 C,0,168897,169629,56,24,87
Sprite,Background,Centre,"sb\rs.png",150,173 M,1,168953,169685,150,173,50,248 F,0,168953,169685,0.8,0 S,0,168953,169685,0.32 R,0,168953,169685,-0.12 C,0,168953,169685,51,22,93
Sprite,Background,Centre,"sb\rs.png",51,201 M,1,169151,169883,51,201,-49,263 F,0,169151,169883,0.8,0 S,0,169151,169883,0.43 R,0,169151,169883,-0.04 C,0,169151,169883,56,25,89
Sprite,Background,Centre,"sb\rs.png",58,115 M,1,169236,169968,58,115,-42,187 F,0,169236,169968,0.8,0 S,0,169236,169968,0.48 R,0,169236,169968,-0.05 C,0,169236,169968,51,24,95
Sprite,Background,Centre,"sb\rs.png",200,96 M,1,169365,170097,200,96,100,176 F,0,169365,170097,0.8,0 S,0,169365,170097,0.32 R,0,169365,170097,-0.16 C,0,169365,170097,59,25,91
Sprite,Background,Centre,"sb\rs.png",148,185 M,1,169704,170436,148,185,48,233 F,0,169704,170436,0.8,0 S,0,169704,170436,0.4 R,0,169704,170436,-0.12 C,0,169704,170436,49,24,98
Sprite,Background,Centre,"sb\rs.png",186,92 M,1,169758,170490,186,92,86,187 F,0,169758,170490,0.8,0 S,0,169758,170490,0.33 R,0,169758,170490,-0.15 C,0,169758,170490,55,26,89
Sprite,Background,Centre,"sb\rs.png",205,108 M,1,170139,170871,205,108,105,138 F,0,170139,170871,0.8,0 S,0,170139,170871,0.31 R,0,170139,170871,-0.16 C,0,170139,170871,57,24,91
Sprite,Background,Centre,"sb\rs.png",130,135 M,1,170171,170903,130,135,30,171 F,0,170171,170903,0.8,0 S,0,170171,170903,0.36 R,0,170171,170903,-0.1 C,0,170171,170903,54,22,94
Sprite,Background,Centre,"sb\rs.png",167,151 M,1,170337,171069,167,151,67,211 F,0,170337,171069,0.8,0 S,0,170337,171069,0.4 R,0,170337,171069,-0.13 C,0,170337,171069,57,23,88
Sprite,Background,Centre,"sb\rs.png",72,225 M,1,170554,171286,72,225,-28,256 F,0,170554,171286,0.8,0 S,0,170554,171286,0.3 R,0,170554,171286,-0.06 C,0,170554,171286,56,26,89
Sprite,Background,Centre,"sb\rs.png",54,204 M,1,170897,171629,54,204,-46,264 F,0,170897,171629,0.8,0 S,0,170897,171629,0.45 R,0,170897,171629,-0.04 C,0,170897,171629,54,23,86
Sprite,Background,Centre,"sb\rs.png",94,244 M,1,170852,171584,94,244,-6,276 F,0,170852,171584,0.8,0 S,0,170852,171584,0.44 R,0,170852,171584,-0.08 C,0,170852,171584,49,26,88
Sprite,Background,Centre,"sb\rs.png",95,247 M,1,171008,171740,95,247,-5,281 F,0,171008,171740,0.8,0 S,0,171008,171740,0.47 R,0,171008,171740,-0.08 C,0,171008,171740,53,22,86
Sprite,Background,Centre,"sb\rs.png",50,210 M,1,171192,171924,50,210,-50,250 F,0,171192,171924,0.8,0 S,0,171192,171924,0.49 R,0,171192,171924,-0.04 C,0,171192,171924,48,24,89
Sprite,Background,Centre,"sb\rs.png",47,226 M,1,171334,172066,47,226,-53,257 F,0,171334,172066,0.8,0 S,0,171334,172066,0.49 R,0,171334,172066,-0.04 C,0,171334,172066,57,25,97
Sprite,Background,Centre,"sb\rs.png",86,157 M,1,171775,172507,86,157,-14,258 F,0,171775,172507,0.8,0 S,0,171775,172507,0.45 R,0,171775,172507,-0.07 C,0,171775,172507,49,22,91
Sprite,Background,Centre,"sb\rs.png",127,151 M,1,171807,172539,127,151,27,249 F,0,171807,172539,0.8,0 S,0,171807,172539,0.46 R,0,171807,172539,-0.1 C,0,171807,172539,51,22,97
Sprite,Background,Centre,"sb\rs.png",167,122 M,1,172158,172890,167,122,67,211 F,0,172158,172890,0.8,0 S,0,172158,172890,0.38 R,0,172158,172890,-0.13 C,0,172158,172890,56,21,91
Sprite,Background,Centre,"sb\rs.png",132,188 M,1,172107,172839,132,188,32,229 F,0,172107,172839,0.8,0 S,0,172107,172839,0.38 R,0,172107,172839,-0.11 C,0,172107,172839,57,26,91
Sprite,Background,Centre,"sb\rs.png",204,129 M,1,172344,173076,204,129,104,188 F,0,172344,173076,0.8,0 S,0,172344,173076,0.45 R,0,172344,173076,-0.16 C,0,172344,173076,52,23,90
Sprite,Background,Centre,"sb\rs.png",166,165 M,1,172458,173190,166,165,66,207 F,0,172458,173190,0.8,0 S,0,172458,173190,0.39 R,0,172458,173190,-0.13 C,0,172458,173190,54,23,91
Sprite,Background,Centre,"sb\rs.png",176,178 M,1,172671,173403,176,178,76,211 F,0,172671,173403,0.8,0 S,0,172671,173403,0.37 R,0,172671,173403,-0.14 C,0,172671,173403,57,23,90
Sprite,Background,Centre,"sb\rs.png",165,198 M,1,172907,173639,165,198,65,237 F,0,172907,173639,0.8,0 S,0,172907,173639,0.37 R,0,172907,173639,-0.13 C,0,172907,173639,55,25,90
Sprite,Background,Centre,"sb\rs.png",57,127 M,1,173096,173828,57,127,-43,234 F,0,173096,173828,0.8,0 S,0,173096,173828,0.4 R,0,173096,173828,-0.05 C,0,173096,173828,51,21,88
Sprite,Background,Centre,"sb\rs.png",220,147 M,1,173219,173951,220,147,120,223 F,0,173219,173951,0.8,0 S,0,173219,173951,0.39 R,0,173219,173951,-0.18 C,0,173219,173951,54,24,91
Sprite,Background,Centre,"sb\rs.png",138,101 M,1,173387,174119,138,101,38,147 F,0,173387,174119,0.8,0 S,0,173387,174119,0.4 R,0,173387,174119,-0.11 C,0,173387,174119,53,22,96
Sprite,Background,Centre,"sb\rs.png",106,240 M,1,173660,174392,106,240,6,275 F,0,173660,174392,0.8,0 S,0,173660,174392,0.47 R,0,173660,174392,-0.08 C,0,173660,174392,56,24,94
Sprite,Background,Centre,"sb\rs.png",156,106 M,1,173905,174637,156,106,56,186 F,0,173905,174637,0.8,0 S,0,173905,174637,0.42 R,0,173905,174637,-0.13 C,0,173905,174637,55,23,89
Sprite,Background,Centre,"sb\rs.png",203,207 M,1,173985,174717,203,207,103,282 F,0,173985,174717,0.8,0 S,0,173985,174717,0.31 R,0,173985,174717,-0.16 C,0,173985,174717,53,27,87
Sprite,Background,Centre,"sb\rs.png",218,126 M,1,174295,175027,218,126,118,157 F,0,174295,175027,0.8,0 S,0,174295,175027,0.35 R,0,174295,175027,-0.17 C,0,174295,175027,57,22,98
Sprite,Background,Centre,"sb\rs.png",223,121 M,1,174227,174959,223,121,123,203 F,0,174227,174959,0.8,0 S,0,174227,174959,0.41 R,0,174227,174959,-0.18 C,0,174227,174959,51,24,94
Sprite,Background,Centre,"sb\rs.png",121,160 M,1,174575,175307,121,160,21,210 F,0,174575,175307,0.8,0 S,0,174575,175307,0.34 R,0,174575,175307,-0.1 C,0,174575,175307,48,24,91
Sprite,Background,Centre,"sb\rs.png",136,169 M,1,174582,175314,136,169,36,216 F,0,174582,175314,0.8,0 S,0,174582,175314,0.36 R,0,174582,175314,-0.11 C,0,174582,175314,56,26,95
Sprite,Background,Centre,"sb\rs.png",87,209 M,1,175019,175751,87,209,-13,270 F,0,175019,175751,0.8,0 S,0,175019,175751,0.42 R,0,175019,175751,-0.07 C,0,175019,175751,50,22,87
Sprite,Background,Centre,"sb\rs.png",90,216 M,1,175002,175734,90,216,-10,287 F,0,175002,175734,0.8,0 S,0,175002,175734,0.44 R,0,175002,175734,-0.07 C,0,175002,175734,57,21,97
Sprite,Background,Centre,"sb\rs.png",78,156 M,1,175148,175880,78,156,-22,214 F,0,175148,175880,0.8,0 S,0,175148,175880,0.34 R,0,175148,175880,-0.06 C,0,175148,175880,51,25,94
Sprite,Background,Centre,"sb\rs.png",145,215 M,1,175373,176105,145,215,45,270 F,0,175373,176105,0.8,0 S,0,175373,176105,0.46 R,0,175373,176105,-0.12 C,0,175373,176105,56,24,89
Sprite,Background,Centre,"sb\rs.png",125,180 M,1,175717,176449,125,180,25,240 F,0,175717,176449,0.8,0 S,0,175717,176449,0.35 R,0,175717,176449,-0.1 C,0,175717,176449,56,24,97
Sprite,Background,Centre,"sb\rs.png",111,186 M,1,70769,71501,111,186,11,226 F,0,70769,71501,0.8,0 S,0,70769,71501,0.48 R,0,70769,71501,-0.09 C,0,70769,71501,57,24,89
Sprite,Background,Centre,"sb\rs.png",201,124 M,1,71068,71800,201,124,101,198 F,0,71068,71800,0.8,0 S,0,71068,71800,0.42 R,0,71068,71800,-0.16 C,0,71068,71800,49,24,92
Sprite,Background,Centre,"sb\rs.png",208,144 M,1,71246,71978,208,144,108,238 F,0,71246,71978,0.8,0 S,0,71246,71978,0.49 R,0,71246,71978,-0.17 C,0,71246,71978,53,27,92
Sprite,Background,Centre,"sb\rs.png",105,199 M,1,71405,72137,105,199,5,268 F,0,71405,72137,0.8,0 S,0,71405,72137,0.31 R,0,71405,72137,-0.08 C,0,71405,72137,57,24,97
Sprite,Background,Centre,"sb\rs.png",79,163 M,1,71633,72365,79,163,-21,235 F,0,71633,72365,0.8,0 S,0,71633,72365,0.37 R,0,71633,72365,-0.06 C,0,71633,72365,51,23,98
Sprite,Background,Centre,"sb\rs.png",77,259 M,1,71819,72551,77,259,-23,309 F,0,71819,72551,0.8,0 S,0,71819,72551,0.35 R,0,71819,72551,-0.06 C,0,71819,72551,50,23,95
Sprite,Background,Centre,"sb\rs.png",167,81 M,1,71795,72527,167,81,67,117 F,0,71795,72527,0.8,0 S,0,71795,72527,0.31 R,0,71795,72527,-0.13 C,0,71795,72527,53,24,97
Sprite,Background,Centre,"sb\rs.png",136,162 M,1,72122,72854,136,162,36,251 F,0,72122,72854,0.8,0 S,0,72122,72854,0.44 R,0,72122,72854,-0.11 C,0,72122,72854,59,26,89
Sprite,Background,Centre,"sb\rs.png",97,171 M,1,72210,72942,97,171,-3,236 F,0,72210,72942,0.8,0 S,0,72210,72942,0.49 R,0,72210,72942,-0.08 C,0,72210,72942,52,21,90
Sprite,Background,Centre,"sb\rs.png",140,190 M,1,72379,73111,140,190,40,262 F,0,72379,73111,0.8,0 S,0,72379,73111,0.39 R,0,72379,73111,-0.11 C,0,72379,73111,59,25,96
Sprite,Background,Centre,"sb\rs.png",193,107 M,1,72653,73385,193,107,93,190 F,0,72653,73385,0.8,0 S,0,72653,73385,0.49 R,0,72653,73385,-0.15 C,0,72653,73385,51,22,89
Sprite,Background,Centre,"sb\rs.png",115,179 M,1,72796,73528,115,179,15,248 F,0,72796,73528,0.8,0 S,0,72796,73528,0.3 R,0,72796,73528,-0.09 C,0,72796,73528,53,23,90
Sprite,Background,Centre,"sb\rs.png",211,128 M,1,72983,73715,211,128,111,220 F,0,72983,73715,0.8,0 S,0,72983,73715,0.33 R,0,72983,73715,-0.17 C,0,72983,73715,60,27,86
Sprite,Background,Centre,"sb\rs.png",176,206 M,1,73008,73740,176,206,76,241 F,0,73008,73740,0.8,0 S,0,73008,73740,0.46 R,0,73008,73740,-0.14 C,0,73008,73740,54,22,89
Sprite,Background,Centre,"sb\rs.png",60,222 M,1,73332,74064,60,222,-40,253 F,0,73332,74064,0.8,0 S,0,73332,74064,0.47 R,0,73332,74064,-0.05 C,0,73332,74064,55,24,89
Sprite,Background,Centre,"sb\rs.png",56,251 M,1,73465,74197,56,251,-44,298 F,0,73465,74197,0.8,0 S,0,73465,74197,0.47 R,0,73465,74197,-0.05 C,0,73465,74197,57,24,92
Sprite,Background,Centre,"sb\rs.png",125,223 M,1,73691,74423,125,223,25,286 F,0,73691,74423,0.8,0 S,0,73691,74423,0.46 R,0,73691,74423,-0.1 C,0,73691,74423,59,23,98
Sprite,Background,Centre,"sb\rs.png",228,77 M,1,73823,74555,228,77,128,213 F,0,73823,74555,0.8,0 S,0,73823,74555,0.38 R,0,73823,74555,-0.18 C,0,73823,74555,60,27,96
Sprite,Background,Centre,"sb\rs.png",198,116 M,1,74101,74833,198,116,98,157 F,0,74101,74833,0.8,0 S,0,74101,74833,0.35 R,0,74101,74833,-0.16 C,0,74101,74833,49,23,96
Sprite,Background,Centre,"sb\rs.png",31,232 M,1,74326,75058,31,232,-69,279 F,0,74326,75058,0.8,0 S,0,74326,75058,0.41 R,0,74326,75058,-0.02 C,0,74326,75058,54,22,97
Sprite,Background,Centre,"sb\rs.png",198,181 M,1,74534,75266,198,181,98,240 F,0,74534,75266,0.8,0 S,0,74534,75266,0.33 R,0,74534,75266,-0.16 C,0,74534,75266,55,26,87
Sprite,Background,Centre,"sb\rs.png",194,114 M,1,74500,75232,194,114,94,168 F,0,74500,75232,0.8,0 S,0,74500,75232,0.44 R,0,74500,75232,-0.15 C,0,74500,75232,50,26,91
Sprite,Background,Centre,"sb\rs.png",97,237 M,1,74789,75521,97,237,-3,278 F,0,74789,75521,0.8,0 S,0,74789,75521,0.33 R,0,74789,75521,-0.08 C,0,74789,75521,50,25,97
Sprite,Background,Centre,"sb\rs.png",164,144 M,1,74836,75568,164,144,64,211 F,0,74836,75568,0.8,0 S,0,74836,75568,0.44 R,0,74836,75568,-0.13 C,0,74836,75568,57,22,97
Sprite,Background,Centre,"sb\rs.png",45,266 M,1,75271,76003,45,266,-55,298 F,0,75271,76003,0.8,0 S,0,75271,76003,0.47 R,0,75271,76003,-0.04 C,0,75271,76003,51,26,89
Sprite,Background,Centre,"sb\rs.png",228,103 M,1,75177,75909,228,103,128,221 F,0,75177,75909,0.8,0 S,0,75177,75909,0.43 R,0,75177,75909,-0.18 C,0,75177,75909,56,23,94
Sprite,Background,Centre,"sb\rs.png",98,188 M,1,75385,76117,98,188,-2,229 F,0,75385,76117,0.8,0 S,0,75385,76117,0.47 R,0,75385,76117,-0.08 C,0,75385,76117,59,21,91
Sprite,Background,Centre,"sb\rs.png",38,181 M,1,75810,76542,38,181,-62,264 F,0,75810,76542,0.8,0 S,0,75810,76542,0.39 R,0,75810,76542,-0.03 C,0,75810,76542,55,26,96
Sprite,Background,Centre,"sb\rs.png",139,219 M,1,75820,76552,139,219,39,257 F,0,75820,76552,0.8,0 S,0,75820,76552,0.5 R,0,75820,76552,-0.11 C,0,75820,76552,48,25,92
Sprite,Background,Centre,"sb\rs.png",140,111 M,1,76149,76881,140,111,40,196 F,0,76149,76881,0.8,0 S,0,76149,76881,0.41 R,0,76149,76881,-0.11 C,0,76149,76881,59,24,92
Sprite,Background,Centre,"sb\rs.png",203,169 M,1,76338,77070,203,169,103,200 F,0,76338,77070,0.8,0 S,0,76338,77070,0.34 R,0,76338,77070,-0.16 C,0,76338,77070,52,22,89
Sprite,Background,Centre,"sb\rs.png",94,171 M,1,76424,77156,94,171,-6,263 F,0,76424,77156,0.8,0 S,0,76424,77156,0.36 R,0,76424,77156,-0.07 C,0,76424,77156,56,27,98
Sprite,Background,Centre,"sb\rs.png",206,168 M,1,76559,77291,206,168,106,263 F,0,76559,77291,0.8,0 S,0,76559,77291,0.3 R,0,76559,77291,-0.16 C,0,76559,77291,56,21,94
Sprite,Background,Centre,"sb\rs.png",199,104 M,1,76670,77402,199,104,99,231 F,0,76670,77402,0.8,0 S,0,76670,77402,0.31 R,0,76670,77402,-0.16 C,0,76670,77402,59,22,95
Sprite,Background,Centre,"sb\rs.png",67,178 M,1,77054,77786,67,178,-33,209 F,0,77054,77786,0.8,0 S,0,77054,77786,0.37 R,0,77054,77786,-0.05 C,0,77054,77786,49,27,92
Sprite,Background,Centre,"sb\rs.png",225,115 M,1,77212,77944,225,115,125,217 F,0,77212,77944,0.8,0 S,0,77212,77944,0.33 R,0,77212,77944,-0.18 C,0,77212,77944,54,23,95
Sprite,Background,Centre,"sb\rs.png",32,246 M,1,77425,78157,32,246,-68,295 F,0,77425,78157,0.8,0 S,0,77425,78157,0.47 R,0,77425,78157,-0.03 C,0,77425,78157,58,23,96
Sprite,Background,Centre,"sb\rs.png",128,221 M,1,77355,78087,128,221,28,278 F,0,77355,78087,0.8,0 S,0,77355,78087,0.35 R,0,77355,78087,-0.1 C,0,77355,78087,56,26,90
Sprite,Background,Centre,"sb\rs.png",202,168 M,1,77700,78432,202,168,102,225 F,0,77700,78432,0.8,0 S,0,77700,78432,0.47 R,0,77700,78432,-0.16 C,0,77700,78432,57,23,87
Sprite,Background,Centre,"sb\rs.png",183,75 M,1,77970,78702,183,75,83,148 F,0,77970,78702,0.8,0 S,0,77970,78702,0.35 R,0,77970,78702,-0.15 C,0,77970,78702,55,21,93
Sprite,Background,Centre,"sb\rs.png",56,119 M,1,77914,78646,56,119,-44,191 F,0,77914,78646,0.8,0 S,0,77914,78646,0.44 R,0,77914,78646,-0.04 C,0,77914,78646,59,24,87
Sprite,Background,Centre,"sb\rs.png",105,183 M,1,78079,78811,105,183,5,219 F,0,78079,78811,0.8,0 S,0,78079,78811,0.43 R,0,78079,78811,-0.08 C,0,78079,78811,59,24,89
Sprite,Background,Centre,"sb\rs.png",177,210 M,1,78302,79034,177,210,77,251 F,0,78302,79034,0.8,0 S,0,78302,79034,0.45 R,0,78302,79034,-0.14 C,0,78302,79034,54,23,88
Sprite,Background,Centre,"sb\rs.png",176,178 M,1,78649,79381,176,178,76,250 F,0,78649,79381,0.8,0 S,0,78649,79381,0.38 R,0,78649,79381,-0.14 C,0,78649,79381,58,22,97
Sprite,Background,Centre,"sb\rs.png",176,104 M,1,78583,79315,176,104,76,162 F,0,78583,79315,0.8,0 S,0,78583,79315,0.37 R,0,78583,79315,-0.14 C,0,78583,79315,49,23,92
Sprite,Background,Centre,"sb\rs.png",167,94 M,1,78874,79606,167,94,67,193 F,0,78874,79606,0.8,0 S,0,78874,79606,0.35 R,0,78874,79606,-0.13 C,0,78874,79606,50,22,89
Sprite,Background,Centre,"sb\rs.png",217,65 M,1,79047,79779,217,65,117,152 F,0,79047,79779,0.8,0 S,0,79047,79779,0.37 R,0,79047,79779,-0.17 C,0,79047,79779,54,24,96
Sprite,Background,Centre,"sb\rs.png",67,187 M,1,79364,80096,67,187,-33,245 F,0,79364,80096,0.8,0 S,0,79364,80096,0.44 R,0,79364,80096,-0.05 C,0,79364,80096,51,22,88
Sprite,Background,Centre,"sb\rs.png",144,97 M,1,79546,80278,144,97,44,140 F,0,79546,80278,0.8,0 S,0,79546,80278,0.47 R,0,79546,80278,-0.12 C,0,79546,80278,52,22,87
Sprite,Background,Centre,"sb\rs.png",206,123 M,1,79633,80365,206,123,106,209 F,0,79633,80365,0.8,0 S,0,79633,80365,0.36 R,0,79633,80365,-0.16 C,0,79633,80365,55,27,93
Sprite,Background,Centre,"sb\rs.png",204,88 M,1,79678,80410,204,88,104,123 F,0,79678,80410,0.8,0 S,0,79678,80410,0.4 R,0,79678,80410,-0.16 C,0,79678,80410,55,22,87
Sprite,Background,Centre,"sb\rs.png",178,87 M,1,80086,80818,178,87,78,180 F,0,80086,80818,0.8,0 S,0,80086,80818,0.43 R,0,80086,80818,-0.14 C,0,80086,80818,54,24,97
Sprite,Background,Centre,"sb\rs.png",170,222 M,1,80178,80910,170,222,70,283 F,0,80178,80910,0.8,0 S,0,80178,80910,0.44 R,0,80178,80910,-0.14 C,0,80178,80910,52,22,87
Sprite,Background,Centre,"sb\rs.png",169,126 M,1,80407,81139,169,126,69,173 F,0,80407,81139,0.8,0 S,0,80407,81139,0.41 R,0,80407,81139,-0.14 C,0,80407,81139,53,22,87
Sprite,Background,Centre,"sb\rs.png",73,168 M,1,80401,81133,73,168,-27,244 F,0,80401,81133,0.8,0 S,0,80401,81133,0.39 R,0,80401,81133,-0.06 C,0,80401,81133,52,26,89
Sprite,Background,Centre,"sb\rs.png",83,248 M,1,80647,81379,83,248,-17,293 F,0,80647,81379,0.8,0 S,0,80647,81379,0.34 R,0,80647,81379,-0.07 C,0,80647,81379,59,27,94
Sprite,Background,Centre,"sb\rs.png",119,237 M,1,80913,81645,119,237,19,269 F,0,80913,81645,0.8,0 S,0,80913,81645,0.46 R,0,80913,81645,-0.1 C,0,80913,81645,56,21,93
Sprite,Background,Centre,"sb\rs.png",63,133 M,1,81109,81841,63,133,-37,200 F,0,81109,81841,0.8,0 S,0,81109,81841,0.33 R,0,81109,81841,-0.05 C,0,81109,81841,52,23,96
Sprite,Background,Centre,"sb\rs.png",220,94 M,1,81278,82010,220,94,120,139 F,0,81278,82010,0.8,0 S,0,81278,82010,0.45 R,0,81278,82010,-0.18 C,0,81278,82010,50,25,91
Sprite,Background,Centre,"sb\rs.png",217,196 M,1,81338,82070,217,196,117,228 F,0,81338,82070,0.8,0 S,0,81338,82070,0.43 R,0,81338,82070,-0.17 C,0,81338,82070,59,22,97
Sprite,Background,Centre,"sb\rs.png",114,178 M,1,81745,82477,114,178,14,240 F,0,81745,82477,0.8,0 S,0,81745,82477,0.4 R,0,81745,82477,-0.09 C,0,81745,82477,54,27,97
Sprite,Background,Centre,"sb\rs.png",146,128 M,1,81808,82540,146,128,46,189 F,0,81808,82540,0.8,0 S,0,81808,82540,0.43 R,0,81808,82540,-0.12 C,0,81808,82540,60,22,98
Sprite,Background,Centre,"sb\rs.png",93,254 M,1,81933,82665,93,254,-7,307 F,0,81933,82665,0.8,0 S,0,81933,82665,0.4 R,0,81933,82665,-0.07 C,0,81933,82665,52,21,96
Sprite,Background,Centre,"sb\rs.png",67,216 M,1,82009,82741,67,216,-33,261 F,0,82009,82741,0.8,0 S,0,82009,82741,0.47 R,0,82009,82741,-0.05 C,0,82009,82741,52,22,91
Sprite,Background,Centre,"sb\rs.png",131,143 M,1,82225,82957,131,143,31,234 F,0,82225,82957,0.8,0 S,0,82225,82957,0.41 R,0,82225,82957,-0.1 C,0,82225,82957,49,22,88
Sprite,Background,Centre,"sb\rs.png",137,105 M,1,82435,83167,137,105,37,222 F,0,82435,83167,0.8,0 S,0,82435,83167,0.49 R,0,82435,83167,-0.11 C,0,82435,83167,58,23,93
Sprite,Background,Centre,"sb\rs.png",200,138 M,1,82749,83481,200,138,100,226 F,0,82749,83481,0.8,0 S,0,82749,83481,0.3 R,0,82749,83481,-0.16 C,0,82749,83481,57,24,94
Sprite,Background,Centre,"sb\rs.png",180,171 M,1,82970,83702,180,171,80,263 F,0,82970,83702,0.8,0 S,0,82970,83702,0.46 R,0,82970,83702,-0.14 C,0,82970,83702,49,27,94
Sprite,Background,Centre,"sb\rs.png",205,82 M,1,82967,83699,205,82,105,141 F,0,82967,83699,0.8,0 S,0,82967,83699,0.49 R,0,82967,83699,-0.16 C,0,82967,83699,50,21,93
Sprite,Background,Centre,"sb\rs.png",209,122 M,1,83379,84111,209,122,109,225 F,0,83379,84111,0.8,0 S,0,83379,84111,0.39 R,0,83379,84111,-0.17 C,0,83379,84111,48,26,96
Sprite,Background,Centre,"sb\rs.png",102,153 M,1,83366,84098,102,153,2,239 F,0,83366,84098,0.8,0 S,0,83366,84098,0.34 R,0,83366,84098,-0.08 C,0,83366,84098,50,26,89
Sprite,Background,Centre,"sb\rs.png",156,206 M,1,83491,84223,156,206,56,241 F,0,83491,84223,0.8,0 S,0,83491,84223,0.34 R,0,83491,84223,-0.12 C,0,83491,84223,56,21,90
Sprite,Background,Centre,"sb\rs.png",226,165 M,1,83841,84573,226,165,126,221 F,0,83841,84573,0.8,0 S,0,83841,84573,0.38 R,0,83841,84573,-0.18 C,0,83841,84573,54,22,93
Sprite,Background,Centre,"sb\rs.png",191,193 M,1,83989,84721,191,193,91,271 F,0,83989,84721,0.8,0 S,0,83989,84721,0.48 R,0,83989,84721,-0.15 C,0,83989,84721,54,26,96
Sprite,Background,Centre,"sb\rs.png",217,184 M,1,84186,84918,217,184,117,239 F,0,84186,84918,0.8,0 S,0,84186,84918,0.36 R,0,84186,84918,-0.17 C,0,84186,84918,49,27,97
Sprite,Background,Centre,"sb\rs.png",53,207 M,1,84199,84931,53,207,-47,280 F,0,84199,84931,0.8,0 S,0,84199,84931,0.49 R,0,84199,84931,-0.04 C,0,84199,84931,53,25,88
Sprite,Background,Centre,"sb\rs.png",142,95 M,1,84579,85311,142,95,42,165 F,0,84579,85311,0.8,0 S,0,84579,85311,0.45 R,0,84579,85311,-0.11 C,0,84579,85311,53,23,92
Sprite,Background,Centre,"sb\rs.png",169,131 M,1,84673,85405,169,131,69,220 F,0,84673,85405,0.8,0 S,0,84673,85405,0.4 R,0,84673,85405,-0.14 C,0,84673,85405,49,23,97
Sprite,Background,Centre,"sb\rs.png",222,176 M,1,84870,85602,222,176,122,267 F,0,84870,85602,0.8,0 S,0,84870,85602,0.48 R,0,84870,85602,-0.18 C,0,84870,85602,59,21,86
Sprite,Background,Centre,"sb\rs.png",185,176 M,1,84982,85714,185,176,85,240 F,0,84982,85714,0.8,0 S,0,84982,85714,0.39 R,0,84982,85714,-0.15 C,0,84982,85714,55,24,97
Sprite,Background,Centre,"sb\rs.png",156,171 M,1,85070,85802,156,171,56,230 F,0,85070,85802,0.8,0 S,0,85070,85802,0.37 R,0,85070,85802,-0.12 C,0,85070,85802,50,22,93
Sprite,Background,Centre,"sb\rs.png",85,128 M,1,85399,86131,85,128,-15,226 F,0,85399,86131,0.8,0 S,0,85399,86131,0.45 R,0,85399,86131,-0.07 C,0,85399,86131,51,22,88
Sprite,Background,Centre,"sb\rs.png",46,193 M,1,85538,86270,46,193,-54,251 F,0,85538,86270,0.8,0 S,0,85538,86270,0.32 R,0,85538,86270,-0.04 C,0,85538,86270,57,21,97
Sprite,Background,Centre,"sb\rs.png",122,181 M,1,85889,86621,122,181,22,265 F,0,85889,86621,0.8,0 S,0,85889,86621,0.39 R,0,85889,86621,-0.1 C,0,85889,86621,60,23,89
Sprite,Background,Centre,"sb\rs.png",125,169 M,1,85965,86697,125,169,25,242 F,0,85965,86697,0.8,0 S,0,85965,86697,0.49 R,0,85965,86697,-0.1 C,0,85965,86697,56,22,89
Sprite,Background,Centre,"sb\rs.png",138,178 M,1,85994,86726,138,178,38,245 F,0,85994,86726,0.8,0 S,0,85994,86726,0.44 R,0,85994,86726,-0.11 C,0,85994,86726,51,25,98
Sprite,Background,Centre,"sb\rs.png",78,204 M,1,86168,86900,78,204,-22,238 F,0,86168,86900,0.8,0 S,0,86168,86900,0.37 R,0,86168,86900,-0.06 C,0,86168,86900,53,25,97
Sprite,Background,Centre,"sb\rs.png",91,136 M,1,86525,87257,91,136,-9,243 F,0,86525,87257,0.8,0 S,0,86525,87257,0.33 R,0,86525,87257,-0.07 C,0,86525,87257,52,21,86
Sprite,Background,Centre,"sb\rs.png",167,140 M,1,86572,87304,167,140,67,171 F,0,86572,87304,0.8,0 S,0,86572,87304,0.45 R,0,86572,87304,-0.13 C,0,86572,87304,57,21,98
Sprite,Background,Centre,"sb\rs.png",181,227 M,1,86744,87476,181,227,81,275 F,0,86744,87476,0.8,0 S,0,86744,87476,0.44 R,0,86744,87476,-0.14 C,0,86744,87476,51,25,93
Sprite,Background,Centre,"sb\rs.png",160,184 M,1,86900,87632,160,184,60,252 F,0,86900,87632,0.8,0 S,0,86900,87632,0.4 R,0,86900,87632,-0.13 C,0,86900,87632,54,27,93
Sprite,Background,Centre,"sb\rs.png",174,182 M,1,87256,87988,174,182,74,237 F,0,87256,87988,0.8,0 S,0,87256,87988,0.32 R,0,87256,87988,-0.14 C,0,87256,87988,50,25,86
Sprite,Background,Centre,"sb\rs.png",53,253 M,1,87259,87991,53,253,-47,293 F,0,87259,87991,0.8,0 S,0,87259,87991,0.35 R,0,87259,87991,-0.04 C,0,87259,87991,60,24,88
Sprite,Background,Centre,"sb\rs.png",126,234 M,1,87494,88226,126,234,26,286 F,0,87494,88226,0.8,0 S,0,87494,88226,0.42 R,0,87494,88226,-0.1 C,0,87494,88226,50,26,90
Sprite,Background,Centre,"sb\rs.png",193,121 M,1,87731,88463,193,121,93,154 F,0,87731,88463,0.8,0 S,0,87731,88463,0.47 R,0,87731,88463,-0.15 C,0,87731,88463,55,22,90
Sprite,Background,Centre,"sb\rs.png",110,94 M,1,88008,88740,110,94,10,130 F,0,88008,88740,0.8,0 S,0,88008,88740,0.37 R,0,88008,88740,-0.09 C,0,88008,88740,56,23,87
Sprite,Background,Centre,"sb\rs.png",210,206 M,1,87955,88687,210,206,110,267 F,0,87955,88687,0.8,0 S,0,87955,88687,0.4 R,0,87955,88687,-0.17 C,0,87955,88687,56,26,89
Sprite,Background,Centre,"sb\rs.png",140,112 M,1,88250,88982,140,112,40,174 F,0,88250,88982,0.8,0 S,0,88250,88982,0.4 R,0,88250,88982,-0.11 C,0,88250,88982,54,24,94
Sprite,Background,Centre,"sb\rs.png",133,172 M,1,88519,89251,133,172,33,202 F,0,88519,89251,0.8,0 S,0,88519,89251,0.31 R,0,88519,89251,-0.11 C,0,88519,89251,58,24,94
Sprite,Background,Centre,"sb\rs.png",95,193 M,1,88565,89297,95,193,-5,247 F,0,88565,89297,0.8,0 S,0,88565,89297,0.35 R,0,88565,89297,-0.08 C,0,88565,89297,60,24,87
Sprite,Background,Centre,"sb\rs.png",123,136 M,1,88746,89478,123,136,23,204 F,0,88746,89478,0.8,0 S,0,88746,89478,0.47 R,0,88746,89478,-0.1 C,0,88746,89478,59,26,96
Sprite,Background,Centre,"sb\rs.png",46,214 M,1,88876,89608,46,214,-54,267 F,0,88876,89608,0.8,0 S,0,88876,89608,0.31 R,0,88876,89608,-0.04 C,0,88876,89608,58,24,96
Sprite,Background,Centre,"sb\rs.png",192,130 M,1,89281,90013,192,130,92,180 F,0,89281,90013,0.8,0 S,0,89281,90013,0.34 R,0,89281,90013,-0.15 C,0,89281,90013,51,24,87
Sprite,Background,Centre,"sb\rs.png",180,222 M,1,89473,90205,180,222,80,257 F,0,89473,90205,0.8,0 S,0,89473,90205,0.44 R,0,89473,90205,-0.14 C,0,89473,90205,58,27,98
Sprite,Background,Centre,"sb\rs.png",132,134 M,1,89579,90311,132,134,32,201 F,0,89579,90311,0.8,0 S,0,89579,90311,0.32 R,0,89579,90311,-0.11 C,0,89579,90311,56,22,92
Sprite,Background,Centre,"sb\rs.png",123,154 M,1,89697,90429,123,154,23,201 F,0,89697,90429,0.8,0 S,0,89697,90429,0.36 R,0,89697,90429,-0.1 C,0,89697,90429,51,25,90
Sprite,Background,Centre,"sb\rs.png",39,120 M,1,89892,90624,39,120,-61,176 F,0,89892,90624,0.8,0 S,0,89892,90624,0.45 R,0,89892,90624,-0.03 C,0,89892,90624,56,27,89
Sprite,Background,Centre,"sb\rs.png",71,199 M,1,89933,90665,71,199,-29,255 F,0,89933,90665,0.8,0 S,0,89933,90665,0.46 R,0,89933,90665,-0.06 C,0,89933,90665,58,26,94
Sprite,Background,Centre,"sb\rs.png",35,143 M,1,90259,90991,35,143,-65,182 F,0,90259,90991,0.8,0 S,0,90259,90991,0.38 R,0,90259,90991,-0.03 C,0,90259,90991,54,22,94
Sprite,Background,Centre,"sb\rs.png",108,196 M,1,90294,91026,108,196,8,242 F,0,90294,91026,0.8,0 S,0,90294,91026,0.43 R,0,90294,91026,-0.09 C,0,90294,91026,59,22,94
Sprite,Background,Centre,"sb\rs.png",198,222 M,1,90689,91421,198,222,98,277 F,0,90689,91421,0.8,0 S,0,90689,91421,0.42 R,0,90689,91421,-0.16 C,0,90689,91421,54,24,93
Sprite,Background,Centre,"sb\rs.png",135,154 M,1,90809,91541,135,154,35,251 F,0,90809,91541,0.8,0 S,0,90809,91541,0.35 R,0,90809,91541,-0.11 C,0,90809,91541,53,24,88
Sprite,Background,Centre,"sb\rs.png",84,167 M,1,91052,91784,84,167,-16,259 F,0,91052,91784,0.8,0 S,0,91052,91784,0.37 R,0,91052,91784,-0.07 C,0,91052,91784,59,23,86
Sprite,Background,Centre,"sb\rs.png",192,188 M,1,91011,91743,192,188,92,249 F,0,91011,91743,0.8,0 S,0,91011,91743,0.48 R,0,91011,91743,-0.15 C,0,91011,91743,53,26,89
Sprite,Background,Centre,"sb\rs.png",51,205 M,1,91266,91998,51,205,-49,267 F,0,91266,91998,0.8,0 S,0,91266,91998,0.32 R,0,91266,91998,-0.04 C,0,91266,91998,51,22,96
Sprite,Background,Centre,"sb\rs.png",189,128 M,1,91623,92355,189,128,89,209 F,0,91623,92355,0.8,0 S,0,91623,92355,0.31 R,0,91623,92355,-0.15 C,0,91623,92355,56,25,92
Sprite,Background,Centre,"sb\rs.png",188,168 M,1,91783,92515,188,168,88,212 F,0,91783,92515,0.8,0 S,0,91783,92515,0.3 R,0,91783,92515,-0.15 C,0,91783,92515,50,25,89
Sprite,Background,Centre,"sb\rs.png",224,95 M,1,91749,92481,224,95,124,191 F,0,91749,92481,0.8,0 S,0,91749,92481,0.36 R,0,91749,92481,-0.18 C,0,91749,92481,53,23,94
Sprite,Background,Centre,"sb\rs.png",36,225 M,1,91977,92709,36,225,-64,280 F,0,91977,92709,0.8,0 S,0,91977,92709,0.49 R,0,91977,92709,-0.03 C,0,91977,92709,60,26,93
Sprite,Background,Centre,"sb\rs.png",112,168 M,1,92357,93089,112,168,12,243 F,0,92357,93089,0.8,0 S,0,92357,93089,0.43 R,0,92357,93089,-0.09 C,0,92357,93089,56,24,93
Sprite,Background,Centre,"sb\rs.png",113,173 M,1,92435,93167,113,173,13,215 F,0,92435,93167,0.8,0 S,0,92435,93167,0.45 R,0,92435,93167,-0.09 C,0,92435,93167,51,21,98
Sprite,Background,Centre,"sb\rs.png",108,211 M,1,92571,93303,108,211,8,249 F,0,92571,93303,0.8,0 S,0,92571,93303,0.4 R,0,92571,93303,-0.09 C,0,92571,93303,51,27,92
Sprite,Background,Centre,"sb\rs.png",44,124 M,1,92737,93469,44,124,-56,229 F,0,92737,93469,0.8,0 S,0,92737,93469,0.34 R,0,92737,93469,-0.04 C,0,92737,93469,55,23,93
Sprite,Background,Centre,"sb\rs.png",35,123 M,1,92852,93584,35,123,-65,172 F,0,92852,93584,0.8,0 S,0,92852,93584,0.47 R,0,92852,93584,-0.03 C,0,92852,93584,49,24,94
Sprite,Background,Centre,"sb\rs.png",81,110 M,1,93152,93884,81,110,-19,142 F,0,93152,93884,0.8,0 S,0,93152,93884,0.37 R,0,93152,93884,-0.06 C,0,93152,93884,49,23,96
Sprite,Background,Centre,"sb\rs.png",206,95 M,1,93396,94128,206,95,106,190 F,0,93396,94128,0.8,0 S,0,93396,94128,0.4 R,0,93396,94128,-0.16 C,0,93396,94128,48,24,88
Sprite,Background,Centre,"sb\rs.png",228,183 M,1,93618,94350,228,183,128,231 F,0,93618,94350,0.8,0 S,0,93618,94350,0.39 R,0,93618,94350,-0.18 C,0,93618,94350,58,24,93
Sprite,Background,Centre,"sb\rs.png",148,168 M,1,93709,94441,148,168,48,208 F,0,93709,94441,0.8,0 S,0,93709,94441,0.49 R,0,93709,94441,-0.12 C,0,93709,94441,52,26,94
//Storyboard Layer 1 (Fail)
//Storyboard Layer 2 (Pass)
//Storyboard Layer 3 (Foreground)
Sprite,Foreground,Centre,"SB\c.png",199,384 F,0,2185,2916,0,1 S,1,2185,4014,0.1,0.6 F,0,2916,4014,1,0
Sprite,Foreground,Centre,"SB\c.png",485,241 F,0,206797,207197,0,1 S,1,206797,208797,0.1,1 F,0,207197,208797,1,0
Sprite,Foreground,Centre,"SB\c.png",527,255 F,0,120460,120860,0,1 S,1,120460,122460,0.1,0.3 F,0,120860,122460,1,0
Sprite,Foreground,Centre,"SB\c.png",342,408 F,0,217737,218137,0,1 S,1,217737,219737,0.1,0.6 F,0,218137,219737,1,0
Sprite,Foreground,Centre,"SB\c.png",429,132 F,0,168440,168840,0,1 S,1,168440,170440,0.1,0.8 F,0,168840,170440,1,0
Sprite,Foreground,Centre,"SB\c.png",109,284 F,0,60573,60973,0,1 S,1,60573,62573,0.1,0.9 F,0,60973,62573,1,0
Sprite,Foreground,Centre,"SB\c.png",421,132 F,0,19265,19665,0,1 S,1,19265,21265,0.1,0.5 F,0,19665,21265,1,0
Sprite,Foreground,Centre,"SB\c.png",243,287 F,0,14192,14592,0,1 S,1,14192,16192,0.1,0.5 F,0,14592,16192,1,0
Sprite,Foreground,Centre,"SB\c.png",66,352 F,0,27798,28198,0,1 S,1,27798,29798,0.1,0.7 F,0,28198,29798,1,0
Sprite,Foreground,Centre,"SB\c.png",154,195 F,0,167705,168105,0,1 S,1,167705,169705,0.1,0.5 F,0,168105,169705,1,0
Sprite,Foreground,Centre,"SB\c.png",47,112 F,0,95533,95933,0,1 S,1,95533,97533,0.1,0.7 F,0,95933,97533,1,0
Sprite,Foreground,Centre,"SB\c.png",233,178 F,0,84897,85297,0,1 S,1,84897,86897,0.1,1 F,0,85297,86897,1,0
Sprite,Foreground,Centre,"SB\c.png",363,262 F,0,211347,211747,0,1 S,1,211347,213347,0.1,0.4 F,0,211747,213347,1,0
//Storyboard Layer 4 (Overlay)
//Storyboard Sound Samples

[TimingPoints]
368,731.707317073171,4,2,16,30,1,0
368,-83.3333333333333,4,2,16,30,0,0
47197,-71.4285714285714,4,2,16,60,0,0
64758,-58.8235294117647,4,2,16,60,0,0
65855,-52.6315789473684,4,2,16,60,0,0
66953,-71.4285714285714,4,2,16,60,0,0
69880,-100,4,2,1,60,0,0
70611,-62.5,4,2,16,70,0,1
91099,-55.5555555555556,4,2,16,70,0,1
92197,-50,4,2,16,70,0,1
93294,-62.5,4,2,16,70,0,1
94026,-62.5,4,2,16,70,0,0
105733,-71.4285714285714,4,2,16,30,0,0
129148,-62.5,4,2,16,60,0,0
146709,-55.5555555555556,4,2,16,60,0,0
147807,-50,4,2,16,60,0,0
148904,-62.5,4,2,16,60,0,0
151831,-100,4,2,1,60,0,0
152563,-58.8235294117647,4,2,16,75,0,1
173050,-50,4,2,16,75,0,1
174148,-43.4782608695652,4,2,16,75,0,1
175246,-58.8235294117647,4,2,16,75,0,1
175977,-58.8235294117647,4,2,16,75,0,0
186999,-58.8235294117647,4,2,16,10,0,0
187227,-58.8235294117647,4,2,16,75,0,0
187273,-58.8235294117647,4,2,16,10,0,0
187502,-58.8235294117647,4,2,16,75,0,0
187547,-58.8235294117647,4,2,16,10,0,0
187685,-58.8235294117647,4,2,16,75,0,0
199392,-200,4,2,16,30,0,0
216953,-166.666666666667,4,2,16,30,0,0
219880,-142.857142857143,4,2,16,30,0,0
222807,-125,4,2,16,30,0,0
223904,-166.666666666667,4,2,16,30,0,0
224819,-250,4,2,16,30,0,0
225916,-250,4,2,1,10,0,0
226099,-250,4,2,1,20,0,0
226282,-250,4,2,1,30,0,0
226465,-250,4,2,1,40,0,0
226648,-250,4,2,1,50,0,0
226831,-250,4,2,1,60,0,0
227014,-250,4,2,1,70,0,0
227197,-250,4,2,1,80,0,0
228660,-55.5555555555556,4,2,16,80,0,1
249148,-45.4545454545455,4,2,16,80,0,1
250246,-38.4615384615385,4,2,16,80,0,1
251343,-55.5555555555556,4,2,16,80,0,1
252075,-55.5555555555556,4,2,16,80,0,0
262319,-55.5555555555556,4,2,16,70,0,0
263050,-55.5555555555556,4,2,16,50,0,0
263782,-55.5555555555556,4,2,16,30,0,0
264514,-55.5555555555556,4,2,16,20,0,0

[Colours]
Combo1 : 128,128,255
Combo2 : 255,36,36
Combo3 : 0,202,202
Combo4 : 255,128,192

[HitObjects]
224,148,368,5,2,0:1:0:0:
140,132,550,1,2,0:0:0:0:
56,116,733,1,2,0:0:0:0:
220,136,1099,1,2,0:1:0:0:
136,108,1465,1,2,0:0:0:0:
52,76,1831,1,2,0:3:0:0:
304,240,3295,5,2,0:1:0:0:
384,264,3477,1,2,0:0:0:0:
464,240,3660,1,2,0:0:0:0:
296,252,4026,1,2,0:1:0:0:
396,292,4392,1,2,0:0:0:0:
496,252,4758,1,2,0:3:0:0:
432,204,6221,5,2,0:1:0:0:
444,84,6587,1,2,0:0:0:0:
254,125,6953,1,2,0:1:0:0:
314,228,7319,1,2,0:0:0:0:
334,35,7685,1,2,0:3:0:0:
346,47,8233,5,2,0:0:0:0:
346,47,8325,1,2,0:0:0:0:
346,47,8416,1,2,0:1:0:0:
280,100,8599,1,2,0:0:0:0:
204,132,8782,1,2,0:0:0:0:
120,148,8965,1,2,0:0:0:0:
68,80,9148,1,2,0:1:0:0:
68,80,10246,5,2,0:1:0:0:
120,148,10428,1,2,0:0:0:0:
80,56,10611,1,2,0:1:0:0:
0,208,10794,1,2,0:3:0:0:
0,208,12075,6,0,L|72:196,1,59.9999981689454,2|0,0:1|0:0,0:0:0:0:
92,276,12441,2,0,L|32:286,1,59.9999981689454,2|0,0:0|0:0,0:0:0:0:
168,316,12807,2,0,P|224:296|244:228,1,119.999996337891,2|0,0:1|0:0,0:0:0:0:
192,56,13538,6,0,P|192:94|208:144,1,59.9999981689454,2|0,0:1|0:0,0:0:0:0:
272,80,13904,2,0,P|288:116|312:144,1,59.9999981689454,2|0,0:0|0:0,0:0:0:0:
356,68,14270,2,0,B|396:56|396:56|484:68,1,119.999996337891,2|0,0:1|0:0,0:0:0:0:
448,284,15002,6,0,L|316:296,1,119.999996337891,2|2,0:1|0:0,0:0:0:0:
252,256,15550,1,0,0:0:0:0:
252,256,15733,2,0,L|240:324,1,59.9999981689454,2|0,0:1|0:0,0:0:0:0:
340,264,16099,2,0,L|328:192,1,59.9999981689454,2|0,0:0|0:0,0:0:0:0:
204,184,16465,5,2,0:1:0:0:
163,258,16648,1,2,0:0:0:0:
80,245,16831,1,2,0:0:0:0:
67,162,17014,1,2,0:0:0:0:
142,123,17197,5,2,0:1:0:0:
156,40,17380,1,2,0:0:0:0:
142,123,17563,1,2,0:0:0:0:
142,123,17928,6,0,P|200:120|280:132,1,119.999996337891,2|2,0:1|0:0,0:0:0:0:
340,160,18477,1,2,0:0:0:0:
504,168,18661,5,2,0:1:0:0:
424,192,18844,1,2,0:0:0:0:
356,244,19027,1,2,0:0:0:0:
320,320,19210,1,2,0:0:0:0:
404,312,19393,5,2,0:1:0:0:
408,316,19483,1,2,0:0:0:0:
412,320,19575,1,2,0:0:0:0:
356,244,19758,1,2,0:0:0:0:
272,252,19941,1,2,0:0:0:0:
232,328,20124,5,2,0:1:0:0:
148,320,20307,1,2,0:0:0:0:
236,336,20490,1,2,0:0:0:0:
152,328,20673,1,2,0:0:0:0:
168,200,20855,6,0,P|108:202|56:230,1,119.999996337891,2|2,0:1|0:0,0:0:0:0:
340,136,21587,2,0,P|399:139|451:167,1,119.999996337891,2|2,0:1|0:0,0:0:0:0:
224,80,22319,5,2,0:3:0:0:
256,192,22502,12,2,23782,0:3:0:0:
256,192,24148,6,0,P|280:136|264:56,2,119.999996337891,2|2|2,0:0|0:0|0:1,0:0:0:0:
40,176,25246,2,0,P|68:168|99:166,1,59.9999981689454,2|0,0:0|0:0,0:0:0:0:
139,240,25611,2,0,P|110:248|80:249,1,59.9999981689454,2|0,0:0|0:0,0:0:0:0:
180,168,25977,1,2,0:0:0:0:
0,256,26343,1,2,0:1:0:0:
116,80,26709,5,2,0:0:0:0:
168,276,27075,1,2,0:0:0:0:
312,188,27441,1,2,0:0:0:0:
408,276,27807,1,2,0:1:0:0:
180,304,28172,1,2,0:3:0:0:
188,292,29636,5,2,0:0:0:0:
188,292,30002,2,0,L|260:284,1,59.9999981689454,2|0,0:0|0:0,0:0:0:0:
320,328,30367,2,0,B|348:300|348:300|364:200,1,119.999996337891,2|2,0:0|0:1,0:0:0:0:
432,316,30916,6,0,B|412:296|412:296|408:268|408:268|376:216|392:144,1,179.999994506836,2|2,0:0|0:0,0:0:0:0:
472,124,31648,2,0,P|472:160|456:208,1,59.9999981689454,2|2,0:0|0:0,0:0:0:0:
428,48,32563,5,2,0:0:0:0:
416,60,32928,1,2,0:0:0:0:
328,72,33111,1,2,0:0:0:0:
244,84,33294,1,2,0:0:0:0:
176,28,33660,1,2,0:1:0:0:
96,64,34026,6,0,B|60:88|60:88|48:180,1,119.999996337891,2|2,0:0|0:0,0:0:0:0:
124,204,34575,1,2,0:0:0:0:
124,204,34758,2,0,L|133:357,1,119.999996337891,2|2,0:0|0:1,0:0:0:0:
0,228,35489,5,2,0:0:0:0:
148,120,35855,2,0,L|224:116,1,59.9999981689454,2|0,0:0|0:0,0:0:0:0:
268,176,36221,2,0,P|336:176|388:120,1,119.999996337891,2|2,0:0|0:1,0:0:0:0:
460,144,36770,1,2,0:0:0:0:
460,144,36953,6,0,P|404:112|388:48,1,119.999996337891,2|2,0:0|0:0,0:0:0:0:
472,56,37502,1,2,0:0:0:0:
472,56,37685,1,2,0:0:0:0:
420,224,38050,1,2,0:1:0:0:
224,92,38416,5,2,0:0:0:0:
384,120,38782,1,2,0:0:0:0:
232,288,39148,1,2,0:0:0:0:
388,256,39514,1,2,0:1:0:0:
224,308,39880,1,2,0:3:0:0:
288,204,40977,5,2,0:1:0:0:
288,204,41343,2,0,P|224:224|148:196,1,119.999996337891,2|2,0:0|0:0,0:0:0:0:
140,292,41892,1,2,0:0:0:0:
140,292,42075,2,0,P|96:248|104:164,1,119.999996337891,2|2,0:0|0:1,0:0:0:0:
244,16,42807,6,0,P|240:84|220:164,1,119.999996337891,2|2,0:0|0:0,0:0:0:0:
144,64,43355,1,2,0:0:0:0:
144,64,43538,2,0,P|88:48|0:48,1,119.999996337891,2|2,0:0|0:1,0:0:0:0:
340,60,44270,5,2,0:0:0:0:
92,188,44636,1,2,0:0:0:0:
176,180,44819,1,2,0:0:0:0:
260,172,45002,1,2,0:0:0:0:
464,280,45367,1,2,0:1:0:0:
380,272,45550,1,2,0:1:0:0:
296,264,45733,2,0,L|304:340,1,59.9999981689454,2|0,0:0|0:0,0:0:0:0:
432,204,46099,2,0,L|444:120,1,59.9999981689454,8|0,3:0|3:0,0:0:0:0:
444,108,46374,1,0,3:0:0:0:
444,108,46465,1,2,3:2:0:0:
260,168,46648,5,2,3:1:0:0:
272,84,46831,1,8,3:3:0:0:
360,96,47014,1,8,3:3:0:0:
248,252,47197,6,0,L|84:268,1,139.999995727539,4|2,1:0|0:0,0:0:0:0:
24,276,47746,1,2,1:2:0:0:
124,197,47928,2,0,P|119:231|108:265,1,69.9999978637696,10|0,0:0|0:0,0:0:0:0:
4,168,48294,1,2,1:0:0:0:
4,168,48477,1,2,0:0:0:0:
76,124,48660,6,0,P|136:160|216:140,1,139.999995727539,2|2,0:3|1:2,0:0:0:0:
360,144,49209,1,2,0:0:0:0:
280,112,49392,2,0,P|268:84|264:32,1,69.9999978637696,10|0,0:0|0:0,0:0:0:0:
448,136,49758,2,0,P|444:170|430:202,1,69.9999978637696,2|0,0:0|0:0,0:0:0:0:
288,352,50124,6,0,P|272:304|320:224,1,139.999995727539,0|2,1:0|0:0,0:0:0:0:
368,304,50672,1,2,1:2:0:0:
452,288,50855,1,10,0:0:0:0:
480,208,51038,1,2,0:0:0:0:
464,296,51221,1,2,1:0:0:0:
376,316,51404,1,2,0:0:0:0:
496,216,51587,6,0,P|504:160|464:72,1,139.999995727539,2|2,0:3|1:2,0:0:0:0:
392,72,52136,1,2,0:0:0:0:
392,72,52319,2,0,L|316:60,1,69.9999978637696,10|0,0:0|1:0,0:0:0:0:
256,112,52685,1,2,0:0:0:0:
152,28,52867,6,0,L|184:184,1,139.999995727539,2|2,1:2|0:0,0:0:0:0:
180,165,53416,1,2,0:0:0:0:
72,92,53599,2,0,L|92:244,1,139.999995727539,2|2,1:2|0:0,0:0:0:0:
90,230,54148,1,2,1:0:0:0:
11,259,54331,6,0,P|56:310|124:306,1,139.999995727539,2|2,0:0|0:0,0:0:0:0:
188,252,54880,1,2,1:2:0:0:
272,268,55063,1,2,0:0:0:0:
340,220,55246,1,10,0:0:0:0:
420,244,55428,1,0,0:0:0:0:
336,208,55611,1,2,0:0:0:0:
268,256,55794,1,2,0:0:0:0:
432,236,55977,6,0,B|460:208|460:208|472:80,1,139.999995727539,0|2,1:0|0:0,0:0:0:0:
480,24,56526,1,2,1:2:0:0:
383,116,56709,2,0,P|349:112|317:97,1,69.9999978637696,10|0,0:0|0:0,0:0:0:0:
372,32,57075,1,2,1:0:0:0:
372,32,57258,1,2,0:0:0:0:
469,108,57441,6,0,P|488:148|496:172,2,69.9999978637696,2|2|0,0:3|1:2|1:0,0:0:0:0:
384,116,57989,1,0,0:0:0:0:
384,116,58172,2,0,P|344:128|292:128,1,69.9999978637696,10|0,0:0|0:0,0:0:0:0:
252,40,58538,1,2,0:0:0:0:
200,108,58721,6,0,L|36:124,1,139.999995727539,2|2,1:2|0:0,0:0:0:0:
60,121,59270,1,2,0:0:0:0:
168,216,59453,2,0,L|-4:204,1,139.999995727539,2|2,1:2|0:0,0:0:0:0:
28,206,60002,1,2,1:0:0:0:
87,147,60185,6,0,P|111:210|80:271,1,139.999995727539,2|2,0:0|0:0,0:0:0:0:
180,132,60734,1,2,1:2:0:0:
264,120,60916,1,2,0:0:0:0:
328,176,61100,1,10,0:0:0:0:
408,155,61282,1,2,0:0:0:0:
324,188,61465,1,2,0:0:0:0:
260,132,61648,1,2,0:0:0:0:
391,70,61831,6,0,P|458:83|491:142,1,139.999995727539,0|2,1:0|0:0,0:0:0:0:
468,224,62380,1,2,1:2:0:0:
377,215,62563,2,0,P|389:175|433:139,1,69.9999978637696,10|0,0:0|0:0,0:0:0:0:
414,291,62929,1,2,1:0:0:0:
414,291,63112,1,2,0:0:0:0:
329,286,63295,6,0,P|306:261|292:229,2,69.9999978637696,2|2|0,0:3|1:2|1:0,0:0:0:0:
377,215,63843,2,0,L|388:140,1,69.9999978637696,2|2,0:0|0:0,0:0:0:0:
260,156,64209,1,2,0:0:0:0:
184,260,64392,1,2,0:1:0:0:
268,244,64575,1,8,0:3:0:0:
136,116,64758,6,0,B|60:92|4:104|4:104|32:128,1,170.000003242493,4|0,1:0|0:0,0:0:0:0:
164,144,65307,2,0,P|172:64|96:16,1,170.000003242493,4|0,1:3|0:0,0:0:0:0:
76,248,65855,6,0,B|76:332|136:380|136:380|136:320,1,189.999994926453,4|0,1:0|0:0,0:0:0:0:
86,209,66404,2,0,P|16:252|8:360,1,189.999994926453,4|0,1:3|0:0,0:0:0:0:
188,248,66953,5,4,3:2:0:0:
128,96,67136,1,2,3:2:0:0:
76,192,67319,1,2,3:1:0:0:
232,164,67502,1,2,3:2:0:0:
232,164,67593,1,2,3:2:0:0:
232,164,67685,6,0,P|300:184|396:172,1,139.999995727539,8|2,0:3|0:0,0:0:0:0:
464,216,68233,2,0,P|460:292|448:368,1,139.999995727539,8|2,0:3|0:0,0:0:0:0:
368,180,68782,2,0,P|368:220|376:268,1,69.9999978637696,8|2,0:3|0:0,0:0:0:0:
464,120,69148,5,8,0:3:0:0:
300,80,69331,1,8,0:3:0:0:
300,80,69422,1,8,0:3:0:0:
300,80,69514,1,8,0:3:0:0:
396,52,69697,1,8,0:3:0:0:
204,111,69880,6,0,P|132:99|96:36,1,150,6|0,0:0|0:0,0:0:0:0:
180,32,70611,5,6,1:0:0:0:
44,172,70794,1,2,0:0:0:0:
68,56,70977,1,2,0:0:0:0:
224,136,71160,2,0,P|268:132|312:112,1,80,2|8,1:2|0:1,0:0:0:0:
476,64,71526,1,2,0:0:0:0:
392,112,71709,1,2,0:0:0:0:
296,100,71892,1,2,1:2:0:0:
476,64,72075,6,0,P|484:104|480:164,1,80,2|0,0:0|1:0,0:0:0:0:
416,212,72441,1,0,1:0:0:0:
500,256,72624,2,0,P|420:244|348:288,1,160,2|2,0:0|0:0,0:0:0:0:
216,232,73172,1,2,0:0:0:0:
204,328,73355,1,2,1:2:0:0:
52,280,73538,6,0,B|20:260|20:260|-4:200|20:124,1,160,2|2,1:0|0:0,0:0:0:0:
0,12,74087,2,0,B|32:32|32:32|56:92|32:168,1,160,2|2,1:0|0:0,0:0:0:0:
128,184,74636,1,2,0:0:0:0:
220,156,74819,1,2,1:2:0:0:
368,104,75002,5,2,0:0:0:0:
184,68,75185,1,0,1:0:0:0:
92,48,75367,1,0,1:0:0:0:
284,55,75733,6,0,P|309:25|345:9,1,80,10|0,0:1|0:0,0:0:0:0:
368,104,76099,1,2,3:2:0:0:
372,112,76191,1,2,3:2:0:0:
416,116,76282,1,2,3:2:0:0:
420,124,76374,1,2,3:2:0:0:
460,132,76465,6,0,B|476:156|476:156|484:224,1,80,6|0,1:0|0:0,0:0:0:0:
492,304,76831,1,2,0:0:0:0:
308,212,77014,1,2,1:2:0:0:
308,212,77105,1,2,0:0:0:0:
308,212,77197,2,0,P|347:204|386:207,1,80,10|0,0:1|0:0,0:0:0:0:
352,280,77471,2,0,P|292:252|224:272,1,120,2|2,0:0|1:2,0:0:0:0:
128,236,77928,5,2,0:1:0:0:
136,340,78111,1,2,1:2:0:0:
284,340,78294,1,2,1:2:0:0:
224,252,78477,1,2,0:2:0:0:
88,240,78660,2,0,B|76:208|76:208|72:140|152:108,1,160,10|2,0:1|0:0,0:0:0:0:
124,16,79209,1,2,1:2:0:0:
66,94,79392,6,0,P|102:109|142:111,1,80,6|0,0:0|0:0,0:0:0:0:
256,56,79758,1,2,0:0:0:0:
256,56,79941,1,2,3:2:0:0:
448,100,80124,6,0,P|412:116|368:120,1,80,14|0,0:1|0:0,0:0:0:0:
248,36,80490,1,2,0:0:0:0:
248,36,80673,1,2,3:2:0:0:
256,216,80855,6,0,P|272:180|280:120,1,80,6|0,0:3|1:0,0:0:0:0:
240,20,81221,1,2,1:2:0:0:
240,20,81404,1,2,3:2:0:0:
184,152,81587,5,8,0:1:0:0:
279,140,81770,1,2,0:0:0:0:
376,128,81953,1,2,3:2:0:0:
460,172,82136,1,2,3:2:0:0:
460,172,82227,1,2,3:2:0:0:
460,172,82319,6,0,P|484:244|488:348,1,160,6|2,1:0|0:0,0:0:0:0:
276,316,82867,2,0,P|282:276|290:237,1,80,2|8,1:2|0:1,0:0:0:0:
364,172,83233,1,0,0:0:0:0:
364,172,83416,1,2,0:0:0:0:
290,237,83599,6,0,P|212:244|136:208,1,160,2|2,1:0|1:2,0:0:0:0:
56,256,84148,1,2,1:2:0:0:
139,210,84331,2,0,P|135:170|115:106,1,80,2|8,0:0|0:1,0:0:0:0:
88,40,84697,1,2,0:0:0:0:
4,88,84880,1,2,0:0:0:0:
88,136,85063,1,2,1:2:0:0:
236,36,85246,5,2,1:0:0:0:
104,48,85429,1,2,0:0:0:0:
248,144,85612,1,2,0:0:0:0:
372,20,85794,1,2,1:2:0:0:
224,140,85977,2,0,P|208:180|204:224,1,80,10|0,0:1|0:0,0:0:0:0:
448,136,86343,2,0,P|434:98|424:40,1,80,2|0,0:0|1:0,0:0:0:0:
344,231,86709,6,0,P|383:235|420:250,2,80,2|0|0,0:1|1:0|1:0,0:0:0:0:
360,328,87441,1,10,0:1:0:0:
244,224,87624,1,2,1:2:0:0:
256,344,87807,1,2,0:0:0:0:
144,288,87989,1,2,1:2:0:0:
352,312,88172,5,6,0:0:0:0:
244,200,88355,1,2,0:0:0:0:
152,308,88538,1,2,0:0:0:0:
28,251,88721,6,0,P|96:215|114:139,1,160,2|2,1:2|0:0,0:0:0:0:
20,156,89270,1,4,0:3:0:0:
92,8,89453,2,0,P|88:72|180:144,1,160,2|0,1:2|1:0,0:0:0:0:
244,124,90002,5,2,1:2:0:0:
264,28,90185,1,2,0:0:0:0:
372,176,90368,1,10,0:1:0:0:
356,80,90550,1,2,0:0:0:0:
492,40,90733,1,2,0:0:0:0:
448,124,90916,1,2,1:2:0:0:
496,248,91099,6,0,B|448:252|399:262|399:262|392:260|392:260|356:272|288:268,1,179.999994506836,6|0,0:0|3:0,0:0:0:0:
232,296,91557,1,0,3:0:0:0:
232,296,91648,2,0,P|196:316|128:320,1,89.9999972534181,2|8,1:0|0:1,0:0:0:0:
504,268,92197,6,0,B|464:260|464:260|436:276|436:276|368:292|288:252,1,200,6|0,0:3|3:0,0:0:0:0:
212,284,92654,1,0,3:0:0:0:
212,284,92746,2,0,P|164:264|124:224,1,100,0|0,1:0|1:0,0:0:0:0:
440,168,93294,6,0,P|430:129|428:84,1,80,8|0,0:1|0:0,0:0:0:0:
340,52,93660,1,2,3:2:0:0:
336,60,93752,1,2,3:2:0:0:
292,60,93843,1,2,3:2:0:0:
288,68,93935,1,2,3:2:0:0:
244,68,94026,6,0,B|224:84|224:84|208:152,1,80,6|2,1:0|0:0,0:0:0:0:
104,100,94392,1,2,0:0:0:0:
120,196,94575,1,2,1:2:0:0:
80,112,94758,2,0,L|-20:108,1,80,10|2,0:1|0:0,0:0:0:0:
56,304,95124,2,0,L|136:296,1,80,2|2,0:0|1:2,0:0:0:0:
268,232,95489,5,2,0:0:0:0:
360,260,95672,1,2,1:2:0:0:
328,352,95855,1,2,1:2:0:0:
236,324,96038,1,2,0:0:0:0:
360,260,96221,2,0,P|384:224|396:172,1,80,10|2,0:1|0:0,0:0:0:0:
292,76,96587,2,0,P|272:36|264:-24,1,80,2|2,0:0|1:2,0:0:0:0:
408,56,96953,5,2,1:0:0:0:
408,56,97136,1,2,0:0:0:0:
296,184,97319,2,0,P|252:176|212:152,1,80,2|2,0:0|1:2,0:0:0:0:
292,76,97684,1,10,0:1:0:0:
292,76,97867,1,2,0:0:0:0:
424,216,98051,2,0,P|468:212|508:196,1,80,2|2,0:0|1:2,0:0:0:0:
320,180,98416,5,2,0:0:0:0:
280,268,98599,1,2,1:2:0:0:
184,260,98783,1,2,1:2:0:0:
88,268,98966,1,2,0:0:0:0:
56,176,99148,1,10,0:1:0:0:
180,248,99331,1,2,0:0:0:0:
84,284,99514,1,2,0:0:0:0:
80,300,99880,5,6,0:0:0:0:
200,148,100063,1,2,0:0:0:0:
212,244,100246,1,2,0:0:0:0:
120,88,100428,1,2,1:2:0:0:
80,184,100611,1,10,0:1:0:0:
256,56,100794,1,2,0:0:0:0:
112,68,100977,1,2,0:0:0:0:
200,148,101160,6,0,P|278:157|346:118,1,160,6|2,1:0|1:2,0:0:0:0:
436,84,101709,2,0,P|472:100|512:104,1,80,2|2,1:2|0:0,0:0:0:0:
360,24,102075,1,10,0:1:0:0:
360,24,102441,1,2,1:2:0:0:
346,117,102624,1,2,1:2:0:0:
332,212,102807,6,0,B|376:244|376:244|392:368,1,160,6|2,1:0|0:0,0:0:0:0:
288,296,103355,1,2,1:2:0:0:
204,340,103538,1,10,0:1:0:0:
116,304,103721,1,2,0:0:0:0:
28,268,103904,2,0,L|18:347,1,80,2|2,0:0|1:2,0:0:0:0:
40,172,104270,6,0,L|20:76,2,80,2|0|0,0:1|1:0|1:0,0:0:0:0:
103,29,105002,2,0,L|120:108,2,80,8|0|0,0:1|1:0|1:0,0:0:0:0:
220,120,105733,1,2,0:0:0:0:
220,120,106099,6,0,P|224:80|248:36,1,69.9999978637696,2|0,0:0|0:0,0:0:0:0:
304,104,106465,2,0,P|360:64|452:76,1,139.999995727539,2|2,0:0|0:1,0:0:0:0:
388,156,107014,1,2,0:0:0:0:
388,156,107197,6,0,P|404:192|408:232,1,69.9999978637696,2|0,0:0|0:0,0:0:0:0:
348,280,107563,2,0,P|332:244|328:204,1,69.9999978637696,2|0,0:0|0:0,0:0:0:0:
472,272,107928,1,2,0:0:0:0:
276,348,108294,1,2,0:1:0:0:
488,248,108660,5,2,0:0:0:0:
240,176,109026,1,2,0:0:0:0:
460,116,109392,1,2,0:0:0:0:
284,320,109758,1,2,0:1:0:0:
356,176,110124,1,2,0:3:0:0:
344,160,111587,5,2,0:0:0:0:
344,160,111953,2,0,L|274:167,1,69.9999978637696,2|0,0:0|0:0,0:0:0:0:
216,108,112319,2,0,B|188:80|188:80|144:64|76:72,1,139.999995727539,2|2,0:0|0:1,0:0:0:0:
8,152,112867,1,2,0:0:0:0:
8,152,113050,6,0,P|80:164|164:156,1,139.999995727539,2|2,0:0|0:0,0:0:0:0:
68,252,113599,2,0,P|18:257|-20:272,1,69.9999978637696,2|2,0:0|0:0,0:0:0:0:
144,308,114514,5,2,0:0:0:0:
168,192,114879,1,2,0:0:0:0:
292,272,115245,1,2,0:0:0:0:
448,296,115611,1,2,0:1:0:0:
412,148,115977,6,0,P|344:176|256:176,2,139.999995727539,2|2|2,0:0|0:0|0:0,0:0:0:0:
420,52,117440,5,2,0:2:0:0:
420,52,117806,2,0,P|452:68|485:78,1,69.9999978637696,2|0,0:0|0:0,0:0:0:0:
336,56,118172,2,0,P|264:44|208:92,1,139.999995727539,2|2,0:0|0:1,0:0:0:0:
200,164,118721,1,2,0:0:0:0:
200,164,118904,6,0,P|140:131|130:64,1,139.999995727539,2|2,0:0|0:0,0:0:0:0:
288,128,119453,1,2,0:0:0:0:
288,128,119636,1,2,0:0:0:0:
48,172,120001,1,2,0:2:0:0:
104,264,120367,5,2,0:2:0:0:
144,40,120733,1,2,0:0:0:0:
184,196,121099,1,2,0:2:0:0:
0,92,121465,1,2,0:1:0:0:
96,284,121831,1,2,0:2:0:0:
84,308,122928,5,2,0:0:0:0:
84,308,123294,2,0,L|224:296,1,139.999995727539,2|2,0:2|0:0,0:0:0:0:
376,332,123843,1,2,0:0:0:0:
376,332,124026,2,0,L|228:316,1,139.999995727539,2|2,0:0|0:1,0:0:0:0:
316,228,124575,1,2,0:0:0:0:
316,228,124758,6,0,P|384:232|416:164,1,139.999995727539,2|2,0:0|0:0,0:0:0:0:
372,104,125307,1,2,0:0:0:0:
372,104,125490,2,0,P|304:100|272:168,1,139.999995727539,2|2,0:0|0:1,0:0:0:0:
188,140,126038,1,2,0:0:0:0:
104,124,126221,1,2,0:0:0:0:
344,72,126587,5,2,0:0:0:0:
428,64,126770,1,2,0:0:0:0:
512,56,126953,1,2,0:0:0:0:
270,155,127318,1,2,0:1:0:0:
252,236,127501,1,2,0:1:0:0:
232,316,127685,2,0,P|198:329|146:341,1,69.9999978637696,2|2,0:0|0:0,0:0:0:0:
8,248,128050,2,0,P|42:261|94:273,1,69.9999978637696,8|0,3:0|3:0,0:0:0:0:
108,272,128325,1,0,3:0:0:0:
108,272,128416,1,2,3:2:0:0:
156,116,128599,5,2,3:1:0:0:
144,32,128782,1,8,3:0:0:0:
60,44,128965,1,8,3:0:0:0:
168,200,129148,6,0,B|284:208|284:208|344:172,1,160,4|2,1:0|0:0,0:0:0:0:
444,240,129697,1,2,1:2:0:0:
332,265,129880,2,0,L|321:185,1,80,10|0,0:0|0:0,0:0:0:0:
308,88,130245,1,2,1:0:0:0:
308,88,130428,1,2,0:0:0:0:
504,36,130611,6,0,P|470:106|396:128,1,160,2|2,0:3|1:2,0:0:0:0:
308,88,131160,1,2,0:0:0:0:
212,104,131343,2,0,P|168:96|112:96,1,80,10|0,0:0|0:0,0:0:0:0:
256,16,131709,2,0,P|296:4|344:4,1,80,2|0,0:0|0:0,0:0:0:0:
95,4,132075,6,0,P|41:59|47:136,1,160,0|2,1:0|0:0,0:0:0:0:
180,280,132623,1,2,1:2:0:0:
160,188,132806,1,10,0:0:0:0:
32,324,132989,1,2,0:0:0:0:
56,232,133172,1,2,1:0:0:0:
184,300,133355,1,2,0:0:0:0:
272,232,133538,6,0,P|352:240|408:300,1,160,2|2,0:3|1:2,0:0:0:0:
512,288,134087,1,2,0:0:0:0:
512,288,134270,2,0,P|490:251|484:208,1,80,10|0,0:0|1:0,0:0:0:0:
500,120,134636,1,2,0:0:0:0:
428,60,134819,6,0,L|264:88,1,160,2|2,1:2|0:0,0:0:0:0:
176,108,135367,1,2,0:0:0:0:
120,31,135550,2,0,L|270:85,1,160,2|2,1:2|0:0,0:0:0:0:
360,124,136099,1,2,1:0:0:0:
270,85,136282,6,0,P|252:160|260:244,1,160,2|2,0:0|0:0,0:0:0:0:
324,312,136831,1,2,1:2:0:0:
420,304,137014,1,2,0:0:0:0:
259,241,137197,1,10,0:0:0:0:
164,232,137379,1,0,0:0:0:0:
316,328,137562,1,2,0:0:0:0:
412,320,137745,1,2,0:0:0:0:
259,241,137928,6,0,P|240:176|240:80,1,160,0|2,1:0|0:0,0:0:0:0:
424,24,138477,1,2,1:2:0:0:
400,116,138660,2,0,P|360:128|316:132,1,80,10|0,0:0|0:0,0:0:0:0:
239,84,139026,1,2,1:0:0:0:
239,84,139209,1,2,0:0:0:0:
424,24,139392,6,0,P|468:32|512:48,2,80,2|2|0,0:3|1:2|1:0,0:0:0:0:
416,128,139941,1,0,0:0:0:0:
416,128,140124,2,0,P|436:168|452:224,1,80,10|0,0:0|0:0,0:0:0:0:
278,215,140489,1,2,0:0:0:0:
322,131,140672,6,0,L|340:289,1,160,2|2,1:2|0:0,0:0:0:0:
172,344,141221,1,2,0:0:0:0:
188,248,141404,2,0,L|216:60,1,160,2|2,1:2|0:0,0:0:0:0:
308,32,141953,1,2,1:0:0:0:
211,89,142136,6,0,P|124:92|60:48,1,160,2|2,0:0|0:0,0:0:0:0:
32,160,142685,1,2,1:2:0:0:
124,136,142867,1,2,0:0:0:0:
96,280,143051,1,8,0:0:0:0:
0,272,143233,1,2,0:0:0:0:
40,172,143416,1,2,0:0:0:0:
132,148,143599,1,2,0:0:0:0:
192,288,143782,6,0,B|232:320|232:320|352:304,1,160,0|2,1:0|0:0,0:0:0:0:
496,280,144331,1,2,1:2:0:0:
346,226,144514,2,0,L|339:305,1,80,10|0,0:0|0:0,0:0:0:0:
440,204,144880,1,2,1:1:0:0:
440,204,145063,1,2,0:0:0:0:
252,184,145246,6,0,L|228:276,2,80,2|2|0,0:3|1:2|1:0,0:0:0:0:
288,60,145794,1,2,0:0:0:0:
388,60,145977,1,10,0:0:0:0:
296,88,146160,1,2,0:0:0:0:
200,100,146343,1,2,0:1:0:0:
104,100,146526,1,8,0:3:0:0:
252,184,146709,6,0,B|320:160|384:200|384:200|360:160,1,179.999994506836,4|0,1:0|0:0,0:0:0:0:
384,200,147258,2,0,P|484:204|496:124,1,179.999994506836,4|0,1:3|0:0,0:0:0:0:
308,272,147807,6,0,B|264:320|184:328|184:328|260:344,1,200,4|0,1:0|0:0,0:0:0:0:
184,328,148356,2,0,P|128:276|56:352,1,200,4|0,1:3|0:0,0:0:0:0:
148,180,148904,5,12,0:0:0:0:
192,292,149087,1,2,3:2:0:0:
40,204,149270,1,2,3:2:0:0:
144,64,149453,1,2,3:2:0:0:
144,64,149544,1,2,3:2:0:0:
144,64,149636,6,0,P|224:80|328:68,1,160,8|2,0:3|0:0,0:0:0:0:
407,91,150184,2,0,P|403:167|439:243,1,160,8|2,0:3|0:0,0:0:0:0:
301,74,150733,2,0,P|305:118|293:178,1,80,8|2,0:3|0:0,0:0:0:0:
495,23,151099,5,8,0:3:0:0:
407,231,151282,1,8,0:3:0:0:
407,231,151373,1,8,0:3:0:0:
407,231,151465,1,8,0:3:0:0:
451,127,151648,1,8,0:3:0:0:
487,263,151831,6,0,P|411:263|323:279,1,150,6|0,0:0|0:0,0:0:0:0:
256,332,152563,6,0,B|188:356|128:336|128:336|96:288,1,170.000003242493,6|2,1:0|0:0,0:0:0:0:
196,204,153111,2,0,P|192:160|168:108,1,85.0000016212464,2|8,1:2|0:1,0:0:0:0:
76,64,153477,1,2,0:0:0:0:
172,100,153660,1,2,0:0:0:0:
272,108,153843,1,2,1:2:0:0:
372,92,154026,6,0,P|408:70|438:40,2,85.0000016212464,2|0|0,0:0|1:0|1:0,0:0:0:0:
168,80,154575,1,2,0:0:0:0:
340,0,154758,1,10,0:1:0:0:
272,76,154941,1,2,0:0:0:0:
372,112,155123,1,2,0:0:0:0:
336,208,155306,1,2,1:2:0:0:
480,96,155489,6,0,B|512:164|492:220|492:220|456:268,1,170.000003242493,2|2,1:0|0:0,0:0:0:0:
212,372,156038,2,0,B|186:338|186:338|166:282|198:214,1,170.000003242493,2|2,1:0|0:0,0:0:0:0:
336,208,156587,1,2,0:0:0:0:
352,308,156770,1,2,1:2:0:0:
408,136,156953,5,2,0:0:0:0:
236,184,157136,1,0,1:0:0:0:
220,284,157318,1,0,1:0:0:0:
20,88,157685,6,0,P|44:128|60:180,1,85.0000016212464,10|0,0:1|0:0,0:0:0:0:
20,272,158050,1,2,3:2:0:0:
12,284,158142,1,2,3:2:0:0:
60,260,158233,1,2,3:2:0:0:
56,272,158325,1,2,3:2:0:0:
104,248,158416,6,0,B|144:244|144:244|200:256,1,85.0000016212464,6|0,1:0|0:0,0:0:0:0:
220,284,158691,1,2,0:0:0:0:
220,284,158782,2,0,P|260:288|320:268,1,85.0000016212464,2|2,0:0|1:2,0:0:0:0:
472,251,159148,2,0,P|432:234|390:227,1,85.0000016212464,10|0,0:1|0:0,0:0:0:0:
472,251,159422,2,0,P|440:196|448:120,1,127.50000243187,2|2,0:0|1:2,0:0:0:0:
296,120,159879,5,2,0:1:0:0:
500,60,160062,1,2,1:2:0:0:
332,0,160245,1,2,1:2:0:0:
504,76,160428,1,2,0:2:0:0:
304,148,160611,2,0,B|256:140|256:140|200:100|212:28,1,170.000003242493,10|2,0:1|0:0,0:0:0:0:
52,68,161160,1,2,1:2:0:0:
128,136,161343,6,0,P|124:184|112:236,1,85.0000016212464,6|0,0:0|0:0,0:0:0:0:
44,336,161709,1,2,0:0:0:0:
44,336,161892,1,2,3:2:0:0:
308,352,162075,6,0,P|276:332|204:328,1,85.0000016212464,14|0,0:1|0:0,0:0:0:0:
64,344,162441,1,2,0:0:0:0:
64,344,162624,1,2,3:2:0:0:
300,232,162806,6,0,P|274:265|242:293,1,85.0000016212464,6|0,0:3|1:0,0:0:0:0:
80,352,163172,1,2,1:2:0:0:
80,352,163355,1,2,3:2:0:0:
148,276,163538,5,8,0:1:0:0:
164,176,163721,1,2,0:0:0:0:
180,76,163904,1,2,3:2:0:0:
264,212,164087,1,2,3:2:0:0:
264,212,164178,1,2,3:2:0:0:
264,212,164270,6,0,L|456:192,1,170.000003242493,6|2,1:0|0:0,0:0:0:0:
512,108,164819,2,0,L|420:96,1,85.0000016212464,2|8,1:2|0:1,0:0:0:0:
328,84,165184,1,0,0:0:0:0:
328,84,165367,1,2,0:0:0:0:
433,194,165550,6,0,P|460:272|440:372,1,170.000003242493,2|2,1:0|1:2,0:0:0:0:
220,360,166099,1,2,1:2:0:0:
320,340,166282,2,0,P|340:304|356:244,1,85.0000016212464,2|8,0:0|0:1,0:0:0:0:
264,88,166648,1,2,0:0:0:0:
280,188,166831,1,2,0:0:0:0:
360,124,167014,1,2,1:2:0:0:
168,52,167197,5,2,1:0:0:0:
132,304,167380,1,2,0:0:0:0:
280,188,167563,1,2,0:0:0:0:
68,120,167745,1,2,1:2:0:0:
132,304,167928,2,0,L|236:288,1,85.0000016212464,10|0,0:1|0:0,0:0:0:0:
152,130,168294,2,0,L|52:118,1,85.0000016212464,2|0,0:0|1:0,0:0:0:0:
232,316,168660,6,0,L|316:328,2,85.0000016212464,2|0|0,0:1|1:0|1:0,0:0:0:0:
416,340,169392,1,10,0:1:0:0:
376,244,169575,1,2,1:2:0:0:
436,160,169758,1,2,0:0:0:0:
400,64,169940,1,2,1:2:0:0:
452,168,170123,5,6,0:0:0:0:
352,248,170306,1,2,0:0:0:0:
432,316,170489,1,2,0:0:0:0:
332,256,170672,6,0,P|244:256|160:280,1,170.000003242493,2|2,1:2|0:0,0:0:0:0:
60,184,171221,1,4,0:3:0:0:
40,284,171404,2,0,P|112:272|160:176,1,170.000003242493,2|0,1:2|1:0,0:0:0:0:
124,100,171953,5,2,1:2:0:0:
216,56,172136,1,2,0:0:0:0:
360,140,172319,1,10,0:1:0:0:
260,152,172501,1,2,0:0:0:0:
384,40,172684,1,2,0:0:0:0:
484,64,172867,1,2,1:2:0:0:
360,140,173050,6,0,B|332:204|360:268|360:268|364:276|364:276|360:280|360:280|396:288|436:316,1,200,6|0,0:0|3:0,0:0:0:0:
506,296,173508,1,0,3:0:0:0:
506,296,173599,2,0,P|457:287|409:299,1,100,2|8,1:0|0:1,0:0:0:0:
328,132,174148,6,0,B|300:192|336:260|336:260|324:304|324:304|320:336|336:372,1,230.000004386902,6|0,0:3|3:0,0:0:0:0:
500,356,174605,1,0,3:0:0:0:
500,356,174697,2,0,P|424:344|388:300,1,115.000002193451,0|0,1:0|1:0,0:0:0:0:
156,336,175246,6,0,P|220:304|240:272,1,85.0000016212464,8|0,0:1|0:0,0:0:0:0:
136,224,175611,1,2,3:2:0:0:
140,236,175703,1,2,3:2:0:0:
88,216,175794,1,2,3:2:0:0:
92,228,175886,1,2,3:2:0:0:
40,208,175977,6,0,B|24:180|24:180|16:96,1,85.0000016212464,6|2,1:0|0:0,0:0:0:0:
144,28,176343,1,2,0:0:0:0:
132,128,176526,1,2,1:2:0:0:
240,72,176709,2,0,L|324:64,1,85.0000016212464,10|2,0:1|0:0,0:0:0:0:
480,147,177075,2,0,L|396:140,1,85.0000016212464,2|2,0:0|1:2,0:0:0:0:
272,232,177440,5,2,0:0:0:0:
252,334,177623,1,2,1:2:0:0:
354,349,177806,1,2,1:2:0:0:
373,247,177989,1,2,0:0:0:0:
272,232,178172,2,0,P|228:240|180:240,1,85.0000016212464,10|2,0:1|0:0,0:0:0:0:
88,212,178538,2,0,P|55:184|30:150,1,85.0000016212464,2|2,0:0|1:2,0:0:0:0:
164,140,178904,5,2,1:0:0:0:
164,140,179087,1,2,0:0:0:0:
187,240,179270,2,0,L|208:332,1,85.0000016212464,2|2,0:0|1:2,0:0:0:0:
14,250,179635,1,10,0:1:0:0:
14,250,179818,1,2,0:0:0:0:
30,150,180002,2,0,L|43:66,1,85.0000016212464,2|2,0:0|1:2,0:0:0:0:
128,128,180367,5,2,0:0:0:0:
224,100,180550,1,2,1:2:0:0:
320,136,180734,1,2,1:2:0:0:
384,56,180917,1,2,0:0:0:0:
480,92,181099,6,0,L|476:204,1,85.0000016212464,10|2,0:1|0:0,0:0:0:0:
400,244,181465,2,0,L|406:328,1,85.0000016212464,2|2,0:0|0:0,0:0:0:0:
320,180,181831,6,0,B|288:156|288:156|220:148|152:192,1,170.000003242493,6|2,0:0|0:0,0:0:0:0:
80,244,182379,1,2,1:2:0:0:
248,252,182563,2,0,P|262:291|270:333,1,85.0000016212464,10|2,0:1|0:0,0:0:0:0:
80,244,182928,1,2,0:0:0:0:
80,244,183111,1,2,1:2:0:0:
163,184,183294,6,0,P|172:140|175:72,1,85.0000016212464,2|0,0:0|1:0,0:0:0:0:
124,12,183660,1,0,1:0:0:0:
24,36,183843,1,0,0:0:0:0:
175,100,184026,2,0,P|256:92|352:48,1,170.000003242493,10|2,0:1|0:0,0:0:0:0:
428,108,184575,1,2,1:2:0:0:
252,192,184758,6,0,P|344:184|420:260,1,170.000003242493,6|2,1:0|0:0,0:0:0:0:
436,324,185307,1,2,1:2:0:0:
504,252,185489,2,0,L|512:156,1,85.0000016212464,10|0,0:1|0:0,0:0:0:0:
316,276,185855,2,0,L|320:380,1,85.0000016212464,2|0,0:0|1:0,0:0:0:0:
403,227,186221,5,0,1:0:0:0:
403,227,186404,2,0,L|411:123,2,85.0000016212464,0|0|0,1:0|0:0|1:0,0:0:0:0:
316,276,186953,6,0,L|284:292,1,21.2500004053116,10|0,0:1|0:1,0:1:0:0:
216,272,187227,2,0,L|180:279,1,21.2500004053116,10|0,0:1|0:1,0:1:0:0:
116,252,187502,2,0,L|80:249,1,21.2500004053116,10|0,0:1|0:1,0:1:0:0:
20,280,187685,6,0,B|60:244|60:244|76:116,1,170.000003242493,6|2,1:0|0:0,0:0:0:0:
88,28,188233,1,2,1:2:0:0:
172,88,188417,1,10,0:1:0:0:
172,88,188599,2,0,P|214:84|255:75,1,85.0000016212464,2|0,0:0|0:0,0:0:0:0:
477,167,188965,6,0,P|401:127|309:147,1,170.000003242493,2|0,1:2|1:0,0:0:0:0:
232,196,189514,1,0,1:0:0:0:
157,122,189697,2,0,P|115:130|73:127,1,85.0000016212464,2|10,0:0|0:1,0:0:0:0:
248,72,190063,1,2,0:0:0:0:
248,72,190246,1,2,0:0:0:0:
321,141,190428,1,2,0:0:0:0:
321,141,190520,1,2,0:0:0:0:
321,141,190611,6,0,B|352:176|352:176|368:328,1,170.000003242493,6|2,0:0|0:0,0:0:0:0:
112,208,191160,1,2,0:0:0:0:
112,208,191252,1,2,0:0:0:0:
112,208,191343,2,0,B|81:243|81:243|65:395,1,170.000003242493,14|2,0:1|0:0,0:0:0:0:
204,88,191892,1,2,0:0:0:0:
204,88,191983,1,2,0:0:0:0:
204,88,192075,6,0,L|196:-4,1,85.0000016212464,6|2,3:0|1:2,0:0:0:0:
234,243,192441,2,0,L|227:327,1,85.0000016212464,2|0,1:2|0:0,0:0:0:0:
336,168,192807,1,10,0:1:0:0:
336,168,192989,1,2,0:0:0:0:
116,188,193172,1,2,1:2:0:0:
116,188,193355,1,2,1:2:0:0:
218,75,193538,6,0,P|232:140|232:264,1,170.000003242493,6|2,1:0|0:0,0:0:0:0:
204,340,194087,1,2,0:0:0:0:
324,288,194270,2,0,P|368:296|436:292,1,85.0000016212464,10|0,0:1|0:0,0:0:0:0:
234,243,194636,2,0,P|190:251|122:247,1,85.0000016212464,2|0,0:0|1:0,0:0:0:0:
376,204,195002,6,0,P|396:168|408:120,1,85.0000016212464,2|0,0:0|1:0,0:0:0:0:
503,152,195367,2,0,P|502:109|491:68,1,85.0000016212464,2|0,1:2|0:0,0:0:0:0:
324,72,195733,2,0,P|280:64|232:36,1,85.0000016212464,10|0,0:1|0:0,0:0:0:0:
144,64,196099,2,0,P|109:35|82:-13,1,85.0000016212464,2|0,0:0|1:0,0:0:0:0:
4,184,196465,6,0,P|48:140|124:168,2,127.50000243187,2|2|2,1:2|0:0|1:2,0:0:0:0:
156,260,197197,1,10,0:1:0:0:
196,116,197380,1,2,0:0:0:0:
68,204,197563,1,2,0:0:0:0:
176,256,197746,1,2,1:2:0:0:
256,192,197928,6,0,L|324:184,3,42.5000008106232,2|2|2|2,0:0|0:0|1:2|0:0,0:0:0:0:
324,204,198294,2,0,L|412:212,1,85.0000016212464,2|0,1:2|0:0,0:0:0:0:
500,204,198660,2,0,L|488:256,3,42.5000008106232,8|0|0|0,3:1|3:0|3:0|3:0,0:0:0:0:
420,296,199026,2,0,L|424:328,6,21.2500004053116,0|0|0|0|0|0|0,3:0|3:0|3:0|3:0|3:0|3:0|3:0,0:0:0:0:
408,211,199392,5,6,3:0:0:0:
256,192,202319,5,2,0:0:0:0:
236,96,205246,5,2,0:1:0:0:
328,68,208172,5,2,0:0:0:0:
476,128,211099,5,2,0:1:0:0:
476,128,212563,6,0,L|468:232,1,100,2|0,0:0|0:0,0:0:0:0:
364,80,214026,6,0,L|344:156,2,75,2|0|0,0:1|0:0|0:0,0:0:0:0:
388,4,215489,1,2,0:0:0:0:
164,156,216953,6,0,L|172:252,2,89.9999972534181,2|0|0,0:1|0:0|0:0,0:0:0:0:
156,60,218416,1,2,0:0:0:0:
352,212,219880,6,0,P|416:204|460:180,2,104.999996795654,2|0|0,0:1|0:0|0:0,0:0:0:0:
256,192,221343,1,2,0:0:0:0:
136,336,222075,1,8,0:0:0:0:
8,184,222807,6,0,P|64:232|160:224,1,160,2|8,0:1|0:0,0:0:0:0:
212,160,223904,6,0,P|272:148|344:148,1,119.999996337891,2|0,0:3|0:0,0:0:0:0:
351,75,224819,6,0,P|400:120|400:172,1,120,0|2,0:0|0:0,0:0:0:0:
336,228,226099,5,4,3:0:0:0:
340,240,226282,1,4,3:0:0:0:
352,264,226465,1,4,3:0:0:0:
380,284,226648,1,4,3:0:0:0:
432,296,226831,1,4,3:0:0:0:
512,276,227013,1,4,3:0:0:0:
344,368,227196,1,4,3:0:0:0:
496,124,228660,6,0,B|476:92|476:92|424:56|324:80,1,179.999994506836,6|0,1:0|0:0,0:0:0:0:
48,140,229209,2,0,P|84:152|152:152,1,89.9999972534181,2|8,1:2|0:1,0:0:0:0:
240,36,229575,1,2,0:0:0:0:
144,128,229758,1,2,0:0:0:0:
276,232,229941,1,2,1:2:0:0:
88,284,230124,6,0,P|43:289|0:303,2,89.9999972534181,2|0|0,0:0|1:0|1:0,0:0:0:0:
196,304,230673,1,2,0:0:0:0:
400,176,230856,1,10,0:1:0:0:
380,280,231039,1,2,0:0:0:0:
236,100,231221,1,2,0:0:0:0:
252,208,231404,1,2,1:2:0:0:
488,120,231587,6,0,B|416:144|360:104|360:104|348:56,1,179.999994506836,2|2,1:0|0:0,0:0:0:0:
60,36,232136,2,0,B|132:12|188:52|188:52|200:100,1,179.999994506836,2|2,1:0|0:0,0:0:0:0:
80,256,232685,1,2,0:0:0:0:
96,148,232868,1,2,1:2:0:0:
296,44,233050,5,2,0:0:0:0:
216,204,233234,1,0,1:0:0:0:
232,312,233416,1,0,1:0:0:0:
449,289,233782,6,0,P|404:293|364:312,1,89.9999972534181,10|0,0:1|0:0,0:0:0:0:
424,184,234148,1,2,3:2:0:0:
436,176,234240,1,2,3:2:0:0:
448,124,234331,1,2,3:2:0:0:
460,116,234423,1,2,3:2:0:0:
448,64,234514,6,0,P|396:60|340:36,1,89.9999972534181,6|0,1:0|0:0,0:0:0:0:
316,56,234789,1,2,0:0:0:0:
316,56,234880,2,0,B|280:48|280:48|208:56,1,89.9999972534181,2|2,0:0|1:2,0:0:0:0:
8,112,235246,2,0,B|48:116|48:116|100:104,1,89.9999972534181,10|0,0:1|0:0,0:0:0:0:
140,20,235520,2,0,P|139:86|188:136,1,134.999995880127,2|2,0:0|1:2,0:0:0:0:
340,148,235977,5,2,0:1:0:0:
132,232,236160,1,2,1:2:0:0:
312,308,236343,1,2,1:2:0:0:
184,328,236526,1,2,0:2:0:0:
395,240,236709,2,0,B|443:248|443:248|499:288|492:364,1,179.999994506836,10|2,0:1|0:0,0:0:0:0:
312,308,237258,1,2,1:2:0:0:
395,240,237441,6,0,P|412:200|416:144,1,89.9999972534181,6|0,0:0|0:0,0:0:0:0:
288,0,237807,1,2,0:0:0:0:
288,0,237989,1,2,3:2:0:0:
140,176,238173,6,0,P|117:133|108:84,1,89.9999972534181,14|0,0:1|0:0,0:0:0:0:
280,16,238539,1,2,0:0:0:0:
280,16,238722,1,2,3:2:0:0:
280,292,238904,6,0,P|286:247|288:202,1,89.9999972534181,6|0,0:3|1:0,0:0:0:0:
276,28,239270,1,2,1:2:0:0:
276,28,239453,1,2,3:2:0:0:
364,120,239636,5,8,0:1:0:0:
204,136,239819,1,2,0:0:0:0:
44,152,240002,1,2,3:2:0:0:
60,260,240185,1,2,3:2:0:0:
60,260,240276,1,2,3:2:0:0:
60,260,240368,6,0,P|152:268|256:296,1,179.999994506836,6|2,1:0|0:0,0:0:0:0:
512,296,240916,2,0,P|465:301|408:316,1,89.9999972534181,2|8,1:2|0:1,0:0:0:0:
324,352,241282,1,0,0:0:0:0:
324,352,241465,1,2,0:0:0:0:
423,311,241648,6,0,B|452:272|452:272|472:192|408:128,1,179.999994506836,2|2,1:0|1:2,0:0:0:0:
332,96,242197,1,2,1:2:0:0:
236,289,242380,2,0,P|284:272|332:224,1,89.9999972534181,2|8,0:0|0:1,0:0:0:0:
332,96,242746,1,2,0:0:0:0:
424,40,242929,1,2,0:0:0:0:
425,148,243112,1,2,1:2:0:0:
100,104,243295,5,2,1:0:0:0:
280,0,243478,1,2,0:0:0:0:
312,224,243661,1,2,0:0:0:0:
212,88,243843,1,2,1:2:0:0:
425,148,244026,2,0,P|473:140|533:120,1,89.9999972534181,10|0,0:1|0:0,0:0:0:0:
228,300,244392,2,0,P|176:292|132:272,1,89.9999972534181,2|0,0:0|1:0,0:0:0:0:
428,264,244758,6,0,P|443:307|448:372,2,89.9999972534181,2|0|0,0:1|1:0|1:0,0:0:0:0:
320,236,245490,1,10,0:1:0:0:
336,128,245673,1,2,1:2:0:0:
352,20,245856,1,2,0:0:0:0:
436,88,246038,1,2,1:2:0:0:
236,164,246221,5,6,0:0:0:0:
352,20,246404,1,2,0:0:0:0:
424,196,246587,1,2,0:0:0:0:
252,56,246770,6,0,P|163:39|75:51,1,179.999994506836,2|2,1:2|0:0,0:0:0:0:
0,100,247319,1,4,0:3:0:0:
12,188,247502,2,0,P|72:152|56:28,1,179.999994506836,2|0,1:2|1:0,0:0:0:0:
144,228,248051,5,2,1:2:0:0:
120,332,248234,1,2,0:0:0:0:
344,216,248417,1,10,0:1:0:0:
372,320,248599,1,2,0:0:0:0:
244,204,248782,1,2,0:0:0:0:
232,312,248965,1,2,1:2:0:0:
364,228,249148,6,0,B|400:196|400:196|444:100|388:24,1,220.000006713867,6|0,0:0|3:0,0:0:0:0:
308,97,249606,1,0,3:0:0:0:
308,97,249697,2,0,P|357:72|394:31,1,110.000003356934,2|8,1:0|0:1,0:0:0:0:
392,275,250246,6,0,P|446:161|415:37,1,259.999988098145,6|0,0:3|3:0,0:0:0:0:
492,135,250703,1,0,3:0:0:0:
492,135,250795,2,0,P|442:94|415:36,1,129.999994049073,0|0,1:0|1:0,0:0:0:0:
132,44,251343,6,0,P|88:44|40:52,1,89.9999972534181,8|0,0:1|0:0,0:0:0:0:
48,184,251709,1,2,3:2:0:0:
52,196,251801,1,2,3:2:0:0:
104,188,251892,1,2,3:2:0:0:
108,200,251984,1,2,3:2:0:0:
152,168,252075,6,0,B|180:192|180:192|252:204,1,89.9999972534181,6|2,1:0|0:0,0:0:0:0:
456,176,252441,1,2,0:0:0:0:
440,68,252624,1,2,1:2:0:0:
348,192,252807,2,0,P|328:232|324:288,1,89.9999972534181,10|2,0:1|0:0,0:0:0:0:
408,88,253173,2,0,P|400:36|372:-20,1,89.9999972534181,2|2,0:0|1:2,0:0:0:0:
304,72,253538,5,2,0:0:0:0:
212,128,253721,1,2,1:2:0:0:
144,44,253904,1,2,1:2:0:0:
40,68,254087,1,2,0:0:0:0:
48,176,254270,2,0,L|52:284,1,89.9999972534181,10|2,0:1|0:0,0:0:0:0:
188,328,254636,2,0,L|199:231,1,89.9999972534181,2|2,0:0|1:2,0:0:0:0:
212,128,255002,5,2,1:0:0:0:
212,128,255185,1,2,0:0:0:0:
296,296,255368,2,0,L|388:304,1,89.9999972534181,2|2,0:0|1:2,0:0:0:0:
492,216,255733,1,10,0:1:0:0:
492,216,255916,1,2,0:0:0:0:
348,192,256100,2,0,L|340:88,1,89.9999972534181,2|2,0:0|1:2,0:0:0:0:
448,24,256465,5,2,0:0:0:0:
353,78,256648,1,2,1:2:0:0:
248,104,256832,1,2,1:2:0:0:
140,116,257015,1,2,0:0:0:0:
52,52,257197,6,0,P|36:92|36:164,1,89.9999972534181,10|2,0:1|0:0,0:0:0:0:
140,116,257563,2,0,P|156:68|156:12,1,89.9999972534181,2|2,0:0|1:2,0:0:0:0:
100,224,257928,5,2,1:2:0:0:
100,224,258020,1,2,0:0:0:0:
100,224,258111,1,2,0:0:0:0:
204,196,258294,1,2,0:0:0:0:
284,268,258477,1,2,1:2:0:0:
348,136,258660,2,0,L|360:36,1,89.9999972534181,10|2,0:1|0:0,0:0:0:0:
492,172,259026,2,0,L|502:261,1,89.9999972534181,2|2,0:0|1:2,0:0:0:0:
388,236,259392,5,2,0:0:0:0:
388,236,259483,1,2,0:0:0:0:
388,236,259575,1,2,1:2:0:0:
284,268,259758,1,2,1:2:0:0:
348,136,259941,1,2,0:0:0:0:
244,168,260124,2,0,P|192:164|132:144,1,89.9999972534181,10|2,0:1|0:0,0:0:0:0:
124,256,260489,2,0,P|80:226|39:179,1,89.9999972534181,2|2,0:0|0:0,0:0:0:0:
0,104,260855,1,6,3:0:0:0:
256,192,261038,12,0,264514,0:0:0:0:
