osu file format v14

[General]
AudioFilename: audio.mp3
AudioLeadIn: 0
PreviewTime: 71201
Countdown: 0
SampleSet: Soft
StackLeniency: 0.7
Mode: 0
LetterboxInBreaks: 0
EpilepsyWarning: 1
WidescreenStoryboard: 1

[Editor]
Bookmarks: 13191,33089,52681,72273,91865,101661,111457
DistanceSpacing: 1.5
BeatDivisor: 2
GridSize: 4
TimelineZoom: 1.7

[Metadata]
Title:Akikaze no Answer
TitleUnicode:秋風のアンサー
Artist:Flower
ArtistUnicode:Flower
Creator:Zer0-
Version:Normal
Source:ビンタ!~弁護士事務員ミノワが愛で解決します~
Tags:Hanadokei Mio Nakajima Shuuka Fujii Manami Shigetome Reina Washio Kyoka Ichiki Nozomi Bando Harumi Sato Chiharu Muto Mir Benny- BennyBananas Lanturn Chaos Zero Kanari
BeatmapID:1181074
BeatmapSetID:556945

[Difficulty]
HPDrainRate:4
CircleSize:3
OverallDifficulty:4
ApproachRate:5
SliderMultiplier:2.4
SliderTickRate:1

[Events]
//Background and Video events
0,0,"Untitled-1.jpg",0,0
//Break Periods
//Storyboard Layer 0 (Background)
//Storyboard Layer 1 (Fail)
//Storyboard Layer 2 (Pass)
//Storyboard Layer 3 (Foreground)
//Storyboard Sound Samples

[TimingPoints]
1253,612.244897959184,4,2,1,30,1,0
1253,-200,4,2,1,30,0,0
12885,-200,4,2,1,10,0,0
13191,-200,4,2,1,45,0,0
13497,-200,4,2,1,45,0,0
33089,-200,4,2,1,30,0,0
52681,-200,4,2,1,45,0,0
72273,-200,4,2,1,60,0,1
91865,-200,4,2,1,50,0,0
111610,-200,4,2,1,10,0,0

[Colours]
Combo1 : 10,102,216
Combo2 : 231,64,116
Combo3 : 88,222,50

[HitObjects]
372,168,13497,6,0,P|400:117|395:54,1,120,4|8,1:2|0:0,0:0:0:0:
315,98,14416,1,0,1:2:0:0:
410,250,15028,1,0,1:2:0:0:
341,307,15334,6,0,L|215:311,1,120,8|0,0:0|1:2,0:0:0:0:
80,198,16559,1,8,0:0:0:0:
145,136,16865,2,0,P|210:147|266:116,1,120,0|0,1:2|1:2,0:0:0:0:
194,59,17783,1,8,0:0:0:0:
19,13,18395,6,0,L|20:142,1,120,2|8,1:2|0:0,0:0:0:0:
19,223,19314,1,0,1:2:0:0:
173,315,19926,1,0,1:2:0:0:
261,332,20232,6,0,L|389:317,1,120,8|2,0:0|1:2,0:0:0:0:
463,158,21457,1,8,0:0:0:0:
397,96,21763,2,0,P|321:113|279:94,1,120,0|0,1:2|1:2,0:0:0:0:
223,31,22681,1,8,0:0:0:0:
194,116,22987,1,8,0:0:0:0:
219,202,23293,6,0,P|280:218|341:198,1,120,4|8,1:2|0:0,0:0:0:0:
396,138,24212,1,0,1:2:0:0:
495,287,24824,1,0,1:2:0:0:
421,338,25130,6,0,L|270:340,1,120,8|0,0:0|1:2,0:0:0:0:
121,327,26355,1,8,0:0:0:0:
175,255,26661,2,0,P|184:193|173:130,1,120,0|0,1:2|1:2,0:0:0:0:
140,53,27579,1,8,0:0:0:0:
279,166,28191,6,0,P|339:189|403:165,1,120,2|8,1:2|0:0,0:0:0:0:
340,99,29110,1,0,1:2:0:0:
393,270,29722,2,0,L|475:257,2,60,0|8|0,1:2|0:0|0:0,0:0:0:0:
336,340,30640,6,0,L|263:331,1,60,2|0,1:2|0:0,0:0:0:0:
240,249,31253,2,0,L|167:258,1,60,8|0,0:0|1:2,0:0:0:0:
144,340,31865,2,0,L|71:331,1,60,0|0,0:0|1:2,0:0:0:0:
15,275,32477,6,0,P|4:215|17:156,1,120,8|4,0:0|1:2,0:0:0:0:
61,80,33395,2,0,L|43:-8,2,60,0|8|0,0:0|0:0|1:2,0:0:0:0:
106,157,34314,2,0,P|166:171|238:147,1,120,0|8,0:0|0:0,0:0:0:0:
386,85,35538,6,0,L|395:175,1,60,0|0,1:2|0:0,0:0:0:0:
309,181,36150,2,0,L|300:271,1,60,8|0,0:0|1:2,0:0:0:0:
290,330,36763,1,0,0:0:0:0:
206,295,37069,1,0,1:2:0:0:
165,214,37375,2,0,L|161:142,1,60,8|0,0:0|0:0,0:0:0:0:
158,64,37987,6,0,P|94:58|31:78,1,120,0|8,1:2|0:0,0:0:0:0:
12,158,38906,1,0,1:2:0:0:
44,242,39212,2,0,L|32:328,2,60,0|0|8,0:0|1:2|0:0,0:0:0:0:
105,175,40130,1,0,0:0:0:0:
159,246,40436,6,0,P|228:256|280:237,1,120,0|8,1:2|0:0,0:0:0:0:
344,183,41355,1,0,1:2:0:0:
283,116,41661,2,0,P|225:99|167:110,1,120,0|8,0:0|0:0,0:0:0:0:
104,174,42579,6,0,P|80:131|99:59,2,120,0|0|0,0:0|0:0|1:2,0:0:0:0:
180,224,44110,2,0,L|275:211,1,60,0|0,0:0|1:2,0:0:0:0:
287,292,44722,2,0,L|382:305,1,60,8|0,0:0|0:0,0:0:0:0:
420,248,45334,6,0,P|419:187|424:116,1,120,0|8,1:2|0:0,0:0:0:0:
432,38,46253,1,0,1:2:0:0:
349,72,46559,2,0,P|315:76|281:67,1,60,0|0,0:0|1:2,0:0:0:0:
207,34,47171,2,0,P|177:28|148:32,1,60,8|0,0:0|0:0,0:0:0:0:
84,96,47783,6,0,P|84:156|80:228,1,120,0|8,1:2|0:0,0:0:0:0:
73,305,48701,2,0,L|17:330,2,60,0|0|0,1:2|0:0|1:2,0:0:0:0:
155,269,49620,2,0,P|195:264|232:269,1,60,8|0,0:0|0:0,0:0:0:0:
293,308,50232,5,0,1:2:0:0:
379,333,50538,1,0,0:0:0:0:
455,285,50844,2,0,L|467:212,1,60,8|0,0:0|1:2,0:0:0:0:
483,137,51457,1,0,0:0:0:0:
415,77,51763,1,0,1:2:0:0:
336,121,52069,2,0,P|302:122|273:110,1,60,8|0,0:0|0:0,0:0:0:0:
195,76,52681,6,0,L|146:39,2,60,6|0|0,1:2|0:0|1:2,0:0:0:0:
203,165,53599,2,0,L|211:321,1,120,0|0,1:2|1:2,0:0:0:0:
143,346,54518,2,0,P|107:346|71:336,1,60,8|0,0:0|0:0,0:0:0:0:
28,269,55130,6,0,L|19:198,2,60,2|0|0,1:2|0:0|1:2,0:0:0:0:
117,258,56048,2,0,L|122:128,1,120,0|0,1:2|1:2,0:0:0:0:
173,64,56967,2,0,P|206:60|240:63,1,60,8|0,0:0|0:0,0:0:0:0:
271,142,57579,6,0,P|304:145|338:143,2,60,2|0|0,1:2|0:0|1:2,0:0:0:0:
209,207,58497,2,0,P|201:269|214:333,1,120,0|0,1:2|1:2,0:0:0:0:
297,352,59416,1,8,0:0:0:0:
376,309,59722,1,0,0:0:0:0:
422,231,60028,6,0,P|426:193|421:157,1,60,2|0,1:2|0:0,0:0:0:0:
342,133,60640,2,0,P|338:95|343:59,1,60,0|0,1:2|1:2,0:0:0:0:
257,37,61253,2,0,P|221:32|182:38,1,60,0|0,0:0|1:2,0:0:0:0:
151,111,61865,2,0,P|115:116|76:110,1,60,8|0,0:0|0:0,0:0:0:0:
10,75,62477,6,0,P|5:43|6:7,2,60,6|0|8,0:0|0:0|1:2,0:0:0:0:
19,164,63395,2,0,P|24:229|18:287,1,120,0|0,1:2|1:2,0:0:0:0:
86,343,64314,2,0,P|116:323|138:296,1,60,8|0,0:0|0:0,0:0:0:0:
219,325,64926,6,0,P|222:289|216:254,2,60,2|0|8,1:2|0:0|1:2,0:0:0:0:
301,358,65844,2,0,P|366:355|428:323,1,120,0|0,1:2|1:2,0:0:0:0:
477,267,66763,2,0,L|482:195,1,60,8|0,0:0|0:0,0:0:0:0:
405,158,67375,6,0,L|400:86,2,60,2|0|8,1:2|0:0|1:2,0:0:0:0:
357,234,68293,2,0,L|279:231,2,60,0|0|0,1:2|0:0|1:2,0:0:0:0:
446,242,69212,1,8,0:0:0:0:
394,315,69518,1,0,0:0:0:0:
306,333,69824,6,0,B|246:351|183:330|183:330|121:305|65:328,1,240,2|0,1:2|0:0,0:0:0:0:
196,120,72273,5,6,1:2:0:0:
256,53,72579,1,0,0:0:0:0:
321,114,72885,2,0,P|356:116|399:111,1,60,8|0,0:0|1:2,0:0:0:0:
464,80,73497,2,0,B|472:114|463:144|463:144|454:176|463:213,1,120,0|8,0:0|0:0,0:0:0:0:
483,285,74416,1,0,0:0:0:0:
403,327,74722,6,0,L|325:328,1,60,0|0,1:2|0:0,0:0:0:0:
338,237,75334,2,0,L|260:238,1,60,8|0,0:0|1:2,0:0:0:0:
193,207,75946,1,0,0:0:0:0:
261,148,76253,1,0,1:2:0:0:
328,88,76559,2,0,P|366:83|401:88,1,60,8|0,0:0|0:0,0:0:0:0:
472,113,77171,5,0,1:2:0:0:
409,177,77477,2,0,P|406:216|411:250,1,60,0|8,0:0|0:0,0:0:0:0:
453,314,78089,2,0,L|512:306,2,60,0|0|0,1:2|0:0|1:2,0:0:0:0:
365,335,79008,1,8,0:0:0:0:
278,308,79314,1,0,0:0:0:0:
194,340,79620,6,0,P|151:340|119:332,1,60,0|0,1:2|0:0,0:0:0:0:
81,264,80232,2,0,P|51:259|21:261,2,60,8|0|0,0:0|1:2|0:0,0:0:0:0:
170,254,81150,1,0,1:2:0:0:
152,165,81457,1,8,0:0:0:0:
235,198,81763,1,8,0:0:0:0:
324,204,82069,6,0,P|355:209|388:202,1,60,6|0,1:2|0:0,0:0:0:0:
408,117,82681,2,0,P|377:112|344:119,1,60,8|0,0:0|1:2,0:0:0:0:
261,139,83293,2,0,P|199:149|146:125,1,120,0|8,0:0|0:0,0:0:0:0:
80,67,84212,1,0,0:0:0:0:
18,132,84518,6,0,P|15:164|19:195,1,60,0|0,1:2|0:0,0:0:0:0:
99,229,85130,2,0,P|102:261|98:292,1,60,8|0,0:0|1:2,0:0:0:0:
51,364,85742,1,0,0:0:0:0:
140,368,86048,1,0,1:2:0:0:
192,294,86355,2,0,L|196:218,1,60,8|0,0:0|0:0,0:0:0:0:
199,144,86967,5,0,1:2:0:0:
273,193,87273,2,0,P|304:199|346:192,1,60,0|8,0:0|0:0,0:0:0:0:
390,127,87885,2,0,P|419:124|449:130,2,60,0|0|0,1:2|0:0|1:2,0:0:0:0:
332,196,88804,1,8,0:0:0:0:
385,268,89110,1,0,0:0:0:0:
328,337,89416,6,0,P|293:342|257:338,1,60,0|0,1:2|0:0,0:0:0:0:
186,305,90028,1,8,0:0:0:0:
240,233,90334,2,0,P|245:167|240:93,1,120,0|0,1:2|1:2,0:0:0:0:
180,47,91253,2,0,P|142:44|112:48,1,60,8|8,0:0|0:0,0:0:0:0:
40,88,91865,6,0,L|43:165,1,60,6|0,1:2|0:0,0:0:0:0:
127,178,92477,2,0,L|124:255,1,60,10|0,1:2|1:2,0:0:0:0:
172,313,93089,2,0,P|203:316|240:309,1,60,0|0,1:2|1:2,0:0:0:0:
315,281,93701,1,8,0:2:0:0:
470,190,94314,6,0,P|472:151|462:107,1,60,6|0,1:2|0:0,0:0:0:0:
382,95,94926,2,0,P|379:125|382:155,1,60,10|0,1:2|1:2,0:0:0:0:
292,163,95538,2,0,P|295:133|292:103,1,60,2|0,1:2|1:2,0:0:0:0:
208,134,96150,1,10,0:0:0:0:
51,224,96763,6,0,P|77:244|108:252,1,60,6|0,1:2|0:0,0:0:0:0:
121,339,97375,2,0,P|153:331|179:313,1,60,10|0,1:2|1:2,0:0:0:0:
254,359,97987,2,0,P|269:329|271:298,1,60,2|0,1:2|1:2,0:0:0:0:
212,235,98599,1,10,1:2:0:0:
300,217,98906,1,4,1:2:0:0:
361,282,99212,6,0,P|439:280|438:137,1,240,6|0,1:2|0:0,0:0:0:0:
377,92,100742,1,0,1:2:0:0:
294,128,101048,1,8,0:0:0:0:
213,87,101355,1,8,0:0:0:0:
135,133,101661,6,0,P|64:141|19:112,1,120,6|8,1:2|0:0,0:0:0:0:
89,55,102579,1,0,1:2:0:0:
149,224,103191,1,0,1:2:0:0:
223,273,103497,6,0,P|278:286|344:273,1,120,8|0,0:0|1:2,0:0:0:0:
435,122,104722,1,8,0:0:0:0:
366,63,105028,2,0,P|336:60|306:63,1,60,0|0,1:2|0:0,0:0:0:0:
234,117,105640,1,0,1:2:0:0:
174,184,105946,2,0,P|138:187|106:183,1,60,8|0,0:0|0:0,0:0:0:0:
34,142,106559,6,0,P|27:204|59:257,1,120,2|8,1:2|0:0,0:0:0:0:
131,298,107477,2,0,P|188:289|249:300,1,120,0|0,1:2|1:2,0:0:0:0:
326,345,108395,1,8,0:0:0:0:
362,262,108701,1,0,0:0:0:0:
342,173,109008,6,0,P|336:133|341:99,1,60,0|0,1:2|0:0,0:0:0:0:
348,24,109620,1,8,0:0:0:0:
265,61,109926,2,0,P|198:69|133:58,1,120,0|0,1:2|1:2,0:0:0:0:
66,21,110844,1,8,0:0:0:0:
256,192,111457,12,2,113906,2:2:0:0:
