osu file format v14

[General]
AudioFilename: audio.mp3
AudioLeadIn: 0
PreviewTime: 71201
Countdown: 0
SampleSet: Soft
StackLeniency: 0.3
Mode: 0
LetterboxInBreaks: 0
EpilepsyWarning: 1
WidescreenStoryboard: 1

[Editor]
Bookmarks: 13497,33089,52681,72273,91865,101661,111457
DistanceSpacing: 2
BeatDivisor: 16
GridSize: 4
TimelineZoom: 2.699999

[Metadata]
Title:Akikaze no Answer
TitleUnicode:秋風のアンサー
Artist:Flower
ArtistUnicode:Flower
Creator:Zer0-
Version:Mir's Insane
Source:ビンタ!~弁護士事務員ミノワが愛で解決します~
Tags:Hanadokei Mio Nakajima Shuuka Fujii Manami Shigetome Reina Washio Kyoka Ichiki Nozomi Bando Harumi Sato Chiharu Muto Mir Benny- BennyBananas Lanturn Chaos Zero Kanari
BeatmapID:1181410
BeatmapSetID:556945

[Difficulty]
HPDrainRate:6
CircleSize:4
OverallDifficulty:7
ApproachRate:8.8
SliderMultiplier:2.8
SliderTickRate:1

[Events]
//Background and Video events
0,0,"Untitled-1.jpg",0,0
//Break Periods
//Storyboard Layer 0 (Background)
//Storyboard Layer 1 (Fail)
//Storyboard Layer 2 (Pass)
//Storyboard Layer 3 (Foreground)
//Storyboard Sound Samples

[TimingPoints]
1253,612.244897959184,4,2,1,30,1,0
1253,-100,4,2,1,30,0,0
12885,-100,4,2,1,10,0,0
13191,-100,4,2,1,45,0,0
13497,-133.333333333333,4,2,1,45,0,0
18319,-133.333333333333,4,2,1,5,0,0
18395,-133.333333333333,4,2,1,45,0,0
33089,-200,4,2,1,30,0,0
52681,-133.333333333333,4,2,1,45,0,0
72273,-100,4,2,1,60,0,1
81916,-100,4,2,1,60,0,0
82069,-100,4,2,1,60,0,1
91788,-100,4,2,1,60,0,0
91865,-100,4,2,1,50,0,1
101661,-100,4,2,1,50,0,0
111610,-100,4,2,1,10,0,0
113906,-100,4,2,1,10,0,0

[Colours]
Combo1 : 10,102,216
Combo2 : 231,64,116
Combo3 : 88,222,50

[HitObjects]
102,225,13191,5,0,0:0:0:0:
27,169,13344,1,0,0:0:0:0:
118,121,13497,6,0,B|166:107|166:107|221:127|221:127|279:125,1,157.500006008148,4|0,1:2|0:0,0:0:0:0:
428,106,14110,1,8,0:0:0:0:
315,252,14416,5,0,1:2:0:0:
315,252,14569,2,0,L|198:253,1,105.000004005432,0|0,1:2|0:0,0:0:0:0:
131,204,15028,1,0,1:2:0:0:
394,290,15334,1,8,0:0:0:0:
394,290,15640,2,0,L|398:207,1,52.5000020027161,0|0,0:0|0:0,0:0:0:0:
391,54,15946,6,0,B|312:38|312:38|227:53,1,157.500006008148,0|0,1:2|0:0,0:0:0:0:
105,97,16559,1,8,0:0:0:0:
281,215,16865,1,0,1:2:0:0:
281,215,17018,1,0,1:2:0:0:
281,215,17324,5,8,0:0:0:0:
441,200,17477,1,0,1:2:0:0:
201,234,17783,2,0,P|203:187|320:144,1,183.750007009506,8|0,0:0|0:0,0:0:0:0:
281,215,18395,6,0,L|293:333,1,105.000004005432,2|0,1:2|0:0,0:0:0:0:
200,307,18855,1,0,0:0:0:0:
121,267,19008,2,0,L|53:265,1,52.5000020027161,8|0,0:0|0:0,0:0:0:0:
79,137,19314,5,0,1:2:0:0:
79,137,19467,2,0,L|196:136,1,105.000004005432,0|0,1:2|0:0,0:0:0:0:
88,54,19926,2,0,P|51:56|-7:110,2,105.000004005432,0|8|0,1:2|0:0|0:0,0:0:0:0:
181,58,20691,1,0,0:0:0:0:
205,223,20844,5,2,1:2:0:0:
205,223,20997,2,0,P|263:172|269:127,1,105.000004005432,0|0,1:2|0:0,0:0:0:0:
272,54,21457,1,8,0:0:0:0:
388,201,21763,1,0,1:2:0:0:
388,201,21916,1,0,1:2:0:0:
388,201,22222,5,8,0:0:0:0:
302,333,22375,1,0,1:2:0:0:
475,180,22681,2,0,P|451:134|416:118,1,78.7500030040742,8|0,0:0|0:0,0:0:0:0:
393,110,22987,1,8,0:0:0:0:
387,294,23140,1,8,0:0:0:0:
262,178,23293,6,0,B|179:192|179:192|98:175,1,157.500006008148,4|0,1:2|0:0,0:0:0:0:
20,153,23906,1,8,0:0:0:0:
330,131,24212,1,0,1:2:0:0:
330,131,24365,6,0,P|345:168|316:242,1,105.000004005432,0|0,1:2|0:0,0:0:0:0:
248,232,24824,1,0,1:2:0:0:
57,175,25130,1,8,0:0:0:0:
57,175,25436,2,0,L|133:175,1,52.5000020027161,0|0,0:0|0:0,0:0:0:0:
236,200,25742,6,0,B|216:113|216:113|232:32,1,157.500006008148,0|0,1:2|0:0,0:0:0:0:
320,25,26355,1,8,0:0:0:0:
101,102,26661,1,0,1:2:0:0:
101,102,26814,1,0,1:2:0:0:
101,102,27120,5,8,0:0:0:0:
65,270,27273,1,0,1:2:0:0:
167,54,27579,2,0,P|124:24|19:89,1,183.750007009506,8|0,0:0|0:0,0:0:0:0:
101,102,28191,6,0,B|111:184|111:184|163:252,1,157.500006008148,2|0,1:2|0:0,0:0:0:0:
224,310,28804,1,8,0:0:0:0:
410,69,29110,1,0,1:2:0:0:
410,69,29263,1,0,1:2:0:0:
410,69,29722,6,0,L|421:188,2,105.000004005432,0|8|0,1:2|0:0|0:0,0:0:0:0:
338,12,30487,1,0,0:0:0:0:
342,199,30640,5,2,1:2:0:0:
342,199,30793,2,0,P|382:245|444:250,1,105.000004005432,0|0,1:2|0:0,0:0:0:0:
500,73,31253,1,8,0:0:0:0:
255,69,31559,1,0,1:2:0:0:
255,69,31712,1,0,1:2:0:0:
255,69,32018,5,8,0:0:0:0:
119,64,32171,2,0,L|115:132,1,52.5000020027161,0|0,1:2|0:0,0:0:0:0:
108,325,32477,1,8,0:0:0:0:
108,325,32783,1,8,0:0:0:0:
298,259,32936,1,8,0:0:0:0:
151,220,33089,6,0,L|75:217,1,70,4|0,1:2|0:0,0:0:0:0:
108,325,33701,1,8,0:0:0:0:
249,336,34008,1,0,1:2:0:0:
249,336,34161,1,0,1:2:0:0:
249,336,34314,6,0,L|318:338,1,70,0|0,0:0|1:2,0:0:0:0:
363,258,34926,2,0,P|390:279|406:311,1,70,8|0,0:0|0:0,0:0:0:0:
405,310,35385,1,0,0:0:0:0:
249,336,35538,6,0,B|179:338,1,70,0|0,1:2|0:0,0:0:0:0:
110,238,36150,1,8,0:0:0:0:
217,99,36457,1,0,1:2:0:0:
217,99,36610,1,0,1:2:0:0:
217,99,36763,6,0,L|222:26,1,70,0|0,0:0|1:2,0:0:0:0:
302,14,37222,1,0,0:0:0:0:
411,103,37375,2,0,L|481:104,1,70,8|0,0:0|0:0,0:0:0:0:
285,181,37987,6,0,L|288:265,1,70,0|0,1:2|0:0,0:0:0:0:
249,337,38599,1,8,0:0:0:0:
128,211,38906,1,0,1:2:0:0:
128,211,39059,1,0,1:2:0:0:
128,211,39212,6,0,L|208:212,1,70,0|0,0:0|1:2,0:0:0:0:
122,129,39824,2,0,P|75:144|53:170,1,70,8|0,0:0|0:0,0:0:0:0:
60,157,40283,1,0,0:0:0:0:
230,118,40436,6,0,L|299:117,2,70,0|0|8,1:2|0:0|0:0,0:0:0:0:
180,204,41355,1,0,1:2:0:0:
180,204,41508,1,0,1:2:0:0:
180,204,41661,2,0,L|178:270,1,35,0|0,0:0|0:0,0:0:0:0:
244,345,41967,1,0,1:2:0:0:
244,345,42120,1,0,0:0:0:0:
244,345,42273,2,0,L|245:310,1,35,8|0,0:0|0:0,0:0:0:0:
312,198,42579,2,0,L|310:264,1,35,0|0,0:0|0:0,0:0:0:0:
407,368,42885,6,0,P|397:322|380:305,1,70,0|0,1:2|0:0,0:0:0:0:
312,198,43497,1,8,0:0:0:0:
208,282,43804,1,0,1:2:0:0:
208,282,43957,1,0,1:2:0:0:
208,282,44110,6,0,L|128:282,1,70,0|0,0:0|1:2,0:0:0:0:
20,181,44722,2,0,L|100:181,1,70,8|0,0:0|0:0,0:0:0:0:
90,181,45181,1,0,0:0:0:0:
214,54,45334,6,0,L|211:140,1,70,0|0,1:2|0:0,0:0:0:0:
243,209,45946,1,8,0:0:0:0:
359,42,46253,1,0,1:2:0:0:
359,42,46406,1,0,1:2:0:0:
359,42,46559,6,0,L|438:47,1,70,0|0,0:0|1:2,0:0:0:0:
512,56,47018,1,0,0:0:0:0:
398,206,47171,1,8,0:0:0:0:
398,206,47324,2,0,P|388:162|398:125,1,70,0|0,0:0|0:0,0:0:0:0:
471,164,47783,6,0,L|478:245,1,70,0|0,1:2|0:0,0:0:0:0:
490,322,48395,1,8,0:0:0:0:
338,268,48701,1,0,1:2:0:0:
338,268,48855,1,0,1:2:0:0:
338,268,49008,6,0,L|256:271,1,70,0|0,0:0|1:2,0:0:0:0:
177,189,49620,2,0,L|259:192,1,70,8|0,0:0|0:0,0:0:0:0:
246,191,50079,1,0,0:0:0:0:
157,57,50232,6,0,P|111:67|82:86,2,70,0|0|8,1:2|0:0|0:0,0:0:0:0:
355,59,51150,1,0,1:2:0:0:
355,59,51304,1,0,1:2:0:0:
355,59,51457,2,0,P|401:69|430:88,1,70,0|0,0:0|1:2,0:0:0:0:
358,151,51916,1,0,0:0:0:0:
259,54,52069,6,0,B|250:91|250:91|267:139|267:139|259:181,1,122.5,8|0,0:0|0:0,0:0:0:0:
260,171,52681,6,0,L|372:175,1,105.000004005432,6|0,1:2|0:0,0:0:0:0:
434,250,53140,2,0,L|364:254,1,52.5000020027161,0|0,1:2|1:2,0:0:0:0:
298,268,53446,1,0,0:0:0:0:
298,268,53599,1,0,1:2:0:0:
201,211,53753,6,0,L|212:327,1,105.000004005432,0|0,0:0|1:2,0:0:0:0:
131,346,54212,2,0,L|76:348,1,52.5000020027161,0|0,1:2|0:0,0:0:0:0:
92,126,54518,2,0,L|93:62,1,52.5000020027161,8|0,0:0|0:0,0:0:0:0:
175,30,54824,2,0,L|175:82,1,52.5000020027161,0|0,0:0|0:0,0:0:0:0:
155,180,55130,6,0,P|105:209|49:200,1,105.000004005432,2|0,1:2|0:0,0:0:0:0:
4,268,55589,1,0,1:2:0:0:
4,268,55742,1,0,1:2:0:0:
4,268,55895,2,0,L|0:331,1,52.5000020027161,0|0,0:0|1:2,0:0:0:0:
91,313,56201,6,0,B|143:301|143:301|207:310,1,105.000004005432,0|0,0:0|1:2,0:0:0:0:
339,322,56661,2,0,L|273:324,1,52.5000020027161,0|0,1:2|0:0,0:0:0:0:
336,82,56967,2,0,L|337:30,1,52.5000020027161,8|0,0:0|0:0,0:0:0:0:
419,73,57273,2,0,L|420:126,1,52.5000020027161,0|0,0:0|0:0,0:0:0:0:
432,253,57579,6,0,P|354:244|321:211,1,105.000004005432,2|0,1:2|0:0,0:0:0:0:
296,132,58038,1,0,1:2:0:0:
296,132,58191,1,0,1:2:0:0:
296,132,58344,2,0,L|223:135,1,52.5000020027161,0|0,0:0|1:2,0:0:0:0:
144,142,58650,6,0,P|125:81|171:21,1,105.000004005432,0|0,0:0|1:2,0:0:0:0:
217,7,59110,1,0,1:2:0:0:
204,222,59416,1,8,0:0:0:0:
204,222,59569,1,0,0:0:0:0:
204,222,59722,2,0,L|266:226,1,52.5000020027161,0|0,0:0|0:0,0:0:0:0:
371,232,60028,6,0,P|426:232|478:270,1,105.000004005432,2|0,1:2|0:0,0:0:0:0:
467,257,60487,1,0,1:2:0:0:
361,316,60640,2,0,P|319:305|281:227,1,105.000004005432,0|0,1:2|1:2,0:0:0:0:
371,232,61099,1,0,0:0:0:0:
200,261,61253,6,0,L|147:264,2,52.5000020027161,0|0|0,0:0|1:2|1:2,0:0:0:0:
264,177,61712,1,0,0:0:0:0:
112,175,61865,2,0,L|-8:169,1,105.000004005432,8|0,0:0|0:0,0:0:0:0:
163,90,62477,6,0,P|222:78|290:95,1,105.000004005432,6|0,0:0|0:0,0:0:0:0:
326,133,62936,1,0,1:2:0:0:
326,133,63089,2,0,P|377:139|404:135,1,52.5000020027161,8|0,1:2|0:0,0:0:0:0:
476,118,63395,1,0,1:2:0:0:
476,118,63548,6,0,L|471:248,1,105.000004005432,0|0,0:0|1:2,0:0:0:0:
467,332,64008,2,0,L|398:331,1,52.5000020027161,0|0,1:2|0:0,0:0:0:0:
228,333,64314,2,0,P|236:270|272:228,1,105.000004005432,8|0,0:0|0:0,0:0:0:0:
373,34,64926,6,0,L|377:138,1,105.000004005432,2|0,1:2|0:0,0:0:0:0:
381,233,65385,1,0,1:2:0:0:
381,233,65538,1,8,1:2:0:0:
303,167,65691,2,0,L|224:165,1,52.5000020027161,0|0,0:0|1:2,0:0:0:0:
166,229,65997,6,0,P|95:247|66:293,1,105.000004005432,0|0,0:0|1:2,0:0:0:0:
98,353,66457,1,0,1:2:0:0:
98,353,66610,1,0,0:0:0:0:
191,280,66763,2,0,L|199:163,1,105.000004005432,8|0,0:0|0:0,0:0:0:0:
65,75,67375,6,0,P|113:56|166:59,1,105.000004005432,2|0,1:2|0:0,0:0:0:0:
263,119,67834,1,0,1:2:0:0:
134,233,67987,1,8,1:2:0:0:
134,233,68293,6,0,L|141:337,1,105.000004005432,0|0,1:2|0:0,0:0:0:0:
224,372,68753,1,0,1:2:0:0:
224,372,68906,1,0,1:2:0:0:
291,206,69212,2,0,L|370:210,2,78.7500030040742,8|0|0,0:0|0:0|0:0,0:0:0:0:
405,265,69824,6,0,L|396:142,1,105.000004005432,2|0,1:2|0:0,0:0:0:0:
371,80,70283,1,0,0:0:0:0:
287,73,70436,2,0,L|262:73,3,13.125000500679,0|0|0|0,0:0|0:0|0:0|0:0,0:0:0:0:
287,187,70742,2,0,L|312:187,3,13.125000500679,0|0|0|0,0:0|0:0|0:0|0:0,0:0:0:0:
206,236,71048,6,0,P|196:259|197:279,1,39.3750015020371
360,218,71355,1,0,0:0:0:0:
291,271,71508,1,0,0:0:0:0:
386,318,71661,2,0,L|392:307,3,13.125000500679,8|0|0|0,0:0|0:0|0:0|0:0,0:0:0:0:
360,218,71967,2,0,L|368:201,3,13.125000500679,8|0|0|0,0:0|0:0|0:0|0:0,0:0:0:0:
489,174,72273,6,0,P|512:98|497:58,1,70,6|0,1:2|0:0,0:0:0:0:
411,108,72579,2,0,P|393:78|388:43,1,70,0|0,0:0|0:0,0:0:0:0:
241,83,72885,2,0,P|259:53|265:18,1,70,8|0,0:0|0:0,0:0:0:0:
164,147,73191,2,0,P|146:117|140:82,1,70,0|0,1:2|1:2,0:0:0:0:
258,189,73497,6,0,B|241:261|241:261|254:349,1,140,0|0,0:0|1:2,0:0:0:0:
250,326,74110,2,0,L|361:330,1,70,8|0,0:0|0:0,0:0:0:0:
427,232,74416,2,0,L|316:236,1,70,0|0,0:0|0:0,0:0:0:0:
131,33,74722,6,0,P|94:47|51:108,1,70,0|0,1:2|0:0,0:0:0:0:
146,129,75028,2,0,P|124:156|113:189,1,70,0|0,0:0|0:0,0:0:0:0:
366,1,75334,2,0,P|399:13|426:35,1,70,8|0,0:0|0:0,0:0:0:0:
355,103,75640,2,0,P|377:130|388:163,1,70,0|0,1:2|1:2,0:0:0:0:
343,261,75946,6,0,L|337:332,1,70,0|8,0:0|0:0,0:0:0:0:
246,283,76253,2,0,L|239:213,1,70,0|0,1:2|0:0,0:0:0:0:
427,53,76559,2,0,L|433:122,1,70,8|0,0:0|0:0,0:0:0:0:
331,171,76866,2,0,L|337:101,1,70,0|0,0:0|0:0,0:0:0:0:
512,276,77171,6,0,P|469:320|391:322,1,140,0|0,1:2|0:0,0:0:0:0:
218,215,77783,1,8,0:0:0:0:
218,215,78089,2,0,P|247:242|278:250,1,70,0|0,1:2|1:2,0:0:0:0:
398,204,78395,5,0,0:0:0:0:
393,323,78548,1,0,0:0:0:0:
352,176,78701,5,0,1:2:0:0:
378,296,78855,1,0,0:0:0:0:
308,184,79008,5,8,0:0:0:0:
356,279,79161,1,0,0:0:0:0:
281,208,79314,5,0,0:0:0:0:
330,275,79467,1,0,0:0:0:0:
469,190,79620,6,0,L|469:259,1,70,0|0,1:2|1:2,0:0:0:0:
388,147,79926,2,0,L|387:77,1,70,0|0,0:0|0:0,0:0:0:0:
308,184,80232,2,0,P|348:225|370:232,1,70,8|0,0:0|0:0,0:0:0:0:
268,95,80538,2,0,L|185:101,1,70,0|0,1:2|1:2,0:0:0:0:
198,100,80997,5,8,0:0:0:0:
206,179,81150,2,0,L|213:255,1,70,0|0,1:2|0:0,0:0:0:0:
307,275,81457,1,8,0:0:0:0:
210,343,81610,1,0,1:2:0:0:
212,248,81763,1,8,0:0:0:0:
306,370,81916,1,8,0:0:0:0:
411,300,82069,6,0,P|408:248|382:210,1,70,6|0,1:2|0:0,0:0:0:0:
335,104,82375,2,0,L|331:186,1,70,0|0,0:0|0:0,0:0:0:0:
317,13,82681,2,0,P|369:16|407:42,1,70,8|0,0:0|0:0,0:0:0:0:
446,162,82987,2,0,L|442:92,1,70,0|0,1:2|1:2,0:0:0:0:
331,173,83293,6,0,L|244:170,1,70,0|0,0:0|0:0,0:0:0:0:
121,162,83599,1,0,1:2:0:0:
121,162,83906,1,8,0:0:0:0:
171,238,84059,1,0,0:0:0:0:
165,89,84212,2,0,L|251:85,1,70,0|0,0:0|0:0,0:0:0:0:
273,238,84518,6,0,P|248:166|255:149,1,70,0|0,1:2|0:0,0:0:0:0:
402,187,84824,2,0,L|325:185,1,70,0|0,0:0|0:0,0:0:0:0:
455,245,85130,2,0,P|480:173|473:156,1,70,8|0,0:0|0:0,0:0:0:0:
374,267,85436,2,0,L|375:337,1,70,0|0,1:2|1:2,0:0:0:0:
402,187,85742,5,0,0:0:0:0:
340,82,85895,1,8,0:0:0:0:
250,175,86048,2,0,L|166:170,1,70,0|0,1:2|0:0,0:0:0:0:
71,254,86355,2,0,L|155:249,1,70,8|0,0:0|0:0,0:0:0:0:
285,318,86661,2,0,L|201:313,1,70,0|0,0:0|0:0,0:0:0:0:
71,254,86967,6,0,P|58:208|72:162,1,70,0|0,1:2|0:0,0:0:0:0:
182,100,87273,2,0,L|179:181,1,70,0|0,0:0|0:0,0:0:0:0:
171,310,87579,1,8,0:0:0:0:
177,343,87885,1,0,1:2:0:0:
177,343,88038,1,0,1:2:0:0:
177,343,88191,6,0,L|272:344,1,70,0|0,0:0|0:0,0:0:0:0:
352,219,88497,2,0,L|257:220,1,70,0|0,1:2|0:0,0:0:0:0:
386,71,88804,2,0,P|442:97|460:122,1,70,8|0,0:0|0:0,0:0:0:0:
467,271,89110,2,0,L|462:186,1,70,0|0,0:0|0:0,0:0:0:0:
310,24,89416,6,0,P|296:76|303:108,1,70,0|0,1:2|1:2,0:0:0:0:
365,227,89722,2,0,P|379:175|372:143,1,70,0|0,0:0|0:0,0:0:0:0:
222,181,90028,2,0,L|320:179,1,70,8|0,0:0|0:0,0:0:0:0:
148,132,90334,2,0,P|134:184|141:216,1,70,0|0,1:2|1:2,0:0:0:0:
162,318,90640,5,0,0:0:0:0:
217,253,90793,1,8,0:0:0:0:
248,339,90946,1,0,1:2:0:0:
248,339,91253,1,8,0:0:0:0:
462,191,91559,1,8,0:0:0:0:
360,260,91712,1,8,0:0:0:0:
239,141,91865,6,0,L|248:253,2,93.3333333333333,6|0|0,1:2|0:0|0:0,0:0:0:0:
126,99,92477,2,0,L|12:107,2,93.3333333333333,10|0|0,1:2|0:0|0:0,0:0:0:0:
213,66,93089,5,0,1:2:0:0:
303,108,93293,1,0,0:0:0:0:
368,34,93497,1,0,0:0:0:0:
232,183,93701,2,0,P|169:195|123:269,1,140,8|0,0:2|0:0,0:0:0:0:
97,359,94314,6,0,L|215:358,1,93.3333333333333,6|0,1:2|0:0,0:0:0:0:
308,330,94722,1,0,0:0:0:0:
316,218,94926,1,10,1:2:0:0:
222,265,95130,5,0,0:0:0:0:
404,285,95334,1,0,0:0:0:0:
406,158,95538,1,2,1:2:0:0:
303,123,95742,5,0,0:0:0:0:
316,218,95946,1,0,0:0:0:0:
406,158,96150,2,0,P|402:72|337:18,1,140,10|0,0:0|0:0,0:0:0:0:
132,85,96763,5,6,1:2:0:0:
155,191,96992,2,0,P|215:158|234:113,1,105,0|0,0:0|0:0,0:0:0:0:
235,271,97375,5,10,1:2:0:0:
132,298,97605,2,0,P|72:265|53:220,1,105,0|0,0:0|1:2,0:0:0:0:
213,36,97987,5,2,1:2:0:0:
298,195,98217,2,0,P|265:255|220:274,1,105,0|0,0:0|0:0,0:0:0:0:
0,109,98599,5,10,1:2:0:0:
298,195,98906,1,4,1:2:0:0:
61,328,99212,5,6,1:2:0:0:
61,328,99365,2,0,B|126:313|126:313|204:336|204:336|290:317,1,210,0|8,1:2|0:0,0:0:0:0:
336,108,100130,1,0,1:2:0:0:
336,108,100283,1,0,1:2:0:0:
336,108,100436,6,0,L|329:194,1,70,0|8,0:0|0:0,0:0:0:0:
185,213,100742,2,0,P|201:123|216:114,1,70,0|0,1:2|0:0,0:0:0:0:
330,177,101048,2,0,L|245:177,1,70,8|0,0:0|1:2,0:0:0:0:
72,191,101355,1,8,0:0:0:0:
128,78,101508,1,8,0:0:0:0:
260,177,101661,6,0,B|321:167|321:167|395:187|395:187|494:177,1,210,6|0,1:2|0:0,0:0:0:0:
502,101,102273,1,8,0:0:0:0:
277,48,102579,1,0,1:2:0:0:
277,48,102732,6,0,B|207:68|207:68|122:52,1,140,0|0,1:2|0:0,0:0:0:0:
62,21,103191,1,0,1:2:0:0:
266,163,103497,1,8,0:0:0:0:
266,163,103804,2,0,L|196:169,1,70,0|0,0:0|0:0,0:0:0:0:
49,248,104110,6,0,P|135:249|175:373,1,210,0|0,1:2|0:0,0:0:0:0:
91,331,104722,1,8,0:0:0:0:
179,177,105028,1,0,1:2:0:0:
179,177,105181,2,0,L|189:90,1,70,0|0,1:2|0:0,0:0:0:0:
267,55,105487,5,8,0:0:0:0:
283,179,105640,2,0,L|363:173,1,70,0|0,1:2|0:0,0:0:0:0:
432,82,105946,2,0,L|352:76,1,70,8|0,0:0|0:0,0:0:0:0:
179,40,106253,1,0,0:0:0:0:
179,40,106406,1,0,0:0:0:0:
179,40,106559,6,0,B|164:109|164:109|187:216,1,140,2|0,1:2|0:0,0:0:0:0:
255,298,107018,1,0,0:0:0:0:
410,214,107171,2,0,L|306:219,1,70,8|0,0:0|0:0,0:0:0:0:
257,98,107477,1,0,1:2:0:0:
257,98,107630,2,0,L|259:18,2,70,0|0|0,1:2|0:0|0:0,0:0:0:0:
171,257,108089,6,0,P|84:273|34:246,1,140,0|8,1:2|0:0,0:0:0:0:
185,70,108701,1,0,0:0:0:0:
302,210,109008,5,0,1:2:0:0:
302,210,109161,2,0,P|389:226|439:199,1,140,0|0,1:2|0:0,0:0:0:0:
493,123,109620,1,8,0:0:0:0:
256,73,109926,1,0,1:2:0:0:
256,73,110079,2,0,L|162:68,1,70,0|0,1:2|0:0,0:0:0:0:
329,155,110385,5,8,0:0:0:0:
251,278,110538,1,0,1:2:0:0:
451,124,110844,1,8,0:0:0:0:
451,124,111150,1,8,0:0:0:0:
256,73,111304,1,8,0:0:0:0:
256,192,111457,12,2,113906,2:2:0:0:
