osu file format v14

[General]
AudioFilename: audio.mp3
AudioLeadIn: 0
PreviewTime: 71201
Countdown: 0
SampleSet: Soft
StackLeniency: 0.7
Mode: 0
LetterboxInBreaks: 0
EpilepsyWarning: 1
WidescreenStoryboard: 1

[Editor]
Bookmarks: 13191,33089,52681,72273,91865,101661,111457
DistanceSpacing: 1.05
BeatDivisor: 4
GridSize: 4
TimelineZoom: 0.4999998

[Metadata]
Title:Akikaze no Answer
TitleUnicode:秋風のアンサー
Artist:Flower
ArtistUnicode:Flower
Creator:Zer0-
Version:Lanturn's Easy
Source:ビンタ!~弁護士事務員ミノワが愛で解決します~
Tags:Hanadokei Mio Nakajima Shuuka Fujii Manami Shigetome Reina Washio Kyoka Ichiki Nozomi Bando Harumi Sato Chiharu Muto Mir Benny- BennyBananas Lanturn Chaos Zero Kanari
BeatmapID:1192883
BeatmapSetID:556945

[Difficulty]
HPDrainRate:2
CircleSize:3
OverallDifficulty:2
ApproachRate:3
SliderMultiplier:0.999999999999999
SliderTickRate:1

[Events]
//Background and Video events
0,0,"Untitled-1.jpg",0,0
//Break Periods
//Storyboard Layer 0 (Background)
//Storyboard Layer 1 (Fail)
//Storyboard Layer 2 (Pass)
//Storyboard Layer 3 (Foreground)
//Storyboard Sound Samples

[TimingPoints]
1253,612.244897959184,4,2,1,30,1,0
13497,-100,4,2,1,60,0,0
33089,-100,4,2,1,40,0,0
52681,-100,4,2,1,50,0,0
72273,-100,4,2,1,70,0,1
91865,-100,4,2,1,60,0,0
111457,-100,4,2,1,30,0,0

[Colours]
Combo1 : 10,102,216
Combo2 : 231,64,116
Combo3 : 88,222,50

[HitObjects]
204,240,13497,6,0,P|180:164|200:100,2,150,4|0|8,0:0|1:0|0:0,0:0:0:0:
308,240,15946,2,0,P|332:164|312:100,2,150,0|0|8,1:0|1:0|0:0,0:0:0:0:
204,240,18395,6,0,B|136:260|136:224|48:236,2,150,0|0|8,1:0|1:0|0:0,0:0:0:0:
308,240,20844,2,0,B|376:260|376:224|464:236,2,150,0|0|8,1:0|1:0|0:0,0:0:0:0:
228,172,23293,6,0,P|200:116|208:60,1,99.9999999999999,0|8,1:0|0:0,0:0:0:0:
248,52,24212,2,0,P|316:80|392:56,1,150,0|8,1:0|0:0,0:0:0:0:
456,140,25742,2,0,P|484:196|476:252,1,99.9999999999999,0|8,1:0|0:0,0:0:0:0:
436,260,26661,2,0,P|368:232|292:256,1,150,0|8,1:0|0:0,0:0:0:0:
200,292,28191,6,0,B|172:252|128:248|128:248|152:220|128:192|128:192|152:164|128:136|128:136|172:132|200:92,1,300,0|8,1:0|0:0,0:0:0:0:
305,91,30640,2,0,B|333:131|377:135|377:135|353:163|377:191|377:191|353:219|377:247|377:247|333:251|305:291,1,300,0|8,1:0|0:0,0:0:0:0:
212,340,33089,6,0,P|160:356|108:340,1,99.9999999999999,4|8,0:0|0:0,0:0:0:0:
64,252,34314,2,0,P|116:236|168:252,1,99.9999999999999,0|8,0:0|0:0,0:0:0:0:
159,137,35538,2,0,P|110:147|64:132,2,99.9999999999999,0|8|0,1:0|0:0|0:0,0:0:0:0:
212,46,37375,1,4,0:0:0:0:
300,104,37987,6,0,L|392:44,1,99.9999999999999,0|8,1:0|0:0,0:0:0:0:
488,80,39212,2,0,L|400:144,1,99.9999999999999,0|8,0:0|0:0,0:0:0:0:
407,246,40436,2,0,L|488:305,2,99.9999999999999,0|8|0,1:0|0:0|0:0,0:0:0:0:
306,215,42273,1,4,0:0:0:0:
204,244,42885,6,0,P|216:292|200:340,1,99.9999999999999,0|8,1:0|0:0,0:0:0:0:
95,338,44110,2,0,P|79:291|91:243,1,99.9999999999999,0|8,0:0|0:0,0:0:0:0:
91,140,45334,2,0,P|79:92|95:46,2,99.9999999999999,0|8|0,1:0|0:0|0:0,0:0:0:0:
187,98,47171,1,4,0:0:0:0:
291,90,47783,6,0,L|395:90,1,99.9999999999999,0|8,1:0|0:0,0:0:0:0:
448,178,49008,2,0,L|348:178,1,99.9999999999999,0|8,0:0|0:0,0:0:0:0:
308,276,50232,2,0,L|308:340,2,50,2|0|0,0:0|0:0|0:0,0:0:0:0:
204,276,51457,2,0,L|204:340,2,50,2|0|0,0:0|0:0|0:0,0:0:0:0:
140,192,52681,6,0,L|112:80,1,99.9999999999999,4|0,0:0|1:0,0:0:0:0:
76,64,53599,2,0,P|28:120|36:196,1,150,0|8,1:0|0:0,0:0:0:0:
140,192,55130,2,0,L|168:304,1,99.9999999999999,0|0,1:0|1:0,0:0:0:0:
204,320,56048,2,0,P|252:264|244:188,1,150,0|8,1:0|0:0,0:0:0:0:
304,104,57579,6,0,P|380:89|439:125,2,150,0|0|8,1:0|1:0|0:0,0:0:0:0:
360,192,60028,2,0,L|360:242,2,50,0|0|0,1:0|0:0|1:0,0:0:0:0:
444,256,61253,2,0,P|421:303|381:326,1,99.9999999999999,0|8,1:0|0:0,0:0:0:0:
280,300,62477,6,0,L|180:300,1,99.9999999999999,0|8,1:0|0:0,0:0:0:0:
132,280,63395,2,0,P|168:208|144:144,1,150,0|8,1:0|0:0,0:0:0:0:
232,84,64926,2,0,L|332:84,1,99.9999999999999,0|8,1:0|0:0,0:0:0:0:
380,104,65844,2,0,P|344:176|368:240,1,150,0|8,1:0|0:0,0:0:0:0:
328,336,67375,6,0,P|256:356|184:336,2,150,0|0|8,1:0|1:0|0:0,0:0:0:0:
416,280,69824,1,8,0:3:0:0:
416,280,72273,6,0,L|452:172,1,99.9999999999999,4|8,0:0|0:0,0:0:0:0:
384,100,73497,2,0,P|352:140|304:156,1,99.9999999999999,0|8,0:0|0:0,0:0:0:0:
204,155,74722,2,0,P|158:138|128:100,1,99.9999999999999,0|8,1:0|0:0,0:0:0:0:
64,185,75946,2,0,L|96:280,1,99.9999999999999,0|4,0:0|0:0,0:0:0:0:
184,340,77171,6,0,L|288:340,1,99.9999999999999,0|8,1:0|0:0,0:0:0:0:
332,320,78089,2,0,P|360:256|332:184,1,150,0|8,1:0|0:0,0:0:0:0:
258,110,79620,2,0,L|154:110,1,99.9999999999999,0|8,1:0|0:0,0:0:0:0:
110,130,80538,2,0,P|82:194|110:266,1,150,0|4,1:0|0:0,0:0:0:0:
200,320,82069,6,0,L|316:320,2,99.9999999999999,0|8|0,1:0|0:0|0:0,0:0:0:0:
109,265,83906,1,8,0:0:0:0:
188,196,84518,2,0,L|304:196,2,99.9999999999999,0|8|0,1:0|0:0|0:0,0:0:0:0:
97,141,86355,1,4,0:0:0:0:
160,56,86967,6,0,L|268:56,1,99.9999999999999,0|8,1:0|0:0,0:0:0:0:
300,88,87885,2,0,P|280:156|328:228,1,150,0|8,1:0|0:0,0:0:0:0:
272,316,89416,2,0,L|164:316,1,99.9999999999999,0|8,1:0|0:0,0:0:0:0:
132,284,90334,2,0,P|152:216|104:144,1,150,0|4,1:0|0:0,0:0:0:0:
176,64,91865,6,0,L|280:64,1,99.9999999999999,0|8,1:0|0:0,0:0:0:0:
336,150,93089,2,0,L|232:150,1,99.9999999999999,0|8,0:0|0:0,0:0:0:0:
176,234,94314,2,0,L|276:234,1,99.9999999999999,0|8,1:0|0:0,0:0:0:0:
336,320,95538,2,0,L|236:320,1,99.9999999999999,0|8,0:0|0:0,0:0:0:0:
140,364,96763,6,0,B|84:364|84:364|37:331,2,99.9999999999999,0|8|0,1:0|0:0|0:0,0:0:0:0:
236,320,98599,1,8,0:0:0:0:
152,260,99212,2,0,B|100:180|100:180|72:128|108:80,1,200,0|0,1:0|0:0,0:0:0:0:
204,44,101048,1,4,0:0:0:0:
308,44,101661,6,0,L|416:44,1,99.9999999999999,0|8,1:0|0:0,0:0:0:0:
444,84,102579,2,0,B|412:160|472:160|440:232,1,150,0|8,1:0|0:0,0:0:0:0:
384,320,104110,2,0,L|276:320,1,99.9999999999999,0|8,1:0|0:0,0:0:0:0:
248,280,105028,2,0,B|280:204|220:204|252:132,1,150,0|4,1:0|0:0,0:0:0:0:
176,60,106559,6,0,L|68:60,1,99.9999999999999
40,100,107477,2,0,B|72:176|12:176|44:248,1,150,0|8,1:0|0:0,0:0:0:0:
112,324,109008,2,0,P|160:340|208:328,1,99.9999999999999,0|8,1:0|0:0,0:0:0:0:
244,292,109926,2,0,P|292:280|338:296,1,99.9999999999999,0|0,1:0|1:0,0:0:0:0:
380,328,110844,1,4,0:0:0:0:
256,192,111457,12,0,113906,0:0:0:0:
