osu file format v14

[General]
AudioFilename: audio.mp3
AudioLeadIn: 0
PreviewTime: 71201
Countdown: 0
SampleSet: Soft
StackLeniency: 0.7
Mode: 0
LetterboxInBreaks: 0
EpilepsyWarning: 1
WidescreenStoryboard: 1

[Editor]
Bookmarks: 13497,33089,52681,72273,91865,101661,111457
DistanceSpacing: 1.35
BeatDivisor: 4
GridSize: 4
TimelineZoom: 2.999999

[Metadata]
Title:Akikaze no Answer
TitleUnicode:秋風のアンサー
Artist:Flower
ArtistUnicode:Flower
Creator:Zer0-
Version:Hard
Source:ビンタ!~弁護士事務員ミノワが愛で解決します~
Tags:Hanadokei Mio Nakajima Shuuka Fujii Manami Shigetome Reina Washio Kyoka Ichiki Nozomi Bando Harumi Sato Chiharu Muto Mir Benny- BennyBananas Lanturn Chaos Zero Kanari
BeatmapID:1181409
BeatmapSetID:556945

[Difficulty]
HPDrainRate:5
CircleSize:4
OverallDifficulty:6
ApproachRate:8
SliderMultiplier:2.8
SliderTickRate:1

[Events]
//Background and Video events
0,0,"Untitled-1.jpg",0,0
//Break Periods
//Storyboard Layer 0 (Background)
//Storyboard Layer 1 (Fail)
//Storyboard Layer 2 (Pass)
//Storyboard Layer 3 (Foreground)
//Storyboard Sound Samples

[TimingPoints]
1253,612.244897959184,4,2,1,30,1,0
1253,-200,4,2,1,30,0,0
10895,-200,4,2,1,5,0,0
11661,-200,4,2,1,15,0,0
11967,-200,4,2,1,20,0,0
12273,-200,4,2,1,25,0,0
12579,-200,4,2,1,30,0,0
12885,-111.111111111111,4,2,1,10,0,0
13191,-200,4,2,1,45,0,0
13497,-125,4,2,1,45,0,0
33089,-166.666666666667,4,2,1,30,0,0
52681,-142.857142857143,4,2,1,45,0,0
72273,-111.111111111111,4,2,1,60,0,1
91865,-142.857142857143,4,2,1,50,0,0
111457,-142.857142857143,4,2,1,50,0,0
111610,-142.857142857143,4,2,1,10,0,0

[Colours]
Combo1 : 10,102,216
Combo2 : 231,64,116
Combo3 : 88,222,50

[HitObjects]
151,158,1253,6,0,L|156:109,2,35,0|0|0,0:0|0:0|0:0,0:0:0:0:
204,220,1712,2,0,L|209:269,2,35,0|0|0,0:0|0:0|0:0,0:0:0:0:
257,158,2171,2,0,L|262:109,2,35,0|0|0,0:0|0:0|0:0,0:0:0:0:
310,220,2630,2,0,L|315:269,2,35,0|0|0,0:0|0:0|0:0,0:0:0:0:
363,158,3089,2,0,L|368:109,1,35,0|0,0:0|0:0,0:0:0:0:
366,123,3395,1,0,0:0:0:0:
439,84,3701,6,0,L|488:78,2,35,0|0|0,0:0|0:0|0:0,0:0:0:0:
366,123,4161,2,0,L|317:117,2,35,0|0|0,0:0|0:0|0:0,0:0:0:0:
439,162,4620,2,0,L|488:156,2,35,0|0|0,0:0|0:0|0:0,0:0:0:0:
366,201,5079,2,0,L|317:195,2,35,0|0|0,0:0|0:0|0:0,0:0:0:0:
439,240,5538,2,0,L|488:234,1,35,0|0,0:0|0:0,0:0:0:0:
473,235,5844,1,0,0:0:0:0:
356,311,6150,6,0,L|364:349,2,35,2|0|0,0:0|0:0|0:0,0:0:0:0:
281,311,6610,2,0,L|288:345,2,35,0|0|0,0:0|0:0|0:0,0:0:0:0:
206,311,7069,2,0,L|214:349,2,35,0|0|0,0:0|0:0|0:0,0:0:0:0:
131,311,7528,2,0,L|138:345,2,35,0|0|0,0:0|0:0|0:0,0:0:0:0:
56,311,7987,2,0,L|63:345,1,35,0|0,0:0|0:0,0:0:0:0:
63,345,8293,1,0,0:0:0:0:
92,244,8599,6,0,L|84:209,2,35,0|0|0,0:0|0:0|0:0,0:0:0:0:
165,207,9059,2,0,L|172:172,2,35,0|0|0,0:0|0:0|0:0,0:0:0:0:
92,170,9518,2,0,L|84:135,2,35,0|0|0,0:0|0:0|0:0,0:0:0:0:
165,133,9977,2,0,L|172:98,2,35,0|0|0,0:0|0:0|0:0,0:0:0:0:
92,96,10436,2,0,L|84:61,1,35,0|0,0:0|0:0,0:0:0:0:
84,61,10742,1,0,0:0:0:0:
256,192,10895,12,0,12885,0:0:0:0:
281,132,13191,5,0,0:0:0:0:
212,83,13344,1,0,0:0:0:0:
150,140,13497,2,0,L|152:259,1,112,4|0,1:2|0:0,0:0:0:0:
160,336,13957,1,0,0:0:0:0:
230,290,14110,2,0,P|287:278|346:292,1,112,8|0,0:0|1:2,0:0:0:0:
398,229,14569,6,0,P|405:175|394:114,1,112,0|0,1:2|0:0,0:0:0:0:
370,36,15028,2,0,P|315:47|260:38,1,112,0|8,1:2|0:0,0:0:0:0:
102,96,15640,1,0,0:0:0:0:
113,179,15793,1,0,0:0:0:0:
178,128,15946,6,0,P|184:64|168:16,1,112,0|0,1:2|0:0,0:0:0:0:
254,15,16406,1,0,0:0:0:0:
307,79,16559,2,0,P|338:85|371:80,1,56,8|0,0:0|0:0,0:0:0:0:
413,16,16865,5,0,1:2:0:0:
413,16,17018,2,0,P|440:13|468:19,1,56,0|0,1:2|0:0,0:0:0:0:
493,99,17324,2,0,L|498:154,2,56,8|0|0,0:0|1:2|0:0,0:0:0:0:
424,169,17783,2,0,L|410:296,1,112,8|0,0:0|0:0,0:0:0:0:
340,324,18242,1,0,0:0:0:0:
258,345,18395,6,0,P|197:336|134:345,1,112,2|0,1:2|0:0,0:0:0:0:
67,319,18855,1,0,0:0:0:0:
8,258,19008,2,0,P|15:197|9:136,1,112,8|0,0:0|1:2,0:0:0:0:
78,96,19467,6,0,P|138:103|200:97,1,112,0|0,1:2|0:0,0:0:0:0:
273,93,19926,2,0,L|269:167,1,56,0|0,1:2|0:0,0:0:0:0:
338,196,20232,2,0,L|342:270,1,56,8|0,0:0|0:0,0:0:0:0:
415,287,20538,1,0,0:0:0:0:
345,332,20691,1,0,0:0:0:0:
273,300,20844,5,2,1:2:0:0:
273,300,20997,2,0,P|213:305|156:294,1,112,0|0,1:2|0:0,0:0:0:0:
80,274,21457,2,0,P|89:219|79:151,1,112,8|0,0:0|1:2,0:0:0:0:
27,100,21916,6,0,P|82:78|140:104,1,112,0|8,1:2|0:0,0:0:0:0:
193,149,22375,2,0,P|245:165|295:143,1,112,0|8,1:2|0:0,0:0:0:0:
358,299,22987,1,8,0:0:0:0:
433,335,23140,1,8,0:0:0:0:
428,251,23293,6,0,P|373:214|316:223,1,112,4|0,1:2|0:0,0:0:0:0:
257,261,23753,1,0,0:0:0:0:
191,313,23906,2,0,L|124:303,1,56,8|0,0:0|0:0,0:0:0:0:
52,291,24212,1,0,1:2:0:0:
52,291,24365,1,0,1:2:0:0:
21,212,24518,6,0,P|16:176|21:147,1,56,0|0,0:0|0:0,0:0:0:0:
97,128,24824,2,0,P|102:92|97:63,1,56,0|0,1:2|0:0,0:0:0:0:
177,40,25130,2,0,P|231:52|289:40,1,112,8|0,0:0|0:0,0:0:0:0:
362,75,25589,1,0,0:0:0:0:
366,158,25742,6,0,P|318:197|293:254,1,112,0|0,1:2|0:0,0:0:0:0:
296,325,26201,1,0,0:0:0:0:
221,284,26355,2,0,P|187:269|151:267,1,56,8|0,0:0|0:0,0:0:0:0:
85,254,26661,1,0,1:2:0:0:
85,254,26814,1,0,1:2:0:0:
107,334,26967,5,0,0:0:0:0:
24,316,27120,2,0,P|24:348|19:383,2,56,8|0|0,0:0|1:2|0:0,0:0:0:0:
0,235,27579,2,0,P|-11:178|0:121,1,112,8|0,0:0|0:0,0:0:0:0:
54,62,28038,1,0,0:0:0:0:
113,120,28191,6,0,P|171:133|228:120,1,112,2|0,1:2|0:0,0:0:0:0:
277,60,28650,1,0,0:0:0:0:
337,118,28804,2,0,P|338:151|336:183,1,56,8|0,0:0|0:0,0:0:0:0:
327,257,29110,5,0,1:2:0:0:
327,257,29263,2,0,P|268:257|208:242,1,112,0|0,1:2|0:0,0:0:0:0:
184,322,29722,2,0,P|148:322|112:331,1,56,0|0,1:2|0:0,0:0:0:0:
47,302,30028,2,0,P|41:271|42:233,1,56,8|0,0:0|0:0,0:0:0:0:
124,236,30334,2,0,P|130:205|129:167,1,56
131,96,30640,5,2,1:2:0:0:
131,96,30793,1,0,1:2:0:0:
206,131,30946,2,0,L|279:135,1,56,0|0,0:0|0:0,0:0:0:0:
297,210,31253,2,0,L|224:214,1,56,8|0,0:0|0:0,0:0:0:0:
193,281,31559,1,0,1:2:0:0:
193,281,31712,1,0,1:2:0:0:
253,339,31865,6,0,P|280:343|308:338,1,56,0|8,0:0|0:0,0:0:0:0:
378,292,32171,1,0,1:2:0:0:
458,268,32324,1,0,0:0:0:0:
400,207,32477,2,0,P|396:178|400:146,1,56,8|0,0:0|1:2,0:0:0:0:
463,97,32783,1,8,0:0:0:0:
488,177,32936,1,8,0:0:0:0:
385,69,33089,6,0,B|376:53|376:53|341:63|302:54,1,83.9999974365235,4|0,1:2|0:0,0:0:0:0:
159,60,33701,1,8,0:0:0:0:
89,194,34008,1,0,1:2:0:0:
89,194,34161,1,0,1:2:0:0:
158,164,34314,6,0,L|236:155,1,41.9999987182618,0|0,0:0|0:0,0:0:0:0:
214,233,34620,2,0,L|286:264,1,41.9999987182618,0|0,1:2|0:0,0:0:0:0:
227,320,34926,2,0,L|273:383,1,41.9999987182618,8|0,0:0|0:0,0:0:0:0:
325,335,35232,1,0,0:0:0:0:
383,287,35385,1,0,0:0:0:0:
400,213,35538,6,0,P|392:169|366:134,1,83.9999974365235,0|0,1:2|0:0,0:0:0:0:
219,118,36150,1,8,0:0:0:0:
273,259,36457,1,0,1:2:0:0:
273,259,36610,1,0,1:2:0:0:
209,300,36763,6,0,L|145:309,1,41.9999987182618,0|0,0:0|0:0,0:0:0:0:
92,315,37069,1,0,1:2:0:0:
164,182,37375,2,0,P|175:134|162:85,1,83.9999974365235,8|0,0:0|0:0,0:0:0:0:
231,238,37987,6,0,P|279:249|328:236,1,83.9999974365235,0|0,1:2|0:0,0:0:0:0:
449,178,38599,2,0,L|456:130,1,41.9999987182618,8|0,0:0|0:0,0:0:0:0:
470,61,38906,1,0,1:2:0:0:
470,61,39059,1,0,1:2:0:0:
394,53,39212,6,0,L|387:94,1,41.9999987182618,0|0,0:0|0:0,0:0:0:0:
321,130,39518,2,0,L|314:88,1,41.9999987182618,0|0,1:2|0:0,0:0:0:0:
248,53,39824,2,0,L|241:94,1,41.9999987182618,8|0,0:0|0:0,0:0:0:0:
184,143,40130,1,0,0:0:0:0:
108,146,40283,1,0,0:0:0:0:
42,108,40436,6,0,P|29:69|38:23,1,83.9999974365235,0|0,1:2|0:0,0:0:0:0:
186,10,41048,1,8,0:0:0:0:
310,95,41355,6,0,P|314:116|315:141,1,41.9999987182618,0|0,1:2|1:2,0:0:0:0:
239,142,41661,2,0,P|235:121|234:96,1,41.9999987182618,0|0,0:0|0:0,0:0:0:0:
158,107,41967,2,0,P|159:127|163:148,1,41.9999987182618,0|0,1:2|0:0,0:0:0:0:
184,221,42273,1,8,0:0:0:0:
209,222,42426,1,0,0:0:0:0:
229,217,42579,1,0,0:0:0:0:
244,210,42732,1,0,0:0:0:0:
253,199,42885,6,0,L|263:299,1,83.9999974365235,0|0,1:2|0:0,0:0:0:0:
385,369,43497,1,8,0:0:0:0:
507,278,43804,1,0,1:2:0:0:
507,278,43957,1,0,1:2:0:0:
450,225,44110,6,0,L|452:175,1,41.9999987182618
379,159,44416,2,0,L|377:109,1,41.9999987182618,0|0,1:2|0:0,0:0:0:0:
450,93,44722,2,0,L|452:43,1,41.9999987182618,8|0,0:0|0:0,0:0:0:0:
379,28,45028,1,0,0:0:0:0:
303,30,45181,1,0,0:0:0:0:
234,61,45334,6,0,P|232:107|236:152,1,83.9999974365235,0|0,1:2|0:0,0:0:0:0:
287,286,45946,1,8,0:0:0:0:
137,262,46253,1,0,1:2:0:0:
137,262,46406,1,0,1:2:0:0:
171,194,46559,6,0,L|173:150,1,41.9999987182618,0|0,0:0|0:0,0:0:0:0:
175,76,46865,1,0,1:2:0:0:
310,143,47171,2,0,P|350:143|394:124,1,83.9999974365235,8|0,0:0|0:0,0:0:0:0:
271,220,47783,6,0,P|271:260|290:304,1,83.9999974365235,0|0,1:2|0:0,0:0:0:0:
404,204,48395,1,8,0:0:0:0:
335,69,48701,1,0,1:2:0:0:
335,69,48855,1,0,1:2:0:0:
267,102,49008,6,0,P|241:105|215:100,1,41.9999987182618,0|0,0:0|0:0,0:0:0:0:
173,157,49314,2,0,P|153:139|141:115,1,41.9999987182618,0|0,1:2|0:0,0:0:0:0:
71,120,49620,2,0,P|72:93|81:69,1,41.9999987182618,8|0,0:0|0:0,0:0:0:0:
146,47,49926,1,0,0:0:0:0:
218,27,50079,1,0,0:0:0:0:
289,50,50232,6,0,L|285:108,1,41.9999987182618,0|0,1:2|2:0,0:0:0:0:
349,133,50538,2,0,L|353:191,1,41.9999987182618,0|0,0:0|0:0,0:0:0:0:
289,216,50844,2,0,L|285:274,1,41.9999987182618,8|0,0:0|0:0,0:0:0:0:
336,314,51150,1,0,1:2:0:0:
336,314,51304,1,0,1:2:0:0:
405,344,51457,6,0,P|429:349|460:347,1,41.9999987182618,0|0,0:0|0:0,0:0:0:0:
442,274,51763,2,0,P|466:266|491:249,1,41.9999987182618,0|0,1:2|0:0,0:0:0:0:
439,194,52069,2,0,P|456:175|473:110,1,83.9999974365235,8|0,0:0|0:0,0:0:0:0:
471,43,52528,1,0,0:0:0:0:
350,92,52681,6,0,P|299:98|246:89,1,97.9999970092774,6|0,1:2|0:0,0:0:0:0:
180,99,53140,2,0,P|179:74|189:49,2,48.9999985046387,0|0|0,1:2|1:2|0:0,0:0:0:0:
211,165,53599,1,0,1:2:0:0:
178,231,53753,6,0,P|149:235|124:232,1,48.9999985046387,0|0,0:0|0:0,0:0:0:0:
62,202,54059,1,0,1:2:0:0:
62,202,54212,1,0,1:2:0:0:
18,61,54518,2,0,P|62:47|117:54,1,97.9999970092774,8|0,0:0|0:0,0:0:0:0:
231,138,55130,5,2,1:2:0:0:
349,50,55436,1,0,0:0:0:0:
400,102,55589,2,0,L|398:159,2,48.9999985046387,0|0|0,1:2|1:2|0:0,0:0:0:0:
329,123,56048,6,0,L|325:235,1,97.9999970092774,0|0,1:2|0:0,0:0:0:0:
323,303,56508,1,0,1:2:0:0:
323,303,56661,1,0,1:2:0:0:
177,316,56967,2,0,P|183:263|176:207,1,97.9999970092774,8|0,0:0|0:0,0:0:0:0:
31,226,57579,6,0,P|25:173|32:117,1,97.9999970092774,2|0,1:2|0:0,0:0:0:0:
65,64,58038,1,0,1:2:0:0:
65,64,58191,2,0,L|126:52,1,48.9999985046387,0|0,1:2|0:0,0:0:0:0:
125,126,58497,6,0,L|183:146,2,48.9999985046387,0|0|0,1:2|0:0|0:0,0:0:0:0:
145,209,58957,1,0,1:2:0:0:
145,209,59110,2,0,L|191:249,1,48.9999985046387,0|0,1:2|0:0,0:0:0:0:
230,295,59416,1,8,0:0:0:0:
301,313,59569,1,0,0:0:0:0:
283,241,59722,1,0,0:0:0:0:
429,250,60028,6,0,P|435:189|431:145,1,97.9999970092774,2|0,1:2|0:0,0:0:0:0:
403,85,60487,1,0,1:2:0:0:
403,85,60640,2,0,P|354:92|299:83,1,97.9999970092774,0|0,1:2|1:2,0:0:0:0:
160,66,61253,5,0,0:0:0:0:
97,104,61406,1,0,1:2:0:0:
97,104,61559,1,0,1:2:0:0:
179,225,61865,2,0,P|228:218|283:227,1,97.9999970092774,8|0,0:0|0:0,0:0:0:0:
420,249,62477,6,0,P|426:193|419:132,1,97.9999970092774,6|0,0:0|0:0,0:0:0:0:
387,87,62936,1,0,1:2:0:0:
331,39,63089,2,0,P|275:33|214:40,1,97.9999970092774,8|0,1:2|1:2,0:0:0:0:
167,68,63548,6,0,P|166:94|161:119,1,48.9999985046387,0|0,0:0|0:0,0:0:0:0:
136,186,63855,1,0,1:2:0:0:
136,186,64008,1,0,1:2:0:0:
176,327,64314,2,0,P|125:333|78:326,1,97.9999970092774,8|0,0:0|0:0,0:0:0:0:
192,233,64926,6,0,P|243:227|290:234,1,97.9999970092774,2|0,1:2|0:0,0:0:0:0:
372,261,65385,1,0,1:2:0:0:
361,173,65538,2,0,P|351:122|352:63,1,97.9999970092774,8|0,1:2|1:2,0:0:0:0:
301,22,65997,1,0,0:0:0:0:
116,56,66304,5,0,1:2:0:0:
116,56,66457,2,0,L|107:108,1,48.9999985046387,0|0,1:2|0:0,0:0:0:0:
171,163,66763,2,0,L|180:115,1,48.9999985046387,8|0,0:0|0:0,0:0:0:0:
244,174,67069,2,0,L|235:226,1,48.9999985046387,0|0,0:0|0:0,0:0:0:0:
299,281,67375,6,0,L|308:233,1,48.9999985046387,2|0,1:2|0:0,0:0:0:0:
324,161,67681,2,0,L|401:172,2,48.9999985046387,0|0|8,0:0|1:2|1:2,0:0:0:0:
392,30,68293,1,0,1:2:0:0:
462,159,68599,5,0,0:0:0:0:
433,227,68753,1,0,1:2:0:0:
433,227,68906,1,0,1:2:0:0:
318,319,69212,2,0,P|268:327|213:318,1,97.9999970092774,8|0,0:0|0:0,0:0:0:0:
157,284,69671,1,0,0:0:0:0:
203,226,69824,6,0,L|205:171,1,48.9999985046387,2|0,1:2|0:0,0:0:0:0:
163,116,70130,1,0,0:0:0:0:
208,57,70283,1,0,0:0:0:0:
278,82,70436,2,0,L|303:50,1,36.749998878479
275,156,70742,2,0,L|296:191,1,36.749998878479
221,206,71048,6,0,L|227:260,1,48.9999985046387,0|0,0:0|0:0,0:0:0:0:
296,277,71355,2,0,L|290:331,1,48.9999985046387,0|0,0:0|0:0,0:0:0:0:
224,357,71661,1,8,0:0:0:0:
150,357,71814,1,0,1:2:0:0:
117,291,71967,1,8,0:0:0:0:
191,291,72120,1,8,0:0:0:0:
73,354,72273,6,0,L|-13:353,1,62.9999980773926,6|0,1:2|0:0,0:0:0:0:
43,256,72579,2,0,L|14:174,1,62.9999980773926,0|0,0:0|0:0,0:0:0:0:
124,194,72885,1,8,0:0:0:0:
227,100,73191,1,0,1:2:0:0:
227,100,73344,1,0,1:2:0:0:
285,160,73497,6,0,P|322:160|361:148,1,62.9999980773926,0|0,0:0|0:0,0:0:0:0:
418,107,73804,1,0,1:2:0:0:
410,241,74110,1,8,0:0:0:0:
481,284,74263,1,0,0:0:0:0:
486,200,74416,1,0,0:0:0:0:
322,213,74722,6,0,P|282:216|244:211,1,62.9999980773926,0|0,1:2|0:0,0:0:0:0:
245,130,75028,2,0,P|276:128|307:132,1,62.9999980773926
391,153,75334,2,0,P|429:156|470:152,1,62.9999980773926,8|0,0:0|0:0,0:0:0:0:
496,81,75640,1,0,1:2:0:0:
496,81,75793,1,0,1:2:0:0:
431,25,75946,5,0,0:0:0:0:
348,44,76099,1,8,0:0:0:0:
321,125,76253,2,0,L|318:198,1,62.9999980773926,0|0,1:2|0:0,0:0:0:0:
262,252,76559,2,0,P|226:255|193:249,1,62.9999980773926,8|0,0:0|0:0,0:0:0:0:
141,189,76865,2,0,P|105:185|72:192,1,62.9999980773926,0|0,0:0|0:0,0:0:0:0:
109,268,77171,5,0,1:2:0:0:
217,144,77477,1,0,0:0:0:0:
54,104,77783,2,0,P|77:73|111:51,1,62.9999980773926,8|0,0:0|0:0,0:0:0:0:
173,25,78089,1,0,1:2:0:0:
173,25,78242,1,0,1:2:0:0:
239,76,78395,6,0,L|322:78,1,62.9999980773926,0|0,0:0|0:0,0:0:0:0:
344,150,78701,2,0,L|261:152,1,62.9999980773926,0|0,1:2|0:0,0:0:0:0:
196,162,79008,2,0,B|185:211|201:260|201:260|219:220,1,125.999996154785,8|0,0:0|0:0,0:0:0:0:
304,94,79620,5,0,1:2:0:0:
304,94,79773,1,0,1:2:0:0:
352,162,79926,2,0,P|386:165|424:157,1,62.9999980773926,0|0,0:0|0:0,0:0:0:0:
489,122,80232,2,0,P|496:161|493:194,1,62.9999980773926,8|0,0:0|0:0,0:0:0:0:
441,249,80538,1,0,1:2:0:0:
441,249,80691,1,0,1:2:0:0:
451,330,80844,5,0,0:0:0:0:
370,304,80997,1,8,0:0:0:0:
290,329,81150,2,0,P|251:332|214:326,1,62.9999980773926,0|0,1:2|0:0,0:0:0:0:
151,290,81457,2,0,L|145:216,1,62.9999980773926,8|0,0:0|1:2,0:0:0:0:
139,143,81763,1,8,0:0:0:0:
180,69,81916,1,8,0:0:0:0:
300,54,82069,6,0,P|376:60|446:44,1,125.999996154785,6|0,1:2|0:0,0:0:0:0:
488,205,82681,1,8,0:0:0:0:
375,337,82987,1,0,1:2:0:0:
375,337,83140,1,0,1:2:0:0:
292,352,83293,6,0,P|255:354|219:350,1,62.9999980773926,0|0,0:0|0:0,0:0:0:0:
154,312,83599,1,0,1:2:0:0:
210,159,83906,1,8,0:0:0:0:
265,96,84059,1,0,0:0:0:0:
293,174,84212,1,0,0:0:0:0:
128,136,84518,6,0,P|120:97|127:52,1,62.9999980773926,0|0,1:2|0:0,0:0:0:0:
191,27,84824,2,0,P|199:66|192:111,1,62.9999980773926,0|0,0:0|0:0,0:0:0:0:
202,173,85130,2,0,P|236:177|280:170,1,62.9999980773926,8|0,0:0|0:0,0:0:0:0:
337,132,85436,1,0,1:2:0:0:
337,132,85589,1,0,1:2:0:0:
409,174,85742,6,0,L|419:265,1,62.9999980773926,0|8,0:0|0:0,0:0:0:0:
342,251,86048,2,0,L|332:342,1,62.9999980773926,0|0,1:2|0:0,0:0:0:0:
259,352,86355,1,8,0:0:0:0:
178,325,86508,1,0,0:0:0:0:
136,251,86661,2,0,P|130:213|135:173,1,62.9999980773926,0|0,0:0|0:0,0:0:0:0:
157,108,86967,5,0,1:2:0:0:
226,253,87273,1,0,0:0:0:0:
62,292,87579,2,0,P|26:276|2:248,1,62.9999980773926,8|0,0:0|0:0,0:0:0:0:
75,206,87885,1,0,1:2:0:0:
75,206,88038,1,0,1:2:0:0:
138,261,88191,6,0,P|178:266|221:260,1,62.9999980773926
278,297,88497,2,0,P|286:261|273:221,1,62.9999980773926,0|0,1:2|0:0,0:0:0:0:
241,160,88804,2,0,B|227:111|243:67|243:67|262:125,1,125.999996154785,8|0,0:0|0:0,0:0:0:0:
89,134,89416,5,0,1:2:0:0:
89,134,89569,1,0,1:2:0:0:
141,200,89722,2,0,L|219:210,1,62.9999980773926,0|0,0:0|0:0,0:0:0:0:
232,137,90028,2,0,L|310:127,1,62.9999980773926,8|0,0:0|0:0,0:0:0:0:
333,203,90334,1,0,1:2:0:0:
333,203,90487,6,0,B|336:300,1,62.9999980773926,0|0,1:2|0:0,0:0:0:0:
338,350,90793,1,8,0:0:0:0:
411,307,90946,1,0,1:2:0:0:
245,344,91253,2,0,P|205:347|158:338,1,62.9999980773926,8|0,0:0|0:0,0:0:0:0:
106,306,91559,1,8,0:0:0:0:
92,222,91712,1,8,0:0:0:0:
96,135,91865,6,0,L|71:62,2,65.3333313395183,6|0|0,1:2|0:0|0:0,0:0:0:0:
172,118,92477,2,0,L|232:69,2,65.3333313395183,10|0|0,1:2|0:0|0:0,0:0:0:0:
213,183,93089,2,0,L|279:222,2,65.3333313395183,0|0|0,1:2|0:0|0:0,0:0:0:0:
155,234,93701,2,0,P|167:281|206:310,1,97.9999970092774,8|0,0:2|0:0,0:0:0:0:
316,313,94314,6,0,L|310:380,2,65.3333313395183,6|0|0,1:2|0:0|0:0,0:0:0:0:
352,243,94926,2,0,L|346:176,2,65.3333313395183,10|0|0,1:2|0:0|0:0,0:0:0:0:
388,313,95538,2,0,L|382:380,2,65.3333313395183,2|0|0,1:2|0:0|0:0,0:0:0:0:
434,250,96150,2,0,L|425:115,1,97.9999970092774,10|0,0:0|0:0,0:0:0:0:
352,89,96763,6,0,P|322:68|287:59,2,65.3333313395183,6|0|0,1:2|0:0|0:0,0:0:0:0:
287,148,97375,2,0,P|250:144|215:154,2,65.3333313395183,10|0|0,1:2|0:0|0:0,0:0:0:0:
260,231,97987,2,0,P|226:246|201:272,2,65.3333313395183,2|0|0,1:2|0:0|0:0,0:0:0:0:
370,206,98599,1,10,1:2:0:0:
317,311,98906,1,4,1:2:0:0:
202,337,99212,5,6,1:2:0:0:
202,337,99365,2,0,P|146:335|93:299,1,97.9999970092774,0|0,1:2|0:0,0:0:0:0:
109,315,99824,1,8,0:0:0:0:
119,188,100130,1,0,1:2:0:0:
119,188,100283,1,0,1:2:0:0:
211,155,100436,5,0,0:0:0:0:
215,228,100589,1,8,0:0:0:0:
282,199,100742,2,0,P|284:143|284:142,1,48.9999985046387,0|0,1:2|0:0,0:0:0:0:
362,129,101048,2,0,P|364:185|364:186,1,48.9999985046387,8|0,0:0|1:2,0:0:0:0:
363,251,101355,1,8,0:0:0:0:
435,238,101508,1,8,0:0:0:0:
478,179,101661,6,0,P|486:131|477:79,1,97.9999970092774,6|0,1:2|0:0,0:0:0:0:
418,39,102120,1,0,0:0:0:0:
352,72,102273,2,0,P|320:77|296:73,1,48.9999985046387,8|0,0:0|0:0,0:0:0:0:
232,58,102579,1,0,1:2:0:0:
232,58,102732,1,0,1:2:0:0:
127,252,103191,6,0,L|130:186,1,48.9999985046387,0|0,1:2|0:0,0:0:0:0:
132,129,103497,2,0,P|176:120|227:139,1,97.9999970092774,8|0,0:0|0:0,0:0:0:0:
285,180,103957,1,0,0:0:0:0:
342,225,104110,6,0,P|387:242|434:233,1,97.9999970092774,0|0,1:2|0:0,0:0:0:0:
491,185,104569,1,0,0:0:0:0:
509,256,104722,2,0,L|505:314,1,48.9999985046387,8|0,0:0|0:0,0:0:0:0:
480,379,105028,1,0,1:2:0:0:
480,379,105181,1,0,1:2:0:0:
427,314,105334,5,0,0:0:0:0:
378,368,105487,1,8,0:0:0:0:
339,305,105640,2,0,L|276:298,1,48.9999985046387,0|0,1:2|0:0,0:0:0:0:
245,357,105946,2,0,L|182:364,1,48.9999985046387,8|0,0:0|0:0,0:0:0:0:
122,362,106253,1,0,0:0:0:0:
62,318,106406,1,0,0:0:0:0:
115,228,106559,6,0,P|121:164|113:122,1,97.9999970092774,2|0,1:2|0:0,0:0:0:0:
98,59,107018,1,0,0:0:0:0:
169,41,107171,2,0,L|237:42,1,48.9999985046387,8|0,0:0|0:0,0:0:0:0:
298,46,107477,1,0,1:2:0:0:
298,46,107630,1,0,1:2:0:0:
463,181,108089,6,0,L|462:121,1,48.9999985046387,0|0,1:2|0:0,0:0:0:0:
391,111,108395,2,0,L|390:171,1,48.9999985046387,8|0,0:0|0:0,0:0:0:0:
366,229,108701,2,0,L|305:225,1,48.9999985046387,0|0,0:0|0:0,0:0:0:0:
243,220,109008,5,0,1:2:0:0:
243,220,109161,2,0,P|234:187|236:155,1,48.9999985046387,0|0,1:2|0:0,0:0:0:0:
231,98,109467,1,0,0:0:0:0:
168,136,109620,2,0,P|137:137|111:133,1,48.9999985046387,8|0,0:0|0:0,0:0:0:0:
48,114,109926,1,0,1:2:0:0:
48,114,110079,6,0,L|45:179,1,48.9999985046387,0|0,1:2|0:0,0:0:0:0:
41,236,110385,1,8,0:0:0:0:
109,209,110538,1,0,1:2:0:0:
227,295,110844,2,0,P|254:299|292:291,1,48.9999985046387,8|0,0:0|1:2,0:0:0:0:
347,281,111150,1,8,0:0:0:0:
301,223,111304,1,8,0:0:0:0:
256,192,111457,12,2,113906,2:2:0:0:
