osu file format v14

[General]
AudioFilename: audio.mp3
AudioLeadIn: 0
PreviewTime: 71201
Countdown: 0
SampleSet: Soft
StackLeniency: 0.7
Mode: 0
LetterboxInBreaks: 0
EpilepsyWarning: 1
WidescreenStoryboard: 1

[Editor]
Bookmarks: 13497,33089,52681,71010,72273,81916,91865,101661,111457
DistanceSpacing: 1
BeatDivisor: 4
GridSize: 4
TimelineZoom: 1.7

[Metadata]
Title:Akikaze no Answer
TitleUnicode:秋風のアンサー
Artist:Flower
ArtistUnicode:Flower
Creator:Zer0-
Version:Chaos' Advanced
Source:ビンタ!~弁護士事務員ミノワが愛で解決します~
Tags:Hanadokei Mio Nakajima Shuuka Fujii Manami Shigetome Reina Washio Kyoka Ichiki Nozomi Bando Harumi Sato Chiharu Muto Mir Benny- BennyBananas Lanturn Chaos Zero Kanari
BeatmapID:1188976
BeatmapSetID:556945

[Difficulty]
HPDrainRate:5
CircleSize:3.8
OverallDifficulty:5.5
ApproachRate:7
SliderMultiplier:2.6
SliderTickRate:1

[Events]
//Background and Video events
0,0,"Untitled-1.jpg",0,0
//Break Periods
//Storyboard Layer 0 (Background)
//Storyboard Layer 1 (Fail)
//Storyboard Layer 2 (Pass)
//Storyboard Layer 3 (Foreground)
//Storyboard Sound Samples

[TimingPoints]
1253,612.244897959184,4,2,1,30,1,0
1253,-200,4,2,1,30,0,0
13191,-200,4,2,1,50,0,0
13497,-125,4,2,1,50,0,0
33089,-142.857142857143,4,2,1,40,0,0
52681,-142.857142857143,4,2,1,50,0,0
71355,-100,4,2,1,50,0,0
72273,-100,4,2,1,70,0,1
91865,-125,4,2,1,60,0,0
111457,-125,4,2,1,50,0,0
111610,-125,4,2,1,10,0,0

[Colours]
Combo1 : 53,86,172
Combo2 : 231,64,116
Combo3 : 88,222,50

[HitObjects]
136,88,1253,6,0,L|75:115,1,65,2|0,0:0|0:0,0:0:0:0:
142,176,1712,2,0,L|98:226,1,65
183,252,2171,2,0,L|164:316,1,65
253,304,2630,2,0,L|263:369,1,65
337,321,3089,2,0,L|355:348,2,32.5
318,160,3701,6,0,P|310:120|297:97,1,65,2|0,0:0|0:0,0:0:0:0:
230,158,4161,2,0,P|203:127|180:113,1,65
152,200,4620,2,0,P|113:186|86:186,1,65
106,275,5079,2,0,P|66:283|43:296,1,65
103,362,5538,2,0,P|87:375|80:386,2,32.5,0|0|0,2:0|2:0|2:0,2:0:0:0:
264,340,6150,6,0,L|342:319,1,65,2|0,0:0|0:0,0:0:0:0:
393,262,6610,2,0,L|315:241,1,65
264,184,7069,2,0,L|342:163,1,65
393,106,7528,2,0,L|315:85,1,65
264,28,7987,2,0,L|303:17,2,32.5
141,134,8599,6,0,B|121:174|121:174|124:213,1,65,2|0,0:0|0:0,0:0:0:0:
213,190,9059,2,0,B|238:227|238:227|274:244,1,65
297,155,9518,2,0,B|341:151|341:151|374:129,1,65
308,64,9977,2,0,B|327:23|327:23|324:-15,1,65
234,8,10436,2,0,B|224:28|224:28|225:47,2,32.5
234,8,13191,6,0,L|208:57,1,32.5
205,65,13497,6,0,B|259:64|259:64|320:43,1,104
338,40,13957,2,0,P|386:75|388:173,1,156,0|0,0:0|1:0,0:0:0:0:
375,191,14569,1,0,1:0:0:0:
172,191,15028,1,0,1:0:0:0:
294,134,15334,1,8,0:2:0:0:
247,261,15640,2,0,L|228:309,1,52
217,338,15946,6,0,P|158:376|75:344,2,156,0|0|0,1:0|0:0|1:0,0:0:0:0:
227,309,17018,1,0,1:0:0:0:
338,232,17324,2,0,L|392:222,1,52,8|0,0:2|0:0,0:0:0:0:
492,135,17783,1,8,0:2:0:0:
384,53,18089,2,0,L|330:63,1,52,0|0,2:0|2:0,2:0:0:0:
303,73,18395,6,0,P|241:111|229:148,1,104,0|0,1:0|0:0,0:0:0:0:
210,162,18855,2,0,P|139:145|104:163,1,104
95,182,19314,1,0,1:0:0:0:
95,182,19467,1,0,1:0:0:0:
146,378,19926,1,0,1:0:0:0:
156,244,20232,1,8,0:2:0:0:
268,319,20538,1,0,0:0:0:0:
280,192,20844,5,0,1:0:0:0:
280,192,20997,2,0,B|316:167|316:167|388:154,1,104,0|0,1:0|0:0,0:0:0:0:
407,155,21457,1,8,0:2:0:0:
481,273,21763,1,0,1:0:0:0:
481,273,21916,1,0,1:0:0:0:
382,365,22222,1,8,0:2:0:0:
382,365,22375,2,0,L|273:380,1,104,0|8,1:0|0:2,0:0:0:0:
249,247,22987,1,8,0:2:0:0:
236,275,23140,1,8,0:2:0:0:
221,302,23293,6,0,B|195:339|195:339|137:368,1,104
111,369,23753,2,0,B|70:353|49:333|40:279|56:230,1,156,0|0,0:0|1:0,0:0:0:0:
66,213,24365,1,0,1:0:0:0:
220,82,24824,1,0,1:0:0:0:
86,103,25130,1,8,0:2:0:0:
200,174,25436,2,0,L|254:185,1,52
281,189,25742,6,0,P|360:176|405:101,2,156,0|0|0,1:0|0:0|1:0,0:0:0:0:
250,184,26814,1,0,1:0:0:0:
164,289,27120,2,0,L|145:347,1,52,8|0,0:2|1:0,0:0:0:0:
282,342,27579,1,8,0:2:0:0:
417,339,27885,2,0,L|400:289,1,52
390,259,28191,6,0,P|390:199|413:164,1,104,0|0,1:0|0:0,0:0:0:0:
442,151,28650,2,0,P|472:99|469:57,1,104,0|0,0:0|0:0,0:0:0:0:
454,34,29110,1,0,1:0:0:0:
454,34,29263,1,0,1:0:0:0:
253,59,29722,1,0,1:0:0:0:
386,83,30028,1,8,0:2:0:0:
362,216,30334,1,0,0:0:0:0:
229,192,30640,6,0,P|156:193|136:215,1,104,0|0,1:0|0:0,0:0:0:0:
123,239,31099,2,0,P|170:294|200:295,1,104
227,289,31559,1,0,1:0:0:0:
227,289,31712,1,0,1:0:0:0:
336,209,32018,2,0,L|323:262,1,52,8|0,2:0|1:0,0:0:0:0:
356,128,32477,1,8,2:0:0:0:
226,96,32783,1,8,0:2:0:0:
194,96,32936,1,8,0:2:0:0:
163,104,33089,5,4,0:2:0:0:
85,180,33395,1,0,0:0:0:0:
119,283,33701,1,8,0:2:0:0:
197,207,34008,1,0,1:0:0:0:
197,207,34161,1,0,1:0:0:0:
197,207,34314,2,0,P|250:187|285:193,1,90.9999972229005
383,234,34926,1,8,0:2:0:0:
323,325,35232,2,0,P|335:354|349:367,2,45.4999986114502,0|0|0,0:0|0:0|1:0,0:0:0:0:
383,234,35844,5,0,0:0:0:0:
443,143,36150,1,8,0:2:0:0:
420,37,36457,1,0,1:3:0:0:
420,37,36610,1,0,1:0:0:0:
420,37,36763,2,0,B|334:64|334:64|271:42,1,136.499995834351
189,6,37528,2,0,B|167:36|167:36|159:98,1,90.9999972229005
159,116,37987,5,0,1:0:0:0:
152,224,38293,1,0,0:0:0:0:
55,172,38599,1,8,0:2:0:0:
48,280,38906,2,0,P|64:308|102:318,1,45.4999986114502,0|0,1:0|1:0,0:0:0:0:
96,330,39212,2,0,L|188:348,1,90.9999972229005
273,283,39824,2,0,L|181:265,1,90.9999972229005,8|0,2:0|0:0,0:0:0:0:
81,227,40436,5,0,1:0:0:0:
46,123,40742,1,0,0:0:0:0:
147,163,41048,1,8,0:2:0:0:
139,53,41354,1,0,1:0:0:0:
227,118,41661,1,0,0:0:0:0:
248,9,41967,1,0,1:0:0:0:
332,82,42273,1,0,0:2:0:0:
310,190,42579,2,0,P|355:225|387:227,2,90.9999972229005,0|0|0,0:0|1:0|0:0,0:0:0:0:
227,118,43497,5,8,0:2:0:0:
236,227,43804,1,0,1:0:0:0:
236,227,43957,1,0,1:0:0:0:
236,227,44110,2,0,P|262:267|319:295,1,90.9999972229005
399,329,44722,1,8,0:2:0:0:
478,254,45028,2,0,L|480:205,1,45.4999986114502
482,181,45334,5,0,1:0:0:0:
444,78,45640,1,0,0:0:0:0:
335,60,45946,1,8,0:2:0:0:
264,145,46253,2,0,P|254:177|258:205,1,45.4999986114502,0|0,1:0|1:0,0:0:0:0:
260,215,46559,2,0,P|257:265|231:309,1,90.9999972229005
217,318,47018,2,0,P|170:330|127:311,2,90.9999972229005
238,300,47783,5,0,1:0:0:0:
276,197,48089,1,0,0:0:0:0:
257,88,48395,1,8,0:2:0:0:
153,49,48701,2,0,L|92:39,1,45.4999986114502,0|0,1:0|1:0,0:0:0:0:
80,45,49008,2,0,P|56:101|72:137,1,90.9999972229005
145,191,49620,2,0,P|137:251|105:274,1,90.9999972229005,8|0,0:2|0:0,0:0:0:0:
10,258,50232,5,0,1:0:0:0:
53,358,50538,1,0,0:0:0:0:
116,269,50844,1,8,0:2:0:0:
161,367,51150,1,0,0:0:0:0:
53,358,51457,1,0,1:0:0:0:
10,258,51763,1,0,0:0:0:0:
116,269,52069,2,0,P|111:225|86:184,1,90.9999972229005,8|0,2:0|0:0,0:0:0:0:
19,99,52681,6,0,L|125:87,1,90.9999972229005,4|0,0:2|0:0,0:0:0:0:
127,108,53140,2,0,L|233:96,1,90.9999972229005,0|0,1:0|0:0,0:0:0:0:
235,117,53599,1,0,1:0:0:0:
235,117,53753,2,0,L|341:105,1,90.9999972229005,0|0,0:0|1:0,0:0:0:0:
343,126,54212,1,0,1:0:0:0:
450,58,54518,1,8,0:2:0:0:
455,184,54824,1,0,0:0:0:0:
348,252,55130,6,0,L|242:264,1,90.9999972229005,0|0,1:0|0:0,0:0:0:0:
240,281,55589,2,0,P|225:344|257:373,2,90.9999972229005,0|0|0,1:0|0:0|0:0,0:0:0:0:
362,247,56508,2,0,L|415:241,1,45.4999986114502,0|0,1:0|1:0,0:0:0:0:
477,135,56967,2,0,L|372:146,1,90.9999972229005,8|0,0:2|0:0,0:0:0:0:
259,157,57579,6,0,P|233:156|180:121,1,90.9999972229005,0|0,1:0|0:0,0:0:0:0:
169,95,58038,2,0,L|187:6,2,90.9999972229005,0|0|0,1:0|0:0|0:0,0:0:0:0:
141,218,58957,2,0,L|132:262,1,45.4999986114502,0|0,1:0|1:0,0:0:0:0:
198,360,59416,2,0,P|223:371|250:368,2,45.4999986114502,8|0|0,2:0|0:0|0:0,0:0:0:0:
325,360,60028,6,0,L|423:338,1,90.9999972229005,0|0,1:0|0:0,0:0:0:0:
343,234,60640,1,0,1:0:0:0:
440,152,60946,1,0,1:0:0:0:
458,26,61252,6,0,L|370:46,1,90.9999972229005,0|0,0:0|1:0,0:0:0:0:
248,7,61865,1,8,0:2:0:0:
227,132,62171,1,0,0:0:0:0:
349,171,62477,6,0,P|350:224|331:263,1,90.9999972229005,2|0,1:2|0:0,0:0:0:0:
312,274,62936,2,0,P|263:294|234:329,2,90.9999972229005,8|0|0,0:2|0:0|1:0,0:0:0:0:
436,302,63855,2,0,P|449:274|450:257,1,45.4999986114502,0|0,1:0|1:0,0:0:0:0:
421,135,64314,1,8,0:2:0:0:
295,155,64620,1,0,0:0:0:0:
169,175,64926,6,0,P|128:166|88:130,1,90.9999972229005,0|0,1:0|0:0,0:0:0:0:
82,109,65385,2,0,L|81:63,1,45.4999986114502,8|8,0:2|0:2,0:0:0:0:
98,42,65691,2,0,L|142:29,1,45.4999986114502,0|0,0:0|1:0,0:0:0:0:
166,40,65997,2,0,P|209:53|274:34,1,90.9999972229005,0|0,0:0|1:0,0:0:0:0:
279,35,66457,1,0,1:0:0:0:
406,35,66763,1,8,0:2:0:0:
406,162,67069,1,0,0:0:0:0:
279,162,67375,6,0,L|221:162,1,45.4999986114502,0|0,1:0|0:0,0:0:0:0:
170,162,67681,2,0,P|124:177|98:229,1,90.9999972229005,0|8,0:0|0:2,0:0:0:0:
198,292,68293,2,0,L|140:292,1,45.4999986114502,0|0,1:0|0:0,0:0:0:0:
89,292,68599,2,0,P|48:273|21:224,1,90.9999972229005,0|0,0:0|1:0,0:0:0:0:
53,111,69212,6,0,L|122:90,2,68.2499979171754,8|0|0,2:0|2:0|2:0,2:0:0:0:
61,84,69824,5,0,0:0:0:0:
138,6,70130,5,0,0:0:0:0:
162,17,70283,1,0,0:0:0:0:
186,28,70436,6,0,L|209:33,2,22.7499993057251
208,106,70742,2,0,L|230:110,2,22.7499993057251
343,243,71355,5,0,0:0:0:0:
343,143,71661,1,0,2:0:0:0:
272,172,71814,1,0,2:0:0:0:
243,243,71967,1,0,2:0:0:0:
273,314,72120,1,0,0:0:0:0:
346,343,72273,5,4,1:2:0:0:
192,315,72579,1,0,0:0:0:0:
336,255,72885,2,0,P|374:195|348:128,1,130,8|0,0:2|1:0,0:0:0:0:
262,20,73497,2,0,P|223:79|249:146,1,130
310,270,74110,2,0,P|296:305|266:323,2,65,8|0|0,0:2|0:0|0:0,0:0:0:0:
268,121,74722,5,0,1:0:0:0:
214,266,75028,1,0,0:0:0:0:
343,181,75334,1,8,0:2:0:0:
189,174,75640,2,0,P|125:136|110:84,1,130,0|0,1:0|0:0,0:0:0:0:
121,48,76099,1,8,0:2:0:0:
121,48,76253,1,0,1:0:0:0:
273,14,76559,1,8,2:0:0:0:
244,165,76865,1,0,0:0:0:0:
365,71,77171,6,0,L|353:136,1,65,0|0,1:0|0:0,0:0:0:0:
346,172,77477,1,0,0:0:0:0:
380,324,77783,1,8,0:2:0:0:
462,191,78089,2,0,P|446:219|462:247,1,65,0|0,1:0|1:0,0:0:0:0:
483,277,78395,2,0,L|346:295,1,130,0|0,0:0|1:0,0:0:0:0:
222,209,79008,1,8,0:2:0:0:
376,188,79314,1,0,0:0:0:0:
483,74,79620,6,0,P|476:20|413:44,2,130,0|0|8,1:0|0:0|0:2,0:0:0:0:
459,228,80538,1,0,1:0:0:0:
459,228,80691,1,0,1:0:0:0:
358,108,80997,1,8,0:2:0:0:
358,108,81150,1,0,1:0:0:0:
305,255,81457,1,8,2:0:0:0:
250,310,81610,1,0,0:0:0:0:
174,330,81763,1,8,0:2:0:0:
98,309,81916,1,8,0:2:0:0:
41,255,82069,5,4,1:2:0:0:
71,102,82375,1,0,0:0:0:0:
195,195,82681,1,8,0:2:0:0:
225,42,82987,1,0,1:0:0:0:
342,144,83293,2,0,P|396:173|453:147,1,130,0|0,0:0|1:0,0:0:0:0:
497,4,83906,2,0,L|418:17,2,65,8|0|0,2:0|0:0|0:0,0:0:0:0:
480,152,84518,5,0,1:0:0:0:
355,58,84824,1,0,0:0:0:0:
375,212,85130,2,0,P|363:282|315:329,1,130,8|0,0:2|1:0,0:0:0:0:
289,171,85742,1,0,0:0:0:0:
425,95,86048,1,0,1:0:0:0:
289,19,86355,1,8,0:2:0:0:
153,95,86661,1,0,0:0:0:0:
289,171,86967,6,0,P|319:186|358:188,1,65,0|0,1:0|0:0,0:0:0:0:
387,184,87273,1,0,0:0:0:0:
403,29,87579,1,8,0:2:0:0:
248,13,87885,2,0,P|214:15|179:32,1,65,0|0,1:0|1:0,0:0:0:0:
159,57,88191,2,0,L|144:191,1,130,0|0,0:0|1:0,0:0:0:0:
126,340,88804,1,8,0:2:0:0:
250,246,89110,1,0,0:0:0:0:
267,90,89416,6,0,P|228:33|159:35,1,130,0|0,1:0|0:0,0:0:0:0:
174,185,90028,1,8,0:2:0:0:
329,200,90334,2,0,P|386:161|384:92,1,130,0|0,1:0|0:0,0:0:0:0:
253,180,90946,1,0,1:0:0:0:
353,299,91253,1,8,0:2:0:0:
353,299,91865,6,0,P|333:327|299:347,2,69.3333333333333,2|0|0,1:2|0:0|0:0,0:0:0:0:
383,221,92477,2,0,P|411:241|431:275,2,69.3333333333333,10|0|0,0:2|0:0|0:0,0:0:0:0:
305,191,93089,2,0,P|325:163|359:143,2,69.3333333333333,2|0|0,0:0|0:0|0:0,0:0:0:0:
275,269,93701,1,8,0:2:0:0:
77,203,94314,6,0,L|1:161,2,69.3333333333333,2|0|0,1:2|0:0|0:0,0:0:0:0:
148,161,94926,2,0,L|224:119,2,69.3333333333333,10|0|0,0:2|0:0|0:0,0:0:0:0:
77,119,95538,2,0,L|1:77,2,69.3333333333333,2|0|0,0:2|0:0|0:0,0:0:0:0:
148,77,96150,1,8,0:2:0:0:
351,30,96763,6,0,P|384:47|403:76,1,69.3333333333333,2|0,1:2|0:0,0:0:0:0:
408,156,97171,1,0,0:0:0:0:
408,156,97375,2,0,P|391:189|362:207,1,69.3333333333333,10|0,0:2|0:0,0:0:0:0:
282,186,97783,1,0,0:0:0:0:
282,186,97987,2,0,P|249:169|230:140,1,69.3333333333333,2|0,0:2|0:0,0:0:0:0:
226,60,98395,1,0,0:0:0:0:
226,60,98599,2,0,B|203:30|203:30|136:30,1,104,8|0,0:2|0:0,0:0:0:0:
64,105,99212,6,0,B|23:221|109:188|67:304,2,208,0|8|0,1:0|0:2|0:0,0:0:0:0:
56,1,100742,1,0,1:0:0:0:
157,25,101048,2,0,P|185:89|184:128,1,104,8|8,0:2|0:2,0:0:0:0:
178,149,101508,1,8,0:2:0:0:
178,149,101661,6,0,L|132:247,1,104
127,274,102120,2,0,P|168:329|263:334,1,156,0|0,0:0|1:0,0:0:0:0:
277,323,102732,1,0,1:0:0:0:
306,122,103191,5,0,1:0:0:0:
227,231,103497,1,8,0:2:0:0:
359,203,103804,2,0,L|411:192,1,52
439,183,104110,6,0,P|483:138|459:46,2,156,0|0|0,1:0|0:0|1:0,0:0:0:0:
409,192,105181,1,0,1:0:0:0:
326,84,105487,1,0,1:0:0:0:
326,84,105640,2,0,L|300:190,1,104,0|8,1:0|0:2,0:0:0:0:
268,316,106253,1,0,0:0:0:0:
268,316,106406,2,0,P|224:357|128:352,1,156
106,336,107018,6,0,P|89:314|81:283,1,52
87,167,107477,2,0,P|131:137|194:130,1,104,0|0,1:0|0:0,0:0:0:0:
296,194,108089,1,0,1:0:0:0:
181,265,108395,1,8,0:2:0:0:
309,306,108701,2,0,L|378:316,1,52
390,317,109008,6,0,L|184:346,1,208,0|8,1:0|0:2,0:0:0:0:
229,218,109926,5,0,1:0:0:0:
162,227,110079,1,0,1:0:0:0:
273,150,110385,5,8,0:2:0:0:
218,109,110538,1,0,1:0:0:0:
328,191,110844,5,8,0:2:0:0:
246,299,111150,1,8,0:2:0:0:
246,299,111303,1,8,0:2:0:0:
256,192,111457,12,0,113906,0:0:0:0:
