osu file format v14

[General]
AudioFilename: audio.mp3
AudioLeadIn: 0
PreviewTime: 71201
Countdown: 0
SampleSet: Soft
StackLeniency: 0.7
Mode: 2
LetterboxInBreaks: 0
EpilepsyWarning: 1
WidescreenStoryboard: 1

[Editor]
Bookmarks: 13191,33089,52681,72273,91865,101661,111457
DistanceSpacing: 1.5
BeatDivisor: 4
GridSize: 4
TimelineZoom: 2.3

[Metadata]
Title:Akikaze no Answer
TitleUnicode:秋風のアンサー
Artist:Flower
ArtistUnicode:Flower
Creator:Zer0-
Version:Benny's Rain
Source:ビンタ!~弁護士事務員ミノワが愛で解決します~
Tags:Hanadokei Mio Nakajima Shuuka Fujii Manami Shigetome Reina Washio Kyoka Ichiki Nozomi Bando Harumi Sato Chiharu Muto Mir Benny- BennyBananas Lanturn Chaos Zero Kanari
BeatmapID:1182083
BeatmapSetID:556945

[Difficulty]
HPDrainRate:6
CircleSize:3.5
OverallDifficulty:9
ApproachRate:9
SliderMultiplier:1.4
SliderTickRate:1

[Events]
//Background and Video events
0,0,"Untitled-1.jpg",0,0
//Break Periods
//Storyboard Layer 0 (Background)
//Storyboard Layer 1 (Fail)
//Storyboard Layer 2 (Pass)
//Storyboard Layer 3 (Foreground)
//Storyboard Sound Samples

[TimingPoints]
1253,612.244897959184,4,2,1,20,1,0
11048,-105.263157894737,4,2,1,30,0,0
11355,-105.263157894737,4,2,1,35,0,0
11661,-105.263157894737,4,2,1,40,0,0
11967,-105.263157894737,4,2,1,45,0,0
12273,-105.263157894737,4,2,1,50,0,0
12579,-105.263157894737,4,2,1,55,0,0
12885,-105.263157894737,4,2,1,5,0,0
13191,-50,4,2,1,60,0,0
33089,-62.5,4,2,1,30,0,0
39212,-50,4,2,1,30,0,0
39518,-62.5,4,2,1,30,0,0
40436,-50,4,2,1,30,0,0
40742,-62.5,4,2,1,30,0,0
41661,-50,4,2,1,30,0,0
41967,-62.5,4,2,1,30,0,0
42885,-50,4,2,1,30,0,0
43191,-62.5,4,2,1,30,0,0
50232,-50,4,2,1,30,0,0
52069,-62.5,4,2,1,30,0,0
52681,-55.5555555555556,4,2,1,50,0,0
72273,-52.6315789473684,4,2,1,70,0,1
81457,-52.6315789473684,4,2,1,70,0,0
82069,-52.6315789473684,4,2,1,70,0,1
91865,-50,4,2,1,60,0,0
111457,-50,4,2,1,50,0,0
112069,-50,4,2,1,40,0,0
112681,-50,4,2,1,30,0,0
113293,-50,4,2,1,20,0,0
113906,-50,4,2,1,5,0,0

[Colours]
Combo1 : 10,102,216
Combo2 : 231,64,116
Combo3 : 88,222,50

[HitObjects]
200,320,1253,6,0,L|156:320,2,35,2|0|0,0:0|0:0|0:0,0:0:0:0:
304,320,1712,2,0,L|344:320,2,35,2|0|0,0:0|0:0|0:0,0:0:0:0:
200,252,2171,2,0,L|244:252,2,35,2|0|0,0:0|0:0|0:0,0:0:0:0:
304,196,2630,6,0,L|269:196,2,35,2|0|0,0:0|0:0|0:0,0:0:0:0:
200,172,3089,2,0,L|235:172,1,35,2|0,0:0|0:0,0:0:0:0:
340,156,3395,1,2,0:0:0:0:
196,96,3701,6,0,L|244:96,2,35,2|0|0,0:0|0:0|0:0,0:0:0:0:
300,96,4161,2,0,L|252:96,2,35,2|0|0,0:0|0:0|0:0,0:0:0:0:
404,96,4620,2,0,L|448:96,2,35,2|0|0,0:0|0:0|0:0,0:0:0:0:
300,68,5079,6,0,L|260:68,2,35,2|0|0,0:0|0:0|0:0,0:0:0:0:
404,216,5538,2,0,L|369:216,1,35,2|0,0:0|0:0,0:0:0:0:
472,216,5844,1,2,0:0:0:0:
328,252,6150,6,0,L|293:252,2,35,2|0|0,0:0|0:0|0:0,0:0:0:0:
440,236,6610,2,0,L|500:236,2,35,2|0|0,0:0|0:0|0:0,0:0:0:0:
328,236,7069,2,0,L|268:236,2,35,2|0|0,0:0|0:0|0:0,0:0:0:0:
224,172,7529,6,0,L|288:172,2,35,2|0|0,0:0|0:0|0:0,0:0:0:0:
120,172,7987,2,0,L|155:172,1,35,2|0,0:0|0:0,0:0:0:0:
52,172,8293,1,2,0:0:0:0:
189,172,8599,6,0,L|252:172,2,35,2|0|0,0:0|0:0|0:0,0:0:0:0:
293,172,9058,2,0,L|229:172,2,35,2|0|0,0:0|0:0|0:0,0:0:0:0:
397,172,9517,2,0,L|461:172,2,35,2|0|0,0:0|0:0|0:0,0:0:0:0:
293,144,9976,6,0,L|258:144,2,35,2|0|0,0:0|0:0|0:0,0:0:0:0:
397,124,10436,2,0,L|337:124,1,35,2|0,0:0|0:0,0:0:0:0:
465,124,10742,1,2,0:0:0:0:
256,192,11048,12,0,12885,0:0:0:0:
192,168,13191,6,0,L|108:168,1,70
344,168,13497,2,0,P|380:196|332:268,1,140,4|0,1:2|0:0,0:0:0:0:
256,272,13957,1,0,0:0:0:0:
484,332,14110,2,0,L|410:332,1,70,8|0,0:0|0:0,0:0:0:0:
188,336,14416,5,0,1:2:0:0:
64,336,14569,2,0,P|72:288|152:252,1,140,0|0,1:2|0:0,0:0:0:0:
288,240,15028,2,0,L|356:228,1,70,0|0,1:2|0:0,0:0:0:0:
128,184,15334,2,0,L|88:108,1,70,8|0,0:0|0:0,0:0:0:0:
196,120,15640,1,0,0:0:0:0:
88,112,15793,1,0,0:0:0:0:
392,64,15946,6,0,P|444:84|480:168,1,140,0|0,1:2|0:0,0:0:0:0:
392,156,16406,1,0,0:0:0:0:
152,228,16559,2,0,L|82:228,1,70,8|0,0:0|0:0,0:0:0:0:
344,208,16865,5,0,1:2:0:0:
452,184,17018,2,0,L|452:112,1,70,0|0,1:2|0:0,0:0:0:0:
92,96,17324,1,8,0:0:0:0:
200,160,17477,2,0,L|200:240,1,70,0|0,1:0|0:0,0:0:0:0:
424,148,17783,2,0,L|424:72,1,70,8|0,0:0|0:0,0:0:0:0:
324,68,18089,1,0,0:0:0:0:
432,52,18242,1,0,0:0:0:0:
104,216,18395,6,0,P|52:208|28:128,1,140,2|0,1:2|0:0,0:0:0:0:
104,136,18855,1,0,0:0:0:0:
320,276,19008,2,0,L|396:276,1,70,8|0,0:0|0:0,0:0:0:0:
176,236,19314,5,0,1:2:0:0:
68,220,19467,2,0,P|72:152|132:132,1,140,0|0,1:2|0:0,0:0:0:0:
268,128,19926,2,0,L|348:128,1,70,0|0,1:2|0:0,0:0:0:0:
116,196,20232,1,8,0:0:0:0:
152,272,20385,1,0,0:0:0:0:
228,312,20538,1,0,0:0:0:0:
328,304,20691,1,0,0:0:0:0:
104,88,20844,5,2,1:2:0:0:
24,88,20997,2,0,P|44:160|104:176,1,140,0|0,1:2|0:0,0:0:0:0:
332,140,21457,2,0,L|312:208,1,70,8|0,0:0|0:0,0:0:0:0:
196,208,21763,5,0,1:2:0:0:
312,207,21916,2,0,L|392:207,1,70,0|0,1:2|0:0,0:0:0:0:
144,184,22222,1,8,0:0:0:0:
236,184,22375,2,0,L|140:184,1,70,0|0,1:2|0:0,0:0:0:0:
382,207,22681,2,0,L|382:123,1,70,8|0,0:0|1:2,0:0:0:0:
244,136,22987,1,8,0:0:0:0:
382,137,23140,1,8,0:0:0:0:
148,80,23293,6,0,P|88:120|116:168,1,140,4|0,1:2|0:0,0:0:0:0:
192,172,23753,1,0,0:0:0:0:
412,164,23906,2,0,L|480:200,1,70,8|0,0:0|0:0,0:0:0:0:
240,212,24212,5,0,1:2:0:0:
104,204,24365,2,0,P|49:152|72:92,1,140,0|0,1:2|0:0,0:0:0:0:
204,92,24824,2,0,L|280:92,1,70,0|0,1:2|0:0,0:0:0:0:
32,100,25130,2,0,L|32:176,1,70,8|0,0:0|0:0,0:0:0:0:
172,168,25436,2,0,L|248:168,1,70,0|0,0:0|0:0,0:0:0:0:
12,168,25742,6,0,L|156:168,1,140,0|0,1:2|0:0,0:0:0:0:
84,136,26201,1,0,0:0:0:0:
304,168,26355,2,0,L|376:168,1,70,8|0,0:0|0:0,0:0:0:0:
300,120,26661,5,0,1:2:0:0:
440,80,26814,2,0,L|368:80,1,70,0|0,1:2|0:0,0:0:0:0:
144,80,27120,1,8,0:0:0:0:
268,152,27273,2,0,L|268:67,1,70,0|0,1:2|0:0,0:0:0:0:
44,168,27579,2,0,L|44:253,1,70,8|0,0:0|0:0,0:0:0:0:
184,224,27885,2,0,L|104:224,1,70,0|0,0:0|0:0,0:0:0:0:
384,224,28191,6,0,P|460:200|492:140,1,140,2|0,1:2|0:0,0:0:0:0:
400,84,28650,1,0,0:0:0:0:
184,144,28804,2,0,L|100:144,1,70,8|0,0:0|0:0,0:0:0:0:
204,92,29110,5,0,1:2:0:0:
100,88,29263,2,0,P|40:124|64:180,1,140,0|0,1:2|0:0,0:0:0:0:
136,232,29722,1,0,1:0:0:0:
228,256,29875,1,0,0:0:0:0:
484,92,30028,2,0,L|396:92,1,70,8|0,0:0|0:0,0:0:0:0:
276,92,30334,2,0,L|229:155,1,70,0|0,0:0|0:0,0:0:0:0:
484,92,30640,5,2,1:2:0:0:
414,194,30793,2,0,P|374:146|418:90,1,140,0|0,1:2|0:0,0:0:0:0:
172,112,31253,2,0,L|104:134,1,70,8|0,0:0|0:0,0:0:0:0:
216,136,31559,5,0,1:2:0:0:
104,135,31712,2,0,L|64:204,1,70,0|0,1:2|0:0,0:0:0:0:
300,208,32018,1,8,0:0:0:0:
200,196,32171,2,0,L|200:120,1,70,0|0,1:2|0:0,0:0:0:0:
418,148,32477,2,0,L|452:224,1,70,8|0,0:0|1:2,0:0:0:0:
328,216,32783,1,8,0:0:0:0:
446,211,32936,1,8,0:0:0:0:
156,148,33089,6,0,P|80:196|68:236,1,112,4|0,1:2|0:0,0:0:0:0:
360,168,33701,2,0,L|460:240,1,112,8|0,0:0|1:2,0:0:0:0:
350,238,34161,1,0,1:2:0:0:
445,279,34314,6,0,L|333:251,1,112
92,216,34926,2,0,L|61:161,1,56,8|0,0:0|0:0,0:0:0:0:
156,144,35232,1,0,0:0:0:0:
65,167,35385,1,0,0:0:0:0:
236,108,35538,6,0,L|332:180,1,112,0|0,1:2|0:0,0:0:0:0:
36,176,36150,2,0,P|32:232|104:260,1,112,8|0,0:0|1:2,0:0:0:0:
173,263,36610,1,0,1:2:0:0:
72,263,36763,6,0,L|192:243,1,112,0|0,0:0|1:0,0:0:0:0:
260,276,37222,1,0,0:0:0:0:
92,268,37375,2,0,L|112:204,1,56,8|0,0:0|0:0,0:0:0:0:
224,176,37681,2,0,L|168:176,1,56
336,216,37987,6,0,L|452:216,1,112,0|0,1:2|0:0,0:0:0:0:
208,280,38599,1,8,0:0:0:0:
428,244,38906,1,0,1:2:0:0:
328,244,39059,1,0,1:2:0:0:
428,244,39212,6,0,P|480:208|416:160,1,140
160,192,39824,2,0,L|40:192,1,112,8|0,0:0|0:0,0:0:0:0:
124,112,40283,1,0,0:0:0:0:
292,156,40436,6,0,P|344:208|288:232,1,140,0|0,1:0|0:0,0:0:0:0:
60,240,41048,2,0,L|172:180,1,112,8|0,0:0|1:0,0:0:0:0:
32,160,41508,1,0,1:2:0:0:
192,192,41661,6,0,P|240:224|208:288,1,140,0|0,0:0|1:0,0:0:0:0:
112,320,42120,1,0,0:0:0:0:
272,324,42273,1,8,0:0:0:0:
348,284,42426,1,0,0:0:0:0:
372,200,42579,1,0,0:0:0:0:
336,124,42732,1,0,0:0:0:0:
168,196,42885,6,0,P|128:144|176:96,1,140,0|0,1:2|0:0,0:0:0:0:
392,184,43497,1,8,0:0:0:0:
136,224,43804,1,0,1:2:0:0:
236,224,43957,1,0,1:2:0:0:
136,224,44110,6,0,L|256:224,1,112
464,204,44722,2,0,L|352:232,1,112,8|0,0:0|0:0,0:0:0:0:
264,244,45181,1,0,0:0:0:0:
96,232,45334,6,0,L|208:232,1,112,0|0,1:2|0:0,0:0:0:0:
452,232,45946,1,8,0:0:0:0:
188,192,46253,1,0,1:2:0:0:
288,192,46406,1,0,1:2:0:0:
188,192,46559,6,0,L|68:188,1,112,0|0,0:0|1:0,0:0:0:0:
136,152,47018,1,0,0:0:0:0:
304,152,47171,2,0,L|380:152,1,56,8|0,0:0|0:0,0:0:0:0:
264,232,47477,2,0,L|344:288,1,56
140,240,47783,6,0,P|103:273|140:305,1,112,0|0,1:2|0:0,0:0:0:0:
404,324,48395,1,8,0:0:0:0:
176,264,48701,1,0,1:2:0:0:
76,264,48855,1,0,1:2:0:0:
176,264,49008,6,0,L|272:180,1,112
443,167,49620,2,0,L|324:112,1,112,8|0,0:0|0:0,0:0:0:0:
424,88,50079,1,0,0:0:0:0:
184,104,50232,6,0,P|160:144|240:176,1,140,0|0,1:0|0:0,0:0:0:0:
20,256,50844,1,8,0:0:0:0:
292,264,51150,1,0,1:0:0:0:
188,240,51304,1,0,1:0:0:0:
432,240,51457,2,0,P|480:208|412:160,1,140,0|0,0:0|1:0,0:0:0:0:
192,144,52069,2,0,P|104:197|128:256,1,168,8|0,0:0|0:0,0:0:0:0:
360,128,52681,6,0,L|496:128,1,125.999996154785,6|0,1:2|0:0,0:0:0:0:
336,100,53140,2,0,L|408:100,2,62.9999980773926,0|0|0,1:2|1:2|0:0,0:0:0:0:
424,100,53599,1,0,1:2:0:0:
272,100,53753,2,0,L|124:100,1,125.999996154785,0|0,0:0|1:2,0:0:0:0:
272,68,54212,1,0,1:2:0:0:
76,216,54518,2,0,L|208:216,1,125.999996154785,8|0,0:0|0:0,0:0:0:0:
448,216,55130,6,0,L|312:216,1,125.999996154785,2|0,1:2|0:0,0:0:0:0:
172,180,55589,2,0,L|244:180,2,62.9999980773926,0|0|0,1:2|1:2|0:0,0:0:0:0:
84,180,56048,1,0,1:2:0:0:
212,144,56202,2,0,P|258:173|239:239,1,125.999996154785,0|0,0:0|1:2,0:0:0:0:
127,245,56661,1,0,1:2:0:0:
371,229,56967,2,0,P|435:187|444:136,1,125.999996154785,8|0,0:0|0:0,0:0:0:0:
52,304,57579,6,0,P|24:280|48:172,1,125.999996154785,2|0,1:2|0:0,0:0:0:0:
196,156,58038,2,0,L|272:156,2,62.9999980773926,0|0|0,1:2|1:2|0:0,0:0:0:0:
108,156,58497,1,0,1:2:0:0:
256,100,58651,2,0,L|112:100,1,125.999996154785,0|0,0:0|1:2,0:0:0:0:
256,64,59110,1,0,1:2:0:0:
464,108,59416,2,0,L|400:96,1,62.9999980773926,8|0,0:0|0:0,0:0:0:0:
480,144,59722,1,0,0:0:0:0:
76,156,60028,6,0,L|202:156,1,125.999996154785,2|0,1:2|0:0,0:0:0:0:
288,156,60487,1,0,1:0:0:0:
144,224,60640,2,0,L|92:284,1,62.9999980773926,0|0,1:0|0:0,0:0:0:0:
248,260,60946,2,0,L|392:260,1,125.999996154785,0|0,1:0|0:0,0:0:0:0:
248,260,61406,1,0,1:2:0:0:
374,260,61559,1,0,1:2:0:0:
148,176,61865,2,0,P|80:208|80:272,1,125.999996154785,8|0,0:0|0:0,0:0:0:0:
464,288,62477,6,0,L|344:232,1,125.999996154785,6|0,0:0|0:0,0:0:0:0:
204,192,62936,2,0,L|267:192,2,62.9999980773926,0|8|0,1:2|1:2|0:0,0:0:0:0:
116,192,63395,1,0,1:2:0:0:
268,136,63549,2,0,L|120:136,1,125.999996154785,0|0,0:0|1:2,0:0:0:0:
268,100,64008,1,0,1:2:0:0:
432,132,64314,2,0,L|306:132,1,125.999996154785,8|0,0:0|0:0,0:0:0:0:
8,220,64926,6,0,L|144:220,1,125.999996154785,2|0,1:2|0:0,0:0:0:0:
284,184,65385,2,0,L|212:184,2,62.9999980773926,0|8|0,1:2|1:2|0:0,0:0:0:0:
372,184,65844,1,0,1:2:0:0:
216,144,65998,2,0,L|364:144,1,125.999996154785,0|0,0:0|1:2,0:0:0:0:
216,104,66457,1,0,1:2:0:0:
80,152,66763,2,0,L|212:152,1,125.999996154785,8|0,0:0|0:0,0:0:0:0:
392,232,67375,6,0,L|266:232,1,125.999996154785,2|0,1:2|0:0,0:0:0:0:
388,192,67834,1,0,1:2:0:0:
236,144,67987,1,8,1:2:0:0:
452,136,68293,2,0,P|500:180|452:224,1,125.999996154785,0|0,1:2|0:0,0:0:0:0:
348,248,68753,1,0,1:2:0:0:
476,304,68906,1,0,1:2:0:0:
96,336,69212,1,8,0:0:0:0:
220,240,69441,1,0,0:0:0:0:
44,208,69671,1,0,0:0:0:0:
392,296,69824,6,0,P|456:236|224:72,1,503.999984619141,2|0,1:2|0:0,0:0:0:0:
432,200,71355,1,0,0:0:0:0:
145,304,71661,2,0,L|208:304,3,62.9999980773926,0|0|0|0,0:0|1:2|0:0|0:0,0:0:0:0:
440,304,72273,6,0,L|488:256,1,66.4999982242585,6|0,1:2|0:0,0:0:0:0:
356,248,72579,2,0,L|284:248,1,66.4999982242585,0|0,0:0|0:0,0:0:0:0:
28,252,72885,2,0,L|88:216,1,66.4999982242585,8|0,0:0|0:0,0:0:0:0:
184,192,73191,2,0,L|116:192,1,66.4999982242585,0|0,1:2|1:2,0:0:0:0:
248,192,73497,6,0,L|384:192,1,132.999996448517,0|0,0:0|1:2,0:0:0:0:
208,232,74110,2,0,L|142:232,1,66.4999982242585,8|0,0:0|0:0,0:0:0:0:
272,188,74416,2,0,L|360:188,1,66.4999982242585
60,304,74722,6,0,L|12:256,1,66.4999982242585,0|0,1:2|0:0,0:0:0:0:
136,248,75028,2,0,L|212:248,1,66.4999982242585
424,248,75334,2,0,L|356:248,1,66.4999982242585,8|0,0:0|0:0,0:0:0:0:
492,204,75640,2,0,L|488:120,1,66.4999982242585,0|0,1:0|1:0,1:0:0:0:
372,136,75946,5,0,0:0:0:0:
504,76,76099,1,8,0:0:0:0:
240,152,76253,2,0,L|172:152,1,66.4999982242585,0|0,1:0|0:0,0:0:0:0:
416,164,76559,2,0,P|472:224|464:296,1,132.999996448517,8|0,0:0|0:0,0:0:0:0:
44,160,77171,6,0,L|84:108,1,66.4999982242585,0|0,1:0|0:0,0:0:0:0:
236,112,77477,2,0,L|264:184,1,66.4999982242585,0|0,0:2|0:0,0:0:0:0:
24,160,77783,1,8,0:0:0:0:
220,260,78089,2,0,L|152:260,1,66.4999982242585,0|0,1:2|1:2,0:0:0:0:
440,252,78395,5,0,0:0:0:0:
492,192,78548,1,0,0:0:0:0:
448,128,78701,1,0,1:2:0:0:
372,120,78855,1,0,0:0:0:0:
152,120,79008,2,0,L|96:72,1,66.4999982242585,8|0,0:0|0:0,0:0:0:0:
232,100,79314,2,0,L|176:48,1,66.4999982242585
404,160,79620,5,0,1:2:0:0:
305,128,79773,1,0,1:2:0:0:
404,160,79926,2,0,L|488:160,1,66.4999982242585
209,244,80232,2,0,P|144:186|174:160,1,132.999996448517,8|0,0:0|1:2,0:0:0:0:
288,160,80691,6,0,L|288:88,1,66.4999982242585,0|0,1:2|0:0,0:0:0:0:
156,88,80997,1,8,0:0:0:0:
372,116,81150,2,0,L|440:116,1,66.4999982242585,0|0,1:0|0:0,0:0:0:0:
140,232,81457,2,0,L|44:232,1,66.4999982242585,8|0,0:0|1:2,0:0:0:0:
208,192,81763,1,8,0:0:0:0:
76,172,81916,1,8,0:0:0:0:
312,228,82069,6,0,L|396:200,1,66.4999982242585,6|0,1:2|0:0,0:0:0:0:
504,160,82375,2,0,L|432:160,1,66.4999982242585
112,152,82681,2,0,L|48:104,1,66.4999982242585,8|0,0:0|0:0,0:0:0:0:
163,113,82987,1,0,1:2:0:0:
58,112,83140,1,0,1:2:0:0:
163,113,83293,6,0,L|303:113,1,132.999996448517,0|0,0:0|1:2,0:0:0:0:
88,160,83906,2,0,L|40:220,1,66.4999982242585,8|0,0:0|0:0,0:0:0:0:
184,196,84212,2,0,L|124:224,1,66.4999982242585
344,172,84518,6,0,L|388:120,1,66.4999982242585,0|0,1:2|0:0,0:0:0:0:
252,96,84824,2,0,L|328:96,1,66.4999982242585
88,140,85130,2,0,L|40:92,1,66.4999982242585,8|0,0:0|0:0,0:0:0:0:
352,144,85436,2,0,L|352:72,1,66.4999982242585,0|0,1:2|1:2,0:0:0:0:
248,48,85742,5,0,0:0:0:0:
384,64,85895,1,8,0:0:0:0:
88,140,86048,2,0,L|22:140,1,66.4999982242585,0|0,1:0|0:0,0:0:0:0:
264,184,86355,2,0,L|184:300,1,132.999996448517,8|0,0:0|0:0,0:0:0:0:
476,216,86967,6,0,L|436:164,1,66.4999982242585,0|0,1:2|0:0,0:0:0:0:
308,176,87273,2,0,L|348:228,1,66.4999982242585,0|0,0:0|0:0,0:0:0:0:
128,240,87579,1,8,0:0:0:0:
352,288,87885,1,0,1:2:0:0:
252,288,88038,1,0,1:2:0:0:
352,288,88191,6,0,L|208:288,1,132.999996448517,0|0,0:0|1:2,0:0:0:0:
288,240,88651,1,0,0:0:0:0:
60,280,88804,2,0,L|36:208,1,66.4999982242585,8|0,0:0|0:0,0:0:0:0:
168,180,89110,2,0,L|144:108,1,66.4999982242585
412,140,89416,5,0,1:2:0:0:
312,140,89569,1,0,1:2:0:0:
412,140,89722,2,0,L|460:188,1,66.4999982242585,0|0,0:0|0:0,0:0:0:0:
192,224,90028,2,0,L|240:176,1,66.4999982242585,8|0,0:0|0:0,0:0:0:0:
100,168,90334,2,0,L|100:88,1,66.4999982242585,0|0,1:0|1:0,1:0:0:0:
216,68,90640,5,0,0:0:0:0:
80,40,90793,1,8,0:0:0:0:
352,88,90946,2,0,L|428:132,1,66.4999982242585,0|0,1:0|0:0,0:0:0:0:
144,280,91253,2,0,L|44:280,1,66.4999982242585,8|0,0:0|0:0,0:0:0:0:
219,280,91559,1,8,0:0:0:0:
77,280,91712,1,8,0:0:0:0:
392,268,91865,6,0,L|244:260,2,93.3333333333333,6|0|0,1:2|0:0|0:0,0:0:0:0:
76,268,92477,2,0,L|176:244,2,93.3333333333333,10|0|0,1:2|0:0|0:0,0:0:0:0:
272,168,93089,2,0,L|164:152,2,93.3333333333333,0|0|0,1:2|0:0|0:0,0:0:0:0:
0,172,93701,2,0,P|48:96|152:76,1,140,8|0,0:2|0:0,0:0:0:0:
380,84,94314,6,0,L|480:84,2,93.3333333333333,6|0|0,1:2|0:0|0:0,0:0:0:0:
112,224,94926,2,0,L|16:224,2,93.3333333333333,10|0|0,1:2|0:0|0:0,0:0:0:0:
296,200,95538,2,0,L|164:200,2,93.3333333333333,2|0|0,1:2|0:0|0:0,0:0:0:0:
28,192,96150,2,0,P|60:130|120:95,1,140,10|0,0:0|0:0,0:0:0:0:
412,92,96763,6,0,L|476:196,1,93.3333333333333,6|0,1:2|0:0,0:0:0:0:
324,176,97171,1,0,0:0:0:0:
16,168,97375,2,0,L|76:280,1,93.3333333333333,10|0,1:2|0:0,0:0:0:0:
208,248,97783,1,0,0:0:0:0:
60,250,97987,2,0,L|32:340,1,93.3333333333333,2|0,1:2|0:0,0:0:0:0:
164,248,98395,1,0,0:0:0:0:
432,228,98599,2,0,P|388:140|312:140,1,140,10|4,1:2|1:2,0:0:0:0:
120,192,99212,5,6,1:2:0:0:
48,160,99365,2,0,P|96:104|236:72,1,210,0|8,1:2|0:0,0:0:0:0:
484,180,100130,5,0,1:2:0:0:
356,180,100283,2,0,L|440:180,2,70,0|0|8,1:0|0:0|0:0,0:0:0:0:
216,296,100742,2,0,P|128:256|124:180,1,140,0|8,1:2|0:0,0:0:0:0:
320,168,101355,2,8,L|404:168,1,70
168,168,101661,6,0,P|132:196|180:268,1,140,4|0,1:2|0:0,0:0:0:0:
256,272,102121,1,0,0:0:0:0:
28,332,102274,2,0,L|102:332,1,70,8|0,0:0|0:0,0:0:0:0:
368,316,102580,5,0,1:2:0:0:
464,288,102733,2,0,P|456:232|356:220,1,140,0|0,1:2|0:0,0:0:0:0:
240,208,103192,2,0,L|152:208,1,70,0|0,1:2|0:0,0:0:0:0:
384,184,103498,2,0,L|424:108,1,70,8|0,0:0|0:0,0:0:0:0:
316,120,103804,1,0,0:0:0:0:
424,100,103957,1,0,0:0:0:0:
120,64,104110,6,0,P|72:60|24:128,1,140,0|0,1:2|0:0,0:0:0:0:
136,156,104570,1,0,0:0:0:0:
432,152,104723,2,0,L|362:152,1,70,8|0,0:0|0:0,0:0:0:0:
31,156,105029,5,0,1:2:0:0:
112,152,105182,2,0,L|40:152,1,70,0|0,1:2|0:0,0:0:0:0:
340,88,105488,2,0,L|412:88,2,70,8|0|0,0:0|1:2|0:0,0:0:0:0:
124,144,105946,1,8,0:0:0:0:
56,208,106099,1,0,0:0:0:0:
48,304,106253,1,0,0:0:0:0:
128,360,106406,1,0,0:0:0:0:
408,216,106559,6,0,P|460:208|504:132,1,140,2|0,1:2|0:0,0:0:0:0:
428,136,107019,1,0,0:0:0:0:
184,188,107172,2,0,L|132:124,1,70,8|0,0:0|0:0,0:0:0:0:
480,216,107478,5,0,1:2:0:0:
400,216,107631,2,0,P|404:168|496:132,1,140,0|0,1:2|0:0,0:0:0:0:
340,128,108090,2,0,L|420:128,1,70,0|0,1:2|0:0,0:0:0:0:
144,128,108395,1,8,0:0:0:0:
188,88,108548,1,0,0:0:0:0:
260,64,108701,1,0,0:0:0:0:
342,60,108855,1,0,0:0:0:0:
76,60,109008,5,2,1:2:0:0:
160,60,109161,2,0,B|13:60,1,140,0|0,1:2|0:0,0:0:0:0:
312,136,109621,2,0,L|312:208,1,70,8|0,0:0|0:0,0:0:0:0:
204,204,109927,5,0,1:2:0:0:
320,244,110080,2,0,L|400:244,1,70,0|0,1:2|0:0,0:0:0:0:
108,200,110386,1,8,0:0:0:0:
192,200,110539,2,0,L|96:200,1,70,0|0,1:2|0:0,0:0:0:0:
382,207,110845,2,0,L|382:123,1,70,8|0,0:0|1:2,0:0:0:0:
256,124,111150,1,8,0:0:0:0:
388,124,111304,1,8,0:0:0:0:
120,124,111457,5,4,0:0:0:0:
256,192,111610,12,6,113906,1:2:0:0:
