osu file format v14

[General]
AudioFilename: Akikaze no Answer.mp3
AudioLeadIn: 0
PreviewTime: 71148
Countdown: 0
SampleSet: Soft
StackLeniency: 0.7
Mode: 0
LetterboxInBreaks: 1
EpilepsyWarning: 1
WidescreenStoryboard: 1

[Editor]
DistanceSpacing: 1.7
BeatDivisor: 4
GridSize: 4
TimelineZoom: 0.5999999

[Metadata]
Title:Akikaze no Answer
TitleUnicode:秋風のアンサー
Artist:Flower
ArtistUnicode:Flower
Creator:Kanari
Version:Normal
Source:ビンタ!〜弁護士事務員ミノワが愛で解決します〜
Tags:Hanadokei Mio Nakajima Shuuka Fujii Manami Shigetome Reina Washio Kyoka Ichiki Nozomi Bando Harumi Sato Chiharu Muto Kuey walaowey
BeatmapID:1244643
BeatmapSetID:453713

[Difficulty]
HPDrainRate:4
CircleSize:3
OverallDifficulty:4
ApproachRate:5
SliderMultiplier:1.5
SliderTickRate:1

[Events]
//Background and Video events
0,0,"bg.jpg",0,0
//Break Periods
2,214461,222857
2,224257,232653
//Storyboard Layer 0 (Background)
//Storyboard Layer 1 (Fail)
//Storyboard Layer 2 (Pass)
//Storyboard Layer 3 (Foreground)
//Storyboard Sound Samples

[TimingPoints]
1200,612.244897959184,4,2,4,15,1,0
10842,-100,4,2,4,10,0,0
12832,-100,4,2,4,5,0,0
13138,-100,4,2,4,30,0,0
13291,-100,4,2,4,40,0,0
13444,-100,4,2,4,50,0,0
33036,-133.333333333333,4,2,2,50,0,0
52628,-133.333333333333,4,2,3,60,0,0
72220,-100,4,2,4,70,0,1
91659,-100,4,2,4,70,0,0
91812,-100,4,2,4,70,0,1
101608,-100,4,2,4,60,0,0
111404,-133.333333333333,4,2,2,35,0,0
121200,-133.333333333333,4,2,2,50,0,0
130383,-133.333333333333,4,2,2,50,0,0
130995,-133.333333333333,4,2,3,60,0,0
150587,-100,4,2,4,70,0,1
170026,-100,4,2,4,70,0,0
170179,-100,4,2,4,70,0,1
179975,-100,4,2,4,60,0,0
189771,-100,4,2,4,60,0,1
190383,-100,4,2,4,60,0,0
209516,-100,4,2,4,40,0,0
211200,-100,4,2,4,30,0,0
213036,-100,4,2,4,20,0,0
214261,-100,4,2,4,50,0,1
214873,-100,4,2,4,50,0,0
231404,-100,4,2,4,30,0,0
232016,-100,4,2,4,40,0,0
232628,-100,4,2,4,50,0,0
233240,-100,4,2,4,60,0,0
233853,-100,4,2,4,70,0,1
253291,-100,4,2,4,70,0,0
253444,-100,4,2,4,70,0,1
263240,-100,4,2,4,60,0,0
273036,-133.333333333333,4,2,4,40,0,0
273189,-133.333333333333,4,2,4,30,0,0
275485,-133.333333333333,4,2,4,20,0,0
278546,-133.333333333333,4,2,4,15,0,0
283062,-133.333333333333,4,2,4,10,0,0
285281,-133.333333333333,4,2,4,5,0,0

[Colours]
Combo1 : 255,128,255
Combo2 : 128,255,255
Combo3 : 255,255,128
Combo4 : 128,128,255

[HitObjects]
60,116,1200,6,0,P|108:68|192:44,2,150,2|0|2,0:0|0:0|0:0,0:0:0:0:
188,192,3036,1,0,0:0:0:0:
320,264,3648,2,0,P|266:315|194:335,2,150,2|0|2,0:0|0:0|0:0,0:0:0:0:
384,128,5485,1,0,0:0:0:0:
248,64,6097,6,0,P|108:88|76:228,1,300,2|2,0:0|0:0,0:0:0:0:
216,276,7934,2,0,L|296:224,1,75
360,192,8546,2,0,P|456:192|384:316,2,300,2|2|2,0:0|0:0|0:0,0:0:0:0:
52,68,13138,1,2,0:0:0:0:
52,68,13444,6,0,P|32:140|52:216,1,150,4|8,0:0|0:0,0:0:0:0:
124,264,14363,1,2,0:0:0:0:
212,252,14669,2,0,P|280:228|356:236,1,150,0|8,0:0|0:0,0:0:0:0:
436,280,15587,1,2,0:0:0:0:
488,208,15893,2,0,L|508:60,1,150,0|8,0:0|0:0,0:0:0:0:
420,36,16812,1,2,0:0:0:0:
332,32,17118,2,0,L|256:40,2,75,0|2|8,0:0|0:0|0:0,0:0:0:0:
304,208,18342,6,0,B|208:248|160:172|84:208,2,225,0|2|8,0:0|0:0|0:0,0:0:0:0:
372,148,20485,1,2,0:0:0:0:
460,172,20791,2,0,P|476:248|376:344,2,225,0|2|8,0:0|0:0|0:0,0:0:0:0:
324,52,23240,6,0,P|248:36|172:40,1,150,4|8,0:0|0:0,0:0:0:0:
92,72,24159,2,0,L|16:204,1,150,2|2,0:0|0:0,0:0:0:0:
24,292,25077,2,0,P|88:280|108:256,1,75,8|2,0:0|0:0,0:0:0:0:
152,204,25689,2,0,P|196:164|288:156,1,150,0|8,0:0|0:0,0:0:0:0:
308,240,26608,2,0,P|264:280|172:288,1,150,2|2,0:0|0:0,0:0:0:0:
88,268,27526,1,8,0:0:0:0:
36,96,28138,6,0,P|88:40|160:40,1,150,0|8,0:0|0:0,0:0:0:0:
216,108,29057,1,2,0:0:0:0:
232,196,29363,2,0,P|268:200|308:188,1,75,0|2,0:0|0:0,0:0:0:0:
372,128,29975,2,0,P|407:117|444:121,1,75,8|2,0:0|0:0,0:0:0:0:
480,204,30587,2,0,B|444:256|504:292|464:348,2,150,0|8|0,0:0|0:0|0:0,0:0:0:0:
484,112,32118,1,2,0:0:0:0:
424,44,32424,2,0,L|344:36,1,75,8|2,0:0|0:0,0:0:0:0:
260,32,33036,6,0,P|216:56|204:116,1,112.500004291535,4|8,0:0|0:0,0:0:0:0:
280,164,33955,1,2,0:0:0:0:
312,248,34261,2,0,P|302:301|255:329,1,112.500004291535,0|8,0:0|0:0,0:0:0:0:
164,332,35179,1,2,0:0:0:0:
76,312,35485,2,0,P|40:220|76:164,1,168.750006437302,0|2,0:0|0:0,0:0:0:0:
160,144,36710,2,0,L|220:120,1,56.2500021457673,0|2,0:0|0:0,0:0:0:0:
160,48,37322,2,0,L|100:72,1,56.2500021457673,8|2,0:0|0:0,0:0:0:0:
76,152,37934,6,0,P|104:212|144:228,1,112.500004291535,0|8,0:0|0:0,0:0:0:0:
236,220,38853,1,2,0:0:0:0:
324,204,39159,2,0,L|380:196,2,56.2500021457673,0|2|8,0:0|0:0|0:0,0:0:0:0:
292,120,40077,1,2,0:0:0:0:
208,84,40383,2,0,L|152:92,1,56.2500021457673,0|2,0:0|0:0,0:0:0:0:
72,132,40995,2,0,P|60:160|60:188,1,56.2500021457673,8|2,0:0|0:0,0:0:0:0:
140,228,41608,2,0,P|152:200|152:172,1,56.2500021457673,0|2,0:0|0:0,0:0:0:0:
200,100,42220,1,8,0:0:0:0:
288,84,42526,1,2,0:0:0:0:
376,84,42832,6,0,P|428:96|472:140,1,112.500004291535,0|8,0:0|0:0,0:0:0:0:
476,228,43751,1,2,0:0:0:0:
476,228,44057,2,0,P|424:216|380:172,1,112.500004291535,0|8,0:0|0:0,0:0:0:0:
240,284,45281,2,0,L|124:292,1,112.500004291535,0|8,0:0|0:0,0:0:0:0:
44,256,46200,1,2,0:0:0:0:
44,256,46506,2,0,L|56:200,1,56.2500021457673,0|2,0:0|0:0,0:0:0:0:
140,192,47118,2,0,L|152:136,1,56.2500021457673,8|2,0:0|0:0,0:0:0:0:
212,76,47730,6,0,P|260:44|316:44,1,112.500004291535,0|8,0:0|0:0,0:0:0:0:
388,92,48648,1,2,0:0:0:0:
388,92,48955,2,0,P|419:137|420:193,1,112.500004291535,0|8,0:0|0:0,0:0:0:0:
344,244,49873,1,2,0:0:0:0:
260,272,50179,2,0,L|184:292,1,56.2500021457673,0|2,0:0|0:0,0:0:0:0:
176,200,50791,2,0,L|252:180,1,56.2500021457673,8|2,0:0|0:0,0:0:0:0:
316,160,51404,1,0,0:0:0:0:
296,72,51710,1,2,0:0:0:0:
208,92,52016,2,0,L|132:112,1,56.2500021457673,8|2,0:0|0:0,0:0:0:0:
68,136,52628,6,0,P|48:184|60:248,1,112.500004291535,4|8,0:0|0:0,0:0:0:0:
135,286,53546,2,0,L|223:266,2,84.3750032186509,2|0|8,0:0|0:0|0:0,0:0:0:0:
57,242,54771,1,2,0:0:0:0:
40,152,55077,2,0,P|40:101|52:64,2,84.3750032186509,0|0|2,0:0|0:0|0:0,0:0:0:0:
80,172,56148,2,0,L|180:160,1,84.3750032186509,0|2,0:0|0:0,0:0:0:0:
224,96,56914,2,0,L|288:88,1,56.2500021457673,8|2,0:0|0:0,0:0:0:0:
369,85,57526,6,0,P|425:85|457:99,2,84.3750032186509,0|0|2,0:0|0:0|0:0,0:0:0:0:
399,169,58751,2,0,P|345:176|296:144,1,112.500004291535,0|8,0:0|0:0,0:0:0:0:
218,104,59669,1,2,0:0:0:0:
138,62,59975,2,0,P|106:62|78:70,1,56.2500021457673,0|2,0:0|0:0,0:0:0:0:
36,145,60587,2,0,P|24:174|23:203,1,56.2500021457673,8|2,0:0|0:0,0:0:0:0:
74,272,61200,2,0,L|134:272,1,56.2500021457673,0|2,0:0|0:0,0:0:0:0:
216,296,61812,1,8,0:0:0:0:
305,288,62118,1,2,0:0:0:0:
373,229,62424,6,0,P|393:169|389:117,1,112.500004291535,0|8,0:0|0:0,0:0:0:0:
332,52,63342,1,2,0:0:0:0:
244,36,63648,2,0,L|176:36,1,56.2500021457673,0|2,0:0|0:0,0:0:0:0:
116,88,64261,2,0,P|100:115|96:140,1,56.2500021457673,8|2,0:0|0:0,0:0:0:0:
164,196,64873,2,0,P|179:168|184:144,1,56.2500021457673,0|2,0:0|0:0,0:0:0:0:
256,88,65485,2,0,L|320:88,2,56.2500021457673,8|2|0,0:0|0:0|0:0,0:0:0:0:
184,143,66404,1,2,0:0:0:0:
149,226,66710,1,8,0:0:0:0:
230,263,67016,1,2,0:0:0:0:
267,181,67322,6,0,P|326:178|379:188,1,112.500004291535,0|8,0:0|0:0,0:0:0:0:
466,169,68240,1,2,0:0:0:0:
446,81,68546,2,0,P|390:90|334:87,1,112.500004291535,0|8,0:0|0:0,0:0:0:0:
249,57,69465,1,2,0:0:0:0:
159,53,69771,2,0,L|88:57,2,56.2500021457673,0|2|0,0:0|0:0|0:0,0:0:0:0:
192,136,70689,2,0,L|140:177,2,56.2500021457673,2|0|2,0:0|0:0|0:0,0:0:0:0:
281,127,71608,2,0,L|341:141,1,56.2500021457673,0|2,0:0|0:0,0:0:0:0:
429,166,72220,6,0,P|451:227|408:304,1,150,4|8,0:0|0:0,0:0:0:0:
349,226,73138,1,2,0:0:0:0:
253,208,73444,2,0,L|173:211,1,75,0|2,0:0|0:0,0:0:0:0:
80,216,74057,2,0,L|38:225,2,37.5,8|0|2,0:0|0:0|0:0,0:0:0:0:
141,140,74669,2,0,P|190:108|223:96,1,75,0|2,0:0|0:0,0:0:0:0:
301,86,75281,2,0,P|350:101|385:96,1,75,8|2,0:0|0:0,0:0:0:0:
469,85,75893,1,0,0:0:0:0:
488,180,76200,1,2,0:0:0:0:
395,209,76506,2,0,P|370:251|362:281,1,75,8|2,0:0|0:0,0:0:0:0:
269,302,77118,6,0,L|186:300,1,75,0|2,0:0|0:0,0:0:0:0:
185,203,77730,1,8,0:0:0:0:
269,154,78036,1,2,0:0:0:0:
355,198,78342,2,0,L|419:153,2,75,0|2|8,0:0|0:0|0:0,0:0:0:0:
378,292,79261,1,2,0:0:0:0:
475,296,79567,6,0,P|493:256|499:220,1,75,0|2,0:0|0:0,0:0:0:0:
485,128,80179,2,0,P|442:107|418:78,1,75,8|2,0:0|0:0,0:0:0:0:
331,55,80791,1,0,0:0:0:0:
233,52,81097,1,2,0:0:0:0:
137,71,81404,2,0,L|86:64,2,37.5,8|0|2,0:0|0:0|0:0,0:0:0:0:
188,153,82016,6,0,L|126:228,1,75,4|2,0:0|0:0,0:0:0:0:
186,296,82628,2,0,L|238:237,1,75,8|2,0:0|0:0,0:0:0:0:
303,170,83240,2,0,P|341:164|380:167,1,75,0|2,0:0|0:0,0:0:0:0:
451,229,83853,1,8,0:0:0:0:
451,229,84006,1,0,0:0:0:0:
451,229,84159,1,2,0:0:0:0:
511,152,84465,6,0,L|481:79,1,75,0|2,0:0|0:0,0:0:0:0:
388,58,85077,2,0,P|347:60|308:53,1,75,8|2,0:0|0:0,0:0:0:0:
216,50,85689,1,0,0:0:0:0:
130,97,85995,2,0,L|87:93,2,37.5,2|0|8,0:0|0:0|0:0,0:0:0:0:
103,191,86608,1,2,0:0:0:0:
200,185,86914,6,0,P|276:182|350:208,1,150,0|8,0:0|0:0,0:0:0:0:
426,258,87832,1,2,0:0:0:0:
466,169,88138,2,0,P|419:115|346:83,1,150,0|8,0:0|0:0,0:0:0:0:
254,57,89057,1,2,0:0:0:0:
157,73,89363,2,0,L|54:129,2,112.5,0|0|2,0:0|0:0|0:0,0:0:0:0:
200,160,90587,1,0,0:0:0:0:
284,207,90893,1,2,0:0:0:0:
381,204,91200,2,0,P|421:202|459:210,1,75,8|2,0:0|0:0,0:0:0:0:
411,295,91812,6,0,P|333:324|247:306,1,150,4|8,0:0|0:0,0:0:0:0:
186,262,92730,1,2,0:0:0:0:
225,172,93036,2,0,P|253:186|284:243,2,75,0|2|8,0:0|0:0|0:0,0:0:0:0:
112,331,94261,2,0,P|173:345|264:338,1,150,0|8,0:0|0:0,0:0:0:0:
329,270,95179,1,2,0:0:0:0:
350,174,95485,2,0,L|424:168,1,75,0|2,0:0|0:0,0:0:0:0:
452,75,96097,2,0,L|374:78,1,75,8|2,0:0|0:0,0:0:0:0:
281,58,96710,6,0,P|203:87|163:139,1,150,0|8,0:0|0:0,0:0:0:0:
134,232,97628,1,2,0:0:0:0:
167,323,97934,2,0,L|264:311,1,75,0|2,0:0|0:0,0:0:0:0:
323,260,98546,2,0,L|397:250,1,75,8|2,0:0|0:0,0:0:0:0:
385,153,99159,2,0,P|294:65|229:186,1,300
129,189,100689,2,0,P|120:148|124:110,2,75,2|8|2,0:0|0:0|0:0,0:0:0:0:
103,283,101608,6,0,B|233:436|381:179|515:348,1,450,4|8,0:0|0:0,0:0:0:0:
507,149,104057,2,0,P|377:170|403:41,1,300
298,29,105587,1,2,0:0:0:0:
200,35,105893,2,0,P|166:48|123:45,1,75,8|2,0:0|0:0,0:0:0:0:
71,126,106506,6,0,B|49:81|-15:105|-14:165|-14:165|-11:221|50:238|57:314|57:314|101:252|163:268|193:220|193:220|224:170|180:116|138:143,1,600
330,88,109567,2,0,P|390:93|474:59,1,150,8|0,0:0|0:0,0:0:0:0:
489,254,110791,2,0,L|414:253,1,75,8|2,0:0|0:0,0:0:0:0:
325,270,111404,6,0,P|334:209|377:171,1,112.500004291535,4|0,0:0|0:0,0:0:0:0:
245,44,112628,2,0,L|132:49,1,112.500004291535
16,186,113853,2,0,L|129:181,1,112.500004291535
271,289,115077,2,0,P|324:296|381:287,1,112.500004291535
424,207,115995,1,2,0:0:0:0:
381,127,116302,6,0,P|328:120|271:129,2,112.500004291535
470,120,117832,2,0,L|499:57,1,56.2500021457673,2|0,0:0|0:0,0:0:0:0:
408,39,118444,1,2,0:0:0:0:
318,31,118751,2,0,L|257:38,1,56.2500021457673,0|2,0:0|0:0,0:0:0:0:
216,115,119363,2,0,L|155:122,1,56.2500021457673,0|2,0:0|0:0,0:0:0:0:
110,196,119975,2,0,L|49:203,2,56.2500021457673,0|2|0,0:0|0:0|0:0,0:0:0:0:
196,220,120893,1,2,0:0:0:0:
281,192,121200,6,0,P|357:178|408:176,1,112.500004291535,0|8,0:0|0:0,0:0:0:0:
460,234,122118,1,2,0:0:0:0:
400,301,122424,2,0,L|341:316,1,56.2500021457673,0|2,0:0|0:0,0:0:0:0:
258,293,123036,2,0,L|199:308,1,56.2500021457673,8|2,0:0|0:0,0:0:0:0:
163,226,123648,2,0,P|114:198|28:257,1,168.750006437302,0|2,0:0|0:0,0:0:0:0:
61,337,124873,2,0,L|116:330,1,56.2500021457673,0|2,0:0|0:0,0:0:0:0:
206,340,125485,2,0,L|261:333,1,56.2500021457673,8|2,0:0|0:0,0:0:0:0:
292,248,126097,6,0,P|350:230|426:243,1,112.500004291535,0|8,0:0|0:0,0:0:0:0:
479,189,127016,2,0,L|499:165,2,28.1250010728836,2|0|0,0:0|0:0|0:0,0:0:0:0:
403,140,127628,2,0,L|338:129,1,56.2500021457673,2|8,0:0|0:0,0:0:0:0:
258,114,128240,1,2,0:0:0:0:
169,97,128546,2,0,P|143:112|123:130,1,56.2500021457673,0|2,0:0|0:0,0:0:0:0:
116,219,129159,1,8,0:0:0:0:
154,300,129465,1,2,0:0:0:0:
234,339,129771,2,0,L|272:343,2,28.1250010728836,0|0|2,0:0|0:0|0:0,0:0:0:0:
246,249,130383,2,0,L|274:222,2,28.1250010728836,8|0|2,0:0|0:0|0:0,0:0:0:0:
171,198,130995,6,0,P|187:141|220:99,1,112.500004291535,4|8,0:0|0:0,0:0:0:0:
303,65,131914,1,2,0:0:0:0:
382,107,132220,2,0,L|375:233,1,112.500004291535,0|8,0:0|0:0,0:0:0:0:
291,251,133138,1,2,0:0:0:0:
212,206,133444,2,0,P|152:195|95:195,1,112.500004291535,0|8,0:0|0:0,0:0:0:0:
41,262,134363,1,2,0:0:0:0:
82,341,134669,2,0,P|142:352|199:352,1,112.500004291535,0|8,0:0|0:0,0:0:0:0:
279,325,135587,1,2,0:0:0:0:
357,281,135893,6,0,L|368:221,1,56.2500021457673,0|2,0:0|0:0,0:0:0:0:
431,161,136506,2,0,L|437:94,1,56.2500021457673,8|2,0:0|0:0,0:0:0:0:
363,52,137118,2,0,P|308:63|239:67,1,112.500004291535,0|8,0:0|0:0,0:0:0:0:
162,54,138036,1,2,0:0:0:0:
91,109,138342,2,0,L|66:169,1,56.2500021457673,0|2,0:0|0:0,0:0:0:0:
126,230,138955,1,8,0:0:0:0:
211,203,139261,1,2,0:0:0:0:
252,282,139567,2,0,P|306:276|324:273,1,56.2500021457673,0|2,0:0|0:0,0:0:0:0:
368,209,140179,2,0,L|423:202,1,56.2500021457673,8|2,0:0|0:0,0:0:0:0:
489,264,140791,6,0,P|474:345|442:371,1,112.500004291535,4|8,0:0|0:0,0:0:0:0:
403,289,141710,2,0,L|347:295,2,56.2500021457673,2|0|2,0:0|0:0|0:0,0:0:0:0:
404,199,142628,2,0,L|342:205,1,56.2500021457673,8|2,0:0|0:0,0:0:0:0:
258,197,143240,2,0,P|247:142|254:86,1,112.500004291535,0|8,0:0|0:0,0:0:0:0:
175,42,144159,1,2,0:0:0:0:
152,129,144465,2,0,P|158:185|172:246,1,112.500004291535,0|8,0:0|0:0,0:0:0:0:
247,286,145383,1,2,0:0:0:0:
336,280,145689,5,0,0:0:0:0:
378,200,145995,2,0,L|397:157,2,28.1250010728836,2|0|8,0:0|0:0|0:0,0:0:0:0:
287,203,146608,1,2,0:0:0:0:
197,210,146914,2,0,L|178:253,2,28.1250010728836,0|0|2,0:0|0:0|0:0,0:0:0:0:
227,125,147526,2,0,L|250:62,1,56.2500021457673,8|2,0:0|0:0,0:0:0:0:
329,39,148138,2,0,P|373:34|433:41,2,84.3750032186509,0|0|2,0:0|0:0|0:0,0:0:0:0:
246,72,149363,2,0,L|227:125,1,56.2500021457673,0|2,0:0|0:0,0:0:0:0:
210,213,149975,2,0,L|232:242,2,28.1250010728836,8|0|2,0:0|0:0|0:0,0:0:0:0:
130,156,150587,6,0,L|53:173,1,75,4|2,0:0|0:0,0:0:0:0:
40,268,151200,2,0,L|117:251,1,75,8|2,0:0|0:0,0:0:0:0:
209,236,151812,2,0,P|266:231|307:241,1,75,0|2,0:0|0:0,0:0:0:0:
374,268,152424,2,0,L|390:301,2,37.5,8|0|2,0:0|0:0|0:0,0:0:0:0:
365,170,153036,6,0,P|374:115|390:86,1,75,0|2,0:0|0:0,0:0:0:0:
296,51,153648,1,8,0:0:0:0:
198,48,153955,1,2,0:0:0:0:
107,84,154261,2,0,P|62:118|48:149,1,75,0|2,0:0|0:0,0:0:0:0:
141,173,154873,1,8,0:0:0:0:
236,192,155179,1,2,0:0:0:0:
324,147,155485,6,0,P|367:146|398:149,1,75,0|2,0:0|0:0,0:0:0:0:
445,232,156097,1,8,0:0:0:0:
373,298,156404,1,2,0:0:0:0:
281,263,156710,2,0,L|205:228,2,75,0|0|8,0:0|0:0|0:0,0:0:0:0:
373,298,157628,1,2,0:0:0:0:
445,232,157934,2,0,P|464:197|469:160,1,75,0|2,0:0|0:0,0:0:0:0:
378,127,158546,1,8,0:0:0:0:
287,88,158853,2,0,P|268:123|263:160,2,75,2|0|2,0:0|0:0|0:0,0:0:0:0:
371,40,159771,2,0,L|418:26,2,37.5,8|0|2,0:0|0:0|0:0,0:0:0:0:
406,130,160383,6,0,P|441:150|481:159,1,75,4|2,0:0|0:0,0:0:0:0:
485,255,160995,1,8,0:0:0:0:
387,265,161302,1,2,0:0:0:0:
294,234,161608,2,0,P|260:254|233:277,1,75,0|2,0:0|0:0,0:0:0:0:
157,338,162220,1,8,0:0:0:0:
157,338,162373,1,0,0:0:0:0:
157,338,162526,1,2,0:0:0:0:
80,277,162832,6,0,P|51:252|19:234,1,75,0|2,0:0|0:0,0:0:0:0:
33,137,163444,2,0,L|106:152,1,75,8|2,0:0|0:0,0:0:0:0:
202,136,164057,1,0,0:0:0:0:
297,153,164363,2,0,L|323:127,2,37.5,2|0|8,0:0|0:0|0:0,0:0:0:0:
237,230,164975,1,2,0:0:0:0:
181,310,165281,6,0,P|271:320|315:286,1,150,0|8,0:0|0:0,0:0:0:0:
333,190,166200,1,2,0:0:0:0:
330,92,166506,2,0,L|248:76,1,75,0|2,0:0|0:0,0:0:0:0:
178,135,167118,1,8,0:0:0:0:
258,189,167424,1,2,0:0:0:0:
355,189,167730,6,0,P|418:168|436:118,2,112.5,0|0|2,0:0|0:0|0:0,0:0:0:0:
258,189,168955,2,0,L|165:239,1,75,0|2,0:0|0:0,0:0:0:0:
95,207,169567,1,8,0:0:0:0:
106,303,169873,1,2,0:0:0:0:
106,303,170026,1,0,0:0:0:0:
106,303,170179,6,0,P|147:338|208:344,2,112.5,4|0|2,0:0|0:0|0:0,0:0:0:0:
57,218,171404,2,0,L|-11:157,2,75,0|2|8,0:0|0:0|0:0,0:0:0:0:
245,168,172628,2,0,P|266:213|274:277,2,112.5,0|0|2,0:0|0:0|0:0,0:0:0:0:
322,108,173853,2,0,P|361:114|419:108,1,75,0|2,0:0|0:0,0:0:0:0:
479,62,174465,1,8,0:0:0:0:
493,256,175077,6,0,P|456:295|396:302,2,112.5,0|0|2,0:0|0:0|0:0,0:0:0:0:
410,203,176302,2,0,L|336:216,1,75,0|2,0:0|0:0,0:0:0:0:
240,233,176914,1,8,0:0:0:0:
148,199,177220,1,2,0:0:0:0:
135,102,177526,2,0,P|191:49|266:51,1,150,0|8,0:0|0:0,0:0:0:0:
224,139,178444,1,2,0:0:0:0:
148,199,178751,2,0,P|108:194|75:181,1,75,0|2,0:0|0:0,0:0:0:0:
50,275,179363,2,0,P|89:279|123:293,1,75,8|2,0:0|0:0,0:0:0:0:
218,276,179975,6,0,P|325:205|356:332,1,300,4|0,0:0|0:0,0:0:0:0:
483,180,181812,2,0,P|464:142|441:117,1,75,8|2,0:0|0:0,0:0:0:0:
346,99,182424,2,0,P|268:96|205:60,1,150,0|8,0:0|0:0,0:0:0:0:
109,66,183342,1,2,0:0:0:0:
19,105,183648,2,0,L|-4:140,2,37.5,0|0|2,0:0|0:0|0:0,0:0:0:0:
99,160,184261,2,0,P|137:171|169:192,1,75,8|2,0:0|0:0,0:0:0:0:
203,280,184873,6,0,P|254:235|255:157,1,150,0|8,0:0|0:0,0:0:0:0:
206,72,185791,2,0,L|159:60,2,37.5,2|0|0,0:0|0:0|0:0,0:0:0:0:
303,62,186404,1,2,0:0:0:0:
353,145,186710,2,0,P|358:186|359:226,1,75,8|2,0:0|0:0,0:0:0:0:
290,288,187322,2,0,L|133:259,1,150,0|8,0:0|0:0,0:0:0:0:
103,171,188240,1,2,0:0:0:0:
199,159,188546,2,0,L|278:174,2,75,0|2|8,0:0|0:0|0:0,0:0:0:0:
103,171,189465,1,2,0:0:0:0:
33,239,189771,6,0,P|40:273|42:313,1,75,4|2,0:0|0:0,0:0:0:0:
137,334,190383,1,8,0:0:0:0:
232,313,190689,2,0,L|328:307,1,75,2|0,0:0|0:0,0:0:0:0:
400,278,191302,1,2,0:0:0:0:
415,181,191608,2,0,P|415:139|429:104,1,75,8|2,0:0|0:0,0:0:0:0:
347,51,192220,6,0,L|258:65,1,75,0|2,0:0|0:0,0:0:0:0:
183,101,192832,1,8,0:0:0:0:
210,194,193138,1,2,0:0:0:0:
164,280,193444,2,0,L|186:312,2,37.5,0|0|2,0:0|0:0|0:0,0:0:0:0:
102,203,194057,2,0,P|65:194|28:197,1,75,8|2,0:0|0:0,0:0:0:0:
1,104,194669,6,0,P|82:91|149:36,1,150,0|8,0:0|0:0,0:0:0:0:
231,73,195587,1,2,0:0:0:0:
325,98,195893,2,0,P|363:113|391:131,1,75,0|2,0:0|0:0,0:0:0:0:
439,216,196506,2,0,L|386:300,1,75,8|2,0:0|0:0,0:0:0:0:
311,321,197118,2,0,P|240:299|168:317,1,150,0|8,0:0|0:0,0:0:0:0:
126,229,198036,1,2,0:0:0:0:
134,131,198342,2,0,P|169:142|201:163,1,75,0|2,0:0|0:0,0:0:0:0:
294,190,198955,2,0,L|373:174,1,75,8|2,0:0|0:0,0:0:0:0:
462,153,199567,6,0,B|488:211|428:236|462:299,1,150,4|8,0:0|0:0,0:0:0:0:
366,320,200485,2,0,L|346:365,2,37.5,2|0|0,0:0|0:0|0:0,0:0:0:0:
347,224,201097,1,2,0:0:0:0:
253,195,201404,2,0,P|191:237|182:260,1,75,8|2,0:0|0:0,0:0:0:0:
118,171,202016,2,0,P|182:118|245:100,1,150,0|8,0:0|0:0,0:0:0:0:
341,81,202934,2,0,L|327:41,2,37.5,2|0|0,0:0|0:0|0:0,0:0:0:0:
383,168,203546,1,2,0:0:0:0:
317,240,203853,2,0,P|276:242|234:238,1,75,8|2,0:0|0:0,0:0:0:0:
149,209,204465,6,0,L|93:263,2,75,0|2|8,0:0|0:0|0:0,0:0:0:0:
164,112,205383,2,0,P|152:72|135:42,1,75,2|0,0:0|0:0,0:0:0:0:
40,65,205995,1,2,0:0:0:0:
7,157,206302,2,0,L|15:242,1,75,8|2,0:0|0:0,0:0:0:0:
105,265,206914,2,0,P|175:243|247:264,1,150,0|8,0:0|0:0,0:0:0:0:
335,305,207832,2,0,L|326:352,2,37.5,2|0|0,0:0|0:0|0:0,0:0:0:0:
348,208,208444,2,0,P|400:215|447:211,1,75,0|8,0:0|0:0,0:0:0:0:
481,136,209057,1,2,0:0:0:0:
256,192,209363,12,2,213036,0:0:0:0:
257,193,214261,5,4,0:0:0:0:
257,193,224057,5,4,0:0:0:0:
255,108,233853,6,0,P|195:123|148:124,1,75,4|2,0:0|0:0,0:0:0:0:
97,171,234465,1,8,0:0:0:0:
113,266,234771,1,2,0:0:0:0:
209,253,235077,2,0,P|269:238|316:237,1,75,0|2,0:0|0:0,0:0:0:0:
379,234,235689,2,0,L|417:207,2,37.5,8|0|2,0:0|0:0|0:0,0:0:0:0:
412,325,236302,2,0,P|450:333|493:332,1,75,0|2,0:0|0:0,0:0:0:0:
505,237,236914,2,0,L|489:143,1,75,8|2,0:0|0:0,0:0:0:0:
447,76,237526,1,0,0:0:0:0:
349,74,237832,2,0,P|312:86|275:106,2,75,2|8|2,0:0|0:0|0:0,0:0:0:0:
350,171,238751,6,0,P|276:200|212:173,1,150,0|8,0:0|0:0,0:0:0:0:
141,110,239669,1,2,0:0:0:0:
56,159,239975,1,0,0:0:0:0:
81,253,240281,1,2,0:0:0:0:
177,263,240587,1,8,0:0:0:0:
214,174,240893,1,2,0:0:0:0:
280,102,241200,6,0,P|379:88|411:118,1,150,0|8,0:0|0:0,0:0:0:0:
459,201,242118,2,0,L|499:210,2,37.5,2|0|0,0:0|0:0|0:0,0:0:0:0:
378,255,242730,2,0,L|303:257,1,75,2|8,0:0|0:0,0:0:0:0:
231,192,243342,1,2,0:0:0:0:
231,192,243495,1,0,0:0:0:0:
231,192,243648,6,0,P|219:148|206:121,1,75,4|2,0:0|0:0,0:0:0:0:
133,56,244261,2,0,L|47:76,1,75,8|2,0:0|0:0,0:0:0:0:
20,161,244873,1,0,0:0:0:0:
30,257,245179,1,2,0:0:0:0:
97,327,245485,2,0,L|104:363,2,37.5,8|0|2,0:0|0:0|0:0,0:0:0:0:
161,254,246097,6,0,P|198:239|248:232,1,75,0|2,0:0|0:0,0:0:0:0:
329,221,246710,1,8,0:0:0:0:
357,127,247016,1,2,0:0:0:0:
301,46,247322,2,0,L|216:79,1,75,0|2,0:0|0:0,0:0:0:0:
137,100,247934,2,0,L|95:107,2,37.5,8|0|2,0:0|0:0|0:0,0:0:0:0:
200,173,248546,6,0,P|183:248|140:323,1,150,0|8,0:0|0:0,0:0:0:0:
240,344,249465,1,2,0:0:0:0:
337,344,249771,2,0,P|381:329|409:211,1,150,0|8,0:0|0:0,0:0:0:0:
398,144,250689,1,2,0:0:0:0:
322,82,250995,2,0,P|272:102|205:103,2,112.5,0|0|2,0:0|0:0|0:0,0:0:0:0:
411,43,252220,2,0,P|457:32|495:33,1,75,0|2,0:0|0:0,0:0:0:0:
457,125,252832,1,8,0:0:0:0:
394,200,253138,1,2,0:0:0:0:
394,200,253291,1,0,0:0:0:0:
394,200,253444,6,0,P|343:232|274:253,2,112.5,4|0|2,0:0|0:0|0:0,0:0:0:0:
381,103,254669,2,0,P|342:90|295:85,1,75,0|2,0:0|0:0,0:0:0:0:
211,78,255281,1,8,0:0:0:0:
44,178,255893,2,0,P|42:263|56:300,2,112.5,0|0|2,0:0|0:0|0:0,0:0:0:0:
125,123,257118,2,0,L|216:116,1,75,0|2,0:0|0:0,0:0:0:0:
297,117,257730,1,8,0:0:0:0:
322,310,258342,6,0,B|268:319|198:309,2,112.5,0|0|2,0:0|0:0|0:0,0:0:0:0:
362,221,259567,2,0,L|355:135,1,75,0|2,0:0|0:0,0:0:0:0:
451,128,260179,2,0,L|458:209,1,75,8|2,0:0|0:0,0:0:0:0:
417,291,260791,2,0,P|373:331|276:189,1,300
295,93,262322,2,0,P|254:83|209:78,1,75,2|8,0:0|0:0,0:0:0:0:
124,82,262934,1,2,0:0:0:0:
101,176,263240,6,0,P|140:306|277:284,1,300,4|0,0:0|0:0,0:0:0:0:
296,187,264771,2,0,P|328:171|376:159,1,75,2|8,0:0|0:0,0:0:0:0:
397,68,265383,1,2,0:0:0:0:
299,60,265689,2,0,B|219:69|163:124,1,150,0|8,0:0|0:0,0:0:0:0:
104,198,266608,2,0,L|87:289,1,75,2|0,0:0|0:0,0:0:0:0:
179,310,267220,2,0,L|174:348,2,37.5,2|0|8,0:0|0:0|0:0,0:0:0:0:
256,250,267832,1,2,0:0:0:0:
352,236,268138,6,0,P|409:195|406:112,1,150,0|8,0:0|0:0,0:0:0:0:
332,61,269057,2,0,L|254:79,1,75,2|0,0:0|0:0,0:0:0:0:
181,136,269669,2,0,L|103:154,1,75,2|8,0:0|0:0,0:0:0:0:
34,216,270281,1,2,0:0:0:0:
55,310,270587,2,0,P|89:318|134:315,2,75,0|2|8,0:0|0:0|0:0,0:0:0:0:
34,216,271506,2,0,L|-5:229,2,37.5,2|0|0,0:0|0:0|0:0,0:0:0:0:
52,120,272118,1,2,0:0:0:0:
123,53,272424,2,0,P|160:40|199:36,1,75,8|2,0:0|0:0,0:0:0:0:
220,128,273036,6,0,B|164:92|108:164|151:228|151:228|195:288|274:262|337:341|337:341|341:241|419:215|421:143|421:143|415:65|330:36|306:98,1,787.500030040742
121,49,277934,6,0,P|66:62|2:63,1,112.500004291535,0|2,0:0|0:0,0:0:0:0:
125,216,279159,2,0,P|179:202|244:202,1,112.500004291535,0|2,0:0|0:0,0:0:0:0:
256,192,280383,12,2,285281,0:0:0:0:
